osu file format v14

[General]
AudioFilename: audio.mp3
AudioLeadIn: 0
PreviewTime: 149847
Countdown: 0
SampleSet: Normal
StackLeniency: 0.7
Mode: 1
LetterboxInBreaks: 0
WidescreenStoryboard: 0

[Editor]
DistanceSpacing: 1
BeatDivisor: 4
GridSize: 32
TimelineZoom: 3.199998

[Metadata]
Title:More One Night (Assertive Hardcore Bootleg) [long ver.]
TitleUnicode:More One Night (Assertive Hardcore Bootleg) [long ver.]
Artist:Chito (CV: Minase Inori), Yuuri (CV: Kubo Yurika)
ArtistUnicode:チト (CV:水瀬いのり)、ユーリ (CV:久保ユリカ)
Creator:Rhytoly
Version:Blacken's Inner Oni
Source:少女終末旅行
Tags:Blackener Blacken Roger ][ -GH- ][ shoujo shuumatsu ryokou girls last tour ending remix
BeatmapID:1989546
BeatmapSetID:938144

[Difficulty]
HPDrainRate:5
CircleSize:5
OverallDifficulty:6
ApproachRate:10
SliderMultiplier:1.4
SliderTickRate:1

[Events]
//Background and Video events
0,0,"best bg ever lol.png",0,30
//Break Periods
//Storyboard Layer 0 (Background)
//Storyboard Layer 1 (Fail)
//Storyboard Layer 2 (Pass)
//Storyboard Layer 3 (Foreground)
//Storyboard Layer 4 (Overlay)
//Storyboard Sound Samples

[TimingPoints]
24,352.941176470588,4,1,0,75,1,0
24,-95.2380952380952,4,1,0,75,0,0
376,-90.9090909090909,4,1,0,75,0,0
729,-86.9565217391304,4,1,0,75,0,0
1082,-83.3333333333333,4,1,0,75,0,0
1435,-80,4,1,0,75,0,0
1788,-76.9230769230769,4,1,0,75,0,0
2141,-74.0740740740741,4,1,0,75,0,0
2494,-71.4285714285714,4,1,0,75,0,0
2847,-76.9230769230769,4,1,0,65,0,0
4259,-100,4,1,0,60,0,0
9465,-99.1735537190083,4,1,0,60,0,0
9553,-98.360655737705,4,1,0,60,0,0
9641,-97.5609756097562,4,1,0,60,0,0
9729,-96.7741935483872,4,1,0,60,0,0
9818,-96.0000000000001,4,1,0,60,0,0
9906,-95.2380952380953,4,1,0,75,0,0
13082,-94.3396226415094,4,1,0,75,0,0
13171,-93.4579439252336,4,1,0,75,0,0
13259,-92.5925925925926,4,1,0,75,0,0
13347,-91.743119266055,4,1,0,75,0,0
13435,-90.9090909090909,4,1,0,75,0,0
13788,-90.0900900900901,4,1,0,75,0,0
13876,-89.2857142857143,4,1,0,75,0,0
13965,-88.4955752212389,4,1,0,75,0,0
14053,-87.719298245614,4,1,0,75,0,0
14141,-86.9565217391304,4,1,0,75,0,0
15553,-100,4,1,0,70,0,0
25612,-98.0392156862745,4,1,0,70,0,0
25788,-95.2380952380952,4,1,0,70,0,0
25965,-93.4579439252336,4,1,0,70,0,0
26141,-90.9090909090909,4,1,0,70,0,0
26318,-89.2857142857143,4,1,0,70,0,0
26406,-88.4955752212389,4,1,0,70,0,0
26494,-86.9565217391304,4,1,0,70,0,0
26847,-95.2380952380952,4,1,0,75,0,0
35318,-92.5925925925926,4,1,0,75,0,0
35494,-91.743119266055,4,1,0,75,0,0
35582,-90.9090909090909,4,1,0,75,0,0
35671,-90.0900900900901,4,1,0,75,0,0
35759,-89.2857142857143,4,1,0,75,0,0
35847,-88.4955752212389,4,1,0,75,0,0
35935,-87.719298245614,4,1,0,75,0,0
36023,-86.9565217391304,4,1,0,75,0,0
36200,-86.4197530864198,4,1,0,75,0,0
36288,-85.8895705521472,4,1,0,75,0,0
36376,-85.3658536585366,4,1,0,75,0,0
36465,-84.8484848484848,4,1,0,75,0,0
36553,-84.3373493975904,4,1,0,75,0,0
36641,-83.8323353293413,4,1,0,75,0,0
36729,-83.3333333333333,4,1,0,75,0,0
36906,-81.9672131147541,4,1,0,75,0,0
37082,-80,4,1,0,75,0,0
37259,-78.7401574803149,4,1,0,75,0,0
37435,-76.9230769230769,4,1,0,75,0,0
37788,-98.0392156862745,4,1,0,70,0,0
37876,-96.1538461538461,4,1,0,70,0,0
37965,-94.3396226415094,4,1,0,70,0,0
38141,-90.9090909090909,4,1,0,80,0,1
48729,-90.9090909090909,4,1,0,70,0,0
49435,-90.9090909090909,4,1,0,80,0,1
60023,-93.0232558139535,4,1,0,65,0,0
60376,-95.2380952380952,4,1,0,65,0,0
60729,-97.5609756097561,4,1,0,65,0,0
61082,-100,4,1,0,65,0,0
62141,-100,4,1,0,70,0,0
74847,-98.0392156862745,4,1,0,70,0,0
75023,-96.1538461538461,4,1,0,70,0,0
75200,-94.3396226415094,4,1,0,70,0,0
75376,-92.5925925925926,4,1,0,70,0,0
75553,-90.9090909090909,4,1,0,70,0,0
75729,-89.2857142857143,4,1,0,70,0,0
75818,-88.4955752212389,4,1,0,70,0,0
75906,-86.9565217391304,4,1,0,70,0,0
76259,-95.2380952380952,4,1,0,75,0,0
84729,-92.5925925925926,4,1,0,75,0,0
84905,-91.743119266055,4,1,0,75,0,0
84993,-90.9090909090909,4,1,0,75,0,0
85082,-90.0900900900901,4,1,0,75,0,0
85170,-89.2857142857143,4,1,0,75,0,0
85258,-88.4955752212389,4,1,0,75,0,0
85346,-87.719298245614,4,1,0,75,0,0
85434,-86.9565217391304,4,1,0,75,0,0
85611,-86.4197530864198,4,1,0,75,0,0
85699,-85.8895705521472,4,1,0,75,0,0
85787,-85.3658536585366,4,1,0,75,0,0
85876,-84.8484848484848,4,1,0,75,0,0
85964,-84.3373493975904,4,1,0,75,0,0
86052,-83.8323353293413,4,1,0,75,0,0
86140,-83.3333333333333,4,1,0,75,0,0
86317,-81.9672131147541,4,1,0,75,0,0
86493,-80,4,1,0,75,0,0
86670,-78.7401574803149,4,1,0,75,0,0
86846,-76.9230769230769,4,1,0,75,0,0
87199,-98.0392156862745,4,1,0,70,0,0
87287,-96.1538461538461,4,1,0,70,0,0
87376,-94.3396226415094,4,1,0,70,0,0
87553,-90.9090909090909,4,1,0,80,0,1
98141,-90.9090909090909,4,1,0,70,0,0
98847,-90.9090909090909,4,1,0,80,0,1
109435,-93.0232558139535,4,1,0,65,0,0
109788,-95.2380952380952,4,1,0,65,0,0
110141,-97.5609756097561,4,1,0,65,0,0
110494,-100,4,1,0,65,0,0
110847,-90.9090909090909,4,1,0,75,0,0
111553,352.941176470588,4,1,0,75,1,8
111553,-90.9090909090909,4,1,0,75,0,8
112258,-95.2380952380952,4,1,0,75,0,0
112259,352.941176470588,4,1,0,75,1,0
112610,-90.9090909090909,4,1,0,75,0,0
112963,-86.9565217391304,4,1,0,75,0,0
113316,-83.3333333333333,4,1,0,75,0,0
113669,-80,4,1,0,75,0,0
114022,-76.9230769230769,4,1,0,75,0,0
114375,-74.0740740740741,4,1,0,75,0,0
115082,-95.2380952380952,4,1,0,75,0,0
117906,-90.9090909090909,4,1,0,75,0,0
120200,-90.0900900900901,4,1,0,75,0,0
120288,-89.2857142857143,4,1,0,75,0,0
120376,-88.4955752212389,4,1,0,75,0,0
120553,-87.719298245614,4,1,0,75,0,0
120729,-86.9565217391304,4,1,0,80,0,1
123023,-86.2068965517241,4,1,0,80,0,0
123111,-85.4700854700855,4,1,0,80,0,0
123200,-84.7457627118644,4,1,0,80,0,0
123376,-84.0336134453781,4,1,0,80,0,0
123553,-83.3333333333333,4,1,0,80,0,1
124964,-83.3333333333333,4,1,0,65,0,0
125141,-86.9565217391304,4,1,0,65,0,0
125317,-90.9090909090909,4,1,0,65,0,0
125494,-95.2380952380952,4,1,0,65,0,0
125670,-100,4,1,0,65,0,0
126729,-86.9565217391304,4,1,0,80,0,1
136964,-86.9565217391304,4,1,0,80,0,0
138023,-86.9565217391304,4,1,0,80,0,1
148258,-89.2857142857143,4,1,0,65,0,0
148611,-91.743119266055,4,1,0,65,0,0
148964,-94.3396226415094,4,1,0,65,0,0
149317,-97.0873786407767,4,1,0,65,0,0
149670,-100,4,1,0,65,0,0
149935,-99.009900990099,4,1,0,75,0,0
150023,-98.0392156862745,4,1,0,75,0,0
150200,-94.3396226415094,4,1,0,75,0,0
150376,-90.9090909090909,4,1,0,80,0,1
161141,-90.9090909090909,4,1,0,80,0,0
161670,-90.9090909090909,4,1,0,80,0,1
174023,-90.9090909090909,4,1,0,80,0,0

[HitObjects]
256,192,24,5,4,0:0:0:0:
256,192,376,1,4,0:0:0:0:
256,192,729,1,4,0:0:0:0:
256,192,1082,1,4,0:0:0:0:
256,192,1435,1,12,0:0:0:0:
256,192,1788,1,12,0:0:0:0:
256,192,2141,1,12,0:0:0:0:
256,192,2494,1,12,0:0:0:0:
256,192,2847,12,0,3906,0:0:0:0:
256,192,4259,5,4,0:0:0:0:
256,192,4435,1,8,0:0:0:0:
256,192,4612,1,0,0:0:0:0:
256,192,4788,1,8,0:0:0:0:
256,192,4876,1,0,0:0:0:0:
256,192,5053,1,8,0:0:0:0:
256,192,5229,1,8,0:0:0:0:
256,224,5671,1,0,0:0:0:0:
256,192,5847,1,8,0:0:0:0:
256,192,6023,1,0,0:0:0:0:
288,224,6200,1,8,0:0:0:0:
256,224,6288,1,0,0:0:0:0:
256,192,6465,1,8,0:0:0:0:
256,192,6641,1,0,0:0:0:0:
256,192,6729,1,8,0:0:0:0:
256,192,6906,1,8,0:0:0:0:
256,192,7082,5,0,0:0:0:0:
256,192,7258,1,8,0:0:0:0:
256,192,7435,1,0,0:0:0:0:
256,192,7611,1,8,0:0:0:0:
256,192,7699,1,0,0:0:0:0:
256,192,7876,1,8,0:0:0:0:
256,192,8052,1,8,0:0:0:0:
256,224,8494,1,0,0:0:0:0:
256,192,8670,1,8,0:0:0:0:
256,192,8846,1,0,0:0:0:0:
288,224,9023,1,8,0:0:0:0:
256,224,9111,1,0,0:0:0:0:
256,192,9288,1,8,0:0:0:0:
256,192,9465,1,0,0:0:0:0:
256,192,9553,1,8,0:0:0:0:
256,192,9641,1,0,0:0:0:0:
256,192,9729,1,8,0:0:0:0:
256,192,9818,1,8,0:0:0:0:
256,192,9906,1,0,0:0:0:0:
256,192,10082,1,8,0:0:0:0:
256,192,10259,1,0,0:0:0:0:
256,192,10435,1,8,0:0:0:0:
256,192,10523,1,0,0:0:0:0:
256,192,10612,1,0,0:0:0:0:
256,192,10700,1,8,0:0:0:0:
256,192,10876,1,8,0:0:0:0:
256,192,10965,1,0,0:0:0:0:
256,224,11141,1,8,0:0:0:0:
256,192,11229,1,8,0:0:0:0:
256,192,11318,1,0,0:0:0:0:
256,192,11494,1,8,0:0:0:0:
256,192,11671,1,0,0:0:0:0:
256,192,11847,1,8,0:0:0:0:
256,192,11935,1,8,0:0:0:0:
256,192,12023,1,0,0:0:0:0:
256,192,12112,1,8,0:0:0:0:
256,224,12288,1,8,0:0:0:0:
256,192,12376,1,0,0:0:0:0:
256,192,12553,1,8,0:0:0:0:
256,192,12641,1,8,0:0:0:0:
256,192,12729,1,0,0:0:0:0:
256,192,12906,1,8,0:0:0:0:
256,224,13082,1,0,0:0:0:0:
256,192,13171,1,0,0:0:0:0:
256,192,13259,1,8,0:0:0:0:
256,192,13347,1,8,0:0:0:0:
256,192,13435,1,0,0:0:0:0:
256,224,13612,1,8,0:0:0:0:
256,224,13788,1,0,0:0:0:0:
256,192,13876,1,0,0:0:0:0:
256,224,13965,1,8,0:0:0:0:
256,192,14053,1,0,0:0:0:0:
256,192,14141,1,8,0:0:0:0:
256,192,14229,1,8,0:0:0:0:
256,224,14318,1,8,0:0:0:0:
256,224,14406,1,8,0:0:0:0:
256,192,14494,1,0,0:0:0:0:
256,192,14582,1,0,0:0:0:0:
256,192,14671,1,0,0:0:0:0:
256,192,14759,1,0,0:0:0:0:
256,192,14847,1,8,0:0:0:0:
256,192,14935,1,8,0:0:0:0:
288,192,15023,1,0,0:0:0:0:
256,192,15112,1,0,0:0:0:0:
256,192,15200,1,8,0:0:0:0:
256,224,15553,1,4,0:0:0:0:
256,192,15729,1,0,0:0:0:0:
256,192,15818,1,0,0:0:0:0:
256,192,15906,1,8,0:0:0:0:
256,224,16082,1,8,0:0:0:0:
256,192,16259,1,0,0:0:0:0:
256,224,16347,1,0,0:0:0:0:
256,224,16523,1,8,0:0:0:0:
256,224,16612,1,0,0:0:0:0:
256,224,16788,1,8,0:0:0:0:
256,192,16965,1,0,0:0:0:0:
256,224,17141,1,0,0:0:0:0:
256,224,17229,1,0,0:0:0:0:
256,192,17318,1,8,0:0:0:0:
256,192,17406,1,8,0:0:0:0:
256,192,17494,1,0,0:0:0:0:
256,224,17671,1,8,0:0:0:0:
256,224,17847,1,0,0:0:0:0:
256,192,17935,1,0,0:0:0:0:
256,192,18023,1,8,0:0:0:0:
256,224,18200,1,8,0:0:0:0:
256,224,18376,1,0,0:0:0:0:
256,192,18553,1,8,0:0:0:0:
256,192,18641,1,8,0:0:0:0:
256,224,18729,1,0,0:0:0:0:
256,224,18906,1,8,0:0:0:0:
256,224,19082,1,0,0:0:0:0:
256,224,19171,1,8,0:0:0:0:
256,224,19347,1,8,0:0:0:0:
256,192,19435,1,0,0:0:0:0:
256,224,19612,1,8,0:0:0:0:
256,224,19788,1,0,0:0:0:0:
256,224,19965,1,0,0:0:0:0:
256,224,20053,1,8,0:0:0:0:
256,224,20141,1,0,0:0:0:0:
256,224,20318,1,0,0:0:0:0:
256,224,20494,1,8,0:0:0:0:
256,224,20582,1,8,0:0:0:0:
256,224,20671,1,0,0:0:0:0:
256,256,20759,1,0,0:0:0:0:
288,224,20847,1,8,0:0:0:0:
288,224,21023,1,8,0:0:0:0:
288,224,21112,1,8,0:0:0:0:
256,256,21200,1,0,0:0:0:0:
256,224,21376,1,0,0:0:0:0:
256,224,21465,1,0,0:0:0:0:
256,224,21553,1,8,0:0:0:0:
256,224,21729,1,8,0:0:0:0:
256,224,21906,1,0,0:0:0:0:
256,256,21994,1,0,0:0:0:0:
256,224,22171,1,8,0:0:0:0:
256,224,22259,1,0,0:0:0:0:
256,224,22435,1,8,0:0:0:0:
256,224,22612,1,0,0:0:0:0:
256,224,22788,1,8,0:0:0:0:
256,224,22876,1,0,0:0:0:0:
256,224,22965,1,8,0:0:0:0:
256,224,23053,1,8,0:0:0:0:
256,224,23141,1,0,0:0:0:0:
256,224,23318,1,8,0:0:0:0:
256,224,23494,1,0,0:0:0:0:
256,224,23582,1,0,0:0:0:0:
256,224,23671,1,8,0:0:0:0:
256,224,23847,1,8,0:0:0:0:
256,224,24023,1,0,0:0:0:0:
256,224,24200,1,0,0:0:0:0:
256,224,24288,1,0,0:0:0:0:
224,224,24376,1,8,0:0:0:0:
256,224,24465,1,8,0:0:0:0:
256,224,24553,1,0,0:0:0:0:
256,224,24729,1,8,0:0:0:0:
256,224,24906,1,0,0:0:0:0:
256,224,24994,1,0,0:0:0:0:
256,224,25082,1,8,0:0:0:0:
256,224,25171,1,0,0:0:0:0:
256,256,25259,1,8,0:0:0:0:
256,256,25347,1,8,0:0:0:0:
256,224,25435,1,4,0:0:0:0:
256,224,25612,1,4,0:0:0:0:
256,192,25788,1,12,0:0:0:0:
256,192,25965,1,4,0:0:0:0:
256,192,26141,1,12,0:0:0:0:
256,192,26318,1,0,0:0:0:0:
256,192,26406,1,0,0:0:0:0:
256,192,26494,1,8,0:0:0:0:
256,192,26847,1,4,0:0:0:0:
256,192,27023,1,0,0:0:0:0:
256,192,27112,1,0,0:0:0:0:
256,192,27200,1,8,0:0:0:0:
256,192,27376,1,0,0:0:0:0:
256,192,27465,1,8,0:0:0:0:
256,192,27553,1,0,0:0:0:0:
256,192,27641,1,0,0:0:0:0:
256,192,27729,1,8,0:0:0:0:
256,192,27906,1,0,0:0:0:0:
256,192,27994,1,8,0:0:0:0:
256,192,28082,1,8,0:0:0:0:
256,192,28171,1,0,0:0:0:0:
256,192,28259,1,8,0:0:0:0:
256,192,28347,1,0,0:0:0:0:
256,192,28435,1,8,0:0:0:0:
256,192,28523,1,8,0:0:0:0:
256,192,28612,1,0,0:0:0:0:
256,192,28700,1,8,0:0:0:0:
256,192,28788,1,0,0:0:0:0:
256,192,28876,1,0,0:0:0:0:
256,192,28965,1,8,0:0:0:0:
256,192,29141,1,0,0:0:0:0:
256,192,29229,1,8,0:0:0:0:
256,192,29318,1,0,0:0:0:0:
256,192,29406,1,8,0:0:0:0:
256,192,29494,1,8,0:0:0:0:
256,192,29671,1,0,0:0:0:0:
256,192,29759,1,8,0:0:0:0:
256,192,29847,1,0,0:0:0:0:
256,192,29935,1,0,0:0:0:0:
256,192,30023,1,8,0:0:0:0:
256,192,30200,1,0,0:0:0:0:
256,192,30288,1,8,0:0:0:0:
256,192,30376,1,8,0:0:0:0:
256,192,30465,1,0,0:0:0:0:
256,192,30553,1,8,0:0:0:0:
256,192,30729,1,0,0:0:0:0:
256,224,30818,1,8,0:0:0:0:
288,224,30906,1,0,0:0:0:0:
256,224,30994,1,0,0:0:0:0:
256,224,31082,1,8,0:0:0:0:
256,224,31171,1,8,0:0:0:0:
288,224,31259,1,0,0:0:0:0:
288,224,31347,1,0,0:0:0:0:
256,192,31435,1,8,0:0:0:0:
256,224,31788,1,8,0:0:0:0:
256,224,31876,1,0,0:0:0:0:
256,224,31965,1,0,0:0:0:0:
256,192,32053,1,8,0:0:0:0:
256,192,32141,1,0,0:0:0:0:
256,192,32318,1,8,0:0:0:0:
256,192,32494,1,0,0:0:0:0:
256,224,32582,1,8,0:0:0:0:
256,192,32671,1,8,0:0:0:0:
256,192,32759,1,0,0:0:0:0:
256,192,32847,1,8,0:0:0:0:
256,224,33023,1,8,0:0:0:0:
256,224,33112,1,8,0:0:0:0:
256,192,33200,1,0,0:0:0:0:
256,192,33288,1,8,0:0:0:0:
256,192,33376,1,8,0:0:0:0:
256,192,33553,1,0,0:0:0:0:
256,192,33641,1,8,0:0:0:0:
256,224,33729,1,0,0:0:0:0:
256,192,33817,1,0,0:0:0:0:
256,224,33906,1,8,0:0:0:0:
256,192,34082,1,0,0:0:0:0:
256,192,34171,1,8,0:0:0:0:
256,192,34259,1,0,0:0:0:0:
256,192,34347,1,8,0:0:0:0:
256,192,34435,1,8,0:0:0:0:
256,192,34612,1,8,0:0:0:0:
256,224,34700,1,8,0:0:0:0:
352,224,34788,1,0,0:0:0:0:
256,224,34876,1,8,0:0:0:0:
288,224,34965,1,0,0:0:0:0:
288,192,35141,1,8,0:0:0:0:
288,192,35318,1,4,0:0:0:0:
256,192,35494,1,8,0:0:0:0:
256,192,35582,1,0,0:0:0:0:
288,224,35671,1,8,0:0:0:0:
288,224,35759,1,8,0:0:0:0:
288,224,35847,1,8,0:0:0:0:
288,224,35935,1,8,0:0:0:0:
288,224,36023,1,4,0:0:0:0:
256,192,36200,1,8,0:0:0:0:
288,224,36288,1,0,0:0:0:0:
256,192,36376,1,8,0:0:0:0:
256,192,36465,1,8,0:0:0:0:
288,192,36553,1,0,0:0:0:0:
288,192,36641,1,0,0:0:0:0:
256,192,36729,1,12,0:0:0:0:
256,192,36906,1,0,0:0:0:0:
256,192,37082,1,12,0:0:0:0:
256,192,37259,1,0,0:0:0:0:
256,192,37435,1,12,0:0:0:0:
256,192,37788,1,0,0:0:0:0:
256,192,37876,1,0,0:0:0:0:
256,192,37965,1,8,0:0:0:0:
256,192,38141,1,4,0:0:0:0:
256,192,38318,1,0,0:0:0:0:
256,192,38406,1,0,0:0:0:0:
256,192,38494,1,8,0:0:0:0:
256,192,38671,1,0,0:0:0:0:
256,192,38759,1,0,0:0:0:0:
256,192,38847,1,8,0:0:0:0:
256,192,38935,1,8,0:0:0:0:
256,192,39112,1,8,0:0:0:0:
256,192,39200,1,0,0:0:0:0:
256,192,39376,1,8,0:0:0:0:
256,192,39553,1,0,0:0:0:0:
256,192,39729,1,8,0:0:0:0:
256,192,39818,1,8,0:0:0:0:
256,192,39906,1,0,0:0:0:0:
256,192,40082,1,8,0:0:0:0:
256,192,40259,1,0,0:0:0:0:
256,192,40435,1,0,0:0:0:0:
256,224,40523,1,0,0:0:0:0:
256,192,40612,1,8,0:0:0:0:
256,192,40700,1,0,0:0:0:0:
256,192,40788,1,8,0:0:0:0:
256,192,40876,1,8,0:0:0:0:
256,192,40965,1,0,0:0:0:0:
256,192,41141,1,0,0:0:0:0:
256,192,41229,1,0,0:0:0:0:
256,192,41318,1,8,0:0:0:0:
256,192,41494,1,0,0:0:0:0:
256,192,41582,1,0,0:0:0:0:
256,192,41671,1,8,0:0:0:0:
256,192,41759,1,0,0:0:0:0:
256,192,41935,1,0,0:0:0:0:
256,192,42023,1,8,0:0:0:0:
256,192,42200,1,8,0:0:0:0:
256,192,42376,1,0,0:0:0:0:
256,192,42553,1,8,0:0:0:0:
256,192,42641,1,8,0:0:0:0:
256,192,42729,1,0,0:0:0:0:
256,192,42906,1,8,0:0:0:0:
256,192,43082,1,0,0:0:0:0:
256,192,43259,1,8,0:0:0:0:
288,192,43347,1,0,0:0:0:0:
256,192,43435,1,8,0:0:0:0:
288,192,43523,1,0,0:0:0:0:
256,192,43612,1,8,0:0:0:0:
256,192,43700,1,8,0:0:0:0:
256,192,43788,1,4,0:0:0:0:
256,192,43965,1,0,0:0:0:0:
256,192,44053,1,0,0:0:0:0:
256,192,44141,1,8,0:0:0:0:
256,192,44318,1,0,0:0:0:0:
256,192,44406,1,0,0:0:0:0:
256,192,44494,1,8,0:0:0:0:
256,192,44582,1,8,0:0:0:0:
256,192,44759,1,8,0:0:0:0:
256,192,44847,1,0,0:0:0:0:
256,192,45023,1,8,0:0:0:0:
256,192,45200,1,0,0:0:0:0:
256,192,45376,1,8,0:0:0:0:
256,192,45465,1,8,0:0:0:0:
256,192,45553,1,0,0:0:0:0:
256,192,45729,1,8,0:0:0:0:
256,192,45906,1,0,0:0:0:0:
256,192,45994,1,8,0:0:0:0:
256,192,46171,1,8,0:0:0:0:
256,192,46259,1,0,0:0:0:0:
256,192,46435,1,8,0:0:0:0:
256,192,46612,1,0,0:0:0:0:
256,192,46788,1,0,0:0:0:0:
256,192,46876,1,0,0:0:0:0:
288,192,46965,1,8,0:0:0:0:
256,192,47141,1,0,0:0:0:0:
256,192,47318,1,8,0:0:0:0:
256,192,47406,1,8,0:0:0:0:
256,192,47494,1,0,0:0:0:0:
256,192,47582,1,0,0:0:0:0:
256,192,47671,1,8,0:0:0:0:
256,192,47847,1,0,0:0:0:0:
256,224,47935,1,0,0:0:0:0:
256,192,48023,1,8,0:0:0:0:
256,192,48112,1,0,0:0:0:0:
256,224,48200,1,8,0:0:0:0:
256,224,48288,1,8,0:0:0:0:
256,192,48376,1,0,0:0:0:0:
256,192,48553,1,0,0:0:0:0:
256,192,48729,1,12,0:0:0:0:
256,192,49082,1,0,0:0:0:0:
256,192,49259,1,8,0:0:0:0:
256,192,49435,1,4,0:0:0:0:
256,192,49612,1,0,0:0:0:0:
256,192,49700,1,0,0:0:0:0:
256,224,49788,1,8,0:0:0:0:
256,192,49965,1,0,0:0:0:0:
256,192,50053,1,8,0:0:0:0:
256,192,50141,1,0,0:0:0:0:
256,192,50229,1,8,0:0:0:0:
256,192,50318,1,0,0:0:0:0:
256,192,50406,1,0,0:0:0:0:
256,192,50494,1,8,0:0:0:0:
256,224,50582,1,0,0:0:0:0:
256,192,50671,1,8,0:0:0:0:
256,192,50759,1,8,0:0:0:0:
256,224,50847,1,0,0:0:0:0:
256,192,51023,1,8,0:0:0:0:
256,192,51112,1,8,0:0:0:0:
256,192,51200,1,0,0:0:0:0:
256,192,51376,1,0,0:0:0:0:
256,192,51553,1,8,0:0:0:0:
224,192,51641,1,0,0:0:0:0:
256,192,51729,1,8,0:0:0:0:
256,192,51818,1,8,0:0:0:0:
256,192,51906,1,0,0:0:0:0:
256,192,52082,1,8,0:0:0:0:
256,192,52259,1,0,0:0:0:0:
256,192,52435,1,8,0:0:0:0:
256,192,52523,1,8,0:0:0:0:
256,192,52612,1,0,0:0:0:0:
256,192,52700,1,8,0:0:0:0:
256,192,52788,1,0,0:0:0:0:
256,192,52876,1,0,0:0:0:0:
256,192,52965,1,8,0:0:0:0:
256,192,53141,1,0,0:0:0:0:
256,192,53229,1,0,0:0:0:0:
256,192,53318,1,8,0:0:0:0:
256,192,53494,1,8,0:0:0:0:
256,192,53671,1,0,0:0:0:0:
256,192,53759,1,0,0:0:0:0:
256,192,53847,1,8,0:0:0:0:
256,192,53935,1,8,0:0:0:0:
256,192,54023,1,0,0:0:0:0:
256,192,54112,1,8,0:0:0:0:
256,192,54200,1,0,0:0:0:0:
256,192,54376,1,8,0:0:0:0:
256,192,54553,1,0,0:0:0:0:
256,192,54641,1,0,0:0:0:0:
256,192,54729,1,8,0:0:0:0:
256,192,54818,1,0,0:0:0:0:
256,192,54906,1,8,0:0:0:0:
256,192,54994,1,8,0:0:0:0:
256,192,55082,1,4,0:0:0:0:
256,192,55259,1,0,0:0:0:0:
256,192,55347,1,0,0:0:0:0:
256,224,55435,1,8,0:0:0:0:
256,192,55612,1,0,0:0:0:0:
256,192,55700,1,8,0:0:0:0:
256,192,55788,1,0,0:0:0:0:
256,192,55876,1,8,0:0:0:0:
256,192,55965,1,8,0:0:0:0:
256,192,56053,1,0,0:0:0:0:
256,192,56141,1,8,0:0:0:0:
256,224,56229,1,0,0:0:0:0:
256,192,56318,1,8,0:0:0:0:
256,192,56406,1,8,0:0:0:0:
256,224,56494,1,0,0:0:0:0:
256,192,56670,1,8,0:0:0:0:
256,192,56759,1,8,0:0:0:0:
256,192,56847,1,0,0:0:0:0:
256,192,57023,1,8,0:0:0:0:
256,192,57200,1,0,0:0:0:0:
224,192,57288,1,0,0:0:0:0:
256,192,57376,1,8,0:0:0:0:
256,192,57465,1,8,0:0:0:0:
256,192,57553,1,0,0:0:0:0:
256,192,57729,1,8,0:0:0:0:
224,192,57906,1,0,0:0:0:0:
224,192,57994,1,0,0:0:0:0:
256,192,58082,1,0,0:0:0:0:
256,192,58171,1,0,0:0:0:0:
256,192,58259,1,8,0:0:0:0:
256,192,58435,1,0,0:0:0:0:
256,192,58612,1,8,0:0:0:0:
256,192,58700,1,8,0:0:0:0:
256,224,58788,1,0,0:0:0:0:
256,224,58876,1,0,0:0:0:0:
256,192,58965,1,8,0:0:0:0:
256,192,59141,1,0,0:0:0:0:
256,192,59318,1,8,0:0:0:0:
256,224,59494,1,8,0:0:0:0:
256,192,59582,1,8,0:0:0:0:
256,224,59671,1,0,0:0:0:0:
256,224,59847,1,8,0:0:0:0:
256,224,60023,1,0,0:0:0:0:
256,192,60376,5,0,0:0:0:0:
256,192,60729,1,8,0:0:0:0:
256,192,61082,1,8,0:0:0:0:
256,192,61612,5,0,0:0:0:0:
256,192,61700,1,0,0:0:0:0:
256,192,61788,1,8,0:0:0:0:
224,192,62141,1,0,0:0:0:0:
256,192,62318,1,8,0:0:0:0:
256,192,62406,1,8,0:0:0:0:
256,192,62494,1,0,0:0:0:0:
256,192,62671,1,8,0:0:0:0:
256,192,62847,1,0,0:0:0:0:
256,192,63023,1,8,0:0:0:0:
256,192,63112,1,0,0:0:0:0:
256,192,63288,1,0,0:0:0:0:
256,192,63376,1,8,0:0:0:0:
224,192,63553,1,0,0:0:0:0:
256,192,63729,1,0,0:0:0:0:
256,192,63818,1,0,0:0:0:0:
256,192,63906,1,8,0:0:0:0:
256,192,63994,1,0,0:0:0:0:
256,192,64082,1,8,0:0:0:0:
256,192,64171,1,8,0:0:0:0:
256,192,64259,1,0,0:0:0:0:
256,192,64612,1,0,0:0:0:0:
256,192,64700,1,0,0:0:0:0:
256,192,64788,1,8,0:0:0:0:
256,192,64965,1,4,0:0:0:0:
256,192,65141,1,0,0:0:0:0:
256,192,65229,1,0,0:0:0:0:
256,192,65318,1,8,0:0:0:0:
256,192,65494,1,0,0:0:0:0:
256,192,65671,1,8,0:0:0:0:
256,192,65759,1,0,0:0:0:0:
256,192,65847,1,0,0:0:0:0:
256,192,65935,1,8,0:0:0:0:
256,192,66023,1,0,0:0:0:0:
256,192,66200,1,8,0:0:0:0:
256,192,66376,1,0,0:0:0:0:
256,192,66553,1,8,0:0:0:0:
256,192,66641,1,8,0:0:0:0:
256,192,66729,1,0,0:0:0:0:
256,192,66906,1,0,0:0:0:0:
256,192,67082,1,8,0:0:0:0:
256,192,67259,1,0,0:0:0:0:
256,192,67347,1,0,0:0:0:0:
256,192,67435,1,8,0:0:0:0:
256,192,67523,1,0,0:0:0:0:
256,192,67612,1,8,0:0:0:0:
256,192,67700,1,8,0:0:0:0:
256,192,67788,1,0,0:0:0:0:
256,192,67965,1,0,0:0:0:0:
256,192,68053,1,0,0:0:0:0:
256,192,68141,1,8,0:0:0:0:
256,192,68318,1,0,0:0:0:0:
256,192,68494,1,8,0:0:0:0:
256,192,68582,1,8,0:0:0:0:
256,192,68671,1,0,0:0:0:0:
256,192,68759,1,8,0:0:0:0:
256,192,68847,1,0,0:0:0:0:
256,192,69023,1,8,0:0:0:0:
256,192,69200,1,0,0:0:0:0:
256,192,69376,1,8,0:0:0:0:
256,192,69464,1,0,0:0:0:0:
256,192,69553,1,8,0:0:0:0:
256,192,69729,1,0,0:0:0:0:
256,192,69906,1,8,0:0:0:0:
256,192,69994,1,8,0:0:0:0:
256,192,70082,1,0,0:0:0:0:
256,192,70171,1,0,0:0:0:0:
256,192,70259,1,8,0:0:0:0:
256,192,70347,1,0,0:0:0:0:
256,192,70435,1,8,0:0:0:0:
256,192,70523,1,8,0:0:0:0:
256,192,70612,1,0,0:0:0:0:
256,192,70788,1,0,0:0:0:0:
256,192,70876,1,0,0:0:0:0:
256,192,70965,1,8,0:0:0:0:
256,192,71141,1,0,0:0:0:0:
256,192,71318,1,8,0:0:0:0:
256,192,71406,1,0,0:0:0:0:
288,192,71494,1,0,0:0:0:0:
256,192,71582,1,8,0:0:0:0:
256,192,71671,1,0,0:0:0:0:
256,192,71847,1,8,0:0:0:0:
256,192,72023,1,0,0:0:0:0:
256,192,72200,1,8,0:0:0:0:
256,192,72288,1,0,0:0:0:0:
256,192,72376,1,8,0:0:0:0:
256,192,72465,1,8,0:0:0:0:
256,192,72553,1,0,0:0:0:0:
256,192,72641,1,0,0:0:0:0:
256,192,72729,1,8,0:0:0:0:
256,192,72906,1,0,0:0:0:0:
256,192,72994,1,0,0:0:0:0:
256,192,73082,1,8,0:0:0:0:
256,192,73259,1,8,0:0:0:0:
256,192,73435,1,0,0:0:0:0:
256,192,73523,1,0,0:0:0:0:
256,192,73612,1,0,0:0:0:0:
256,192,73700,1,0,0:0:0:0:
256,192,73788,1,8,0:0:0:0:
256,192,73965,1,0,0:0:0:0:
256,192,74141,1,8,0:0:0:0:
256,192,74229,1,8,0:0:0:0:
256,192,74318,1,0,0:0:0:0:
256,192,74406,1,0,0:0:0:0:
256,192,74494,1,8,0:0:0:0:
256,192,74671,1,0,0:0:0:0:
256,192,74847,1,12,0:0:0:0:
256,192,75023,1,12,0:0:0:0:
256,192,75200,1,4,0:0:0:0:
256,192,75376,1,4,0:0:0:0:
256,192,75553,1,12,0:0:0:0:
256,192,75729,1,0,0:0:0:0:
256,192,75818,1,0,0:0:0:0:
256,192,75906,1,8,0:0:0:0:
256,192,76259,1,4,0:0:0:0:
256,192,76435,1,0,0:0:0:0:
256,192,76524,1,8,0:0:0:0:
256,192,76612,1,8,0:0:0:0:
256,192,76788,1,0,0:0:0:0:
256,192,76877,1,8,0:0:0:0:
256,192,76965,1,8,0:0:0:0:
256,192,77053,1,0,0:0:0:0:
256,192,77141,1,8,0:0:0:0:
256,192,77318,1,0,0:0:0:0:
256,192,77406,1,8,0:0:0:0:
256,192,77494,1,0,0:0:0:0:
256,192,77583,1,0,0:0:0:0:
256,192,77671,1,8,0:0:0:0:
256,192,77759,1,0,0:0:0:0:
256,192,77847,1,8,0:0:0:0:
256,192,77935,1,8,0:0:0:0:
256,192,78024,1,0,0:0:0:0:
256,192,78112,1,8,0:0:0:0:
256,192,78200,1,8,0:0:0:0:
256,192,78288,1,0,0:0:0:0:
256,192,78377,1,8,0:0:0:0:
256,192,78553,1,0,0:0:0:0:
256,192,78641,1,8,0:0:0:0:
256,192,78729,1,8,0:0:0:0:
256,192,78818,1,0,0:0:0:0:
256,192,78906,1,8,0:0:0:0:
256,192,79083,1,0,0:0:0:0:
256,192,79171,1,8,0:0:0:0:
256,192,79259,1,0,0:0:0:0:
256,192,79347,1,0,0:0:0:0:
256,192,79435,1,8,0:0:0:0:
256,192,79612,1,0,0:0:0:0:
256,192,79700,1,8,0:0:0:0:
256,192,79788,1,0,0:0:0:0:
256,192,79877,1,8,0:0:0:0:
256,192,79965,1,8,0:0:0:0:
256,192,80141,1,0,0:0:0:0:
256,224,80230,1,8,0:0:0:0:
256,224,80318,1,8,0:0:0:0:
288,224,80406,1,0,0:0:0:0:
256,224,80494,1,8,0:0:0:0:
256,224,80582,1,8,0:0:0:0:
288,224,80671,1,0,0:0:0:0:
288,224,80759,1,0,0:0:0:0:
256,192,80847,1,8,0:0:0:0:
256,224,81200,1,8,0:0:0:0:
256,224,81288,1,8,0:0:0:0:
256,224,81377,1,0,0:0:0:0:
256,192,81465,1,8,0:0:0:0:
256,192,81553,1,0,0:0:0:0:
256,192,81730,1,8,0:0:0:0:
256,192,81906,1,8,0:0:0:0:
256,224,81994,1,8,0:0:0:0:
256,192,82083,1,0,0:0:0:0:
256,192,82171,1,8,0:0:0:0:
256,192,82259,1,8,0:0:0:0:
256,224,82435,1,0,0:0:0:0:
256,224,82524,1,8,0:0:0:0:
256,192,82612,1,0,0:0:0:0:
256,192,82700,1,8,0:0:0:0:
256,192,82788,1,8,0:0:0:0:
256,192,82965,1,0,0:0:0:0:
256,192,83053,1,8,0:0:0:0:
256,224,83141,1,0,0:0:0:0:
256,192,83229,1,0,0:0:0:0:
256,224,83318,1,8,0:0:0:0:
256,192,83494,1,0,0:0:0:0:
256,192,83583,1,8,0:0:0:0:
256,192,83671,1,8,0:0:0:0:
256,192,83759,1,0,0:0:0:0:
256,192,83847,1,8,0:0:0:0:
256,192,84024,1,8,0:0:0:0:
256,224,84112,1,8,0:0:0:0:
352,224,84200,1,0,0:0:0:0:
256,224,84288,1,8,0:0:0:0:
288,224,84377,1,0,0:0:0:0:
288,192,84553,1,8,0:0:0:0:
288,192,84730,1,4,0:0:0:0:
256,192,84906,1,8,0:0:0:0:
256,192,84994,1,0,0:0:0:0:
288,224,85082,1,8,0:0:0:0:
288,224,85171,1,8,0:0:0:0:
288,224,85259,1,8,0:0:0:0:
288,224,85347,1,8,0:0:0:0:
288,224,85435,1,4,0:0:0:0:
256,192,85612,1,8,0:0:0:0:
288,224,85700,1,0,0:0:0:0:
256,192,85788,1,8,0:0:0:0:
256,192,85877,1,8,0:0:0:0:
288,192,85965,1,0,0:0:0:0:
256,224,86053,1,0,0:0:0:0:
256,192,86141,1,12,0:0:0:0:
256,192,86318,1,0,0:0:0:0:
256,192,86494,1,12,0:0:0:0:
256,192,86671,1,0,0:0:0:0:
256,192,86847,1,12,0:0:0:0:
256,192,87200,1,0,0:0:0:0:
256,192,87288,1,0,0:0:0:0:
256,192,87377,1,8,0:0:0:0:
256,192,87553,1,4,0:0:0:0:
256,192,87730,1,0,0:0:0:0:
256,192,87818,1,0,0:0:0:0:
256,192,87906,1,8,0:0:0:0:
256,192,88083,1,0,0:0:0:0:
256,192,88259,1,8,0:0:0:0:
256,192,88347,1,0,0:0:0:0:
256,192,88435,1,0,0:0:0:0:
256,192,88524,1,8,0:0:0:0:
256,192,88612,1,0,0:0:0:0:
256,192,88788,1,8,0:0:0:0:
256,192,88965,1,0,0:0:0:0:
256,192,89141,1,8,0:0:0:0:
256,192,89230,1,8,0:0:0:0:
256,192,89318,1,0,0:0:0:0:
256,192,89494,1,8,0:0:0:0:
256,192,89671,1,0,0:0:0:0:
256,192,89847,1,0,0:0:0:0:
256,224,89935,1,0,0:0:0:0:
256,192,90024,1,8,0:0:0:0:
256,192,90112,1,0,0:0:0:0:
256,192,90200,1,8,0:0:0:0:
256,192,90288,1,8,0:0:0:0:
256,192,90377,1,0,0:0:0:0:
256,192,90553,1,0,0:0:0:0:
256,192,90641,1,0,0:0:0:0:
256,192,90730,1,8,0:0:0:0:
256,192,90906,1,0,0:0:0:0:
256,192,91083,1,8,0:0:0:0:
256,192,91171,1,8,0:0:0:0:
256,192,91259,1,0,0:0:0:0:
256,192,91347,1,8,0:0:0:0:
256,192,91435,1,0,0:0:0:0:
256,192,91612,1,8,0:0:0:0:
256,192,91788,1,0,0:0:0:0:
256,192,91965,1,8,0:0:0:0:
256,192,92053,1,8,0:0:0:0:
256,192,92141,1,0,0:0:0:0:
256,192,92318,1,8,0:0:0:0:
256,192,92494,1,0,0:0:0:0:
256,192,92671,1,8,0:0:0:0:
288,192,92759,1,0,0:0:0:0:
256,192,92847,1,8,0:0:0:0:
288,192,92935,1,0,0:0:0:0:
256,192,93024,1,8,0:0:0:0:
256,192,93112,1,8,0:0:0:0:
256,192,93200,1,4,0:0:0:0:
256,192,93377,1,0,0:0:0:0:
256,192,93465,1,0,0:0:0:0:
256,192,93553,1,8,0:0:0:0:
256,192,93730,1,0,0:0:0:0:
256,192,93906,1,8,0:0:0:0:
256,192,93994,1,8,0:0:0:0:
256,192,94083,1,0,0:0:0:0:
256,192,94171,1,0,0:0:0:0:
256,192,94259,1,8,0:0:0:0:
256,192,94435,1,8,0:0:0:0:
256,192,94523,1,8,0:0:0:0:
256,192,94612,1,0,0:0:0:0:
256,192,94788,1,8,0:0:0:0:
256,192,94877,1,0,0:0:0:0:
256,192,94965,1,8,0:0:0:0:
256,192,95141,1,0,0:0:0:0:
256,192,95230,1,0,0:0:0:0:
256,192,95318,1,8,0:0:0:0:
256,192,95406,1,8,0:0:0:0:
256,192,95494,1,0,0:0:0:0:
256,192,95582,1,0,0:0:0:0:
256,192,95671,1,8,0:0:0:0:
256,192,95847,1,8,0:0:0:0:
256,192,96024,1,0,0:0:0:0:
256,192,96200,1,0,0:0:0:0:
256,192,96288,1,0,0:0:0:0:
288,192,96377,1,8,0:0:0:0:
256,192,96553,1,0,0:0:0:0:
256,192,96730,1,8,0:0:0:0:
256,192,96818,1,8,0:0:0:0:
256,192,96906,1,0,0:0:0:0:
256,192,96994,1,0,0:0:0:0:
256,192,97083,1,8,0:0:0:0:
256,192,97259,1,0,0:0:0:0:
256,224,97347,1,0,0:0:0:0:
256,192,97435,1,8,0:0:0:0:
256,192,97524,1,0,0:0:0:0:
256,224,97612,1,8,0:0:0:0:
256,224,97700,1,8,0:0:0:0:
256,192,97788,1,0,0:0:0:0:
256,192,97965,1,0,0:0:0:0:
256,192,98141,1,12,0:0:0:0:
256,192,98494,1,0,0:0:0:0:
256,192,98582,1,0,0:0:0:0:
256,192,98671,1,8,0:0:0:0:
256,192,98847,1,4,0:0:0:0:
256,192,99024,1,0,0:0:0:0:
256,192,99112,1,0,0:0:0:0:
256,192,99200,1,8,0:0:0:0:
256,192,99377,1,0,0:0:0:0:
256,192,99553,1,8,0:0:0:0:
256,192,99641,1,8,0:0:0:0:
256,192,99729,1,0,0:0:0:0:
256,192,99818,1,8,0:0:0:0:
256,192,99906,1,0,0:0:0:0:
256,192,100082,1,8,0:0:0:0:
256,192,100171,1,8,0:0:0:0:
256,192,100259,1,0,0:0:0:0:
224,192,100435,1,0,0:0:0:0:
224,192,100523,1,0,0:0:0:0:
256,192,100612,1,8,0:0:0:0:
256,192,100788,1,8,0:0:0:0:
256,192,100965,1,0,0:0:0:0:
256,192,101141,1,0,0:0:0:0:
256,224,101229,1,0,0:0:0:0:
256,192,101318,1,8,0:0:0:0:
256,192,101406,1,0,0:0:0:0:
256,192,101494,1,8,0:0:0:0:
256,192,101582,1,8,0:0:0:0:
256,192,101671,1,0,0:0:0:0:
256,192,101847,1,0,0:0:0:0:
256,192,101935,1,0,0:0:0:0:
256,192,102024,1,8,0:0:0:0:
256,192,102200,1,0,0:0:0:0:
256,192,102377,1,8,0:0:0:0:
256,192,102465,1,0,0:0:0:0:
256,192,102553,1,0,0:0:0:0:
256,192,102641,1,8,0:0:0:0:
256,192,102729,1,0,0:0:0:0:
256,192,102906,1,8,0:0:0:0:
256,192,102994,1,8,0:0:0:0:
256,192,103082,1,0,0:0:0:0:
256,192,103259,1,0,0:0:0:0:
256,192,103347,1,0,0:0:0:0:
256,192,103435,1,8,0:0:0:0:
256,192,103612,1,8,0:0:0:0:
256,192,103788,1,0,0:0:0:0:
256,192,103876,1,0,0:0:0:0:
256,192,103965,1,8,0:0:0:0:
288,192,104053,1,0,0:0:0:0:
256,192,104141,1,8,0:0:0:0:
288,192,104229,1,0,0:0:0:0:
256,192,104318,1,8,0:0:0:0:
256,192,104406,1,8,0:0:0:0:
256,192,104494,1,4,0:0:0:0:
256,192,104671,1,0,0:0:0:0:
256,192,104759,1,0,0:0:0:0:
256,192,104847,1,8,0:0:0:0:
256,192,105024,1,0,0:0:0:0:
256,192,105112,1,0,0:0:0:0:
256,192,105200,1,8,0:0:0:0:
256,192,105288,1,8,0:0:0:0:
256,192,105377,1,0,0:0:0:0:
256,192,105465,1,8,0:0:0:0:
256,192,105553,1,0,0:0:0:0:
256,192,105729,1,8,0:0:0:0:
256,192,105818,1,8,0:0:0:0:
256,192,105906,1,0,0:0:0:0:
256,192,106082,1,0,0:0:0:0:
256,192,106171,1,0,0:0:0:0:
256,192,106259,1,8,0:0:0:0:
256,192,106435,1,8,0:0:0:0:
256,192,106612,1,0,0:0:0:0:
256,192,106700,1,8,0:0:0:0:
256,192,106788,1,0,0:0:0:0:
256,192,106877,1,0,0:0:0:0:
256,192,106965,1,8,0:0:0:0:
224,160,107053,1,0,0:0:0:0:
256,192,107141,1,8,0:0:0:0:
256,192,107229,1,8,0:0:0:0:
256,192,107318,1,0,0:0:0:0:
288,192,107494,1,8,0:0:0:0:
256,192,107582,1,8,0:0:0:0:
256,192,107671,1,0,0:0:0:0:
256,192,107759,1,0,0:0:0:0:
256,192,107847,1,8,0:0:0:0:
256,192,108023,1,0,0:0:0:0:
256,192,108200,1,0,0:0:0:0:
256,192,108288,1,0,0:0:0:0:
256,192,108377,1,8,0:0:0:0:
256,192,108465,1,8,0:0:0:0:
256,192,108553,1,0,0:0:0:0:
256,224,108641,1,0,0:0:0:0:
256,192,108729,1,8,0:0:0:0:
256,192,108818,1,0,0:0:0:0:
256,224,108906,1,8,0:0:0:0:
256,224,108994,5,8,0:0:0:0:
256,192,109082,1,0,0:0:0:0:
256,192,109259,1,0,0:0:0:0:
256,224,109435,5,12,0:0:0:0:
256,192,109788,5,0,0:0:0:0:
256,192,110141,1,8,0:0:0:0:
256,192,110494,1,8,0:0:0:0:
256,192,110847,1,0,0:0:0:0:
288,192,110935,1,8,0:0:0:0:
256,192,111023,1,0,0:0:0:0:
256,192,111112,1,0,0:0:0:0:
256,192,111200,1,8,0:0:0:0:
256,192,111288,1,8,0:0:0:0:
320,192,111376,1,0,0:0:0:0:
256,192,111465,1,0,0:0:0:0:
256,192,111553,1,8,0:0:0:0:
256,192,111641,1,8,0:0:0:0:
256,192,111729,1,8,0:0:0:0:
256,192,111818,1,8,0:0:0:0:
256,192,111906,1,0,0:0:0:0:
256,192,112259,1,4,0:0:0:0:
256,192,112611,1,4,0:0:0:0:
256,192,112964,1,4,0:0:0:0:
256,192,113317,1,4,0:0:0:0:
256,192,113670,1,12,0:0:0:0:
256,192,114023,1,12,0:0:0:0:
256,192,114376,1,12,0:0:0:0:
288,192,115082,1,4,0:0:0:0:
352,192,115259,1,0,0:0:0:0:
352,192,115347,1,0,0:0:0:0:
256,192,115435,1,8,0:0:0:0:
256,192,115611,1,8,0:0:0:0:
288,192,115788,1,4,0:0:0:0:
352,192,115964,1,0,0:0:0:0:
352,192,116052,1,0,0:0:0:0:
256,192,116140,1,8,0:0:0:0:
256,192,116316,1,8,0:0:0:0:
288,192,116493,1,4,0:0:0:0:
256,192,116670,1,8,0:0:0:0:
256,192,116847,1,4,0:0:0:0:
256,224,117023,1,8,0:0:0:0:
256,192,117200,1,4,0:0:0:0:
256,192,117553,1,8,0:0:0:0:
288,192,117906,1,4,0:0:0:0:
352,192,118083,1,0,0:0:0:0:
352,192,118171,1,8,0:0:0:0:
256,192,118259,1,8,0:0:0:0:
256,192,118435,1,8,0:0:0:0:
288,192,118612,1,4,0:0:0:0:
352,192,118788,1,0,0:0:0:0:
352,192,118876,1,8,0:0:0:0:
256,192,118964,1,8,0:0:0:0:
256,192,119140,1,8,0:0:0:0:
288,192,119317,1,4,0:0:0:0:
256,192,119494,1,8,0:0:0:0:
256,192,119671,1,4,0:0:0:0:
256,224,119847,1,8,0:0:0:0:
256,192,120024,1,4,0:0:0:0:
256,192,120200,1,8,0:0:0:0:
256,192,120288,1,8,0:0:0:0:
256,192,120376,1,0,0:0:0:0:
256,192,120553,1,8,0:0:0:0:
288,192,120729,1,4,0:0:0:0:
352,192,120906,1,0,0:0:0:0:
256,192,121082,1,8,0:0:0:0:
256,192,121170,1,0,0:0:0:0:
256,192,121258,1,8,0:0:0:0:
256,192,121347,1,8,0:0:0:0:
288,192,121435,1,4,0:0:0:0:
352,192,121611,1,8,0:0:0:0:
256,192,121787,1,0,0:0:0:0:
256,192,121876,1,0,0:0:0:0:
256,192,121964,1,8,0:0:0:0:
256,192,122053,1,8,0:0:0:0:
288,192,122140,1,4,0:0:0:0:
256,192,122317,1,8,0:0:0:0:
256,192,122494,1,4,0:0:0:0:
256,224,122670,1,8,0:0:0:0:
256,192,122847,1,4,0:0:0:0:
288,192,123023,1,8,0:0:0:0:
288,192,123111,1,8,0:0:0:0:
256,192,123200,1,8,0:0:0:0:
256,192,123376,1,8,0:0:0:0:
288,192,123553,1,4,0:0:0:0:
352,192,123730,1,0,0:0:0:0:
352,192,123817,1,0,0:0:0:0:
256,192,123906,1,8,0:0:0:0:
288,192,123994,1,8,0:0:0:0:
256,192,124082,1,8,0:0:0:0:
288,192,124170,1,8,0:0:0:0:
288,192,124259,1,4,0:0:0:0:
352,192,124435,1,8,0:0:0:0:
352,192,124523,1,0,0:0:0:0:
256,192,124611,1,8,0:0:0:0:
256,192,124700,1,8,0:0:0:0:
256,192,124787,1,8,0:0:0:0:
256,192,124876,1,8,0:0:0:0:
288,192,124964,1,0,0:0:0:0:
256,192,125141,1,8,0:0:0:0:
256,192,125318,1,0,0:0:0:0:
256,224,125494,1,0,0:0:0:0:
256,192,125670,1,8,0:0:0:0:
256,192,126023,1,0,0:0:0:0:
256,192,126200,1,8,0:0:0:0:
256,192,126376,1,0,0:0:0:0:
256,192,126729,5,12,0:0:0:0:
256,192,126906,1,0,0:0:0:0:
256,192,127082,1,8,0:0:0:0:
256,192,127170,1,8,0:0:0:0:
256,192,127258,1,0,0:0:0:0:
256,192,127347,1,8,0:0:0:0:
256,192,127435,1,0,0:0:0:0:
256,192,127523,1,0,0:0:0:0:
256,192,127611,1,8,0:0:0:0:
256,192,127700,1,8,0:0:0:0:
256,192,127788,1,0,0:0:0:0:
256,192,127964,1,0,0:0:0:0:
256,192,128053,1,0,0:0:0:0:
256,192,128141,1,8,0:0:0:0:
256,192,128317,1,8,0:0:0:0:
256,192,128494,1,0,0:0:0:0:
256,192,128670,1,0,0:0:0:0:
256,224,128758,1,0,0:0:0:0:
256,192,128847,1,8,0:0:0:0:
256,192,128935,1,0,0:0:0:0:
256,192,129023,1,8,0:0:0:0:
256,192,129111,1,8,0:0:0:0:
256,192,129200,1,0,0:0:0:0:
256,192,129376,1,0,0:0:0:0:
256,192,129464,1,0,0:0:0:0:
256,192,129553,1,8,0:0:0:0:
256,192,129729,1,0,0:0:0:0:
256,192,129906,1,8,0:0:0:0:
256,192,129994,1,0,0:0:0:0:
256,192,130082,1,0,0:0:0:0:
256,192,130170,1,8,0:0:0:0:
256,192,130258,1,8,0:0:0:0:
256,192,130347,1,0,0:0:0:0:
256,192,130435,1,8,0:0:0:0:
224,192,130523,1,8,0:0:0:0:
256,192,130611,1,0,0:0:0:0:
256,192,130788,1,0,0:0:0:0:
256,192,130876,1,0,0:0:0:0:
256,192,130964,1,8,0:0:0:0:
256,192,131141,1,8,0:0:0:0:
256,192,131229,1,8,0:0:0:0:
256,192,131317,1,0,0:0:0:0:
256,192,131494,1,0,0:0:0:0:
288,192,131582,1,0,0:0:0:0:
256,192,131670,1,8,0:0:0:0:
288,192,131758,1,0,0:0:0:0:
256,192,131847,1,8,0:0:0:0:
256,192,131935,1,8,0:0:0:0:
256,192,132023,1,4,0:0:0:0:
256,192,132200,1,0,0:0:0:0:
256,192,132288,1,0,0:0:0:0:
256,192,132376,1,8,0:0:0:0:
256,192,132553,1,0,0:0:0:0:
256,192,132729,1,8,0:0:0:0:
256,192,132817,1,8,0:0:0:0:
256,192,132906,1,0,0:0:0:0:
256,192,132994,1,8,0:0:0:0:
256,192,133082,1,0,0:0:0:0:
256,192,133170,1,0,0:0:0:0:
256,192,133259,1,8,0:0:0:0:
256,192,133347,1,8,0:0:0:0:
256,192,133435,1,0,0:0:0:0:
256,192,133611,1,0,0:0:0:0:
256,192,133700,1,0,0:0:0:0:
256,192,133788,1,8,0:0:0:0:
256,192,133964,1,0,0:0:0:0:
256,192,134052,1,0,0:0:0:0:
256,192,134141,1,8,0:0:0:0:
256,192,134229,1,8,0:0:0:0:
256,192,134317,1,0,0:0:0:0:
256,192,134406,1,0,0:0:0:0:
256,192,134494,1,8,0:0:0:0:
224,192,134582,1,0,0:0:0:0:
256,192,134670,1,8,0:0:0:0:
256,192,134758,1,8,0:0:0:0:
256,192,134847,1,0,0:0:0:0:
256,192,135023,1,0,0:0:0:0:
256,192,135111,1,0,0:0:0:0:
288,192,135200,1,8,0:0:0:0:
256,192,135376,1,0,0:0:0:0:
256,192,135464,1,0,0:0:0:0:
256,192,135553,1,8,0:0:0:0:
256,192,135641,1,8,0:0:0:0:
256,192,135729,1,0,0:0:0:0:
256,192,135817,1,0,0:0:0:0:
256,192,135906,1,8,0:0:0:0:
256,192,136082,1,0,0:0:0:0:
256,224,136170,1,0,0:0:0:0:
256,192,136258,1,8,0:0:0:0:
256,192,136347,1,0,0:0:0:0:
256,224,136435,1,8,0:0:0:0:
256,224,136523,1,8,0:0:0:0:
256,192,136611,1,0,0:0:0:0:
256,192,136788,1,0,0:0:0:0:
256,192,136964,1,12,0:0:0:0:
256,192,137317,1,0,0:0:0:0:
256,192,137494,1,8,0:0:0:0:
256,192,137670,1,0,0:0:0:0:
256,192,137758,1,8,0:0:0:0:
256,192,137847,1,0,0:0:0:0:
256,192,137935,1,0,0:0:0:0:
256,224,138023,1,12,0:0:0:0:
256,192,138200,1,0,0:0:0:0:
256,192,138288,1,8,0:0:0:0:
256,192,138376,1,0,0:0:0:0:
256,192,138464,1,8,0:0:0:0:
256,192,138553,1,8,0:0:0:0:
256,192,138641,1,0,0:0:0:0:
256,192,138729,1,8,0:0:0:0:
256,224,138817,1,0,0:0:0:0:
256,192,138906,1,8,0:0:0:0:
256,192,138994,1,8,0:0:0:0:
256,224,139082,1,0,0:0:0:0:
256,192,139258,1,8,0:0:0:0:
256,192,139347,1,8,0:0:0:0:
256,192,139435,1,0,0:0:0:0:
256,192,139611,1,0,0:0:0:0:
256,192,139788,1,8,0:0:0:0:
224,192,139876,1,0,0:0:0:0:
256,192,139964,1,8,0:0:0:0:
256,192,140053,1,8,0:0:0:0:
256,192,140141,1,0,0:0:0:0:
256,192,140317,1,8,0:0:0:0:
256,192,140494,1,0,0:0:0:0:
256,192,140582,1,0,0:0:0:0:
256,192,140670,1,8,0:0:0:0:
256,192,140758,1,8,0:0:0:0:
256,192,140847,1,0,0:0:0:0:
256,192,140935,1,8,0:0:0:0:
256,192,141023,1,0,0:0:0:0:
256,192,141111,1,0,0:0:0:0:
256,192,141200,1,8,0:0:0:0:
256,192,141376,1,0,0:0:0:0:
256,192,141464,1,0,0:0:0:0:
256,192,141553,1,8,0:0:0:0:
256,192,141729,1,8,0:0:0:0:
256,192,141906,1,0,0:0:0:0:
256,192,141994,1,0,0:0:0:0:
256,192,142082,1,8,0:0:0:0:
256,192,142170,1,8,0:0:0:0:
256,192,142258,1,0,0:0:0:0:
256,192,142347,1,8,0:0:0:0:
256,192,142435,1,0,0:0:0:0:
256,192,142523,1,0,0:0:0:0:
256,192,142611,1,8,0:0:0:0:
256,192,142788,1,0,0:0:0:0:
256,192,142876,1,0,0:0:0:0:
256,192,142964,1,8,0:0:0:0:
256,192,143053,1,0,0:0:0:0:
256,192,143141,1,8,0:0:0:0:
256,192,143229,1,8,0:0:0:0:
256,192,143317,1,4,0:0:0:0:
256,192,143494,1,0,0:0:0:0:
256,192,143582,1,0,0:0:0:0:
256,224,143670,1,8,0:0:0:0:
256,192,143758,1,8,0:0:0:0:
256,192,143847,1,0,0:0:0:0:
256,192,143935,1,8,0:0:0:0:
256,192,144023,1,0,0:0:0:0:
256,192,144111,1,8,0:0:0:0:
256,192,144200,1,8,0:0:0:0:
256,192,144288,1,0,0:0:0:0:
256,192,144376,1,8,0:0:0:0:
256,224,144464,1,0,0:0:0:0:
256,192,144553,1,8,0:0:0:0:
256,192,144641,1,8,0:0:0:0:
256,224,144729,1,0,0:0:0:0:
256,192,144905,1,8,0:0:0:0:
256,192,144994,1,8,0:0:0:0:
256,192,145082,1,0,0:0:0:0:
256,192,145258,1,8,0:0:0:0:
256,192,145435,1,0,0:0:0:0:
224,192,145523,1,0,0:0:0:0:
256,192,145611,1,8,0:0:0:0:
256,192,145700,1,8,0:0:0:0:
256,192,145788,1,0,0:0:0:0:
256,192,145964,1,8,0:0:0:0:
224,192,146141,1,0,0:0:0:0:
224,192,146229,1,0,0:0:0:0:
256,192,146317,1,0,0:0:0:0:
256,192,146406,1,0,0:0:0:0:
256,192,146494,1,8,0:0:0:0:
256,192,146670,1,0,0:0:0:0:
256,192,146847,1,8,0:0:0:0:
256,192,146935,1,8,0:0:0:0:
256,224,147023,1,0,0:0:0:0:
224,192,147111,1,0,0:0:0:0:
256,192,147200,1,8,0:0:0:0:
256,192,147376,1,0,0:0:0:0:
256,192,147553,1,8,0:0:0:0:
256,224,147729,1,8,0:0:0:0:
256,192,147817,1,8,0:0:0:0:
256,224,147906,1,0,0:0:0:0:
256,224,148082,1,8,0:0:0:0:
256,192,148258,1,0,0:0:0:0:
256,192,148611,1,0,0:0:0:0:
256,192,148964,1,8,0:0:0:0:
256,192,149317,1,8,0:0:0:0:
256,192,149670,1,0,0:0:0:0:
256,192,149847,1,8,0:0:0:0:
256,192,149935,1,0,0:0:0:0:
256,192,150023,1,8,0:0:0:0:
256,192,150200,1,8,0:0:0:0:
256,192,150376,1,4,0:0:0:0:
256,192,150553,1,0,0:0:0:0:
256,192,150641,1,0,0:0:0:0:
256,192,150729,1,8,0:0:0:0:
256,192,150906,1,0,0:0:0:0:
256,192,151082,1,0,0:0:0:0:
256,192,151170,1,0,0:0:0:0:
256,192,151258,1,8,0:0:0:0:
256,192,151435,1,0,0:0:0:0:
256,192,151611,1,0,0:0:0:0:
256,192,151700,1,0,0:0:0:0:
256,192,151788,1,8,0:0:0:0:
256,192,151964,1,0,0:0:0:0:
256,192,152141,1,0,0:0:0:0:
256,192,152229,1,0,0:0:0:0:
256,192,152317,1,8,0:0:0:0:
256,192,152494,1,8,0:0:0:0:
256,192,152582,1,8,0:0:0:0:
256,192,152670,1,0,0:0:0:0:
256,192,152758,1,8,0:0:0:0:
256,192,152847,1,0,0:0:0:0:
256,192,153023,1,8,0:0:0:0:
256,192,153200,1,0,0:0:0:0:
256,192,153376,1,8,0:0:0:0:
256,192,153464,1,0,0:0:0:0:
256,192,153553,1,8,0:0:0:0:
256,192,153729,1,0,0:0:0:0:
256,192,153906,1,8,0:0:0:0:
256,192,153994,1,0,0:0:0:0:
256,192,154082,1,8,0:0:0:0:
256,192,154258,1,0,0:0:0:0:
256,192,154435,1,8,0:0:0:0:
256,192,154523,1,0,0:0:0:0:
256,192,154612,1,8,0:0:0:0:
256,192,154788,1,0,0:0:0:0:
256,192,154964,1,8,0:0:0:0:
256,192,155053,1,0,0:0:0:0:
256,192,155141,1,8,0:0:0:0:
256,192,155317,1,8,0:0:0:0:
256,192,155406,1,0,0:0:0:0:
320,192,155494,1,8,0:0:0:0:
288,192,155582,1,8,0:0:0:0:
256,192,155670,1,0,0:0:0:0:
256,192,155847,1,8,0:0:0:0:
256,192,156023,1,4,0:0:0:0:
256,192,156200,1,0,0:0:0:0:
256,192,156288,1,0,0:0:0:0:
256,192,156376,1,8,0:0:0:0:
256,192,156553,1,8,0:0:0:0:
256,192,156729,1,0,0:0:0:0:
256,192,156817,1,0,0:0:0:0:
256,192,156905,1,8,0:0:0:0:
256,192,157082,1,8,0:0:0:0:
256,192,157258,1,0,0:0:0:0:
256,192,157347,1,0,0:0:0:0:
256,192,157435,1,8,0:0:0:0:
256,192,157611,1,8,0:0:0:0:
256,192,157788,1,0,0:0:0:0:
256,192,157876,1,0,0:0:0:0:
256,192,157964,1,8,0:0:0:0:
256,192,158141,1,8,0:0:0:0:
256,192,158229,1,8,0:0:0:0:
256,192,158317,1,0,0:0:0:0:
256,192,158405,1,8,0:0:0:0:
256,192,158494,1,0,0:0:0:0:
256,192,158670,1,8,0:0:0:0:
256,192,158847,1,0,0:0:0:0:
256,192,159023,1,8,0:0:0:0:
256,192,159111,1,0,0:0:0:0:
256,192,159200,1,8,0:0:0:0:
256,192,159376,1,0,0:0:0:0:
256,192,159553,1,8,0:0:0:0:
256,192,159641,1,0,0:0:0:0:
256,192,159729,1,8,0:0:0:0:
256,192,159905,1,0,0:0:0:0:
256,192,160082,1,8,0:0:0:0:
256,192,160258,1,0,0:0:0:0:
256,192,160347,1,0,0:0:0:0:
256,192,160435,1,8,0:0:0:0:
256,192,160523,1,8,0:0:0:0:
256,192,160611,1,0,0:0:0:0:
256,192,160788,1,0,0:0:0:0:
256,192,160964,1,8,0:0:0:0:
256,192,161141,1,0,0:0:0:0:
256,192,161229,1,0,0:0:0:0:
256,192,161317,1,8,0:0:0:0:
256,192,161406,1,0,0:0:0:0:
256,192,161494,1,8,0:0:0:0:
256,192,161582,1,8,0:0:0:0:
256,192,161670,1,4,0:0:0:0:
256,192,161847,1,0,0:0:0:0:
256,192,161935,1,0,0:0:0:0:
256,192,162023,1,8,0:0:0:0:
256,192,162200,1,8,0:0:0:0:
256,192,162376,1,0,0:0:0:0:
256,192,162464,1,0,0:0:0:0:
256,192,162553,1,8,0:0:0:0:
256,224,162641,1,0,0:0:0:0:
288,224,162729,1,0,0:0:0:0:
256,192,162906,1,8,0:0:0:0:
256,192,163082,1,0,0:0:0:0:
256,192,163258,1,0,0:0:0:0:
256,192,163347,1,0,0:0:0:0:
256,192,163435,1,8,0:0:0:0:
256,192,163611,1,0,0:0:0:0:
256,192,163788,1,8,0:0:0:0:
256,192,163876,1,8,0:0:0:0:
256,192,163964,1,0,0:0:0:0:
256,192,164052,1,8,0:0:0:0:
256,192,164141,1,0,0:0:0:0:
256,192,164317,1,8,0:0:0:0:
256,192,164494,1,0,0:0:0:0:
256,192,164670,1,8,0:0:0:0:
256,192,164758,1,0,0:0:0:0:
256,192,164847,1,8,0:0:0:0:
256,192,165023,1,8,0:0:0:0:
256,192,165200,1,0,0:0:0:0:
256,192,165288,1,0,0:0:0:0:
256,192,165376,1,8,0:0:0:0:
256,192,165464,1,8,0:0:0:0:
256,192,165553,1,0,0:0:0:0:
256,192,165729,1,8,0:0:0:0:
256,192,165906,1,0,0:0:0:0:
256,192,166081,1,8,0:0:0:0:
256,192,166170,1,0,0:0:0:0:
256,192,166258,1,8,0:0:0:0:
256,192,166435,1,0,0:0:0:0:
256,192,166611,1,8,0:0:0:0:
256,192,166700,1,0,0:0:0:0:
320,192,166788,1,8,0:0:0:0:
288,192,166876,1,8,0:0:0:0:
256,192,166964,1,0,0:0:0:0:
256,192,167141,1,8,0:0:0:0:
256,192,167317,1,4,0:0:0:0:
256,192,167494,1,0,0:0:0:0:
256,192,167582,1,0,0:0:0:0:
256,192,167670,1,8,0:0:0:0:
256,192,167847,1,8,0:0:0:0:
256,192,168023,1,0,0:0:0:0:
256,192,168111,1,0,0:0:0:0:
256,192,168199,1,8,0:0:0:0:
256,192,168288,1,0,0:0:0:0:
256,192,168376,1,0,0:0:0:0:
256,192,168552,1,8,0:0:0:0:
256,192,168729,1,0,0:0:0:0:
256,192,168905,1,0,0:0:0:0:
256,192,168993,1,0,0:0:0:0:
256,192,169082,1,8,0:0:0:0:
256,192,169258,1,0,0:0:0:0:
256,192,169435,1,8,0:0:0:0:
256,192,169523,1,8,0:0:0:0:
256,192,169611,1,0,0:0:0:0:
256,192,169699,1,8,0:0:0:0:
256,192,169788,1,0,0:0:0:0:
256,192,169964,1,8,0:0:0:0:
256,192,170141,1,0,0:0:0:0:
256,192,170317,1,8,0:0:0:0:
256,192,170405,1,0,0:0:0:0:
256,192,170494,1,8,0:0:0:0:
256,192,170670,1,8,0:0:0:0:
256,192,170847,1,0,0:0:0:0:
256,192,170935,1,0,0:0:0:0:
256,192,171023,1,8,0:0:0:0:
256,192,171111,1,8,0:0:0:0:
256,192,171199,1,0,0:0:0:0:
256,192,171376,1,0,0:0:0:0:
256,192,171553,1,8,0:0:0:0:
256,192,171729,1,0,0:0:0:0:
256,192,171817,1,0,0:0:0:0:
256,192,171905,1,8,0:0:0:0:
256,192,172082,1,0,0:0:0:0:
256,192,172170,1,0,0:0:0:0:
256,192,172258,1,8,0:0:0:0:
320,192,172347,1,8,0:0:0:0:
256,192,172435,1,0,0:0:0:0:
256,192,172523,5,0,0:0:0:0:
288,192,172611,1,8,0:0:0:0:
256,192,172788,1,8,0:0:0:0:
256,192,172964,1,4,0:0:0:0:
256,192,173317,1,4,0:0:0:0:
256,192,173670,1,4,0:0:0:0:
224,192,173847,1,0,0:0:0:0:
256,192,173935,1,0,0:0:0:0:
256,192,174023,1,8,0:0:0:0:
