osu file format v14

[General]
AudioFilename: audio.mp3
AudioLeadIn: 0
PreviewTime: 55238
Countdown: 0
SampleSet: Soft
StackLeniency: 0.7
Mode: 0
LetterboxInBreaks: 0
EpilepsyWarning: 1
WidescreenStoryboard: 1

[Editor]
Bookmarks: 13767,25061,39179,44826,47650,56120,56297,73061,73591,75355,87002
DistanceSpacing: 1.3
BeatDivisor: 4
GridSize: 32
TimelineZoom: 3.299999

[Metadata]
Title:Kimi ni Matsuwaru Mystery (TV Size)
TitleUnicode:君にまつわるミステリー (TV Size)
Artist:Chitanda Eru (CV: Satou Satomi), Ibara Mayaka (CV: Kayano Ai)
ArtistUnicode:千反田える (CV: 佐藤聡美), 伊原摩耶花 (CV: 茅野愛衣)
Creator:Kloster
Version:-Keqing's Hard
Source:氷菓
Tags:ending ed hyouka hyoka kyoani kyoto animation Houtarou Oreki Satoshi Fukube mistery japanese jpop j-pop pop anime kotenbu koten-bu -Keqing frozz Fzl_17 折木 奉太郎 Hōtarō 福部 里志
BeatmapID:2913834
BeatmapSetID:1363348

[Difficulty]
HPDrainRate:4.5
CircleSize:3.6
OverallDifficulty:6.5
ApproachRate:8
SliderMultiplier:1.5
SliderTickRate:1

[Events]
//Background and Video events
0,0,"wp4628782.jpg",0,0
//Break Periods
//Storyboard Layer 0 (Background)
//Storyboard Layer 1 (Fail)
//Storyboard Layer 2 (Pass)
//Storyboard Layer 3 (Foreground)
Sprite,Foreground,Centre,"SB\white.png",320,240 M,0,75885,,320,240 F,0,75885,76944,0.7805714,0
//Storyboard Layer 4 (Overlay)
//Storyboard Sound Samples

[TimingPoints]
-350,352.941176470589,4,2,1,60,1,0
13767,-125,4,2,1,45,0,0
22061,-100,4,2,1,45,0,0
25061,-111.111111111111,4,2,1,55,0,0
29650,-99.9999999999999,4,2,1,55,0,0
30002,-90.9090909090909,4,2,1,55,0,0
30355,-83.3333333333333,4,2,1,55,0,0
31414,-111.111111111111,4,2,1,55,0,0
36179,-100,4,2,1,55,0,0
39091,-100,4,2,1,5,0,0
39179,-125,4,2,1,55,0,0
44826,-100,4,2,1,55,0,0
47650,-111.111111111111,4,2,1,55,0,0
53473,-111.111111111111,4,2,1,60,0,0
54002,-111.111111111111,4,2,1,65,0,0
54532,-111.111111111111,4,2,1,70,0,0
56120,-83.3333333333333,4,2,1,70,0,0
58238,-76.9230769230769,4,2,1,70,0,0
58591,-71.4285714285714,4,2,1,70,0,0
58944,-83.3333333333333,4,2,1,70,0,0
61414,-76.9230769230769,4,2,1,70,0,0
61767,-71.4285714285714,4,2,1,70,0,0
62297,-83.3333333333333,4,2,1,70,0,0
69444,-83.3333333333333,4,2,1,5,0,0
69532,-83.3333333333333,4,2,1,70,0,0
72179,-76.9230769230769,4,2,1,70,0,0
72708,-90.9090909090909,4,2,1,70,0,0
84355,-90.9090909090909,4,2,1,60,0,0
88414,-90.9090909090909,4,2,1,5,0,0

[Colours]
Combo1 : 201,201,201
Combo2 : 226,29,221
Combo3 : 255,149,255
Combo4 : 68,95,187
Combo5 : 149,149,255
Combo6 : 127,127,127

[HitObjects]
473,198,1944,5,0,1:2:0:0:
362,144,2120,2,0,P|378:184|385:223,1,75,8|2,2:0|2:0,2:0:0:0:
381,231,2385,1,2,2:0:0:0:
377,246,2473,6,0,B|292:233|325:299|232:275,1,150,6|10,1:2|2:0,2:0:0:0:
148,340,3002,1,2,2:0:0:0:
89,270,3179,2,0,L|111:169,1,75,0|0,1:2|1:2,2:0:0:0:
29,103,3532,1,8,2:0:0:0:
114,59,3708,70,0,B|171:72|171:72|184:92|184:92|280:114,1,150,0|0,1:2|1:2,2:0:0:0:
362,70,4238,2,0,P|422:69|462:142,1,150,8|0,2:0|1:2,2:0:0:0:
405,227,4767,1,0,1:2:0:0:
435,342,4944,1,10,2:0:0:0:
328,303,5120,5,2,2:0:0:0:
328,303,5208,1,0,2:0:0:0:
328,303,5297,2,0,B|304:261|304:261|325:161,1,150,6|10,1:2|2:0,2:0:0:0:
362,70,5826,1,2,2:0:0:0:
257,93,6002,2,0,L|152:73,1,75,0|0,1:2|1:2,2:0:0:0:
70,22,6355,1,8,2:0:0:0:
0,86,6532,70,0,L|41:240,1,150,0|0,1:2|1:2,2:0:0:0:
83,343,7061,2,0,P|148:311|152:227,1,150,8|0,2:0|1:2,2:0:0:0:
117,156,7591,1,2,1:2:0:0:
191,82,7767,1,10,2:0:0:0:
271,144,7944,5,2,2:0:0:0:
271,144,8032,1,0,2:0:0:0:
271,144,8120,2,0,B|346:126|326:198|409:184,2,150,6|8|0,1:2|2:0|1:2,2:0:0:0:
191,83,9002,1,0,1:2:0:0:
286,10,9179,1,8,2:0:0:0:
346,82,9355,70,0,L|328:251,1,150,6|0,1:2|1:2,2:0:0:0:
387,340,9885,2,0,P|457:294|454:227,1,150,8|0,2:0|1:2,2:0:0:0:
416,155,10414,1,2,1:2:0:0:
492,76,10591,1,10,2:0:0:0:
381,14,10767,5,10,2:0:0:0:
381,14,10855,1,8,2:0:0:0:
381,14,10944,2,0,P|328:10|296:0,1,75,12|8,2:0|2:0,2:0:0:0:
259,96,11297,2,0,P|312:100|344:110,1,75,8|8,2:0|2:0,2:0:0:0:
182,41,11650,2,0,P|164:81|183:141,1,75,8|8,2:0|2:0,2:0:0:0:
224,188,12002,1,10,2:0:0:0:
160,284,12179,70,0,L|325:264,1,150,6|0,1:2|2:0,2:0:0:0:
373,331,12708,2,0,P|399:282|396:245,1,75,2|0,2:0|2:0,2:0:0:0:
353,187,13061,2,0,P|327:138|330:101,1,75,2|0,2:0|2:0,2:0:0:0:
387,24,13414,1,12,2:0:0:0:
471,203,13767,54,0,L|331:184,1,120,14|0,1:2|1:2,2:0:0:0:
197,281,14473,2,0,L|315:297,1,120,2|8,1:2|2:0,2:0:0:0:
392,338,15002,2,0,P|401:298|394:261,1,60,2|0,2:0|1:2,2:0:0:0:
352,186,15355,2,0,L|282:204,1,60,2|0,2:0|1:2,2:0:0:0:
203,155,15708,2,0,P|169:102|195:30,1,120,2|0,2:0|2:0,2:0:0:0:
258,9,16238,1,8,2:0:0:0:
63,74,16591,6,0,L|96:199,1,120,2|0,1:2|1:2,2:0:0:0:
63,289,17120,1,2,2:0:0:0:
63,289,17297,2,0,P|24:306|10:382,1,120,2|8,1:2|2:0,2:0:0:0:
218,368,18002,69,2,1:2:0:0:
375,279,18355,2,0,L|298:272,1,60,2|0,1:2|2:0,2:0:0:0:
253,202,18708,1,2,1:2:0:0:
410,113,19061,2,0,L|333:106,1,60,10|0,2:0|2:0,2:0:0:0:
288,36,19414,6,0,P|235:39|207:110,1,120,2|0,1:2|1:2,2:0:0:0:
129,234,20120,2,0,P|186:239|212:290,1,120,2|8,1:2|2:0,2:0:0:0:
163,359,20650,2,0,L|102:351,1,60,2|0,2:0|1:2,2:0:0:0:
35,267,21002,2,0,L|51:192,1,60,2|0,2:0|1:2,2:0:0:0:
126,146,21355,2,0,L|110:71,1,60,10|8,2:0|2:0,2:0:0:0:
25,19,21708,1,10,2:0:0:0:
112,78,21885,1,8,2:0:0:0:
201,16,22061,70,0,B|282:1|250:67|342:49,1,150,4|0,1:2|1:2,2:0:0:0:
424,108,22591,1,10,2:0:0:0:
456,22,22767,2,0,P|514:64|497:157,1,150,2|0,1:2|1:2,2:0:0:0:
441,203,23297,1,10,2:0:0:0:
509,300,23473,6,0,L|349:280,1,150,2|0,1:2|1:2,2:0:0:0:
279,350,24002,1,10,2:0:0:0:
187,290,24179,1,2,1:2:0:0:
187,290,24267,1,8,2:0:0:0:
187,290,24355,2,0,P|201:247|206:206,1,75,0|0,1:2|1:2,2:0:0:0:
166,134,24708,1,8,2:0:0:0:
259,23,25061,70,0,B|314:44|314:44|317:50|317:50|401:78,1,135,6|8,1:2|2:0,2:0:0:0:
471,49,25591,1,0,3:2:0:0:
512,131,25767,2,0,L|503:207,1,67.5000000000001,2|0,1:2|1:2,2:0:0:0:
445,282,26120,1,10,2:0:0:0:
486,365,26297,2,0,P|451:376|410:372,1,67.5000000000001,2|0,2:0|1:2,2:0:0:0:
355,305,26650,2,0,P|320:294|279:298,1,67.5000000000001,2|8,2:0|2:0,2:0:0:0:
209,354,27002,2,0,P|191:312|195:273,1,67.5000000000001,2|0,2:0|1:2,2:0:0:0:
250,203,27355,2,0,P|268:161|264:122,1,67.5000000000001,2|8,1:2|2:0,2:0:0:0:
204,67,27708,1,2,2:0:0:0:
103,104,27885,6,0,B|69:102|40:93|40:93|31:127|3:167,1,135,2|8,1:2|2:0,2:0:0:0:
91,210,28414,1,2,2:0:0:0:
52,301,28591,2,0,P|64:347|70:381,1,67.5000000000001,2|0,1:2|1:2,2:0:0:0:
162,346,28944,2,0,P|150:300|144:266,1,67.5000000000001,8|0,2:0|2:0,2:0:0:0:
182,182,29297,70,0,L|181:100,1,67.5000000000001,2|0,1:2|2:0,2:0:0:0:
307,142,29650,2,0,L|271:208,1,75.0000000000001,10|0,2:0|2:0,2:0:0:0:
335,275,30002,2,0,L|405:233,1,82.5,2|0,1:2|1:2,2:0:0:0:
446,363,30355,2,0,L|356:365,1,90,10|0,2:0|2:0,2:0:0:0:
221,324,30708,1,0,1:2:0:0:
389,152,31061,5,10,2:0:0:0:
445,77,31238,1,2,2:0:0:0:
378,8,31414,2,0,P|342:20|289:27,1,67.5000000000001,2|2,1:2|1:2,2:0:0:0:
201,13,31767,1,10,2:0:0:0:
134,88,31944,2,0,L|156:222,1,135,2|0,1:2|1:2,2:0:0:0:
217,310,32473,1,8,2:0:0:0:
152,381,32650,2,0,P|109:369|71:369,1,67.5000000000001,2|0,1:2|2:0,2:0:0:0:
10,288,33002,2,0,P|43:285|75:274,1,67.5000000000001,2|8,1:2|2:0,2:0:0:0:
155,221,33355,1,2,2:0:0:0:
63,158,33532,70,0,B|45:112|45:112|70:12,1,135,2|8,1:2|2:0,2:0:0:0:
176,68,34061,2,0,P|241:38|326:52,1,135,2|0,1:2|1:2,2:0:0:0:
377,98,34591,1,8,2:0:0:0:
459,32,34767,6,0,B|507:78|507:78|493:166,1,135,2|0,1:2|1:2,2:0:0:0:
434,217,35297,1,8,2:0:0:0:
486,318,35473,2,0,P|418:303|330:291,1,135,2|0,1:2|1:2,2:0:0:0:
274,349,36002,1,10,2:0:0:0:
190,267,36179,70,0,B|174:222|174:222|202:110,1,150,6|0,1:2|1:2,2:0:0:0:
191,24,36708,2,0,P|141:44|121:70,1,75,8|0,2:0|1:2,2:0:0:0:
45,125,37061,2,0,P|69:165|81:210,1,75,8|0,2:0|1:2,2:0:0:0:
39,283,37414,1,10,2:0:0:0:
111,378,37591,6,0,P|157:362|198:352,1,75,6|8,1:2|2:0,2:0:0:0:
277,367,37944,1,0,1:2:0:0:
340,293,38120,2,0,L|315:197,1,75,8|0,2:0|1:2,2:0:0:0:
317,204,38385,1,8,2:0:0:0:
313,188,38473,1,8,2:0:0:0:
288,84,38650,1,8,2:0:0:0:
373,22,38826,2,0,P|422:64|415:118,1,112.5,10|0,2:0|2:0,2:0:0:0:
402,128,39179,38,0,P|435:189|464:257,1,120,6|0,1:2|2:0,2:0:0:0:
442,335,39708,1,0,1:2:0:0:
347,342,39885,2,0,P|322:287|293:234,1,120,10|0,2:0|1:2,2:0:0:0:
212,167,40414,2,0,P|174:205|187:268,1,120,2|8,1:2|2:0,2:0:0:0:
194,358,40944,2,0,P|160:344|126:341,1,60,2|0,2:0|1:2,2:0:0:0:
32,365,41297,2,0,P|2:334|8:254,1,120,10|0,2:0|1:2,2:0:0:0:
51,173,41826,1,0,3:0:0:0:
15,67,42002,6,0,B|66:78|66:78|75:90|75:90|139:100,1,120,6|0,1:2|1:2,2:0:0:0:
213,60,42532,1,2,1:2:0:0:
291,118,42708,1,10,2:0:0:0:
291,118,42885,2,0,P|331:106|357:85,1,60,2|0,1:2|1:2,2:0:0:0:
423,12,43238,70,0,B|466:55|466:55|448:138,1,120,6|0,1:2|2:0,2:0:0:0:
393,195,43767,1,10,2:0:0:0:
453,289,43944,1,10,2:0:0:0:
374,352,44120,2,0,P|327:365|282:382,2,90,2|2|2,2:0|2:0|1:2,2:0:0:0:
314,258,44826,6,0,B|229:245|262:311|169:287,1,150,6|8,1:2|2:0,2:0:0:0:
91,224,45355,1,10,2:0:0:0:
12,274,45532,2,0,P|-4:235|9:185,1,75,8|8,2:0|2:0,2:0:0:0:
70,124,45885,2,0,P|108:120|149:140,1,75,10|8,2:0|2:0,2:0:0:0:
234,74,46238,2,0,L|205:-26,2,75,10|8|8,2:0|2:0|2:0,2:0:0:0:
326,131,46767,1,10,2:0:0:0:
393,58,46944,2,0,P|452:41|504:20,2,112.5,10|2|10,2:0|2:0|2:0,2:0:0:0:
326,131,47650,70,0,P|298:192|325:274,1,135,6|8,1:2|2:0,2:0:0:0:
383,316,48179,1,2,2:0:0:0:
300,368,48355,2,0,P|259:358|223:357,1,67.5000000000001,0|0,1:2|1:2,2:0:0:0:
155,279,48708,2,0,P|201:261|236:243,1,67.5000000000001,10|0,2:0|2:0,2:0:0:0:
237,155,49061,2,0,P|223:94|212:9,1,135,2|8,1:2|2:0,2:0:0:0:
47,165,49767,2,0,P|38:110|23:55,2,101.25,2|2|2,1:2|2:0|2:0,2:0:0:0:
60,269,50473,1,6,1:2:0:0:
49,370,50650,5,2,2:0:0:0:
49,370,50826,2,0,P|92:358|134:356,1,67.5000000000001,10|0,2:0|2:0,2:0:0:0:
207,375,51179,2,0,P|252:325|240:261,1,135,2|8,1:2|2:0,2:0:0:0:
195,183,51708,1,2,2:0:0:0:
253,111,51885,2,0,P|289:126|344:139,1,67.5000000000001,2|0,1:2|1:2,2:0:0:0:
393,102,52238,1,10,2:0:0:0:
467,145,52414,2,0,P|444:214|429:288,1,135,2|0,2:0|1:2,2:0:0:0:
460,361,52944,1,8,2:0:0:0:
317,223,53297,1,4,1:2:0:0:
248,287,53473,69,10,2:0:0:0:
248,287,53650,2,0,P|236:328|232:358,1,67.5000000000001,10|0,2:0|1:2,2:0:0:0:
137,384,54002,1,2,1:2:0:0:
137,384,54179,2,0,P|107:353|83:334,1,67.5000000000001,2|8,1:2|2:0,2:0:0:0:
127,231,54532,1,14,2:0:0:0:
0,169,56120,54,0,B|93:144|65:233|177:203,1,180,6|8,1:2|2:0,2:0:0:0:
246,149,56650,1,0,3:0:0:0:
341,197,56826,2,0,B|355:154|355:154|339:93,1,90,0|0,1:2|1:2,2:0:0:0:
258,47,57179,1,10,2:0:0:0:
382,13,57355,6,0,P|434:37|442:152,1,180,2|0,1:2|1:2,2:0:0:0:
361,224,57885,2,0,L|400:305,1,90,8|0,2:0|2:0,2:0:0:0:
276,348,58238,2,0,L|284:251,1,97.5,2|0,1:2|2:0,2:0:0:0:
241,242,58502,1,2,0:0:0:0:
203,234,58591,2,0,L|140:326,1,105,8|2,2:0|2:0,2:0:0:0:
29,367,58944,70,0,B|-10:329|-10:329|34:196,1,179.999994506836,6|8,1:2|2:0,2:0:0:0:
74,114,59473,1,0,3:0:0:0:
9,34,59650,2,0,P|55:11|109:20,1,90,0|0,1:2|1:2,2:0:0:0:
168,87,60002,1,10,2:0:0:0:
256,10,60179,6,0,B|313:28|313:28|343:69|343:69|431:95,1,180,2|0,1:2|1:2,2:0:0:0:
509,146,60708,2,0,P|459:178|428:210,1,90,8|0,2:0|2:0,2:0:0:0:
405,303,61061,2,0,B|364:321|364:321|310:299,1,90,2|0,1:2|1:2,2:0:0:0:
291,275,61326,1,2,0:0:0:0:
261,244,61414,2,0,B|215:224|215:224|169:242,1,97.5,8|2,2:0|2:0,2:0:0:0:
127,350,61767,70,0,B|93:314|49:288|49:288|67:247|79:182,1,210,6|8,1:2|2:0,2:0:0:0:
167,111,62297,2,0,P|209:125|265:139,1,90,2|0,2:0|1:2,2:0:0:0:
338,72,62650,1,2,1:2:0:0:
422,129,62826,2,0,L|397:225,1,90,10|0,2:0|1:2,2:0:0:0:
293,260,63179,6,0,P|243:247|198:244,1,90,2|0,2:0|1:2,2:0:0:0:
181,265,63444,2,0,P|188:320|270:353,1,135,2|2,2:0|2:0,2:0:0:0:
371,384,63885,2,0,P|399:337|441:301,1,90,2|0,1:2|1:2,2:0:0:0:
448,314,64150,2,0,B|482:260|482:260|466:169,1,135,2|2,2:0|2:0,2:0:0:0:
504,87,64591,70,0,P|451:81|401:115,1,90,6|0,1:2|2:0,2:0:0:0:
411,105,64855,1,2,2:0:0:0:
403,113,64944,1,8,2:0:0:0:
300,77,65120,1,2,2:0:0:0:
238,156,65297,2,0,P|182:145|129:139,1,90,0|0,1:2|1:2,2:0:0:0:
92,68,65650,2,0,P|56:111|62:171,1,90,10|0,2:0|1:2,2:0:0:0:
97,247,66002,6,0,B|128:260|157:260|157:260|190:291|190:291|222:293|261:306,1,180,6|8,1:2|2:0,2:0:0:0:
319,231,66532,1,0,1:2:0:0:
319,231,66620,1,8,2:0:0:0:
319,231,66708,2,0,P|358:275|357:333,1,90,2|0,1:2|1:2,2:0:0:0:
387,367,66973,1,2,0:0:0:0:
387,367,67061,2,0,P|405:311|456:283,1,90,8|2,2:0|2:0,2:0:0:0:
506,179,67414,70,0,B|413:154|441:243|329:213,1,180,6|8,1:2|2:0,2:0:0:0:
265,142,67944,1,0,3:0:0:0:
195,212,68120,2,0,P|162:164|170:119,1,90,0|0,1:2|1:2,2:0:0:0:
220,46,68473,1,10,2:0:0:0:
102,0,68650,6,0,B|38:47|38:47|68:167,1,180,2|0,1:2|1:2,2:0:0:0:
37,247,69179,2,0,P|-8:289|7:366,1,135,8|0,2:0|2:0,2:0:0:0:
18,370,69532,2,0,P|67:352|119:339,1,90,2|0,1:2|1:2,2:0:0:0:
116,340,69797,1,2,2:0:0:0:
129,338,69885,2,0,P|171:363|233:369,1,90,8|2,2:0|2:0,2:0:0:0:
290,297,70238,70,0,B|326:198|243:215|285:108,1,180,6|8,1:2|2:0,2:0:0:0:
337,43,70767,1,0,3:0:0:0:
419,101,70944,1,0,1:2:0:0:
479,33,71120,2,0,P|512:80|502:132,1,90,2|8,1:2|2:0,2:0:0:0:
438,201,71473,6,0,L|250:171,1,180,6|0,1:2|1:2,2:0:0:0:
174,238,72002,1,8,2:0:0:0:
124,152,72179,2,0,P|65:227|104:321,1,195,6|8,1:2|2:0,2:0:0:0:
192,345,72708,2,0,P|239:325|279:318,1,82.5,0|0,1:2|1:0,2:0:0:0:
390,355,73061,1,4,1:2:0:0:
450,284,73238,69,2,2:0:0:0:
450,284,73414,2,0,L|434:193,1,82.5,10|0,2:0|2:0,2:0:0:0:
486,129,73767,1,2,1:2:0:0:
486,129,73944,2,0,P|444:113|398:125,1,82.5,2|8,1:2|2:0,2:0:0:0:
329,212,74297,6,0,B|284:144|284:144|325:44,1,165,6|0,1:2|1:2,2:0:0:0:
203,58,74826,2,0,P|144:54|100:34,1,82.5,10|0,2:0|2:0,2:0:0:0:
21,50,75179,1,2,1:2:0:0:
21,50,75355,2,0,P|47:103|51:151,1,82.5,2|8,1:2|2:0,2:0:0:0:
126,176,75708,2,0,P|140:161|156:148,2,41.25,2|2|6,2:0|2:0|1:2,2:0:0:0:
87,285,76061,69,2,2:0:0:0:
87,285,76238,2,0,P|137:271|187:264,1,82.5,10|0,2:0|2:0,2:0:0:0:
243,336,76591,1,2,1:2:0:0:
243,336,76767,2,0,P|293:322|343:315,1,82.5,2|8,1:2|2:0,2:0:0:0:
403,384,77120,2,0,P|449:326|416:231,1,165,6|0,1:2|1:2,2:0:0:0:
338,184,77650,2,0,P|288:198|238:205,1,82.5,10|0,2:0|2:0,2:0:0:0:
162,162,78002,2,0,P|116:104|149:9,1,165,2|12,1:2|2:0,2:0:0:0:
393,87,78708,1,6,1:2:0:0:
468,23,78885,5,2,2:0:0:0:
512,111,79061,2,0,P|499:177|497:221,1,82.5,10|0,2:0|2:0,2:0:0:0:
419,266,79414,1,2,1:2:0:0:
437,367,79591,2,0,P|392:354|354:349,1,82.5,2|8,1:2|2:0,2:0:0:0:
256,378,79944,70,0,P|200:328|226:234,1,165,6|0,1:2|1:2,2:0:0:0:
262,160,80473,2,0,P|252:114|248:71,1,82.5,10|0,2:0|2:0,2:0:0:0:
166,13,80826,1,2,1:2:0:0:
122,103,81002,2,0,P|132:149|136:192,1,82.5,2|8,1:2|2:0,2:0:0:0:
48,243,81355,6,0,P|7:279|23:390,1,165,6|0,1:2|1:2,2:0:0:0:
114,340,81885,2,0,P|162:328|208:328,1,82.5,8|0,2:0|2:0,2:0:0:0:
278,276,82238,1,0,1:2:0:0:
278,276,82414,2,0,P|330:304|379:323,1,82.5,0|8,1:2|2:0,2:0:0:0:
433,377,82767,2,0,P|487:323|464:225,1,165,2|0,1:2|1:2,2:0:0:0:
397,169,83297,2,0,P|357:179|318:194,1,82.5,10|0,2:0|2:0,2:0:0:0:
408,56,83650,2,0,P|436:85|468:111,1,82.5,2|0,1:2|1:2,2:0:0:0:
305,103,84002,2,0,P|316:63|322:22,1,82.5,10|0,2:0|2:0,2:0:0:0:
187,70,84355,70,0,L|226:246,1,165,6|8,1:2|2:0,2:0:0:0:
178,330,84885,2,0,P|219:284|324:309,1,165,2|0,1:2|1:2,2:0:0:0:
382,372,85414,1,8,2:0:0:0:
485,347,85591,6,0,B|504:312|504:312|489:241,1,82.5000025177003,6|0,1:2|0:0,2:0:0:0:
412,197,85944,2,0,B|393:232|393:232|408:303,1,82.5000025177003,2|8,1:2|0:0,2:0:0:0:
504,150,86297,2,0,P|454:104|417:107,1,82.5000025177003,2|0,1:2|0:0,0:0:0:0:
336,132,86650,2,0,P|304:158|264:161,1,82.5000025177003,2|8,1:2|0:0,0:0:0:0:
166,79,87002,1,6,1:2:0:0:
256,192,87091,12,0,88414,2:0:0:0:
