osu file format v14

[General]
AudioFilename: audio.mp3
AudioLeadIn: 0
PreviewTime: 58761
Countdown: 0
SampleSet: None
StackLeniency: 0.3
Mode: 0
LetterboxInBreaks: 0
WidescreenStoryboard: 0

[Editor]
Bookmarks: 15754,49269
DistanceSpacing: 0.5
BeatDivisor: 4
GridSize: 4
TimelineZoom: 1

[Metadata]
Title:Hitoribocchi no Monologue
TitleUnicode:ひとりぼっちのモノローグ
Artist:Chisaki Morishita, Minami Tanaka, Akari Kito, Yuko Kurose
ArtistUnicode:一里ぼっち(CV:森下千咲)、砂尾なこ(CV:田中美海)、本庄アル(CV:鬼頭明里)、ソトカ・ラキター(CV:黒瀬ゆうこ)
Creator:Inactive User
Version:?
Source:ひとりぼっちの○○生活
Tags:Wahaha
BeatmapID:2185686
BeatmapSetID:1045540

[Difficulty]
HPDrainRate:5
CircleSize:5
OverallDifficulty:7
ApproachRate:9.5
SliderMultiplier:2.5
SliderTickRate:1

[Events]
//Background and Video events
0,0,"Picture.jpg",0,0
//Break Periods
//Storyboard Layer 0 (Background)
//Storyboard Layer 1 (Fail)
//Storyboard Layer 2 (Pass)
//Storyboard Layer 3 (Foreground)
//Storyboard Layer 4 (Overlay)
//Storyboard Sound Samples

[TimingPoints]
4504,468.75,4,1,0,100,1,0
10129,-80,4,1,0,100,0,0
15519,-71.4285714285714,4,1,0,100,0,0
15754,-66.6666666666667,4,1,0,100,0,0
17629,-25,4,1,0,100,0,0
18800,-50,4,1,0,100,0,0
23722,-57.1428571428571,4,1,0,100,0,0
24191,-66.6666666666667,4,1,0,100,0,0
24660,-80,4,1,0,100,0,0
25129,-349.65034965035,4,1,0,100,0,0
27004,-100,4,1,0,100,0,0
30754,-80,4,1,0,100,0,0
32629,-50,4,1,0,100,0,0
33800,-80,4,1,0,100,0,0
37316,-50,4,1,0,100,0,0
38019,-80,4,1,0,100,0,0
40129,-50,4,1,0,100,0,0
41066,-80,4,1,0,100,0,0
42004,-100,4,1,0,100,0,0
49269,-66.6666666666667,4,1,0,100,0,0
53254,-133.333333333333,4,1,0,100,0,0
53957,-66.6666666666667,4,1,0,100,0,0
57004,-155.52099533437,4,1,0,100,0,0
57941,-33.3333333333333,4,1,0,100,0,0
58879,-40,4,1,0,100,0,1
64504,-66.6666666666667,4,1,0,100,0,1
65207,-57.1428571428571,4,1,0,100,0,1
65441,-50,4,1,0,100,0,1
66379,-40,4,1,0,100,0,1
72004,-50,4,1,0,100,0,1
72941,-57.1428571428571,4,1,0,100,0,1
73293,-66.6666666666667,4,1,0,100,0,1
73644,-80,4,1,0,100,0,1
73879,-100,4,1,0,100,0,1
76691,-66.6666666666667,4,1,0,100,0,1
77629,-50,4,1,0,100,0,1
79504,-40,4,1,0,100,0,1
80910,-66.6666666666667,4,1,0,100,0,0
87004,-50,4,1,0,100,0,0
87941,-25,4,1,0,100,0,0

[HitObjects]
123,40,4504,6,0,P|37:187|182:197,1,375
389,40,5441,2,0,P|475:187|330:197,1,375
168,239,6379,2,0,P|254:321|337:250,1,250
400,132,7082,1,0,0:0:0:0:
256,132,7198,1,0,0:0:0:0:
112,132,7316,1,0,0:0:0:0:
400,132,7550,1,0,0:0:0:0:
112,132,7785,1,0,0:0:0:0:
400,132,8019,1,0,0:0:0:0:
102,104,8254,6,0,B|73:140|73:140|58:204,1,62.5
66,255,8488,1,0,0:0:0:0:
76,329,8605,1,0,0:0:0:0:
133,280,8722,1,0,0:0:0:0:
298,95,8957,5,0,0:0:0:0:
402,75,9074,1,0,0:0:0:0:
501,112,9191,1,0,0:0:0:0:
379,215,9425,1,0,0:0:0:0:
313,253,9543,1,0,0:0:0:0:
380,286,9660,1,0,0:0:0:0:
194,338,9894,5,0,0:0:0:0:
142,303,10011,1,0,0:0:0:0:
90,266,10129,2,0,L|32:56,1,156.25
103,0,10480,2,0,L|161:210,1,156.25
173,244,10832,2,0,B|195:273|195:273|276:300,1,78.125
397,259,11066,2,0,L|187:201,1,156.25
48,115,11418,2,0,L|258:173,1,156.25
469,227,11769,1,0,0:0:0:0:
363,51,12004,5,0,0:0:0:0:
338,149,12238,1,0,0:0:0:0:
363,51,12472,1,0,0:0:0:0:
395,215,12707,1,0,0:0:0:0:
363,51,12941,1,0,0:0:0:0:
305,159,13175,1,0,0:0:0:0:
363,51,13410,1,0,0:0:0:0:
428,234,13644,1,0,0:0:0:0:
363,51,13879,1,0,0:0:0:0:
270,167,14113,1,0,0:0:0:0:
363,51,14347,1,0,0:0:0:0:
460,250,14582,1,0,0:0:0:0:
363,51,14816,1,0,0:0:0:0:
242,180,15050,1,0,0:0:0:0:
363,51,15285,1,0,0:0:0:0:
486,267,15519,6,0,P|468:314|501:387,1,87.499997329712
407,205,15754,6,0,B|441:106|441:106|503:33,1,187.500007152558
509,164,16222,2,0,L|349:1,1,187.500007152558
259,69,16691,2,0,B|266:164|266:164|348:97,1,187.500007152558
259,69,17043,2,0,P|149:89|65:55,1,187.500007152558
0,0,17394,1,0,0:0:0:0:
2,345,17629,6,0,P|93:312|9:293,1,250
143,236,17863,2,0,P|139:139|95:213,1,250
302,69,18097,2,0,P|208:42|265:106,1,250
387,151,18332,2,0,P|332:231|411:197,1,250
445,297,18566,2,0,P|504:373|496:287,1,250
365,355,18800,5,0,0:0:0:0:
313,283,18918,1,0,0:0:0:0:
242,231,19035,1,0,0:0:0:0:
156,210,19152,1,0,0:0:0:0:
70,225,19269,1,0,0:0:0:0:
11,290,19386,1,0,0:0:0:0:
9,378,19504,6,0,P|145:354|264:371,1,250
459,313,19855,2,0,B|331:279|331:279|199:280,1,250
94,282,20207,1,0,0:0:0:0:
94,51,20441,2,0,P|151:171|298:195,1,250
419,161,20793,2,0,B|313:87|313:87|176:106,1,250
45,163,21144,1,0,0:0:0:0:
306,20,21379,2,0,P|331:182|305:302,1,250
180,384,21730,2,0,B|201:249|201:249|257:135,1,250
398,0,22082,6,0,B|455:29|455:29|495:121,1,125
442,214,22316,2,0,L|384:50,1,125
303,267,22550,2,0,L|361:103,1,125
229,313,22785,2,0,L|171:149,1,125
92,382,23019,2,0,L|150:218,1,125
35,32,23254,6,0,P|57:152|13:274,1,250
137,82,23722,2,0,P|134:217|97:304,1,218.750002086163
222,145,24191,2,0,P|218:239|172:337,1,187.500007152558
306,201,24660,2,0,P|292:299|263:360,1,156.25
355,371,25129,2,0,P|378:313|389:252,1,125
481,265,26066,2,0,P|470:326|447:384,1,125
466,148,27004,5,0,0:0:0:0:
444,136,27238,1,0,0:0:0:0:
420,126,27472,1,0,0:0:0:0:
395,120,27707,1,0,0:0:0:0:
370,120,27941,1,0,0:0:0:0:
345,125,28175,1,0,0:0:0:0:
323,137,28410,1,0,0:0:0:0:
298,296,28644,1,0,0:0:0:0:
108,304,28879,5,0,0:0:0:0:
113,279,29113,1,0,0:0:0:0:
118,254,29347,1,0,0:0:0:0:
123,229,29582,1,0,0:0:0:0:
128,204,29816,1,0,0:0:0:0:
164,46,30050,1,0,0:0:0:0:
273,175,30285,2,0,P|366:166|430:147,1,125
499,66,30754,5,0,0:0:0:0:
320,53,30988,1,0,0:0:0:0:
284,69,31105,1,0,0:0:0:0:
248,84,31222,2,0,P|183:90|77:80,1,156.25
22,175,31691,2,0,P|12:228|26:247,1,78.125
48,175,31925,2,0,P|67:251|30:352,1,156.25
149,198,32394,1,0,0:0:0:0:
259,148,32629,6,0,L|53:66,1,125
306,209,32863,2,0,L|112:317,1,125
382,210,33097,2,0,L|344:428,1,125
430,151,33332,2,0,L|576:317,1,125
371,103,33566,2,0,L|152:65,1,125
125,51,33800,1,0,0:0:0:0:
32,31,33918,1,0,0:0:0:0:
67,117,34035,2,0,B|174:151|174:151|258:154,1,156.25
382,24,34504,6,0,P|420:51|447:102,1,78.125
425,153,34738,1,0,0:0:0:0:
428,183,34855,1,0,0:0:0:0:
459,254,34972,1,0,0:0:0:0:
448,283,35089,1,0,0:0:0:0:
379,322,35207,1,0,0:0:0:0:
390,350,35324,1,0,0:0:0:0:
310,287,35441,1,0,0:0:0:0:
280,296,35558,1,0,0:0:0:0:
308,190,35675,1,0,0:0:0:0:
309,158,35793,2,0,P|272:113|245:88,1,78.125
173,42,36144,1,0,0:0:0:0:
13,38,36379,5,0,0:0:0:0:
21,67,36496,1,0,0:0:0:0:
73,124,36613,1,0,0:0:0:0:
70,155,36730,1,0,0:0:0:0:
44,228,36847,1,0,0:0:0:0:
66,250,36964,1,0,0:0:0:0:
140,275,37082,1,0,0:0:0:0:
170,267,37199,1,0,0:0:0:0:
248,207,37316,6,0,P|211:157|136:167,1,125
308,77,37550,2,0,B|371:62|371:62|469:78,1,125
330,177,37785,2,0,L|367:320,1,125
437,376,38019,5,0,0:0:0:0:
449,339,38136,1,0,0:0:0:0:
461,301,38254,2,0,P|479:245|528:157,1,156.25
411,201,38605,1,0,0:0:0:0:
339,233,38722,1,0,0:0:0:0:
218,363,38957,2,0,P|299:374|402:358,1,156.25
297,301,39425,1,0,0:0:0:0:
230,259,39543,1,0,0:0:0:0:
152,254,39660,1,0,0:0:0:0:
88,378,39894,5,0,0:0:0:0:
197,197,40129,2,0,P|135:131|77:95,1,125
304,119,40363,2,0,P|256:78|218:29,1,125
199,268,40597,2,0,P|170:181|133:124,1,125
374,120,40831,2,0,P|313:103|258:74,1,125
170,333,41066,1,0,0:0:0:0:
437,91,41300,1,0,0:0:0:0:
283,295,41535,2,0,P|305:353|358:410,1,78.125
364,297,41769,2,0,P|350:260|328:228,1,78.125
200,103,42004,5,0,0:0:0:0:
52,30,42472,2,0,P|38:76|52:186,1,125
116,207,42941,2,0,B|112:317|112:317|89:353,1,125
24,383,43410,1,0,0:0:0:0:
27,234,43644,1,0,0:0:0:0:
110,84,43879,6,0,B|144:60|144:60|249:62,1,125
272,121,44230,1,0,0:0:0:0:
315,60,44347,2,0,B|398:61,1,62.5
453,61,44582,2,0,L|494:14,1,62.5
412,124,44816,2,0,P|400:205|418:277,1,125
470,362,45285,2,0,L|323:363,1,125
152,360,45754,5,0,0:0:0:0:
156,159,46222,2,0,P|111:210|88:277,1,125
227,362,46691,2,0,B|295:362|295:362|363:352,1,125
410,307,47043,2,0,L|462:170,1,125
484,121,47394,1,0,0:0:0:0:
351,32,47629,2,0,P|415:9|497:0,1,125
426,83,47980,2,0,B|382:134|382:134|325:151,1,125
251,153,48332,1,0,0:0:0:0:
176,15,48566,2,0,L|137:155,1,125
82,260,49269,5,0,0:0:0:0:
103,351,49386,1,0,0:0:0:0:
115,238,49504,1,0,0:0:0:0:
66,115,49738,1,0,0:0:0:0:
46,23,49855,1,0,0:0:0:0:
105,120,49973,1,0,0:0:0:0:
223,323,50207,5,0,0:0:0:0:
311,293,50324,1,0,0:0:0:0:
400,318,50441,1,0,0:0:0:0:
359,52,50675,1,0,0:0:0:0:
264,52,50793,1,0,0:0:0:0:
187,106,50910,1,0,0:0:0:0:
322,186,51144,6,0,L|539:206,1,187.500007152558
443,10,51730,2,0,B|446:105|446:105|419:208,1,187.500007152558
371,274,52082,1,0,0:0:0:0:
203,345,52316,2,0,P|302:361|419:397,1,187.500007152558
485,371,52785,2,0,L|412:166,1,187.500007152558
266,12,53254,2,0,L|339:217,1,187.500007152558
385,314,53957,5,0,0:0:0:0:
214,205,54191,1,0,0:0:0:0:
184,182,54308,1,0,0:0:0:0:
52,136,54543,1,0,0:0:0:0:
275,110,54894,1,0,0:0:0:0:
108,19,55129,6,0,P|160:99|175:220,1,187.500007152558
158,345,55597,1,0,0:0:0:0:
232,60,55832,1,0,0:0:0:0:
439,270,56066,1,0,0:0:0:0:
82,178,56300,1,0,0:0:0:0:
315,359,56535,1,0,0:0:0:0:
354,68,56769,1,0,0:0:0:0:
146,265,57004,6,0,P|144:373|206:280,1,281.250010728836
140,122,57941,2,0,P|88:70|162:73,1,187.500007152558
330,54,58175,2,0,P|382:2|380:76,1,187.500007152558
421,223,58410,2,0,P|473:275|400:273,1,187.500007152558
240,309,58644,2,0,P|188:361|191:288,1,187.500007152558
183,151,58879,6,0,P|116:95|14:56,1,156.25
180,44,59113,2,0,B|328:47|328:47|483:113,1,312.5
390,159,59582,1,0,0:0:0:0:
277,313,59816,2,0,P|177:368|242:273,1,312.5
332,266,60168,2,0,B|382:327|382:327|495:368,1,156.25
500,267,60519,1,0,0:0:0:0:
409,139,60754,2,0,P|437:65|507:1,1,156.25
333,64,60988,1,0,0:0:0:0:
262,97,61105,2,0,B|182:101|182:101|65:67,1,156.25
11,159,61457,5,0,0:0:0:0:
35,265,61574,1,0,0:0:0:0:
59,371,61691,1,0,0:0:0:0:
107,159,61925,1,0,0:0:0:0:
298,196,62160,1,0,0:0:0:0:
177,10,62394,1,0,0:0:0:0:
189,229,62629,2,0,L|202:394,1,156.25
269,317,62863,5,0,0:0:0:0:
369,359,62980,1,0,0:0:0:0:
268,261,63097,1,0,0:0:0:0:
177,117,63332,1,0,0:0:0:0:
109,77,63449,1,0,0:0:0:0:
34,54,63566,1,0,0:0:0:0:
339,186,63800,1,0,0:0:0:0:
399,201,63918,1,0,0:0:0:0:
461,203,64035,1,0,0:0:0:0:
267,30,64269,5,0,0:0:0:0:
258,59,64386,1,0,0:0:0:0:
249,89,64504,2,0,B|225:186|283:181|256:280,1,187.500007152558
179,267,64855,2,0,P|232:347|332:298,1,187.500007152558
378,263,65207,2,0,B|400:210|400:210|456:174,1,109.375001043081
353,0,65441,6,0,L|402:151,1,125
304,84,65675,2,0,L|255:235,1,125
177,165,65910,2,0,L|226:316,1,125
128,249,66144,2,0,L|79:400,1,125
17,307,66379,6,0,B|54:261|50:166|4:130|4:130|66:-4,1,312.5
131,12,66730,1,0,0:0:0:0:
206,32,66847,2,0,B|272:84|356:81|356:81|426:131|426:131|364:137|319:193,1,312.5
166,93,67316,2,0,P|108:196|257:243,1,312.5
326,220,67668,1,0,0:0:0:0:
402,207,67785,2,0,P|460:310|311:357,1,312.5
142,360,68254,6,0,B|192:187|192:187|304:113,1,312.5
433,121,68605,2,0,P|440:241|486:147,1,312.5
442,313,68957,1,0,0:0:0:0:
354,347,69074,1,0,0:0:0:0:
265,377,69191,1,0,0:0:0:0:
75,317,69425,1,0,0:0:0:0:
395,154,69660,1,0,0:0:0:0:
60,47,69894,1,0,0:0:0:0:
216,91,70129,2,0,L|245:308,1,156.25
317,191,70363,5,0,0:0:0:0:
428,246,70480,1,0,0:0:0:0:
274,217,70597,1,0,0:0:0:0:
91,90,70832,1,0,0:0:0:0:
46,8,70949,1,0,0:0:0:0:
69,130,71066,1,0,0:0:0:0:
110,323,71300,1,0,0:0:0:0:
170,340,71418,1,0,0:0:0:0:
232,344,71535,1,0,0:0:0:0:
483,337,71769,5,0,0:0:0:0:
476,290,71886,1,0,0:0:0:0:
478,242,72004,2,0,B|485:170|472:52|472:52|453:85|419:104,1,250
340,128,72355,2,0,P|393:194|359:370,1,250
327,247,72707,2,0,B|286:202|286:202|177:166,1,125
34,173,72941,2,0,P|136:120|258:81,1,218.750002086163
160,184,73293,2,0,P|167:272|213:367,1,187.500007152558
244,265,73644,2,0,P|270:298|313:324,1,78.125
452,384,73879,6,0,B|471:324|471:324|436:276|436:276|462:219|462:219|426:166|426:166|458:114|458:114|418:63|418:63|455:-10,1,437.5
354,123,74816,2,0,P|329:248|96:133,1,437.5
91,46,75754,2,0,B|264:147|264:147|373:367,1,437.5
248,342,76691,6,0,B|154:317|154:317|62:326|62:326|121:262|191:252|191:252|110:151|110:151|58:226|58:226|34:175|-19:149,1,656.250025033952
49,32,77629,2,0,B|157:72|245:174|245:174|342:79|473:64,1,500
401,180,78332,1,0,0:0:0:0:
419,346,78566,1,0,0:0:0:0:
191,282,78800,1,0,0:0:0:0:
291,274,78918,1,0,0:0:0:0:
390,266,79035,2,0,P|488:231|491:85,1,250
370,17,79504,6,0,B|319:76|319:76|208:89,1,156.25
1,38,79738,2,0,L|71:193,1,156.25
222,360,79972,2,0,L|152:205,1,156.25
112,91,80207,1,0,0:0:0:0:
382,219,80324,2,0,P|347:291|278:299,1,156.25
88,247,80558,1,0,0:0:0:0:
209,149,80675,1,0,0:0:0:0:
366,156,80793,1,0,0:0:0:0:
487,58,80910,1,0,0:0:0:0:
498,214,81144,5,0,0:0:0:0:
498,214,81261,1,0,0:0:0:0:
498,214,81379,2,0,P|471:296|345:329,1,187.500007152558
218,255,81847,2,0,B|309:233|309:233|428:243,1,187.500007152558
305,327,82316,2,0,P|214:330|121:361,1,187.500007152558
138,266,82668,1,0,0:0:0:0:
138,266,82785,2,0,B|98:244|98:244|23:109,1,187.500007152558
168,22,83254,6,0,P|160:73|142:110,1,93.7500035762788
226,123,83488,2,0,P|197:166|165:192,1,93.7500035762788
327,10,83722,2,0,L|455:-4,1,93.7500035762788
409,93,83957,2,0,L|519:26,1,93.7500035762788
263,58,84191,1,0,0:0:0:0:
488,146,84425,1,0,0:0:0:0:
478,191,84543,2,0,P|410:267|317:296,1,187.500007152558
245,260,84894,5,0,0:0:0:0:
201,176,85011,1,0,0:0:0:0:
210,82,85129,2,0,P|289:118|371:206,1,187.500007152558
467,376,85597,2,0,B|497:280|497:280|491:143,1,187.500007152558
381,0,86066,2,0,B|354:36|354:36|364:128|333:226,1,187.500007152558
239,190,86418,1,0,0:0:0:0:
194,205,86535,2,0,B|100:176|100:176|25:115,1,187.500007152558
97,0,87004,6,0,L|149:157,1,125
270,85,87238,2,0,L|218:242,1,125
97,170,87472,2,0,L|149:327,1,125
270,255,87707,2,0,L|218:412,1,125
376,318,87941,6,0,P|465:321|393:291,1,250
364,146,88175,2,0,P|366:57|336:129,1,250
148,146,88410,2,0,P|145:57|175:129,1,250
136,318,88644,2,0,P|47:321|119:291,1,250
256,192,88879,12,0,90754,0:0:0:0:
