osu file format v14

[General]
AudioFilename: audio.mp3
AudioLeadIn: 0
PreviewTime: 71722
Countdown: 0
SampleSet: Soft
StackLeniency: 0.7
Mode: 0
LetterboxInBreaks: 0
WidescreenStoryboard: 1

[Editor]
DistanceSpacing: 0.4
BeatDivisor: 4
GridSize: 4
TimelineZoom: 1

[Metadata]
Title:Hitorigoto (TV Size)
TitleUnicode:Hitorigoto (TV Size)
Artist:Chippy
ArtistUnicode:Chippy
Creator:arrivalNA
Version:Incest
Source:Eromanga-Sensei
Tags:chippy claris hitorigoto cover best singer NA
BeatmapID:1352274
BeatmapSetID:637413

[Difficulty]
HPDrainRate:4
CircleSize:4.5
OverallDifficulty:7
ApproachRate:9
SliderMultiplier:1.5
SliderTickRate:1

[Events]
//Background and Video events
0,0,"Screenshot (20).png",0,0
//Break Periods
//Storyboard Layer 0 (Background)
//Storyboard Layer 1 (Fail)
//Storyboard Layer 2 (Pass)
//Storyboard Layer 3 (Foreground)
//Storyboard Layer 4 (Overlay)
//Storyboard Sound Samples

[TimingPoints]
18995,363.636363636364,4,2,0,100,1,0

[Colours]
Combo1 : 52,164,178
Combo2 : 254,194,206
Combo3 : 179,220,233
Combo4 : 235,142,173

[HitObjects]
218,160,18995,5,4,1:2:0:0:
425,248,19176,1,0,1:0:0:0:
340,108,19358,6,0,P|375:85|417:76,1,75
268,304,19722,2,0,P|230:284|201:253,1,75
224,60,20085,2,0,P|225:102|213:143,1,75
432,64,20449,5,0,1:0:0:0:
277,218,20631,1,0,1:0:0:0:
360,200,20813,6,0,L|277:219,1,75
76,76,21176,2,0,L|134:137,1,75
392,284,21540,2,0,L|415:203,1,75
387,111,21904,5,0,1:0:0:0:
331,243,22085,1,0,1:0:0:0:
224,56,22267,1,0,0:0:0:0:
164,256,22449,1,0,0:0:0:0:
384,188,22631,1,0,0:0:0:0:
246,55,22813,1,0,0:0:0:0:
220,212,22995,1,0,0:0:0:0:
456,48,23176,1,0,0:0:0:0:
416,217,23358,5,4,1:2:0:0:
328,104,23540,2,0,P|259:59|179:78,1,150
122,199,24085,6,0,B|104:162|104:162|136:136,1,75,4|0,3:0|0:0,0:0:0:0:
231,61,24328,2,0,B|270:63|270:63|256:100,1,75,4|0,3:0|0:0,0:0:0:0:
256,220,24631,2,0,B|254:259|254:259|217:245,1,75,4|0,3:0|0:0,0:0:0:0:
332,96,24995,1,0,1:0:0:0:
156,100,25176,6,0,L|167:184,1,75
400,244,25540,2,0,L|322:211,1,75
308,88,25904,2,0,L|375:36,1,75
448,292,26267,5,0,1:0:0:0:
268,200,26449,1,0,1:0:0:0:
420,132,26631,6,0,P|428:90|427:47,1,75
164,116,26995,2,0,P|196:143|234:164,1,75
164,288,27359,2,0,P|124:303|88:325,1,75
340,340,27722,5,0,1:0:0:0:
364,164,27904,1,0,1:0:0:0:
164,272,28085,5,0,0:0:0:0:
245,60,28267,1,0,0:0:0:0:
328,275,28449,1,0,0:0:0:0:
130,144,28631,1,0,0:0:0:0:
328,275,28813,1,0,0:0:0:0:
364,164,28994,1,0,0:0:0:0:
184,56,29176,5,4,1:2:0:0:
88,272,29358,2,0,P|170:286|237:237,1,150
374,100,29903,6,0,B|391:136|391:136|386:180,1,75,4|0,3:0|0:0,0:0:0:0:
291,251,30146,2,0,B|251:248|251:248|212:224,1,75,4|0,3:0|0:0,0:0:0:0:
448,224,30631,6,0,P|450:267|438:307,1,75,8|0,0:0|0:0,0:0:0:0:
318,212,30995,2,0,P|316:169|328:129,1,75,8|0,0:0|0:0,0:0:0:0:
449,139,31358,1,2,0:0:0:0:
224,174,31540,1,0,0:0:0:0:
366,278,31722,1,8,0:0:0:0:
200,80,31904,6,0,L|115:70,1,75,0|2,0:0|0:0,0:0:0:0:
120,232,32267,2,0,L|228:220,1,75,0|8,0:0|0:0,0:0:0:0:
344,184,32631,2,0,P|335:226|344:267,1,75,0|2,0:0|0:0,0:0:0:0:
307,158,33176,1,0,0:0:0:0:
444,140,33358,5,0,0:0:0:0:
416,144,33449,1,0,0:0:0:0:
392,148,33540,2,0,L|300:160,1,75,4|0,0:0|0:0,0:0:0:0:
112,300,33904,2,0,L|196:289,1,75,8|0,0:0|0:0,0:0:0:0:
120,92,34267,1,2,0:0:0:0:
336,284,34449,1,0,0:0:0:0:
197,194,34631,1,8,0:0:0:0:
148,284,34813,6,0,P|106:293|64:286,1,75,0|2,0:0|0:0,0:0:0:0:
168,80,35176,2,0,P|209:71|251:78,1,75,0|8,0:0|0:0,0:0:0:0:
349,169,35540,1,0,0:0:0:0:
323,193,35631,1,0,0:0:0:0:
295,220,35722,1,2,0:0:0:0:
429,262,35904,1,0,0:0:0:0:
164,296,36085,1,8,0:0:0:0:
259,155,36267,1,0,0:0:0:0:
456,104,36449,6,0,L|356:120,1,75,4|0,0:0|0:0,0:0:0:0:
76,304,36813,2,0,L|176:320,1,75,8|0,0:0|0:0,0:0:0:0:
180,177,37176,1,2,0:0:0:0:
372,289,37358,1,0,0:0:0:0:
202,299,37540,1,8,0:0:0:0:
120,304,37722,6,0,P|165:293|204:300,1,75,0|2,0:0|0:0,0:0:0:0:
404,172,38131,2,0,P|359:183|328:180,1,75,0|8,0:0|0:0,0:0:0:0:
88,80,38450,2,0,L|196:56,1,75,0|2,0:0|0:0,0:0:0:0:
277,217,38813,1,0,0:0:0:0:
267,177,38904,1,0,0:0:0:0:
256,145,38995,1,8,0:0:0:0:
372,44,39176,1,0,0:0:0:0:
388,64,39267,1,0,0:0:0:0:
400,88,39358,6,0,P|415:127|410:169,1,75,4|0,0:0|0:0,0:0:0:0:
200,328,39722,2,0,P|184:288|189:246,1,75,8|0,0:0|0:0,0:0:0:0:
235,130,40085,1,2,0:0:0:0:
444,128,40267,1,0,0:0:0:0:
406,314,40449,1,8,0:0:0:0:
332,324,40631,6,0,L|416:313,1,75,0|4,0:0|0:0,0:0:0:0:
368,72,40995,2,0,L|283:82,1,75,0|8,0:0|0:0,0:0:0:0:
112,272,41358,1,0,0:0:0:0:
152,280,41449,1,0,0:0:0:0:
196,288,41540,1,4,0:0:0:0:
108,45,41722,1,0,0:0:0:0:
101,72,41813,1,0,0:0:0:0:
94,100,41904,2,0,L|86:160,1,37.5,10|2,0:0|0:0,0:0:0:0:
166,262,42085,2,0,L|160:219,1,37.5,2|2,0:0|0:0,0:0:0:0:
268,154,42267,6,0,P|248:187|266:238,1,75,4|0,0:0|0:0,0:0:0:0:
440,264,42631,2,0,P|442:221|438:179,1,75,8|0,0:0|0:0,0:0:0:0:
92,60,42995,2,0,L|175:74,1,75,2|0,0:0|0:0,0:0:0:0:
416,304,43358,2,0,L|332:319,1,75,8|0,0:0|0:0,0:0:0:0:
168,232,43722,6,0,P|181:272|185:314,1,75,2|0,0:0|0:0,0:0:0:0:
436,128,44085,2,0,P|439:85|452:45,1,75,8|0,0:0|0:0,0:0:0:0:
180,112,44450,2,0,L|96:120,1,75,2|0,0:0|0:0,0:0:0:0:
317,259,44813,1,0,0:0:0:0:
117,263,44995,1,0,0:0:0:0:
103,243,45085,1,0,0:0:0:0:
104,219,45176,5,2,0:0:0:0:
448,52,45358,1,0,0:0:0:0:
282,179,45540,1,8,0:0:0:0:
432,288,45722,1,0,0:0:0:0:
464,144,45904,1,2,0:0:0:0:
280,284,46085,1,0,0:0:0:0:
464,252,46267,1,8,0:0:0:0:
261,142,46449,1,0,0:0:0:0:
392,56,46631,5,2,0:0:0:0:
128,164,46813,2,0,L|116:80,1,75,0|8,0:0|0:0,0:0:0:0:
280,178,47176,2,0,L|268:262,1,75,0|2,0:0|0:0,0:0:0:0:
395,265,47540,1,0,0:0:0:0:
280,178,47722,1,8,0:0:0:0:
129,249,47904,1,8,0:0:0:0:
124,231,47995,1,8,0:0:0:0:
120,216,48085,6,0,P|115:173|124:132,1,75,4|0,0:0|0:0,0:0:0:0:
384,232,48449,2,0,P|392:273|388:316,1,75,8|0,0:0|0:0,0:0:0:0:
104,80,48813,2,0,L|188:94,1,75,2|0,0:0|0:0,0:0:0:0:
356,216,49176,2,0,L|273:230,1,75,8|0,0:0|0:0,0:0:0:0:
92,236,49540,6,0,L|105:319,1,75,2|0,0:0|0:0,0:0:0:0:
280,280,49904,2,0,L|293:197,1,75,8|0,0:0|0:0,0:0:0:0:
250,120,50267,2,0,P|207:124|166:114,1,75,2|0,0:0|0:0,0:0:0:0:
305,236,50631,2,0,P|347:231|388:241,1,75,8|0,0:0|0:0,0:0:0:0:
340,108,50995,5,2,0:0:0:0:
234,187,51176,1,0,0:0:0:0:
116,80,51358,1,8,0:0:0:0:
340,108,51540,1,0,0:0:0:0:
211,146,51722,1,2,0:0:0:0:
248,268,51904,1,0,0:0:0:0:
198,149,52085,1,8,0:0:0:0:
300,176,52267,1,0,0:0:0:0:
277,75,52449,5,2,0:0:0:0:
440,72,52631,2,0,L|432:156,1,75,0|8,0:0|0:0,0:0:0:0:
207,176,52995,2,0,L|199:91,1,75,0|2,0:0|0:0,0:0:0:0:
284,158,53358,1,0,0:0:0:0:
203,266,53540,1,8,0:0:0:0:
284,158,53722,1,8,0:0:0:0:
304,136,53813,1,8,0:0:0:0:
328,120,53904,6,0,P|364:100|468:124,1,150,4|0,0:0|0:0,0:0:0:0:
216,320,54631,2,0,P|180:340|76:316,1,150,8|0,0:0|0:0,0:0:0:0:
242,198,55176,1,0,0:0:0:0:
452,256,55358,6,0,L|460:336,1,75,2|0,0:0|0:0,0:0:0:0:
216,288,55721,2,0,P|176:272|116:296,2,75,2|8|0,0:0|0:0|0:0,0:0:0:0:
256,208,56267,1,0,0:0:0:0:
240,48,56449,1,0,0:0:0:0:
100,112,56631,1,0,0:0:0:0:
432,308,56813,6,0,L|400:232,1,75,6|0,0:0|0:0,0:0:0:0:
96,232,57176,2,0,L|132:304,1,75
308,72,57540,2,0,L|232:104,1,75,8|0,0:0|0:0,0:0:0:0:
268,320,57904,2,0,L|332:264,1,75,0|8,0:0|0:0,0:0:0:0:
444,64,58267,5,2,0:0:0:0:
241,141,58449,1,8,0:0:0:0:
348,248,58631,1,2,0:0:0:0:
248,152,58995,5,0,0:0:0:0:
228,151,59085,1,0,0:0:0:0:
212,143,59176,1,0,0:0:0:0:
228,56,59359,5,0,0:0:0:0:
246,60,59449,1,0,0:0:0:0:
264,65,59540,1,0,0:0:0:0:
367,72,59722,6,0,P|365:156|332:215,1,150,4|8,0:0|0:0,0:0:0:0:
92,184,60267,1,0,0:0:0:0:
308,336,60449,2,0,L|404:316,1,75,2|0,0:0|0:0,0:0:0:0:
436,200,60813,1,0,0:0:0:0:
395,80,60995,2,0,L|298:54,1,75,8|0,0:0|0:0,0:0:0:0:
274,228,61540,1,0,0:0:0:0:
433,179,61722,1,0,0:0:0:0:
233,313,61904,1,2,0:0:0:0:
148,160,62085,2,0,L|240:148,1,75,0|8,0:0|0:0,0:0:0:0:
176,256,62449,1,0,0:0:0:0:
56,224,62631,6,0,P|52:139|112:89,1,150,2|8,0:0|0:0,0:0:0:0:
236,324,63176,1,0,0:0:0:0:
336,68,63358,2,0,L|420:78,1,75,2|0,0:0|0:0,0:0:0:0:
224,272,63722,2,0,L|139:282,1,75,8|0,0:0|0:0,0:0:0:0:
400,116,64085,6,0,P|448:164|448:194,1,75,2|8,0:0|0:0,0:0:0:0:
344,296,64449,1,0,0:0:0:0:
320,184,64631,1,0,0:0:0:0:
188,205,64813,1,2,0:0:0:0:
320,184,64995,2,0,L|405:174,1,75,0|8,0:0|0:0,0:0:0:0:
460,44,65358,1,0,0:0:0:0:
160,132,65540,6,0,P|165:216|190:273,1,112.5,4|8,0:0|0:0,0:0:0:0:
300,92,66085,1,0,0:0:0:0:
436,208,66267,2,0,L|351:219,1,75,2|0,0:0|0:0,0:0:0:0:
108,276,66631,2,0,L|192:287,1,75,8|0,0:0|0:0,0:0:0:0:
396,260,66995,6,0,P|377:179|408:116,1,150,2|8,0:0|0:0,0:0:0:0:
108,104,67540,1,0,0:0:0:0:
140,308,67721,1,2,0:0:0:0:
351,246,67904,1,0,0:0:0:0:
288,92,68085,2,0,P|272:132|275:174,1,75,8|0,0:0|0:0,0:0:0:0:
312,256,68449,6,0,P|232:227|148:244,1,150,2|8,0:0|0:0,0:0:0:0:
68,276,68995,1,0,0:0:0:0:
64,132,69176,2,0,L|75:47,1,75,2|0,0:0|0:0,0:0:0:0:
268,96,69540,2,0,L|279:180,1,75,8|0,0:0|0:0,0:0:0:0:
184,276,69903,6,0,P|142:271|102:286,1,75,2|0,0:0|0:0,0:0:0:0:
276,196,70267,2,0,P|317:200|357:185,1,75,8|0,0:0|0:0,0:0:0:0:
220,112,70631,2,0,P|178:108|138:122,1,75,2|0,0:0|0:0,0:0:0:0:
36,204,70995,2,0,P|77:208|117:193,1,75,8|8,0:0|0:0,0:0:0:0:
220,224,71267,1,0,0:0:0:0:
252,240,71358,1,8,0:0:0:0:
284,256,71449,1,2,0:1:0:0:
320,272,71540,1,0,0:0:0:0:
424,320,71904,2,0,L|436:236,1,75,2|0,0:1|0:0,0:0:0:0:
241,124,72267,5,0,0:0:0:0:
212,110,72357,5,0,0:0:0:0:
183,103,72448,1,0,0:0:0:0:
152,106,72539,1,0,0:0:0:0:
125,118,72630,1,0,0:0:0:0:
102,138,72721,1,0,0:0:0:0:
97,161,72813,2,0,L|191:165,1,75,4|0,0:0|0:0,0:0:0:0:
472,224,73176,2,0,L|378:220,1,75,8|0,0:0|0:0,0:0:0:0:
172,120,73540,1,2,0:0:0:0:
285,279,73722,5,0,0:0:0:0:
352,56,73904,1,8,0:0:0:0:
188,168,74085,1,0,0:0:0:0:
199,62,74267,5,4,0:1:0:0:
272,260,74449,1,0,0:0:0:0:
199,62,74631,1,0,0:0:0:0:
92,144,74813,2,0,L|100:232,1,75
326,164,75176,1,0,0:0:0:0:
163,279,75358,1,8,0:0:0:0:
296,116,75540,1,0,0:0:0:0:
92,44,75722,5,4,0:0:0:0:
212,200,75904,1,0,0:0:0:0:
332,52,76085,1,8,0:0:0:0:
296,180,76267,1,0,0:0:0:0:
196,208,76449,1,2,0:0:0:0:
340,43,76631,1,0,0:0:0:0:
288,176,76813,1,8,0:0:0:0:
384,48,76995,5,0,0:0:0:0:
484,160,77176,2,0,L|396:224,1,75
336,313,77540,1,0,0:0:0:0:
228,272,77722,1,0,0:0:0:0:
124,232,77904,1,4,0:1:0:0:
180,112,78085,1,0,0:0:0:0:
332,84,78267,1,8,0:0:0:0:
264,220,78449,1,0,0:0:0:0:
176,88,78631,5,4,0:0:0:0:
264,220,78813,1,0,0:0:0:0:
144,268,78995,2,0,P|155:222|152:180,1,75,8|0,0:0|0:0,0:0:0:0:
192,64,79358,1,2,0:0:0:0:
358,32,79540,1,0,0:0:0:0:
288,184,79722,1,8,0:0:0:0:
145,219,79904,1,0,0:0:0:0:
360,208,80085,5,4,0:0:0:0:
188,264,80267,1,0,0:0:0:0:
312,296,80449,1,8,0:0:0:0:
232,152,80631,1,0,0:0:0:0:
120,48,80813,2,0,P|110:93|116:132,1,75,2|0,0:0|0:0,0:0:0:0:
368,136,81176,2,0,P|378:90|368:44,1,75,8|0,0:0|0:0,0:0:0:0:
140,184,81540,6,0,L|241:191,1,75,4|0,0:0|0:0,0:0:0:0:
184,52,81904,2,0,L|91:45,1,75,8|0,0:0|0:0,0:0:0:0:
232,176,82267,2,0,L|333:183,1,75,4|0,0:0|0:0,0:0:0:0:
440,68,82631,2,0,L|347:61,1,75,8|0,0:0|0:0,0:0:0:0:
220,208,82995,5,4,0:1:0:0:
416,200,83176,1,0,0:0:0:0:
336,120,83358,1,12,0:1:0:0:
304,280,83540,1,0,0:0:0:0:
172,210,83722,5,4,0:1:0:0:
300,80,83904,1,4,0:1:0:0:
368,272,84085,1,0,0:0:0:0:
382,277,84175,1,0,0:0:0:0:
399,282,84266,1,0,0:0:0:0:
417,284,84357,1,0,0:0:0:0:
432,286,84449,6,0,L|389:214,1,75
371,53,84813,1,8,0:0:0:0:
170,53,84994,1,0,0:0:0:0:
270,216,85176,1,2,0:0:0:0:
344,180,85358,1,0,0:0:0:0:
184,164,85540,1,8,0:0:0:0:
344,180,85722,1,0,0:0:0:0:
328,40,85904,5,4,0:1:0:0:
164,104,86085,1,0,0:0:0:0:
336,192,86267,1,8,0:0:0:0:
189,162,86449,1,0,0:0:0:0:
156,148,86539,1,0,0:0:0:0:
124,135,86630,1,0,0:0:0:0:
396,60,86813,1,0,0:0:0:0:
312,204,86995,1,8,0:0:0:0:
160,116,87176,1,0,0:0:0:0:
156,148,87267,1,0,0:0:0:0:
156,180,87358,5,4,0:0:0:0:
432,128,87540,1,0,0:0:0:0:
256,140,87722,1,8,0:0:0:0:
352,136,87904,1,0,0:0:0:0:
200,176,88085,1,2,0:0:0:0:
256,44,88267,1,0,0:0:0:0:
308,224,88449,1,8,0:0:0:0:
194,170,88631,1,0,0:0:0:0:
464,52,88813,5,4,0:1:0:0:
392,224,88995,1,0,0:0:0:0:
348,104,89176,1,8,0:0:0:0:
440,204,89358,1,0,0:0:0:0:
441,250,89448,1,0,0:0:0:0:
443,297,89539,1,0,0:0:0:0:
272,264,89722,1,0,0:0:0:0:
377,112,89904,1,8,0:0:0:0:
368,208,90085,1,0,0:0:0:0:
372,236,90176,1,0,0:0:0:0:
376,268,90267,5,4,0:0:0:0:
64,176,90449,2,0,P|57:129|70:85,1,75,0|8,0:0|0:0,0:0:0:0:
448,96,90813,1,0,0:0:0:0:
272,312,90995,1,2,0:0:0:0:
144,164,91175,1,0,0:0:0:0:
400,200,91358,1,8,0:0:0:0:
184,264,91540,1,0,0:0:0:0:
80,100,91722,5,4,0:0:0:0:
184,264,91904,2,0,L|96:252,1,75,0|8,0:0|0:0,0:0:0:0:
276,48,92267,2,0,B|238:99|238:99|130:98,1,150
432,104,92813,1,8,0:0:0:0:
232,216,92995,1,0,0:0:0:0:
356,284,93176,6,0,P|364:197|323:142,1,150,4|8,0:1|0:0,0:0:0:0:
218,142,93722,1,0,0:0:0:0:
104,152,93904,2,0,P|96:239|145:295,1,150,4|8,0:1|0:0,0:0:0:0:
136,60,94631,6,0,L|43:69,1,75,4|0,0:1|0:0,0:0:0:0:
168,116,94995,2,0,L|261:106,1,75,8|0,0:0|0:0,0:0:0:0:
360,56,95358,1,2,0:0:0:0:
384,56,95449,1,2,0:0:0:0:
408,56,95540,1,2,0:0:0:0:
270,230,95722,1,8,0:0:0:0:
284,64,95904,1,0,0:0:0:0:
136,64,96085,6,0,P|99:147|125:217,1,150,4|8,0:0|0:0,0:0:0:0:
393,271,96631,1,0,0:0:0:0:
336,72,96813,2,0,L|260:124,1,75,2|0,0:0|0:0,0:0:0:0:
144,200,97176,1,8,0:0:0:0:
277,204,97358,1,0,0:0:0:0:
456,136,97540,6,0,P|410:140|365:153,1,75,2|0,0:0|0:0,0:0:0:0:
140,136,97904,2,0,P|160:94|171:48,1,75,8|0,0:0|0:0,0:0:0:0:
280,176,98267,2,0,P|305:214|339:247,1,75,2|0,0:0|0:0,0:0:0:0:
160,260,98631,1,8,0:0:0:0:
280,72,98813,1,0,0:0:0:0:
280,292,98995,6,0,B|335:245|335:245|336:168,1,150,4|8,0:0|0:0,0:0:0:0:
80,60,99540,1,0,0:0:0:0:
168,183,99722,2,0,P|159:229|168:275,1,75,2|0,0:0|0:0,0:0:0:0:
340,172,100085,2,0,P|348:126|339:80,1,75,8|0,0:0|0:0,0:0:0:0:
96,84,100449,6,0,L|187:101,1,75,2|0,0:0|0:0,0:0:0:0:
400,256,100813,2,0,L|308:238,1,75,8|0,0:0|0:0,0:0:0:0:
224,254,101177,1,0,0:0:0:0:
72,139,101358,1,0,0:0:0:0:
234,126,101540,1,0,0:0:0:0:
217,113,101631,1,0,0:0:0:0:
201,99,101722,1,0,0:0:0:0:
187,82,101813,1,0,0:0:0:0:
176,68,101904,6,0,L|332:79,1,150,4|8,0:0|0:0,0:0:0:0:
199,258,102449,1,0,0:0:0:0:
172,92,102631,1,2,0:0:0:0:
392,128,102813,2,0,P|393:175|378:218,1,75,0|8,0:0|0:0,0:0:0:0:
156,152,103176,1,0,0:0:0:0:
364,48,103358,6,0,L|456:63,1,75,2|0,0:0|0:0,0:0:0:0:
168,320,103722,2,0,L|75:304,1,75,8|0,0:0|0:0,0:0:0:0:
96,52,104085,5,8,3:2:0:0:
180,64,104175,1,0,3:0:0:0:
264,100,104266,1,0,3:0:0:0:
340,160,104357,1,0,3:0:0:0:
400,224,104449,2,0,P|404:252|392:288,1,37.5,8|0,3:2|3:0,0:0:0:0:
232,220,104631,2,0,P|253:199|271:168,1,37.5,0|0,3:0|3:0,0:0:0:0:
428,64,104812,5,4,0:0:0:0:
256,192,104904,12,4,106176,1:2:0:0:
