osu file format v14

[General]
AudioFilename: Orange+Genome.mp3
AudioLeadIn: 0
PreviewTime: -1
Countdown: 1
SampleSet: None
StackLeniency: 0.7
Mode: 0
LetterboxInBreaks: 1
WidescreenStoryboard: 1

[Editor]
Bookmarks: 64072,113850
DistanceSpacing: 2.6
BeatDivisor: 4
GridSize: 4
TimelineZoom: 1

[Metadata]
Title:Daidai Jerome
TitleUnicode:Daidai Jerome
Artist:Chippy
ArtistUnicode:Chippy
Creator:Susano
Version:700 pp here we come
Source:
Tags:
BeatmapID:1437398
BeatmapSetID:311450

[Difficulty]
HPDrainRate:5.7
CircleSize:4.5
OverallDifficulty:9
ApproachRate:9.2
SliderMultiplier:1.9
SliderTickRate:1

[Events]
//Background and Video events
0,0,"Chippy DAIDAI.png",0,0
//Break Periods
2,69828,73280
2,81161,87502
2,129161,135502
//Storyboard Layer 0 (Background)
//Storyboard Layer 1 (Fail)
//Storyboard Layer 2 (Pass)
//Storyboard Layer 3 (Foreground)
//Storyboard Sound Samples

[TimingPoints]
19629,444.444444444444,4,1,1,50,1,0
56073,444.444444444444,4,1,1,60,1,0
73850,-100,4,2,1,60,0,0
80961,-100,4,2,1,45,0,0
88072,-100,4,1,1,50,0,0
136072,-100,4,1,1,30,0,0
150295,-100,4,2,1,30,0,0
152072,-100,4,1,1,50,0,1
173406,-100,4,1,1,50,0,0

[HitObjects]
57,85,19629,6,0,L|65:194,1,95
216,310,20073,1,0,0:0:0:0:
350,145,20295,1,0,0:0:0:0:
350,145,20517,2,0,L|296:235,1,95
149,91,20962,1,0,0:0:0:0:
106,262,21406,2,0,L|191:326,1,95
330,133,21851,2,0,L|263:249,1,95
124,41,22295,2,0,L|203:143,1,95
378,235,22740,2,0,B|361:354|227:325,1,190
97,132,23406,5,0,0:0:0:0:
340,142,23628,1,0,0:0:0:0:
195,341,23851,1,0,0:0:0:0:
221,86,24073,5,0,0:0:0:0:
329,325,24295,1,0,0:0:0:0:
72,265,24517,1,0,0:0:0:0:
318,133,24740,5,0,0:0:0:0:
199,346,24962,1,0,0:0:0:0:
146,112,25184,1,0,0:0:0:0:
359,301,25406,5,0,0:0:0:0:
91,259,25628,1,0,0:0:0:0:
281,93,25851,2,0,B|236:197|331:285,1,190
314,268,26517,1,0,0:0:0:0:
314,268,26740,2,0,B|350:154|204:106,1,190
71,328,27628,5,0,0:0:0:0:
71,328,27740,1,0,0:0:0:0:
71,328,27851,1,0,0:0:0:0:
308,331,28073,2,0,L|411:149,1,190
177,94,28740,1,0,0:0:0:0:
397,101,28962,1,0,0:0:0:0:
284,296,29184,1,0,0:0:0:0:
212,73,29406,1,0,0:0:0:0:
422,130,29628,1,0,0:0:0:0:
246,275,29851,1,0,0:0:0:0:
93,341,30295,6,0,L|101:218,1,95
267,357,30740,2,0,L|268:232,1,95
472,353,31184,2,0,L|455:244,1,95
255,134,31628,1,0,0:0:0:0:
68,214,32073,6,0,B|13:325|150:344,1,190
344,273,32740,1,0,0:0:0:0:
196,88,32962,1,0,0:0:0:0:
409,150,33184,1,0,0:0:0:0:
183,245,33406,1,0,0:0:0:0:
340,57,33628,1,0,0:0:0:0:
363,267,33851,6,0,B|339:321|316:338|286:353|270:355|194:344,1,190
66,186,34517,1,0,0:0:0:0:
285,82,34740,2,0,L|388:251,1,190
146,321,35406,5,0,0:0:0:0:
385,287,35628,1,0,0:0:0:0:
228,107,35851,1,0,0:0:0:0:
146,321,36073,5,0,0:0:0:0:
385,287,36295,1,0,0:0:0:0:
228,107,36517,1,0,0:0:0:0:
146,321,36740,5,0,0:0:0:0:
385,287,36962,1,0,0:0:0:0:
228,107,37184,1,0,0:0:0:0:
146,321,37406,5,0,0:0:0:0:
385,287,37628,1,0,0:0:0:0:
228,107,37851,1,0,0:0:0:0:
146,321,38073,5,0,0:0:0:0:
385,287,38295,2,0,L|367:86,1,190
135,114,38962,5,0,0:0:0:0:
135,114,39073,1,0,0:0:0:0:
135,114,39184,1,0,0:0:0:0:
306,272,39406,5,0,0:0:0:0:
53,285,39628,1,0,0:0:0:0:
293,174,39851,1,0,0:0:0:0:
42,197,40073,1,0,0:0:0:0:
275,85,40295,1,0,0:0:0:0:
21,117,40517,1,0,0:0:0:0:
21,117,40740,1,0,0:0:0:0:
21,117,40962,2,0,L|175:262,1,190
341,114,41628,1,0,0:0:0:0:
221,320,41851,1,0,0:0:0:0:
240,85,42073,5,0,0:0:0:0:
276,300,42295,1,0,0:0:0:0:
309,43,42517,5,0,0:0:0:0:
199,241,42740,2,0,L|138:329,1,95
317,165,43184,2,0,L|261:269,1,95
289,30,43628,2,0,L|226:127,1,95
425,29,44073,2,0,B|399:89|398:123|386:157|371:178|360:188|336:195,1,190
124,90,44740,5,0,0:0:0:0:
260,330,44962,1,0,0:0:0:0:
310,73,45184,5,0,0:0:0:0:
114,268,45406,1,0,0:0:0:0:
362,258,45628,5,0,0:0:0:0:
155,88,45851,1,0,0:0:0:0:
253,286,46073,5,0,0:0:0:0:
253,286,46184,1,0,0:0:0:0:
253,286,46295,1,0,0:0:0:0:
343,60,46517,1,0,0:0:0:0:
125,202,46740,1,0,0:0:0:0:
355,280,46962,1,0,0:0:0:0:
217,64,47184,1,0,0:0:0:0:
417,150,47406,5,0,0:0:0:0:
198,303,47628,1,0,0:0:0:0:
245,57,47851,1,0,0:0:0:0:
351,282,48073,6,0,L|228:285,2,95
168,169,48740,2,0,L|288:165,2,95
331,50,49406,2,0,L|220:53,2,95
104,345,50295,5,0,0:0:0:0:
338,306,50517,1,0,0:0:0:0:
135,179,50740,1,0,0:0:0:0:
361,108,50962,1,0,0:0:0:0:
156,49,51184,2,0,L|96:148,1,95
348,180,51628,2,0,L|403:296,1,95
195,255,52073,2,0,L|100:329,1,95
340,297,52517,5,0,0:0:0:0:
228,83,52740,1,0,0:0:0:0:
169,305,52962,1,0,0:0:0:0:
379,326,53184,5,0,0:0:0:0:
230,34,53406,1,0,0:0:0:0:
120,334,53628,1,0,0:0:0:0:
120,334,53851,2,0,L|119:220,1,95
119,239,54184,1,0,0:0:0:0:
119,239,54295,1,0,0:0:0:0:
350,162,54517,5,0,0:0:0:0:
350,162,54628,1,0,0:0:0:0:
350,162,54740,1,0,0:0:0:0:
108,255,54962,5,0,0:0:0:0:
264,68,55184,1,0,0:0:0:0:
295,286,55406,1,0,0:0:0:0:
103,121,55628,1,0,0:0:0:0:
59,326,56073,6,0,L|264:320,1,190
84,64,56961,1,0,0:0:0:0:
412,79,57406,1,0,0:0:0:0:
209,313,57850,1,0,0:0:0:0:
197,37,58073,1,0,0:0:0:0:
427,202,58295,1,0,0:0:0:0:
82,238,58517,1,0,0:0:0:0:
82,238,58739,6,0,P|213:322|270:325,1,190
337,67,59406,5,0,0:0:0:0:
186,322,59628,1,0,0:0:0:0:
228,39,59850,5,0,0:0:0:0:
290,310,60072,1,0,0:0:0:0:
115,80,60295,5,0,0:0:0:0:
363,238,60517,1,0,0:0:0:0:
56,169,60739,5,0,0:0:0:0:
378,155,60961,1,0,0:0:0:0:
75,268,61184,5,0,0:0:0:0:
315,76,61406,1,0,0:0:0:0:
166,318,61628,5,0,0:0:0:0:
226,31,61850,1,0,0:0:0:0:
268,320,62072,5,0,0:0:0:0:
146,60,62295,2,0,L|129:199,1,95
378,155,62739,2,0,L|320:254,1,95
329,236,63072,1,0,0:0:0:0:
329,236,63184,1,0,0:0:0:0:
113,310,63406,5,0,0:0:0:0:
237,68,63628,1,0,0:0:0:0:
244,338,63850,5,0,0:0:0:0:
100,90,64072,2,0,L|102:290,1,190
378,180,64739,5,0,0:0:0:0:
175,370,64961,1,0,0:0:0:0:
275,38,65184,5,0,0:0:0:0:
297,305,65406,1,0,0:0:0:0:
144,49,65628,5,0,0:0:0:0:
371,198,65850,1,0,0:0:0:0:
60,198,66072,5,0,0:0:0:0:
293,63,66295,2,0,L|236:263,1,190
90,45,66961,1,0,0:0:0:0:
307,192,67184,2,0,L|223:286,1,95
421,35,67628,1,0,0:0:0:0:
197,210,67850,2,0,L|109:289,1,95
394,319,68295,1,0,0:0:0:0:
157,142,68517,2,0,L|245:206,1,95
438,82,68961,2,0,L|357:174,1,95
134,46,69406,2,0,L|236:106,1,95
75,300,73850,6,0,B|159:367|260:301,1,190
145,62,74517,1,0,0:0:0:0:
407,88,74739,1,0,0:0:0:0:
235,307,74961,1,0,0:0:0:0:
284,41,75184,5,0,0:0:0:0:
349,291,75406,1,0,0:0:0:0:
118,205,75628,2,0,L|97:304,1,95
229,79,76072,2,0,L|161:161,1,95
418,131,76517,2,0,L|317:75,1,95
357,319,76961,2,0,L|402:204,1,95
113,170,77406,5,0,0:0:0:0:
391,146,77628,1,0,0:0:0:0:
54,180,77850,1,0,0:0:0:0:
435,143,78072,1,0,0:0:0:0:
10,186,78295,1,0,0:0:0:0:
491,132,78517,1,0,0:0:0:0:
258,306,78739,5,0,0:0:0:0:
258,41,78961,1,0,0:0:0:0:
83,264,79184,1,0,0:0:0:0:
337,211,79406,1,0,0:0:0:0:
110,63,79628,5,0,0:0:0:0:
285,267,79850,1,0,0:0:0:0:
36,302,80072,1,0,0:0:0:0:
272,117,80295,1,0,0:0:0:0:
272,117,80517,1,0,0:0:0:0:
139,321,80739,2,0,L|139:251,1,47.5
139,273,80961,1,0,0:0:0:0:
29,136,88072,6,0,L|154:130,1,95
34,206,88517,2,0,L|146:205,1,95
41,278,88961,2,0,L|154:272,1,95
45,351,89406,2,0,L|150:348,2,95
417,91,90295,1,0,0:0:0:0:
405,158,90739,2,0,L|277:160,1,95
415,235,91184,2,0,L|282:239,1,95
425,311,91628,2,0,L|291:319,1,95
118,107,92072,5,0,0:0:0:0:
357,133,92295,1,0,0:0:0:0:
190,316,92517,1,0,0:0:0:0:
249,69,92739,5,0,0:0:0:0:
313,291,92961,1,0,0:0:0:0:
101,222,93184,1,0,0:0:0:0:
101,222,93406,6,0,B|183:101|236:240,1,190
169,361,94295,1,0,0:0:0:0:
335,141,94517,1,0,0:0:0:0:
142,333,94739,1,0,0:0:0:0:
299,111,94961,1,0,0:0:0:0:
299,111,95072,1,0,0:0:0:0:
299,111,95184,1,0,0:0:0:0:
94,296,95406,5,0,0:0:0:0:
258,51,95628,1,0,0:0:0:0:
48,249,95850,1,0,0:0:0:0:
48,249,95961,1,0,0:0:0:0:
48,249,96072,1,0,0:0:0:0:
285,225,96295,6,0,L|240:275,1,47.5
336,167,96517,2,0,L|371:101,1,47.5
330,280,96739,2,0,L|301:336,1,47.5
382,205,96961,2,0,L|418:149,4,47.5
158,319,97628,1,0,0:0:0:0:
158,319,97739,1,0,0:0:0:0:
158,319,97850,2,0,L|185:204,1,95
384,76,98295,1,0,0:0:0:0:
136,73,98517,1,0,0:0:0:0:
265,292,98739,1,0,0:0:0:0:
275,40,98961,1,0,0:0:0:0:
406,257,99184,1,0,0:0:0:0:
137,234,99406,1,0,0:0:0:0:
137,234,99628,6,0,L|131:341,1,95
238,95,100072,2,0,L|223:215,1,95
285,299,100517,5,0,0:0:0:0:
58,108,100739,1,0,0:0:0:0:
378,97,100961,1,0,0:0:0:0:
96,312,101184,1,0,0:0:0:0:
248,22,101406,5,0,0:0:0:0:
230,338,101628,1,0,0:0:0:0:
104,101,101850,5,0,0:0:0:0:
336,312,102072,1,0,0:0:0:0:
342,59,102295,5,0,0:0:0:0:
182,318,102517,1,0,0:0:0:0:
405,100,102739,1,0,0:0:0:0:
139,266,102961,1,0,0:0:0:0:
435,160,103184,1,0,0:0:0:0:
116,206,103406,1,0,0:0:0:0:
116,206,103628,2,0,L|211:249,1,95
436,79,104072,5,0,0:0:0:0:
127,169,104295,1,0,0:0:0:0:
388,324,104517,5,0,0:0:0:0:
226,35,104739,1,0,0:0:0:0:
118,336,104961,5,0,0:0:0:0:
387,126,105184,1,0,0:0:0:0:
58,96,105406,5,0,0:0:0:0:
289,305,105628,1,0,0:0:0:0:
320,21,105850,5,0,0:0:0:0:
62,216,106072,1,0,0:0:0:0:
386,284,106295,5,0,0:0:0:0:
127,74,106517,1,0,0:0:0:0:
405,142,106739,5,0,0:0:0:0:
112,328,106961,1,0,0:0:0:0:
219,85,107184,5,0,0:0:0:0:
384,351,107406,1,0,0:0:0:0:
384,351,107517,1,0,0:0:0:0:
384,351,107628,1,0,0:0:0:0:
96,163,107850,5,0,0:0:0:0:
410,67,108072,1,0,0:0:0:0:
249,347,108295,1,0,0:0:0:0:
251,36,108517,1,0,0:0:0:0:
398,318,108739,5,0,0:0:0:0:
69,270,108961,1,0,0:0:0:0:
301,59,109184,1,0,0:0:0:0:
245,354,109406,1,0,0:0:0:0:
117,63,109628,5,0,0:0:0:0:
385,264,109850,1,0,0:0:0:0:
66,316,110072,1,0,0:0:0:0:
367,90,110295,1,0,0:0:0:0:
50,6,110517,5,0,0:0:0:0:
348,196,110739,1,0,0:0:0:0:
69,360,110961,1,0,0:0:0:0:
272,47,111184,5,0,0:0:0:0:
160,354,111406,1,0,0:0:0:0:
381,118,111628,5,0,0:0:0:0:
80,274,111850,1,0,0:0:0:0:
424,211,112072,5,0,0:0:0:0:
61,177,112295,1,0,0:0:0:0:
390,334,112517,5,0,0:0:0:0:
118,85,112739,1,0,0:0:0:0:
301,359,112961,5,0,0:0:0:0:
204,47,113184,1,0,0:0:0:0:
195,355,113406,5,0,0:0:0:0:
292,60,113628,1,0,0:0:0:0:
103,317,113850,5,0,0:0:0:0:
100,102,114739,5,0,0:0:0:0:
359,277,114961,1,0,0:0:0:0:
100,102,115184,1,0,0:0:0:0:
359,277,115406,1,0,0:0:0:0:
100,102,115628,1,0,0:0:0:0:
359,277,115850,1,0,0:0:0:0:
100,102,116072,1,0,0:0:0:0:
76,311,116517,5,0,0:0:0:0:
362,70,116739,1,0,0:0:0:0:
76,311,116961,1,0,0:0:0:0:
362,70,117184,1,0,0:0:0:0:
76,311,117406,1,0,0:0:0:0:
362,70,117628,1,0,0:0:0:0:
76,311,117850,1,0,0:0:0:0:
150,369,118295,6,0,L|203:266,1,95
405,53,118739,2,0,L|332:131,1,95
232,366,119184,2,0,L|281:248,1,95
473,74,119628,2,0,L|400:143,1,95
95,94,120072,5,0,0:0:0:0:
376,312,120295,1,0,0:0:0:0:
95,94,120517,1,0,0:0:0:0:
376,312,120739,1,0,0:0:0:0:
95,94,120961,1,0,0:0:0:0:
376,312,121184,1,0,0:0:0:0:
95,94,121406,1,0,0:0:0:0:
376,312,121628,1,0,0:0:0:0:
95,94,121850,2,0,P|72:188|125:302,1,190
346,81,122517,5,0,0:0:0:0:
175,312,122739,1,0,0:0:0:0:
168,36,122961,1,0,0:0:0:0:
355,301,123184,1,0,0:0:0:0:
85,149,123406,2,0,L|94:218,2,47.5
364,143,123850,6,0,L|286:217,1,95
295,208,124295,2,0,L|287:83,1,95
288,113,124739,2,0,L|394:146,1,95
96,272,125406,5,0,0:0:0:0:
419,252,125628,1,0,0:0:0:0:
229,28,125850,1,0,0:0:0:0:
248,349,126072,5,0,0:0:0:0:
376,77,126295,1,0,0:0:0:0:
71,71,126517,1,0,0:0:0:0:
71,71,126739,1,0,0:0:0:0:
6,197,127184,1,0,0:0:0:0:
500,201,127406,1,0,0:0:0:0:
6,197,127628,1,0,0:0:0:0:
500,201,127850,1,0,0:0:0:0:
6,197,128072,1,0,0:0:0:0:
500,201,128295,1,0,0:0:0:0:
6,197,128517,1,0,0:0:0:0:
500,201,128739,1,0,0:0:0:0:
239,252,128961,1,0,0:0:0:0:
87,117,136072,6,0,B|50:185|72:241|164:288,1,190
347,95,136961,2,0,B|369:144|369:144|346:211,2,95
61,353,137850,2,0,P|116:299|70:187,1,190
479,206,138739,5,0,0:0:0:0:
293,247,138961,1,0,0:0:0:0:
112,243,139184,1,0,0:0:0:0:
122,73,139628,2,0,L|219:119,1,95
350,330,140072,1,0,0:0:0:0:
80,329,140517,6,0,L|180:277,1,95
348,74,140961,1,0,0:0:0:0:
98,84,141406,6,0,L|185:146,2,95
336,254,142295,1,0,0:0:0:0:
336,254,142517,1,0,0:0:0:0:
336,254,142739,1,0,0:0:0:0:
106,325,143184,6,0,B|128:281|157:215|92:123,1,190
351,312,144072,2,0,B|339:264|339:264|356:197,2,95
94,84,144961,5,0,0:0:0:0:
374,336,145406,1,0,0:0:0:0:
78,307,145850,5,0,0:0:0:0:
78,307,146072,2,0,L|159:278,2,47.5
310,41,146739,5,0,0:0:0:0:
89,176,146961,1,0,0:0:0:0:
365,253,147184,1,0,0:0:0:0:
105,340,147628,5,0,0:0:0:0:
112,69,148072,1,0,0:0:0:0:
339,164,148517,1,0,0:0:0:0:
86,242,148739,1,0,0:0:0:0:
348,355,148961,1,0,0:0:0:0:
256,192,149850,12,0,152072,0:0:0:0:
70,70,152517,5,0,0:0:0:0:
386,75,152961,1,0,0:0:0:0:
232,333,153406,1,0,0:0:0:0:
98,191,153850,1,0,0:0:0:0:
366,112,154072,1,0,0:0:0:0:
185,340,154295,1,0,0:0:0:0:
246,48,154517,1,0,0:0:0:0:
327,331,154739,1,0,0:0:0:0:
124,73,154961,1,0,0:0:0:0:
385,235,155184,6,0,L|275:204,1,95
77,301,155628,2,0,L|184:241,1,95
401,72,156072,1,0,0:0:0:0:
100,77,156295,1,0,0:0:0:0:
340,309,156517,1,0,0:0:0:0:
265,53,156739,5,0,0:0:0:0:
256,314,156961,1,0,0:0:0:0:
49,126,157184,1,0,0:0:0:0:
410,173,157406,5,0,0:0:0:0:
103,202,157628,1,0,0:0:0:0:
363,363,157850,1,0,0:0:0:0:
265,52,158072,5,0,0:0:0:0:
274,326,158295,1,0,0:0:0:0:
42,143,158517,1,0,0:0:0:0:
42,143,158739,2,0,L|45:241,1,95
44,237,159072,1,0,0:0:0:0:
44,237,159184,1,0,0:0:0:0:
473,373,159406,1,0,0:0:0:0:
23,31,159628,1,0,0:0:0:0:
465,46,159850,5,0,0:0:0:0:
19,365,160072,1,0,0:0:0:0:
462,204,160295,5,0,0:0:0:0:
24,205,160517,1,0,0:0:0:0:
285,374,160739,5,0,0:0:0:0:
241,17,160961,2,0,L|206:144,1,95
399,278,161406,2,0,L|280:295,1,95
15,8,161850,1,0,0:0:0:0:
483,366,162072,1,0,0:0:0:0:
15,8,162295,1,0,0:0:0:0:
483,366,162517,1,0,0:0:0:0:
15,8,162739,1,0,0:0:0:0:
483,366,162961,1,0,0:0:0:0:
15,8,163184,1,0,0:0:0:0:
483,366,163406,1,0,0:0:0:0:
15,8,163628,1,0,0:0:0:0:
483,366,163850,1,0,0:0:0:0:
81,109,164072,5,0,0:0:0:0:
476,144,164295,1,0,0:0:0:0:
131,370,164517,1,0,0:0:0:0:
331,21,164739,1,0,0:0:0:0:
363,370,164961,1,0,0:0:0:0:
18,121,165184,1,0,0:0:0:0:
448,86,165406,1,0,0:0:0:0:
104,377,165628,1,0,0:0:0:0:
376,156,165850,5,0,0:0:0:0:
137,228,166072,1,0,0:0:0:0:
389,330,166295,2,0,L|188:337,1,190
76,112,166961,1,0,0:0:0:0:
322,166,167184,2,0,L|143:289,1,190
82,52,168072,5,0,0:0:0:0:
320,105,168295,1,0,0:0:0:0:
124,250,168517,2,0,L|321:292,1,190
116,309,169406,5,0,0:0:0:0:
255,57,169628,1,0,0:0:0:0:
255,57,169850,2,0,L|248:197,1,95
308,380,170295,1,0,0:0:0:0:
396,133,170517,1,0,0:0:0:0:
396,133,170739,2,0,L|323:241,1,95
107,312,171184,2,0,L|208:269,1,95
80,65,171628,5,0,0:0:0:0:
334,129,171850,1,0,0:0:0:0:
56,199,172072,1,0,0:0:0:0:
331,220,172295,1,0,0:0:0:0:
43,343,172517,1,0,0:0:0:0:
290,351,172739,1,0,0:0:0:0:
290,351,172961,2,0,L|401:325,1,95
382,329,173295,1,0,0:0:0:0:
382,329,173406,1,0,0:0:0:0:
203,192,173628,2,0,L|258:232,2,47.5
120,245,174072,2,0,L|137:317,2,47.5
397,318,174739,2,0,L|389:196,1,95
278,322,175184,2,0,L|292:211,1,95
169,267,175628,2,0,L|218:148,1,95
112,129,176072,2,0,B|176:88|253:117|270:135|287:183,1,190
81,258,176739,1,0,0:0:0:0:
81,258,176961,2,0,P|179:353|219:339,1,190
221,108,177628,1,0,0:0:0:0:
356,285,177850,1,0,0:0:0:0:
109,283,178072,1,0,0:0:0:0:
109,283,178295,6,0,L|245:291,1,95
203,288,178739,2,0,L|310:332,1,95
291,324,179184,2,0,L|392:306,1,95
385,307,179628,2,0,L|489:229,1,95
