osu file format v14

[General]
AudioFilename: audio.mp3
AudioLeadIn: 0
PreviewTime: 54082
Countdown: 0
SampleSet: Normal
StackLeniency: 0.2
Mode: 3
LetterboxInBreaks: 0
SpecialStyle: 0
WidescreenStoryboard: 1

[Editor]
DistanceSpacing: 1.19
BeatDivisor: 6
GridSize: 32
TimelineZoom: 2

[Metadata]
Title:Shirogane
TitleUnicode:シロガネ
Artist:Chinozo x MABODOFU
ArtistUnicode:Chinozo×麻婆豆腐
Creator:-mint-
Version:Platina
Source:
Tags:mapo tofu アルセチカ aruseee 藍瀬まなみ aise manami kakeyan kakeyan26 original north american mania tournament namt 2023 round of 32 ro32 ln long notes qqqant j-pop jpop japanese pop
BeatmapID:3956512
BeatmapSetID:1917315

[Difficulty]
HPDrainRate:7.5
CircleSize:4
OverallDifficulty:7.5
ApproachRate:9.4
SliderMultiplier:1.6
SliderTickRate:1

[Events]
//Background and Video events
0,0,"bg.jpg",0,0
//Break Periods
//Storyboard Layer 0 (Background)
//Storyboard Layer 1 (Fail)
//Storyboard Layer 2 (Pass)
//Storyboard Layer 3 (Foreground)
//Storyboard Layer 4 (Overlay)
//Storyboard Sound Samples

[TimingPoints]
471,319.148936170213,4,1,1,35,1,0
6853,-100,4,1,1,45,0,0
8130,-100,4,1,1,50,0,0
18343,-100,4,1,1,40,0,0
28556,-100,4,1,1,50,0,0
54088,-100,4,1,1,50,0,1
61747,-100,4,1,1,50,0,0
64300,-100,4,1,1,50,0,1
71960,-100,4,1,1,50,0,0
82173,-100,4,1,1,40,0,0
92385,-100,4,1,1,50,0,0
112811,-100,4,1,1,35,0,0
123024,-100,4,1,1,45,0,0
153662,-100,4,1,1,50,0,0
158768,-100,4,1,1,50,0,1
166428,-100,4,1,1,50,0,0
168981,-100,4,1,1,50,0,1
176322,-100,4,1,1,50,0,0
176641,-100,4,1,1,50,0,1
184300,-100,4,1,1,50,0,0
186853,-100,4,1,1,50,0,1
195790,-100,4,1,1,50,0,0
206002,-100,4,1,1,35,0,0

[HitObjects]
64,192,471,5,0,0:0:0:0:
448,192,471,128,0,790:0:0:0:0:
320,192,630,128,0,790:0:0:0:0:
64,192,736,1,0,0:0:0:0:
192,192,790,128,0,869:0:0:0:0:
192,192,949,128,0,1189:0:0:0:0:
320,192,1268,128,0,1348:0:0:0:0:
320,192,1428,128,0,1588:0:0:0:0:
64,192,1588,128,0,1747:0:0:0:0:
448,192,1747,128,0,1986:0:0:0:0:
320,192,1747,1,0,0:0:0:0:
64,192,1907,1,0,0:0:0:0:
192,192,2066,128,0,2385:0:0:0:0:
448,192,2226,1,0,0:0:0:0:
320,192,2385,128,0,2705:0:0:0:0:
64,192,2545,1,0,0:0:0:0:
448,192,2705,1,0,0:0:0:0:
192,192,2864,128,0,3183:0:0:0:0:
64,192,3024,128,0,3183:0:0:0:0:
448,192,3024,1,0,0:0:0:0:
320,192,3183,1,0,0:0:0:0:
448,192,3343,128,0,3423:0:0:0:0:
448,192,3502,128,0,3822:0:0:0:0:
320,192,3822,128,0,4061:0:0:0:0:
64,192,3981,128,0,4300:0:0:0:0:
320,192,4141,128,0,4300:0:0:0:0:
448,192,4300,128,0,4540:0:0:0:0:
192,192,4300,1,0,0:0:0:0:
320,192,4460,1,0,0:0:0:0:
64,192,4619,128,0,4939:0:0:0:0:
192,192,4779,1,0,0:0:0:0:
320,192,4939,128,0,5178:0:0:0:0:
64,192,5098,128,0,5338:0:0:0:0:
448,192,5258,128,0,5577:0:0:0:0:
320,192,5417,128,0,5577:0:0:0:0:
192,192,5577,128,0,6056:0:0:0:0:
64,192,5577,128,0,5736:0:0:0:0:
448,192,5736,1,0,0:0:0:0:
64,192,5896,1,0,0:0:0:0:
320,192,6056,1,0,0:0:0:0:
64,192,6215,1,0,0:0:0:0:
320,192,6375,128,0,6534:0:0:0:0:
192,192,6375,1,0,0:0:0:0:
64,192,6534,128,0,6694:0:0:0:0:
448,192,6534,128,0,6853:0:0:0:0:
320,192,6694,1,0,0:0:0:0:
192,192,6853,128,0,6933:0:0:0:0:
64,192,6853,128,0,6933:0:0:0:0:
320,192,6853,128,0,7093:0:0:0:0:
448,192,7013,128,0,7093:0:0:0:0:
192,192,7013,128,0,7173:0:0:0:0:
64,192,7013,128,0,7173:0:0:0:0:
448,192,7173,128,0,7332:0:0:0:0:
64,192,7332,128,0,7412:0:0:0:0:
448,192,7492,128,0,7572:0:0:0:0:
320,192,7492,128,0,7572:0:0:0:0:
64,192,7545,128,0,7651:0:0:0:0:
192,192,7651,128,0,7731:0:0:0:0:
448,192,7651,128,0,7811:0:0:0:0:
320,192,7651,128,0,7811:0:0:0:0:
192,192,7811,128,0,8050:0:0:0:0:
320,192,7971,128,0,8130:0:0:0:0:
64,192,8130,128,0,8290:0:0:0:0:
448,192,8130,128,0,8449:0:0:0:0:
192,192,8130,128,0,8210:0:0:0:0:
320,192,8290,128,0,8369:0:0:0:0:
192,192,8290,128,0,8449:0:0:0:0:
320,192,8449,128,0,8609:0:0:0:0:
64,192,8449,1,0,0:0:0:0:
448,192,8609,128,0,8768:0:0:0:0:
64,192,8609,128,0,8928:0:0:0:0:
192,192,8768,128,0,9327:0:0:0:0:
448,192,8928,1,0,0:0:0:0:
320,192,8928,1,0,0:0:0:0:
64,192,9088,1,0,0:0:0:0:
448,192,9088,128,0,9247:0:0:0:0:
320,192,9247,1,0,0:0:0:0:
64,192,9407,128,0,9486:0:0:0:0:
192,192,9407,128,0,9566:0:0:0:0:
320,192,9566,128,0,9726:0:0:0:0:
64,192,9566,128,0,9726:0:0:0:0:
448,192,9726,1,0,0:0:0:0:
192,192,9726,128,0,9885:0:0:0:0:
448,192,9885,128,0,10205:0:0:0:0:
320,192,9885,128,0,9965:0:0:0:0:
320,192,10045,128,0,10284:0:0:0:0:
64,192,10098,128,0,10364:0:0:0:0:
192,192,10205,1,0,0:0:0:0:
448,192,10284,1,0,0:0:0:0:
192,192,10364,128,0,10683:0:0:0:0:
320,192,10364,128,0,10524:0:0:0:0:
64,192,10524,128,0,10683:0:0:0:0:
448,192,10683,128,0,10843:0:0:0:0:
320,192,10683,128,0,10763:0:0:0:0:
192,192,10843,128,0,10923:0:0:0:0:
320,192,10843,128,0,11002:0:0:0:0:
192,192,11002,128,0,11162:0:0:0:0:
448,192,11002,1,0,0:0:0:0:
64,192,11162,128,0,11322:0:0:0:0:
448,192,11162,128,0,11481:0:0:0:0:
320,192,11322,128,0,11880:0:0:0:0:
64,192,11481,1,0,0:0:0:0:
192,192,11481,1,0,0:0:0:0:
448,192,11641,1,0,0:0:0:0:
64,192,11641,128,0,11800:0:0:0:0:
192,192,11800,1,0,0:0:0:0:
448,192,11960,128,0,12040:0:0:0:0:
320,192,11960,128,0,12119:0:0:0:0:
192,192,12119,128,0,12279:0:0:0:0:
448,192,12119,128,0,12279:0:0:0:0:
64,192,12279,1,0,0:0:0:0:
320,192,12279,128,0,12439:0:0:0:0:
64,192,12439,128,0,12758:0:0:0:0:
192,192,12439,128,0,12598:0:0:0:0:
320,192,12598,128,0,12678:0:0:0:0:
320,192,12758,128,0,12917:0:0:0:0:
192,192,12758,1,0,0:0:0:0:
192,192,12917,128,0,13077:0:0:0:0:
448,192,12917,128,0,13157:0:0:0:0:
320,192,13077,128,0,13236:0:0:0:0:
64,192,13236,128,0,13396:0:0:0:0:
448,192,13236,128,0,13556:0:0:0:0:
192,192,13236,128,0,13316:0:0:0:0:
320,192,13396,128,0,13476:0:0:0:0:
192,192,13396,128,0,13556:0:0:0:0:
320,192,13556,128,0,13715:0:0:0:0:
64,192,13556,1,0,0:0:0:0:
448,192,13715,128,0,13875:0:0:0:0:
64,192,13715,128,0,14034:0:0:0:0:
192,192,13875,128,0,14433:0:0:0:0:
448,192,14034,1,0,0:0:0:0:
320,192,14034,1,0,0:0:0:0:
64,192,14194,1,0,0:0:0:0:
448,192,14194,128,0,14353:0:0:0:0:
320,192,14353,1,0,0:0:0:0:
64,192,14513,128,0,14593:0:0:0:0:
192,192,14513,128,0,14673:0:0:0:0:
320,192,14673,128,0,14832:0:0:0:0:
64,192,14673,128,0,14832:0:0:0:0:
448,192,14832,1,0,0:0:0:0:
192,192,14832,128,0,14992:0:0:0:0:
448,192,14992,128,0,15311:0:0:0:0:
320,192,14992,128,0,15072:0:0:0:0:
320,192,15151,128,0,15391:0:0:0:0:
64,192,15205,128,0,15471:0:0:0:0:
192,192,15311,1,0,0:0:0:0:
448,192,15391,1,0,0:0:0:0:
192,192,15471,128,0,15790:0:0:0:0:
320,192,15471,128,0,15630:0:0:0:0:
64,192,15630,128,0,15790:0:0:0:0:
448,192,15790,128,0,15949:0:0:0:0:
320,192,15790,128,0,15869:0:0:0:0:
192,192,15949,128,0,16029:0:0:0:0:
320,192,15949,128,0,16109:0:0:0:0:
192,192,16109,128,0,16268:0:0:0:0:
448,192,16109,1,0,0:0:0:0:
64,192,16268,128,0,16428:0:0:0:0:
448,192,16268,128,0,16588:0:0:0:0:
320,192,16428,128,0,16986:0:0:0:0:
64,192,16588,1,0,0:0:0:0:
192,192,16588,1,0,0:0:0:0:
448,192,16747,1,0,0:0:0:0:
64,192,16747,128,0,16907:0:0:0:0:
192,192,16907,1,0,0:0:0:0:
448,192,17066,128,0,17146:0:0:0:0:
320,192,17066,128,0,17226:0:0:0:0:
192,192,17226,128,0,17385:0:0:0:0:
448,192,17226,128,0,17385:0:0:0:0:
64,192,17385,1,0,0:0:0:0:
320,192,17385,128,0,17545:0:0:0:0:
64,192,17545,128,0,17864:0:0:0:0:
448,192,17545,128,0,17705:0:0:0:0:
192,192,17705,128,0,17864:0:0:0:0:
448,192,17864,128,0,18183:0:0:0:0:
320,192,17864,1,0,0:0:0:0:
64,192,18024,128,0,18263:0:0:0:0:
320,192,18024,128,0,18183:0:0:0:0:
192,192,18183,128,0,18343:0:0:0:0:
64,192,18343,128,0,18502:0:0:0:0:
320,192,18343,128,0,18662:0:0:0:0:
448,192,18343,128,0,18582:0:0:0:0:
192,192,18662,128,0,18822:0:0:0:0:
448,192,18662,1,0,0:0:0:0:
64,192,18822,128,0,18901:0:0:0:0:
320,192,18981,128,0,19061:0:0:0:0:
320,192,19141,128,0,19300:0:0:0:0:
192,192,19141,1,0,0:0:0:0:
448,192,19300,1,0,0:0:0:0:
64,192,19300,128,0,19460:0:0:0:0:
192,192,19460,128,0,19540:0:0:0:0:
448,192,19619,128,0,19699:0:0:0:0:
192,192,19619,128,0,19939:0:0:0:0:
448,192,19779,128,0,19939:0:0:0:0:
320,192,19939,128,0,20258:0:0:0:0:
64,192,19939,128,0,20018:0:0:0:0:
64,192,20098,128,0,20258:0:0:0:0:
192,192,20258,128,0,20497:0:0:0:0:
64,192,20417,128,0,20577:0:0:0:0:
448,192,20417,128,0,20577:0:0:0:0:
320,192,20577,128,0,20657:0:0:0:0:
192,192,20577,128,0,20736:0:0:0:0:
320,192,20736,128,0,20896:0:0:0:0:
64,192,20896,128,0,21534:0:0:0:0:
448,192,20896,1,0,0:0:0:0:
320,192,21056,1,0,0:0:0:0:
448,192,21215,1,0,0:0:0:0:
192,192,21215,1,0,0:0:0:0:
192,192,21375,128,0,21534:0:0:0:0:
448,192,21534,128,0,22173:0:0:0:0:
64,192,21694,1,0,0:0:0:0:
320,192,21853,1,0,0:0:0:0:
64,192,21853,1,0,0:0:0:0:
320,192,22013,128,0,22173:0:0:0:0:
192,192,22173,128,0,22252:0:0:0:0:
64,192,22173,1,0,0:0:0:0:
192,192,22332,1,0,0:0:0:0:
64,192,22492,1,0,0:0:0:0:
320,192,22492,128,0,22811:0:0:0:0:
448,192,22651,1,0,0:0:0:0:
192,192,22811,128,0,22971:0:0:0:0:
320,192,22971,1,0,0:0:0:0:
448,192,22971,1,0,0:0:0:0:
448,192,23130,1,0,0:0:0:0:
64,192,23130,1,0,0:0:0:0:
320,192,23290,1,0,0:0:0:0:
448,192,23449,128,0,23609:0:0:0:0:
192,192,23449,128,0,23768:0:0:0:0:
64,192,23449,128,0,23689:0:0:0:0:
320,192,23768,128,0,23928:0:0:0:0:
64,192,23768,1,0,0:0:0:0:
448,192,23928,128,0,24008:0:0:0:0:
192,192,24088,128,0,24167:0:0:0:0:
448,192,24247,128,0,24327:0:0:0:0:
192,192,24247,1,0,0:0:0:0:
64,192,24407,1,0,0:0:0:0:
448,192,24407,128,0,24566:0:0:0:0:
320,192,24566,128,0,24726:0:0:0:0:
64,192,24726,128,0,24806:0:0:0:0:
192,192,24726,128,0,24885:0:0:0:0:
64,192,24885,128,0,25045:0:0:0:0:
320,192,24885,128,0,25045:0:0:0:0:
192,192,25045,128,0,25364:0:0:0:0:
448,192,25045,128,0,25125:0:0:0:0:
448,192,25205,128,0,25364:0:0:0:0:
320,192,25364,128,0,25444:0:0:0:0:
64,192,25524,128,0,25683:0:0:0:0:
320,192,25524,128,0,25843:0:0:0:0:
192,192,25683,128,0,25763:0:0:0:0:
448,192,25683,128,0,25843:0:0:0:0:
192,192,25843,128,0,26002:0:0:0:0:
448,192,26002,128,0,26641:0:0:0:0:
64,192,26002,1,0,0:0:0:0:
192,192,26162,1,0,0:0:0:0:
64,192,26322,1,0,0:0:0:0:
320,192,26322,1,0,0:0:0:0:
320,192,26481,128,0,26641:0:0:0:0:
64,192,26641,128,0,27279:0:0:0:0:
448,192,26800,1,0,0:0:0:0:
192,192,26960,1,0,0:0:0:0:
448,192,26960,1,0,0:0:0:0:
192,192,27119,128,0,27279:0:0:0:0:
320,192,27279,128,0,27359:0:0:0:0:
448,192,27279,1,0,0:0:0:0:
320,192,27439,1,0,0:0:0:0:
448,192,27598,1,0,0:0:0:0:
192,192,27598,128,0,27917:0:0:0:0:
64,192,27758,1,0,0:0:0:0:
320,192,27917,1,0,0:0:0:0:
64,192,27917,1,0,0:0:0:0:
448,192,27917,128,0,28077:0:0:0:0:
192,192,28077,1,0,0:0:0:0:
320,192,28077,1,0,0:0:0:0:
192,192,28236,1,0,0:0:0:0:
320,192,28236,1,0,0:0:0:0:
192,192,28556,128,0,28715:0:0:0:0:
64,192,28556,128,0,29034:0:0:0:0:
448,192,28556,128,0,28875:0:0:0:0:
192,192,28875,128,0,29034:0:0:0:0:
320,192,28875,128,0,28955:0:0:0:0:
320,192,29034,128,0,29513:0:0:0:0:
64,192,29194,128,0,29353:0:0:0:0:
448,192,29353,128,0,29433:0:0:0:0:
192,192,29353,1,0,0:0:0:0:
64,192,29513,128,0,29673:0:0:0:0:
448,192,29513,128,0,29992:0:0:0:0:
192,192,29673,1,0,0:0:0:0:
320,192,29832,128,0,29992:0:0:0:0:
64,192,29832,128,0,29912:0:0:0:0:
64,192,29992,128,0,30151:0:0:0:0:
320,192,30151,128,0,30311:0:0:0:0:
448,192,30151,1,0,0:0:0:0:
192,192,30311,128,0,30391:0:0:0:0:
448,192,30471,128,0,30630:0:0:0:0:
192,192,30471,128,0,30630:0:0:0:0:
320,192,30630,1,0,0:0:0:0:
64,192,30710,128,0,31109:0:0:0:0:
192,192,30790,1,0,0:0:0:0:
320,192,30790,128,0,30949:0:0:0:0:
192,192,30949,128,0,31109:0:0:0:0:
448,192,31109,128,0,31268:0:0:0:0:
320,192,31109,128,0,31588:0:0:0:0:
192,192,31268,1,0,0:0:0:0:
448,192,31428,128,0,31588:0:0:0:0:
64,192,31428,128,0,31508:0:0:0:0:
64,192,31588,128,0,32066:0:0:0:0:
320,192,31747,128,0,31907:0:0:0:0:
448,192,31907,1,0,0:0:0:0:
192,192,31907,128,0,31986:0:0:0:0:
192,192,32066,128,0,32545:0:0:0:0:
320,192,32066,128,0,32226:0:0:0:0:
448,192,32226,1,0,0:0:0:0:
64,192,32385,128,0,32545:0:0:0:0:
320,192,32385,128,0,32465:0:0:0:0:
320,192,32545,128,0,32705:0:0:0:0:
64,192,32705,128,0,32864:0:0:0:0:
192,192,32705,1,0,0:0:0:0:
448,192,32864,128,0,33024:0:0:0:0:
192,192,32864,128,0,33183:0:0:0:0:
320,192,33024,128,0,33183:0:0:0:0:
448,192,33183,128,0,33263:0:0:0:0:
64,192,33183,128,0,33343:0:0:0:0:
192,192,33343,128,0,33502:0:0:0:0:
448,192,33343,128,0,33582:0:0:0:0:
320,192,33502,128,0,33662:0:0:0:0:
448,192,33662,128,0,33822:0:0:0:0:
192,192,33662,128,0,33981:0:0:0:0:
64,192,33662,128,0,33901:0:0:0:0:
64,192,33981,128,0,34141:0:0:0:0:
320,192,33981,128,0,34061:0:0:0:0:
192,192,34141,128,0,34300:0:0:0:0:
320,192,34141,128,0,34380:0:0:0:0:
448,192,34300,128,0,34460:0:0:0:0:
64,192,34300,128,0,34380:0:0:0:0:
64,192,34460,128,0,34619:0:0:0:0:
320,192,34460,128,0,34540:0:0:0:0:
192,192,34619,128,0,34699:0:0:0:0:
320,192,34619,128,0,34859:0:0:0:0:
192,192,34779,128,0,34939:0:0:0:0:
320,192,34939,128,0,35098:0:0:0:0:
448,192,34939,128,0,35018:0:0:0:0:
448,192,35098,128,0,35417:0:0:0:0:
64,192,35098,128,0,35178:0:0:0:0:
320,192,35258,128,0,35417:0:0:0:0:
64,192,35258,128,0,35497:0:0:0:0:
192,192,35417,128,0,35497:0:0:0:0:
192,192,35577,128,0,35736:0:0:0:0:
448,192,35577,128,0,35657:0:0:0:0:
64,192,35736,128,0,35816:0:0:0:0:
448,192,35736,128,0,35896:0:0:0:0:
320,192,35896,128,0,36215:0:0:0:0:
64,192,35896,128,0,36135:0:0:0:0:
192,192,36056,128,0,36215:0:0:0:0:
448,192,36215,128,0,36455:0:0:0:0:
64,192,36215,1,0,0:0:0:0:
192,192,36375,1,0,0:0:0:0:
64,192,36534,1,0,0:0:0:0:
320,192,36534,1,0,0:0:0:0:
320,192,36694,128,0,37013:0:0:0:0:
64,192,36853,128,0,37013:0:0:0:0:
448,192,37013,1,0,0:0:0:0:
192,192,37173,1,0,0:0:0:0:
448,192,37173,1,0,0:0:0:0:
192,192,37332,128,0,37492:0:0:0:0:
320,192,37492,128,0,37731:0:0:0:0:
64,192,37492,1,0,0:0:0:0:
448,192,37651,128,0,37731:0:0:0:0:
192,192,37651,1,0,0:0:0:0:
64,192,37811,128,0,37891:0:0:0:0:
448,192,37811,128,0,37971:0:0:0:0:
64,192,37971,128,0,38130:0:0:0:0:
320,192,37971,128,0,38050:0:0:0:0:
320,192,38130,128,0,38290:0:0:0:0:
192,192,38130,128,0,38369:0:0:0:0:
448,192,38290,1,0,0:0:0:0:
448,192,38449,1,0,0:0:0:0:
192,192,38449,1,0,0:0:0:0:
192,192,38609,1,0,0:0:0:0:
64,192,38768,128,0,38928:0:0:0:0:
320,192,38768,128,0,39088:0:0:0:0:
448,192,38768,128,0,39008:0:0:0:0:
192,192,39088,128,0,39247:0:0:0:0:
448,192,39088,128,0,39327:0:0:0:0:
320,192,39247,128,0,39327:0:0:0:0:
320,192,39407,128,0,39566:0:0:0:0:
64,192,39407,128,0,39486:0:0:0:0:
448,192,39566,128,0,39726:0:0:0:0:
64,192,39566,128,0,39885:0:0:0:0:
320,192,39726,128,0,39806:0:0:0:0:
192,192,39726,128,0,39965:0:0:0:0:
320,192,39885,128,0,40045:0:0:0:0:
192,192,40045,128,0,40205:0:0:0:0:
64,192,40045,128,0,40125:0:0:0:0:
448,192,40205,128,0,40364:0:0:0:0:
64,192,40205,128,0,40364:0:0:0:0:
192,192,40364,128,0,40524:0:0:0:0:
320,192,40364,128,0,40444:0:0:0:0:
320,192,40524,128,0,40683:0:0:0:0:
64,192,40683,128,0,40763:0:0:0:0:
192,192,40683,128,0,40843:0:0:0:0:
448,192,40843,128,0,40923:0:0:0:0:
64,192,40843,128,0,41002:0:0:0:0:
192,192,41002,128,0,41082:0:0:0:0:
448,192,41002,128,0,41162:0:0:0:0:
192,192,41162,128,0,41322:0:0:0:0:
320,192,41162,128,0,41322:0:0:0:0:
448,192,41322,1,0,0:0:0:0:
64,192,41322,128,0,41481:0:0:0:0:
320,192,41481,1,0,0:0:0:0:
448,192,41641,1,0,0:0:0:0:
192,192,41641,1,0,0:0:0:0:
192,192,41800,128,0,42119:0:0:0:0:
448,192,41960,128,0,42119:0:0:0:0:
64,192,42119,1,0,0:0:0:0:
320,192,42279,1,0,0:0:0:0:
64,192,42279,1,0,0:0:0:0:
320,192,42439,128,0,42598:0:0:0:0:
192,192,42598,128,0,42838:0:0:0:0:
448,192,42598,128,0,42678:0:0:0:0:
448,192,42758,1,0,0:0:0:0:
320,192,42917,128,0,43157:0:0:0:0:
192,192,42917,128,0,42997:0:0:0:0:
192,192,43077,1,0,0:0:0:0:
320,192,43236,128,0,43396:0:0:0:0:
64,192,43236,128,0,43316:0:0:0:0:
448,192,43236,128,0,43396:0:0:0:0:
192,192,43396,128,0,43476:0:0:0:0:
64,192,43396,128,0,43556:0:0:0:0:
448,192,43476,128,0,43556:0:0:0:0:
320,192,43556,128,0,43635:0:0:0:0:
192,192,43556,128,0,43715:0:0:0:0:
64,192,43715,128,0,43795:0:0:0:0:
320,192,43715,128,0,43875:0:0:0:0:
64,192,43875,128,0,44673:0:0:0:0:
192,192,43875,128,0,44194:0:0:0:0:
448,192,43875,128,0,44114:0:0:0:0:
320,192,44194,1,0,0:0:0:0:
448,192,44194,1,0,0:0:0:0:
192,192,44353,1,0,0:0:0:0:
320,192,44353,128,0,45311:0:0:0:0:
192,192,44513,1,0,0:0:0:0:
448,192,44673,1,0,0:0:0:0:
64,192,44752,1,0,0:0:0:0:
448,192,44832,1,0,0:0:0:0:
192,192,44832,128,0,45630:0:0:0:0:
64,192,44992,1,0,0:0:0:0:
64,192,45151,1,0,0:0:0:0:
448,192,45151,1,0,0:0:0:0:
448,192,45311,128,0,45790:0:0:0:0:
64,192,45471,1,0,0:0:0:0:
64,192,45630,1,0,0:0:0:0:
320,192,45630,1,0,0:0:0:0:
192,192,45790,128,0,45949:0:0:0:0:
320,192,45790,128,0,46029:0:0:0:0:
448,192,46428,128,0,47226:0:0:0:0:
320,192,46428,128,0,46747:0:0:0:0:
192,192,46428,128,0,46667:0:0:0:0:
64,192,46747,1,0,0:0:0:0:
192,192,46747,1,0,0:0:0:0:
320,192,46907,1,0,0:0:0:0:
64,192,46907,128,0,47705:0:0:0:0:
192,192,46986,1,0,0:0:0:0:
320,192,47066,1,0,0:0:0:0:
192,192,47226,1,0,0:0:0:0:
448,192,47306,1,0,0:0:0:0:
320,192,47385,128,0,48183:0:0:0:0:
192,192,47385,1,0,0:0:0:0:
448,192,47545,1,0,0:0:0:0:
448,192,47705,1,0,0:0:0:0:
192,192,47864,128,0,48343:0:0:0:0:
64,192,47864,128,0,48103:0:0:0:0:
448,192,48024,1,0,0:0:0:0:
448,192,48183,1,0,0:0:0:0:
64,192,48183,1,0,0:0:0:0:
320,192,48343,128,0,48502:0:0:0:0:
64,192,48343,128,0,48582:0:0:0:0:
448,192,48822,128,0,48981:0:0:0:0:
192,192,48822,128,0,49141:0:0:0:0:
64,192,48822,128,0,49061:0:0:0:0:
448,192,49141,128,0,49221:0:0:0:0:
64,192,49141,128,0,49300:0:0:0:0:
192,192,49221,128,0,49460:0:0:0:0:
320,192,49300,128,0,49380:0:0:0:0:
448,192,49300,128,0,49460:0:0:0:0:
320,192,49460,128,0,49619:0:0:0:0:
64,192,49619,128,0,49859:0:0:0:0:
192,192,49619,128,0,49699:0:0:0:0:
192,192,49779,1,0,0:0:0:0:
448,192,49939,128,0,50178:0:0:0:0:
64,192,49939,128,0,50098:0:0:0:0:
320,192,50098,128,0,50178:0:0:0:0:
64,192,50258,128,0,50338:0:0:0:0:
320,192,50258,128,0,50417:0:0:0:0:
448,192,50417,128,0,50497:0:0:0:0:
64,192,50417,128,0,50577:0:0:0:0:
192,192,50577,128,0,50657:0:0:0:0:
448,192,50577,128,0,50736:0:0:0:0:
192,192,50736,128,0,50896:0:0:0:0:
320,192,50736,128,0,51056:0:0:0:0:
448,192,50816,128,0,50976:0:0:0:0:
64,192,50896,128,0,51056:0:0:0:0:
192,192,51056,128,0,51135:0:0:0:0:
448,192,51056,128,0,51295:0:0:0:0:
192,192,51215,1,0,0:0:0:0:
64,192,51215,128,0,51375:0:0:0:0:
448,192,51375,128,0,51534:0:0:0:0:
64,192,51534,128,0,51853:0:0:0:0:
192,192,51534,128,0,51614:0:0:0:0:
320,192,51534,128,0,51614:0:0:0:0:
192,192,51694,128,0,51853:0:0:0:0:
320,192,51694,128,0,51853:0:0:0:0:
192,192,52013,128,0,52093:0:0:0:0:
320,192,52013,128,0,52173:0:0:0:0:
448,192,52013,128,0,52093:0:0:0:0:
192,192,52173,128,0,52332:0:0:0:0:
448,192,52173,128,0,52332:0:0:0:0:
64,192,52173,128,0,52412:0:0:0:0:
64,192,52492,128,0,52572:0:0:0:0:
448,192,52492,128,0,52572:0:0:0:0:
64,192,52651,128,0,52811:0:0:0:0:
448,192,52651,128,0,52811:0:0:0:0:
320,192,52651,128,0,52811:0:0:0:0:
192,192,52811,128,0,53130:0:0:0:0:
64,192,52971,128,0,53050:0:0:0:0:
320,192,52971,128,0,53050:0:0:0:0:
320,192,53130,128,0,53290:0:0:0:0:
64,192,53130,128,0,53369:0:0:0:0:
448,192,53183,128,0,53369:0:0:0:0:
192,192,53290,128,0,53449:0:0:0:0:
448,192,53449,128,0,53609:0:0:0:0:
320,192,53449,128,0,53609:0:0:0:0:
64,192,53449,128,0,53689:0:0:0:0:
448,192,54088,128,0,54247:0:0:0:0:
192,192,54088,128,0,54247:0:0:0:0:
320,192,54088,128,0,54167:0:0:0:0:
64,192,54167,128,0,54327:0:0:0:0:
320,192,54247,128,0,54407:0:0:0:0:
192,192,54327,128,0,54407:0:0:0:0:
64,192,54407,128,0,54566:0:0:0:0:
448,192,54407,128,0,54486:0:0:0:0:
448,192,54566,128,0,54885:0:0:0:0:
320,192,54566,128,0,54726:0:0:0:0:
64,192,54646,128,0,54885:0:0:0:0:
192,192,54726,128,0,54806:0:0:0:0:
320,192,54885,128,0,54965:0:0:0:0:
192,192,54885,1,0,0:0:0:0:
64,192,55045,128,0,55284:0:0:0:0:
320,192,55045,128,0,55205:0:0:0:0:
448,192,55205,128,0,55284:0:0:0:0:
192,192,55205,128,0,55364:0:0:0:0:
448,192,55364,128,0,55603:0:0:0:0:
64,192,55364,128,0,55444:0:0:0:0:
64,192,55524,1,0,0:0:0:0:
320,192,55683,128,0,55923:0:0:0:0:
448,192,55683,128,0,56002:0:0:0:0:
192,192,55763,128,0,55923:0:0:0:0:
64,192,55843,128,0,56002:0:0:0:0:
192,192,56002,128,0,56082:0:0:0:0:
320,192,56002,128,0,56162:0:0:0:0:
448,192,56082,128,0,56242:0:0:0:0:
192,192,56162,128,0,56322:0:0:0:0:
320,192,56242,128,0,56322:0:0:0:0:
64,192,56322,1,0,0:0:0:0:
448,192,56322,1,0,0:0:0:0:
64,192,56481,128,0,56641:0:0:0:0:
320,192,56481,128,0,56561:0:0:0:0:
192,192,56561,128,0,56721:0:0:0:0:
448,192,56641,128,0,56721:0:0:0:0:
320,192,56641,128,0,56800:0:0:0:0:
448,192,56800,1,0,0:0:0:0:
64,192,56960,128,0,57040:0:0:0:0:
320,192,56960,128,0,57119:0:0:0:0:
64,192,57119,128,0,57439:0:0:0:0:
192,192,57119,128,0,57279:0:0:0:0:
320,192,57199,128,0,57359:0:0:0:0:
448,192,57279,128,0,57598:0:0:0:0:
320,192,57439,128,0,57518:0:0:0:0:
192,192,57439,1,0,0:0:0:0:
64,192,57598,128,0,57678:0:0:0:0:
320,192,57598,128,0,57758:0:0:0:0:
192,192,57758,128,0,57917:0:0:0:0:
64,192,57758,128,0,57917:0:0:0:0:
320,192,57917,128,0,58157:0:0:0:0:
448,192,57917,128,0,57997:0:0:0:0:
192,192,57997,128,0,58236:0:0:0:0:
448,192,58077,128,0,58236:0:0:0:0:
320,192,58236,128,0,58316:0:0:0:0:
64,192,58236,128,0,58476:0:0:0:0:
448,192,58316,128,0,58476:0:0:0:0:
320,192,58396,128,0,58556:0:0:0:0:
192,192,58476,128,0,58556:0:0:0:0:
64,192,58556,128,0,58635:0:0:0:0:
448,192,58556,128,0,58875:0:0:0:0:
64,192,58715,1,0,0:0:0:0:
192,192,58875,1,0,0:0:0:0:
320,192,58875,1,0,0:0:0:0:
320,192,59034,128,0,59194:0:0:0:0:
448,192,59194,128,0,59513:0:0:0:0:
192,192,59194,128,0,59353:0:0:0:0:
64,192,59194,128,0,59274:0:0:0:0:
320,192,59353,128,0,59433:0:0:0:0:
64,192,59353,128,0,59513:0:0:0:0:
192,192,59513,128,0,59593:0:0:0:0:
320,192,59513,128,0,59673:0:0:0:0:
192,192,59673,128,0,59912:0:0:0:0:
448,192,59673,128,0,59752:0:0:0:0:
64,192,59752,128,0,59912:0:0:0:0:
448,192,59832,128,0,59992:0:0:0:0:
320,192,59912,128,0,59992:0:0:0:0:
192,192,59992,128,0,60072:0:0:0:0:
64,192,59992,128,0,60151:0:0:0:0:
192,192,60151,128,0,60391:0:0:0:0:
448,192,60151,128,0,60311:0:0:0:0:
64,192,60311,128,0,60391:0:0:0:0:
448,192,60471,128,0,60550:0:0:0:0:
64,192,60471,128,0,60949:0:0:0:0:
448,192,60630,1,0,0:0:0:0:
192,192,60790,128,0,61109:0:0:0:0:
320,192,60790,128,0,60949:0:0:0:0:
448,192,60949,1,0,0:0:0:0:
320,192,61109,128,0,61268:0:0:0:0:
64,192,61109,128,0,61189:0:0:0:0:
64,192,61268,1,0,0:0:0:0:
192,192,61428,128,0,61588:0:0:0:0:
320,192,61428,128,0,61667:0:0:0:0:
448,192,61588,128,0,61747:0:0:0:0:
64,192,61747,128,0,61827:0:0:0:0:
320,192,61747,128,0,62066:0:0:0:0:
192,192,61747,128,0,61907:0:0:0:0:
64,192,61907,128,0,62066:0:0:0:0:
448,192,61907,128,0,62066:0:0:0:0:
192,192,62066,1,0,0:0:0:0:
320,192,62226,128,0,62306:0:0:0:0:
448,192,62226,128,0,62385:0:0:0:0:
320,192,62385,1,0,0:0:0:0:
64,192,62385,1,0,0:0:0:0:
64,192,62545,128,0,62705:0:0:0:0:
448,192,62705,1,0,0:0:0:0:
192,192,62864,1,0,0:0:0:0:
192,192,63024,1,0,0:0:0:0:
320,192,63024,128,0,63343:0:0:0:0:
448,192,63183,1,0,0:0:0:0:
64,192,63343,128,0,63582:0:0:0:0:
320,192,63502,128,0,63582:0:0:0:0:
448,192,63502,1,0,0:0:0:0:
448,192,63662,128,0,63901:0:0:0:0:
64,192,63662,128,0,63742:0:0:0:0:
64,192,63822,128,0,64221:0:0:0:0:
192,192,63822,128,0,63981:0:0:0:0:
320,192,63901,128,0,64061:0:0:0:0:
448,192,63981,1,0,0:0:0:0:
192,192,64061,1,0,0:0:0:0:
448,192,64141,128,0,64221:0:0:0:0:
320,192,64141,128,0,64221:0:0:0:0:
192,192,64221,1,0,0:0:0:0:
64,192,64300,128,0,64460:0:0:0:0:
320,192,64300,128,0,64460:0:0:0:0:
448,192,64380,128,0,64540:0:0:0:0:
192,192,64460,128,0,64619:0:0:0:0:
320,192,64540,128,0,64619:0:0:0:0:
448,192,64619,128,0,64779:0:0:0:0:
64,192,64619,128,0,64699:0:0:0:0:
192,192,64779,128,0,64939:0:0:0:0:
64,192,64779,128,0,65098:0:0:0:0:
448,192,64859,128,0,65098:0:0:0:0:
320,192,64939,128,0,65018:0:0:0:0:
192,192,65098,128,0,65178:0:0:0:0:
320,192,65098,128,0,65338:0:0:0:0:
192,192,65258,128,0,65417:0:0:0:0:
448,192,65258,128,0,65417:0:0:0:0:
64,192,65417,128,0,65497:0:0:0:0:
320,192,65417,128,0,65577:0:0:0:0:
448,192,65577,128,0,65657:0:0:0:0:
64,192,65577,128,0,65736:0:0:0:0:
448,192,65736,1,0,0:0:0:0:
192,192,65896,128,0,66135:0:0:0:0:
64,192,65896,128,0,66215:0:0:0:0:
320,192,65976,128,0,66135:0:0:0:0:
448,192,66056,128,0,66215:0:0:0:0:
320,192,66215,128,0,66295:0:0:0:0:
192,192,66215,128,0,66375:0:0:0:0:
64,192,66295,128,0,66455:0:0:0:0:
320,192,66375,128,0,66534:0:0:0:0:
192,192,66455,128,0,66534:0:0:0:0:
448,192,66534,1,0,0:0:0:0:
64,192,66534,1,0,0:0:0:0:
320,192,66694,128,0,66774:0:0:0:0:
320,192,66853,128,0,67013:0:0:0:0:
64,192,66853,128,0,66933:0:0:0:0:
448,192,66933,128,0,67093:0:0:0:0:
64,192,67013,128,0,67173:0:0:0:0:
320,192,67093,128,0,67173:0:0:0:0:
192,192,67173,128,0,67332:0:0:0:0:
448,192,67173,128,0,67252:0:0:0:0:
448,192,67332,128,0,67492:0:0:0:0:
64,192,67332,128,0,67492:0:0:0:0:
320,192,67412,128,0,67572:0:0:0:0:
192,192,67492,128,0,67572:0:0:0:0:
192,192,67651,128,0,67971:0:0:0:0:
320,192,67651,128,0,67811:0:0:0:0:
64,192,67811,128,0,68050:0:0:0:0:
448,192,67811,128,0,68130:0:0:0:0:
320,192,67971,128,0,68130:0:0:0:0:
64,192,68130,128,0,68369:0:0:0:0:
192,192,68130,128,0,68210:0:0:0:0:
448,192,68210,128,0,68369:0:0:0:0:
192,192,68290,128,0,68449:0:0:0:0:
320,192,68369,128,0,68449:0:0:0:0:
64,192,68449,128,0,68609:0:0:0:0:
448,192,68449,128,0,68689:0:0:0:0:
192,192,68609,1,0,0:0:0:0:
64,192,68768,128,0,69008:0:0:0:0:
320,192,68768,128,0,68848:0:0:0:0:
192,192,68848,128,0,69008:0:0:0:0:
320,192,68928,1,0,0:0:0:0:
448,192,69088,128,0,69407:0:0:0:0:
192,192,69088,128,0,69247:0:0:0:0:
64,192,69167,128,0,69327:0:0:0:0:
320,192,69247,128,0,69407:0:0:0:0:
192,192,69407,1,0,0:0:0:0:
64,192,69407,1,0,0:0:0:0:
64,192,69566,128,0,69806:0:0:0:0:
320,192,69566,128,0,69726:0:0:0:0:
192,192,69726,128,0,69885:0:0:0:0:
448,192,69726,128,0,69806:0:0:0:0:
448,192,69885,128,0,70045:0:0:0:0:
64,192,69885,128,0,69965:0:0:0:0:
320,192,69965,128,0,70205:0:0:0:0:
192,192,70045,128,0,70125:0:0:0:0:
64,192,70045,128,0,70205:0:0:0:0:
192,192,70205,128,0,70364:0:0:0:0:
448,192,70205,128,0,70284:0:0:0:0:
64,192,70364,128,0,70603:0:0:0:0:
448,192,70364,128,0,70524:0:0:0:0:
320,192,70524,128,0,70603:0:0:0:0:
192,192,70683,128,0,70763:0:0:0:0:
64,192,70683,128,0,70763:0:0:0:0:
320,192,70683,128,0,71002:0:0:0:0:
64,192,70843,128,0,71002:0:0:0:0:
192,192,70843,128,0,71002:0:0:0:0:
448,192,71002,128,0,71162:0:0:0:0:
192,192,71322,128,0,71641:0:0:0:0:
320,192,71322,128,0,71401:0:0:0:0:
448,192,71322,128,0,71401:0:0:0:0:
320,192,71481,128,0,71641:0:0:0:0:
448,192,71481,128,0,71641:0:0:0:0:
64,192,71641,128,0,71760:0:0:0:0:
448,192,71960,128,0,72199:0:0:0:0:
64,192,71960,128,0,72279:0:0:0:0:
320,192,71960,128,0,72040:0:0:0:0:
192,192,72119,128,0,72199:0:0:0:0:
320,192,72119,128,0,72279:0:0:0:0:
192,192,72279,128,0,72439:0:0:0:0:
448,192,72279,1,0,0:0:0:0:
64,192,72439,128,0,72598:0:0:0:0:
448,192,72439,128,0,72758:0:0:0:0:
320,192,72598,128,0,73157:0:0:0:0:
64,192,72758,1,0,0:0:0:0:
192,192,72758,1,0,0:0:0:0:
448,192,72917,1,0,0:0:0:0:
64,192,72917,128,0,73077:0:0:0:0:
192,192,73077,1,0,0:0:0:0:
448,192,73236,128,0,73316:0:0:0:0:
320,192,73236,128,0,73396:0:0:0:0:
192,192,73396,128,0,73556:0:0:0:0:
448,192,73396,128,0,73556:0:0:0:0:
64,192,73556,1,0,0:0:0:0:
320,192,73556,128,0,73715:0:0:0:0:
64,192,73715,128,0,74034:0:0:0:0:
192,192,73715,128,0,73795:0:0:0:0:
192,192,73875,128,0,74114:0:0:0:0:
448,192,73928,128,0,74194:0:0:0:0:
320,192,74034,1,0,0:0:0:0:
64,192,74114,1,0,0:0:0:0:
320,192,74194,128,0,74513:0:0:0:0:
192,192,74194,128,0,74353:0:0:0:0:
448,192,74353,128,0,74513:0:0:0:0:
64,192,74513,128,0,74673:0:0:0:0:
192,192,74513,128,0,74593:0:0:0:0:
320,192,74673,128,0,74752:0:0:0:0:
192,192,74673,128,0,74832:0:0:0:0:
320,192,74832,128,0,74992:0:0:0:0:
64,192,74832,1,0,0:0:0:0:
448,192,74992,128,0,75151:0:0:0:0:
64,192,74992,128,0,75311:0:0:0:0:
192,192,75151,128,0,75710:0:0:0:0:
448,192,75311,1,0,0:0:0:0:
320,192,75311,1,0,0:0:0:0:
64,192,75471,1,0,0:0:0:0:
448,192,75471,128,0,75630:0:0:0:0:
320,192,75630,1,0,0:0:0:0:
64,192,75790,128,0,75869:0:0:0:0:
192,192,75790,128,0,75949:0:0:0:0:
320,192,75949,128,0,76109:0:0:0:0:
64,192,75949,128,0,76109:0:0:0:0:
448,192,76109,1,0,0:0:0:0:
192,192,76109,128,0,76268:0:0:0:0:
448,192,76268,128,0,76588:0:0:0:0:
320,192,76268,128,0,76428:0:0:0:0:
192,192,76428,128,0,76508:0:0:0:0:
192,192,76588,128,0,76747:0:0:0:0:
320,192,76588,1,0,0:0:0:0:
320,192,76747,128,0,76907:0:0:0:0:
64,192,76747,128,0,76986:0:0:0:0:
192,192,76907,128,0,77066:0:0:0:0:
448,192,77066,128,0,77226:0:0:0:0:
64,192,77066,128,0,77385:0:0:0:0:
320,192,77066,128,0,77146:0:0:0:0:
192,192,77226,128,0,77306:0:0:0:0:
320,192,77226,128,0,77385:0:0:0:0:
192,192,77385,128,0,77545:0:0:0:0:
448,192,77385,1,0,0:0:0:0:
64,192,77545,128,0,77705:0:0:0:0:
448,192,77545,128,0,77864:0:0:0:0:
320,192,77705,128,0,78263:0:0:0:0:
64,192,77864,1,0,0:0:0:0:
192,192,77864,1,0,0:0:0:0:
448,192,78024,1,0,0:0:0:0:
64,192,78024,128,0,78183:0:0:0:0:
192,192,78183,1,0,0:0:0:0:
448,192,78343,128,0,78423:0:0:0:0:
320,192,78343,128,0,78502:0:0:0:0:
192,192,78502,128,0,78662:0:0:0:0:
448,192,78502,128,0,78662:0:0:0:0:
64,192,78662,1,0,0:0:0:0:
320,192,78662,128,0,78822:0:0:0:0:
64,192,78822,128,0,79141:0:0:0:0:
192,192,78822,128,0,78901:0:0:0:0:
192,192,78981,128,0,79221:0:0:0:0:
448,192,79034,128,0,79300:0:0:0:0:
320,192,79141,1,0,0:0:0:0:
64,192,79221,1,0,0:0:0:0:
320,192,79300,128,0,79619:0:0:0:0:
192,192,79300,128,0,79460:0:0:0:0:
448,192,79460,128,0,79619:0:0:0:0:
64,192,79619,128,0,79779:0:0:0:0:
192,192,79619,128,0,79699:0:0:0:0:
320,192,79779,128,0,79859:0:0:0:0:
192,192,79779,128,0,79939:0:0:0:0:
320,192,79939,128,0,80098:0:0:0:0:
64,192,79939,1,0,0:0:0:0:
448,192,80098,128,0,80258:0:0:0:0:
64,192,80098,128,0,80417:0:0:0:0:
192,192,80258,128,0,80816:0:0:0:0:
448,192,80417,1,0,0:0:0:0:
320,192,80417,1,0,0:0:0:0:
64,192,80577,1,0,0:0:0:0:
448,192,80577,128,0,80736:0:0:0:0:
320,192,80736,1,0,0:0:0:0:
64,192,80896,128,0,80976:0:0:0:0:
192,192,80896,128,0,81056:0:0:0:0:
320,192,81056,128,0,81215:0:0:0:0:
64,192,81056,128,0,81215:0:0:0:0:
448,192,81215,1,0,0:0:0:0:
192,192,81215,128,0,81375:0:0:0:0:
448,192,81375,128,0,81694:0:0:0:0:
64,192,81375,128,0,81534:0:0:0:0:
320,192,81534,128,0,81694:0:0:0:0:
64,192,81694,128,0,82013:0:0:0:0:
192,192,81694,1,0,0:0:0:0:
448,192,81853,128,0,82093:0:0:0:0:
192,192,81853,128,0,82013:0:0:0:0:
320,192,82013,128,0,82173:0:0:0:0:
448,192,82173,128,0,82332:0:0:0:0:
192,192,82173,128,0,82492:0:0:0:0:
64,192,82173,128,0,82572:0:0:0:0:
320,192,82492,128,0,82651:0:0:0:0:
448,192,82651,128,0,82731:0:0:0:0:
192,192,82811,128,0,82891:0:0:0:0:
192,192,82971,128,0,83130:0:0:0:0:
448,192,82971,1,0,0:0:0:0:
320,192,83050,1,0,0:0:0:0:
64,192,83130,1,0,0:0:0:0:
448,192,83130,128,0,83290:0:0:0:0:
320,192,83290,128,0,83369:0:0:0:0:
64,192,83449,128,0,83529:0:0:0:0:
320,192,83449,128,0,83768:0:0:0:0:
192,192,83449,1,0,0:0:0:0:
64,192,83609,128,0,83768:0:0:0:0:
192,192,83768,128,0,84088:0:0:0:0:
448,192,83768,128,0,83848:0:0:0:0:
448,192,83928,128,0,84088:0:0:0:0:
320,192,84088,128,0,84327:0:0:0:0:
448,192,84247,128,0,84407:0:0:0:0:
64,192,84247,128,0,84407:0:0:0:0:
192,192,84407,128,0,84486:0:0:0:0:
320,192,84407,128,0,84566:0:0:0:0:
192,192,84566,128,0,84726:0:0:0:0:
448,192,84726,128,0,84885:0:0:0:0:
64,192,84726,1,0,0:0:0:0:
192,192,84885,1,0,0:0:0:0:
64,192,85045,1,0,0:0:0:0:
320,192,85045,1,0,0:0:0:0:
320,192,85205,128,0,85364:0:0:0:0:
64,192,85364,128,0,85603:0:0:0:0:
448,192,85524,1,0,0:0:0:0:
192,192,85683,1,0,0:0:0:0:
448,192,85683,1,0,0:0:0:0:
192,192,85843,128,0,86002:0:0:0:0:
320,192,86002,1,0,0:0:0:0:
448,192,86002,128,0,86242:0:0:0:0:
320,192,86162,1,0,0:0:0:0:
448,192,86322,1,0,0:0:0:0:
192,192,86322,128,0,86641:0:0:0:0:
64,192,86481,1,0,0:0:0:0:
320,192,86641,128,0,86800:0:0:0:0:
64,192,86800,1,0,0:0:0:0:
192,192,86800,1,0,0:0:0:0:
64,192,86960,1,0,0:0:0:0:
448,192,86960,1,0,0:0:0:0:
192,192,87119,1,0,0:0:0:0:
64,192,87279,128,0,87439:0:0:0:0:
320,192,87279,128,0,87598:0:0:0:0:
448,192,87279,128,0,87518:0:0:0:0:
192,192,87598,128,0,87758:0:0:0:0:
448,192,87598,1,0,0:0:0:0:
64,192,87758,128,0,87838:0:0:0:0:
320,192,87917,128,0,87997:0:0:0:0:
64,192,88077,128,0,88157:0:0:0:0:
320,192,88077,1,0,0:0:0:0:
448,192,88236,1,0,0:0:0:0:
64,192,88236,128,0,88396:0:0:0:0:
192,192,88396,128,0,88556:0:0:0:0:
448,192,88556,128,0,88635:0:0:0:0:
320,192,88556,128,0,88715:0:0:0:0:
448,192,88715,128,0,88875:0:0:0:0:
192,192,88715,128,0,88875:0:0:0:0:
64,192,88875,128,0,88955:0:0:0:0:
320,192,88875,128,0,89114:0:0:0:0:
64,192,89034,128,0,89194:0:0:0:0:
320,192,89194,128,0,89353:0:0:0:0:
192,192,89194,128,0,89274:0:0:0:0:
448,192,89274,128,0,89353:0:0:0:0:
192,192,89353,1,0,0:0:0:0:
64,192,89513,128,0,89752:0:0:0:0:
448,192,89513,128,0,89673:0:0:0:0:
320,192,89673,1,0,0:0:0:0:
64,192,89832,128,0,89992:0:0:0:0:
192,192,89885,128,0,90151:0:0:0:0:
320,192,89939,128,0,90151:0:0:0:0:
448,192,90151,1,0,0:0:0:0:
64,192,90151,1,0,0:0:0:0:
192,192,90311,128,0,90550:0:0:0:0:
448,192,90311,128,0,90630:0:0:0:0:
64,192,90391,128,0,90630:0:0:0:0:
320,192,90471,128,0,90630:0:0:0:0:
192,192,90630,1,0,0:0:0:0:
192,192,90790,128,0,91109:0:0:0:0:
320,192,90790,128,0,91029:0:0:0:0:
64,192,90869,128,0,91029:0:0:0:0:
448,192,90949,128,0,91109:0:0:0:0:
64,192,91109,1,0,0:0:0:0:
320,192,91109,1,0,0:0:0:0:
320,192,91268,128,0,91428:0:0:0:0:
192,192,91268,128,0,91348:0:0:0:0:
448,192,91348,128,0,91428:0:0:0:0:
192,192,91428,1,0,0:0:0:0:
64,192,91428,1,0,0:0:0:0:
448,192,91588,128,0,91667:0:0:0:0:
448,192,91747,128,0,91907:0:0:0:0:
64,192,91747,128,0,92066:0:0:0:0:
192,192,91747,1,0,0:0:0:0:
320,192,91907,1,0,0:0:0:0:
192,192,91907,1,0,0:0:0:0:
192,192,92066,128,0,92385:0:0:0:0:
320,192,92066,128,0,92306:0:0:0:0:
64,192,92385,1,0,0:0:0:0:
320,192,92385,1,0,0:0:0:0:
448,192,92385,128,0,94619:0:0:0:0:
192,192,92492,128,0,93103:0:0:0:0:
64,192,92705,1,0,0:0:0:0:
320,192,92705,1,0,0:0:0:0:
320,192,92864,1,0,0:0:0:0:
64,192,93024,1,0,0:0:0:0:
320,192,93183,1,0,0:0:0:0:
192,192,93183,1,0,0:0:0:0:
64,192,93343,1,0,0:0:0:0:
320,192,93343,1,0,0:0:0:0:
64,192,93502,128,0,93662:0:0:0:0:
320,192,93582,128,0,93822:0:0:0:0:
192,192,93662,128,0,93742:0:0:0:0:
64,192,93742,128,0,93901:0:0:0:0:
192,192,93822,128,0,93981:0:0:0:0:
64,192,93981,1,0,0:0:0:0:
320,192,93981,1,0,0:0:0:0:
320,192,94141,128,0,94460:0:0:0:0:
192,192,94141,128,0,94380:0:0:0:0:
64,192,94460,1,0,0:0:0:0:
192,192,94460,1,0,0:0:0:0:
64,192,94619,1,0,0:0:0:0:
320,192,94619,1,0,0:0:0:0:
192,192,94779,128,0,95018:0:0:0:0:
320,192,94939,128,0,95178:0:0:0:0:
448,192,94939,1,0,0:0:0:0:
192,192,95098,128,0,95258:0:0:0:0:
320,192,95258,128,0,95417:0:0:0:0:
64,192,95258,1,0,0:0:0:0:
64,192,95417,128,0,95657:0:0:0:0:
448,192,95577,128,0,95816:0:0:0:0:
64,192,95736,128,0,95896:0:0:0:0:
192,192,95736,1,0,0:0:0:0:
192,192,95896,1,0,0:0:0:0:
448,192,95896,128,0,96215:0:0:0:0:
320,192,96056,128,0,96215:0:0:0:0:
192,192,96215,128,0,96455:0:0:0:0:
64,192,96215,128,0,96295:0:0:0:0:
320,192,96375,128,0,96455:0:0:0:0:
64,192,96375,128,0,96534:0:0:0:0:
320,192,96534,128,0,96694:0:0:0:0:
192,192,96534,128,0,96614:0:0:0:0:
192,192,96694,128,0,96853:0:0:0:0:
448,192,96853,128,0,96933:0:0:0:0:
64,192,96853,128,0,97013:0:0:0:0:
192,192,96933,128,0,97013:0:0:0:0:
448,192,97013,128,0,97412:0:0:0:0:
320,192,97173,1,0,0:0:0:0:
64,192,97173,1,0,0:0:0:0:
320,192,97332,128,0,97492:0:0:0:0:
192,192,97492,128,0,97651:0:0:0:0:
64,192,97492,128,0,97572:0:0:0:0:
448,192,97492,128,0,97731:0:0:0:0:
64,192,97651,128,0,98050:0:0:0:0:
320,192,97811,1,0,0:0:0:0:
448,192,97811,1,0,0:0:0:0:
192,192,97891,128,0,98130:0:0:0:0:
320,192,97971,1,0,0:0:0:0:
64,192,98130,1,0,0:0:0:0:
448,192,98183,128,0,98343:0:0:0:0:
320,192,98290,1,0,0:0:0:0:
192,192,98343,1,0,0:0:0:0:
320,192,98449,1,0,0:0:0:0:
64,192,98449,1,0,0:0:0:0:
448,192,98502,128,0,98662:0:0:0:0:
192,192,98609,1,0,0:0:0:0:
64,192,98662,1,0,0:0:0:0:
320,192,98768,128,0,98928:0:0:0:0:
192,192,98768,128,0,98848:0:0:0:0:
192,192,98928,128,0,99247:0:0:0:0:
448,192,98928,128,0,99008:0:0:0:0:
64,192,99008,128,0,99167:0:0:0:0:
448,192,99088,1,0,0:0:0:0:
320,192,99088,1,0,0:0:0:0:
320,192,99247,128,0,99407:0:0:0:0:
64,192,99247,128,0,99486:0:0:0:0:
448,192,99407,128,0,99566:0:0:0:0:
320,192,99486,128,0,99566:0:0:0:0:
192,192,99566,128,0,99726:0:0:0:0:
64,192,99566,128,0,99646:0:0:0:0:
64,192,99726,128,0,99885:0:0:0:0:
320,192,99726,128,0,99806:0:0:0:0:
320,192,99885,128,0,100205:0:0:0:0:
448,192,99965,128,0,100364:0:0:0:0:
192,192,100045,1,0,0:0:0:0:
64,192,100205,128,0,100364:0:0:0:0:
320,192,100364,128,0,100524:0:0:0:0:
192,192,100364,128,0,100444:0:0:0:0:
192,192,100524,128,0,100843:0:0:0:0:
64,192,100603,128,0,100763:0:0:0:0:
448,192,100683,1,0,0:0:0:0:
320,192,100843,128,0,101002:0:0:0:0:
64,192,100843,128,0,100923:0:0:0:0:
64,192,101002,128,0,101162:0:0:0:0:
448,192,101002,128,0,101082:0:0:0:0:
448,192,101162,128,0,101401:0:0:0:0:
320,192,101242,128,0,101481:0:0:0:0:
192,192,101322,1,0,0:0:0:0:
192,192,101481,128,0,101641:0:0:0:0:
448,192,101481,128,0,101561:0:0:0:0:
448,192,101641,128,0,101800:0:0:0:0:
64,192,101641,128,0,101721:0:0:0:0:
64,192,101800,128,0,102439:0:0:0:0:
192,192,101880,128,0,102199:0:0:0:0:
320,192,101960,128,0,102119:0:0:0:0:
448,192,101960,128,0,102040:0:0:0:0:
448,192,102119,5,0,0:0:0:0:
320,192,102199,1,0,0:0:0:0:
192,192,102279,1,0,0:0:0:0:
448,192,102279,1,0,0:0:0:0:
192,192,102439,1,0,0:0:0:0:
64,192,102598,1,0,0:0:0:0:
448,192,102598,1,0,0:0:0:0:
320,192,102678,1,0,0:0:0:0:
192,192,102738,1,0,0:0:0:0:
64,192,102818,1,0,0:0:0:0:
448,192,102857,1,0,0:0:0:0:
320,192,102937,1,0,0:0:0:0:
192,192,103017,1,0,0:0:0:0:
448,192,103077,1,0,0:0:0:0:
64,192,103117,1,0,0:0:0:0:
192,192,103197,1,0,0:0:0:0:
320,192,103256,1,0,0:0:0:0:
448,192,103316,1,0,0:0:0:0:
64,192,103356,1,0,0:0:0:0:
192,192,103436,1,0,0:0:0:0:
320,192,103516,1,0,0:0:0:0:
448,192,103596,1,0,0:0:0:0:
320,192,103675,1,0,0:0:0:0:
192,192,103755,1,0,0:0:0:0:
64,192,103835,1,0,0:0:0:0:
320,192,103915,1,0,0:0:0:0:
448,192,103994,1,0,0:0:0:0:
64,192,104034,1,0,0:0:0:0:
192,192,104114,1,0,0:0:0:0:
320,192,104194,1,0,0:0:0:0:
448,192,104247,1,0,0:0:0:0:
64,192,104300,1,0,0:0:0:0:
320,192,104393,1,0,0:0:0:0:
192,192,104433,1,0,0:0:0:0:
64,192,104513,1,0,0:0:0:0:
448,192,104593,1,0,0:0:0:0:
320,192,104673,1,0,0:0:0:0:
192,192,104713,1,0,0:0:0:0:
64,192,104772,1,0,0:0:0:0:
448,192,104859,1,0,0:0:0:0:
320,192,104939,1,0,0:0:0:0:
64,192,105018,1,0,0:0:0:0:
192,192,105098,1,0,0:0:0:0:
448,192,105151,128,0,105471:0:0:0:0:
320,192,105151,128,0,105311:0:0:0:0:
64,192,105311,1,0,0:0:0:0:
192,192,105471,1,0,0:0:0:0:
320,192,105471,1,0,0:0:0:0:
64,192,105630,128,0,105710:0:0:0:0:
448,192,105710,128,0,105790:0:0:0:0:
64,192,105790,128,0,105949:0:0:0:0:
320,192,105869,128,0,106029:0:0:0:0:
192,192,105949,128,0,106109:0:0:0:0:
64,192,106029,128,0,106189:0:0:0:0:
320,192,106109,1,0,0:0:0:0:
448,192,106109,128,0,106268:0:0:0:0:
192,192,106189,128,0,106268:0:0:0:0:
320,192,106268,128,0,106375:0:0:0:0:
448,192,106375,1,0,0:0:0:0:
64,192,106428,1,0,0:0:0:0:
320,192,106534,1,0,0:0:0:0:
64,192,106588,1,0,0:0:0:0:
192,192,106641,1,0,0:0:0:0:
448,192,106694,1,0,0:0:0:0:
64,192,106747,1,0,0:0:0:0:
320,192,106747,1,0,0:0:0:0:
192,192,106827,128,0,106907:0:0:0:0:
320,192,106907,128,0,107066:0:0:0:0:
64,192,107066,128,0,107385:0:0:0:0:
448,192,107066,1,0,0:0:0:0:
448,192,107226,1,0,0:0:0:0:
192,192,107385,1,0,0:0:0:0:
320,192,107385,128,0,107625:0:0:0:0:
64,192,107545,128,0,107625:0:0:0:0:
448,192,107625,128,0,107864:0:0:0:0:
192,192,107705,128,0,107944:0:0:0:0:
64,192,107705,128,0,108183:0:0:0:0:
320,192,107705,1,0,0:0:0:0:
320,192,107864,128,0,108024:0:0:0:0:
192,192,108024,128,0,108183:0:0:0:0:
448,192,108024,1,0,0:0:0:0:
320,192,108183,128,0,108263:0:0:0:0:
448,192,108263,128,0,108343:0:0:0:0:
320,192,108343,128,0,108662:0:0:0:0:
64,192,108343,128,0,108502:0:0:0:0:
192,192,108502,128,0,108662:0:0:0:0:
448,192,108502,128,0,108582:0:0:0:0:
64,192,108662,1,0,0:0:0:0:
448,192,108662,1,0,0:0:0:0:
64,192,108822,128,0,108981:0:0:0:0:
320,192,108822,128,0,108901:0:0:0:0:
320,192,108981,1,0,0:0:0:0:
192,192,108981,1,0,0:0:0:0:
448,192,109141,128,0,109380:0:0:0:0:
192,192,109141,128,0,109460:0:0:0:0:
320,192,109300,128,0,109460:0:0:0:0:
64,192,109300,1,0,0:0:0:0:
64,192,109460,128,0,109779:0:0:0:0:
448,192,109460,128,0,109699:0:0:0:0:
192,192,109619,128,0,109779:0:0:0:0:
320,192,109779,128,0,110098:0:0:0:0:
448,192,109779,1,0,0:0:0:0:
448,192,109939,128,0,110098:0:0:0:0:
64,192,109939,128,0,110178:0:0:0:0:
192,192,110098,128,0,110258:0:0:0:0:
448,192,110258,128,0,110338:0:0:0:0:
320,192,110258,128,0,110577:0:0:0:0:
64,192,110258,128,0,110417:0:0:0:0:
448,192,110417,128,0,110657:0:0:0:0:
64,192,110577,128,0,110896:0:0:0:0:
192,192,110577,1,0,0:0:0:0:
448,192,110736,128,0,110976:0:0:0:0:
192,192,110736,128,0,110896:0:0:0:0:
320,192,110736,128,0,110816:0:0:0:0:
320,192,110896,128,0,111135:0:0:0:0:
192,192,111056,128,0,111375:0:0:0:0:
64,192,111056,1,0,0:0:0:0:
320,192,111215,128,0,111375:0:0:0:0:
64,192,111215,1,0,0:0:0:0:
448,192,111375,128,0,111455:0:0:0:0:
64,192,111455,128,0,111774:0:0:0:0:
192,192,111534,128,0,112013:0:0:0:0:
448,192,111534,128,0,111694:0:0:0:0:
320,192,111694,1,0,0:0:0:0:
448,192,111774,1,0,0:0:0:0:
64,192,111853,1,0,0:0:0:0:
320,192,111853,128,0,112013:0:0:0:0:
448,192,112013,128,0,112093:0:0:0:0:
64,192,112013,128,0,112173:0:0:0:0:
448,192,112173,128,0,112332:0:0:0:0:
320,192,112173,128,0,112332:0:0:0:0:
192,192,112332,128,0,112492:0:0:0:0:
64,192,112332,1,0,0:0:0:0:
448,192,112412,128,0,112492:0:0:0:0:
320,192,112492,1,0,0:0:0:0:
64,192,112492,128,0,112731:0:0:0:0:
192,192,112572,128,0,112651:0:0:0:0:
320,192,112651,128,0,112811:0:0:0:0:
448,192,112651,1,0,0:0:0:0:
192,192,112731,128,0,112811:0:0:0:0:
448,192,112811,128,0,112971:0:0:0:0:
64,192,112811,128,0,112971:0:0:0:0:
320,192,113050,128,0,113290:0:0:0:0:
448,192,113130,128,0,113449:0:0:0:0:
64,192,113449,1,0,0:0:0:0:
320,192,113449,128,0,113662:0:0:0:0:
448,192,113662,1,0,0:0:0:0:
192,192,113768,128,0,114088:0:0:0:0:
64,192,113981,128,0,114088:0:0:0:0:
320,192,114088,128,0,114247:0:0:0:0:
448,192,114088,1,0,0:0:0:0:
192,192,114407,128,0,114619:0:0:0:0:
448,192,114513,128,0,114726:0:0:0:0:
320,192,114726,1,0,0:0:0:0:
192,192,114726,1,0,0:0:0:0:
64,192,114779,128,0,115045:0:0:0:0:
320,192,115045,128,0,115364:0:0:0:0:
192,192,115364,1,0,0:0:0:0:
64,192,115364,1,0,0:0:0:0:
192,192,115683,128,0,115896:0:0:0:0:
448,192,115763,128,0,115896:0:0:0:0:
64,192,116002,1,0,0:0:0:0:
448,192,116002,128,0,116215:0:0:0:0:
192,192,116322,128,0,116534:0:0:0:0:
64,192,116534,1,0,0:0:0:0:
448,192,116641,1,0,0:0:0:0:
320,192,116641,128,0,116853:0:0:0:0:
64,192,116960,128,0,117173:0:0:0:0:
448,192,117173,1,0,0:0:0:0:
320,192,117279,1,0,0:0:0:0:
192,192,117279,128,0,117492:0:0:0:0:
64,192,117492,1,0,0:0:0:0:
448,192,117598,128,0,117917:0:0:0:0:
320,192,117811,1,0,0:0:0:0:
192,192,117917,1,0,0:0:0:0:
64,192,117917,1,0,0:0:0:0:
320,192,118236,128,0,118449:0:0:0:0:
448,192,118316,128,0,118449:0:0:0:0:
448,192,118556,128,0,118768:0:0:0:0:
64,192,118556,1,0,0:0:0:0:
192,192,118768,128,0,118875:0:0:0:0:
320,192,118875,128,0,119088:0:0:0:0:
64,192,119088,128,0,119194:0:0:0:0:
320,192,119194,1,0,0:0:0:0:
192,192,119194,128,0,119407:0:0:0:0:
448,192,119513,128,0,119726:0:0:0:0:
192,192,119726,1,0,0:0:0:0:
320,192,119832,1,0,0:0:0:0:
64,192,119832,128,0,120045:0:0:0:0:
448,192,120045,1,0,0:0:0:0:
320,192,120151,128,0,120364:0:0:0:0:
192,192,120471,1,0,0:0:0:0:
64,192,120471,1,0,0:0:0:0:
192,192,120790,128,0,121002:0:0:0:0:
448,192,120869,128,0,121002:0:0:0:0:
448,192,121109,128,0,121322:0:0:0:0:
64,192,121109,1,0,0:0:0:0:
320,192,121322,128,0,121428:0:0:0:0:
64,192,121428,128,0,121747:0:0:0:0:
192,192,121641,128,0,121747:0:0:0:0:
320,192,121747,128,0,122066:0:0:0:0:
448,192,121747,128,0,122306:0:0:0:0:
64,192,122226,128,0,122944:0:0:0:0:
448,192,122385,128,0,122944:0:0:0:0:
320,192,122625,128,0,122944:0:0:0:0:
192,192,122864,128,0,123024:0:0:0:0:
320,192,123024,128,0,124779:0:0:0:0:
64,192,123024,128,0,123263:0:0:0:0:
448,192,123024,128,0,123343:0:0:0:0:
192,192,123343,1,0,0:0:0:0:
64,192,123343,1,0,0:0:0:0:
448,192,123502,128,0,123822:0:0:0:0:
64,192,123662,1,0,0:0:0:0:
192,192,123742,1,0,0:0:0:0:
64,192,123822,1,0,0:0:0:0:
192,192,123981,1,0,0:0:0:0:
448,192,123981,1,0,0:0:0:0:
64,192,124141,128,0,124460:0:0:0:0:
448,192,124141,1,0,0:0:0:0:
192,192,124460,1,0,0:0:0:0:
192,192,124619,1,0,0:0:0:0:
448,192,124619,1,0,0:0:0:0:
64,192,124779,1,0,0:0:0:0:
320,192,124939,1,0,0:0:0:0:
64,192,125098,1,0,0:0:0:0:
192,192,125098,128,0,125417:0:0:0:0:
320,192,125258,128,0,125497:0:0:0:0:
64,192,125258,1,0,0:0:0:0:
448,192,125417,128,0,125577:0:0:0:0:
192,192,125497,128,0,125736:0:0:0:0:
64,192,125577,128,0,127971:0:0:0:0:
320,192,125577,128,0,125896:0:0:0:0:
448,192,125896,1,0,0:0:0:0:
192,192,125896,1,0,0:0:0:0:
192,192,126056,128,0,126375:0:0:0:0:
448,192,126215,1,0,0:0:0:0:
448,192,126375,1,0,0:0:0:0:
192,192,126534,1,0,0:0:0:0:
320,192,126534,1,0,0:0:0:0:
448,192,126694,128,0,127013:0:0:0:0:
192,192,126694,1,0,0:0:0:0:
320,192,127013,1,0,0:0:0:0:
320,192,127173,1,0,0:0:0:0:
192,192,127173,1,0,0:0:0:0:
448,192,127332,1,0,0:0:0:0:
192,192,127492,1,0,0:0:0:0:
448,192,127651,1,0,0:0:0:0:
192,192,127651,128,0,127971:0:0:0:0:
448,192,127811,1,0,0:0:0:0:
320,192,127811,1,0,0:0:0:0:
448,192,128130,128,0,128369:0:0:0:0:
192,192,128130,128,0,128449:0:0:0:0:
64,192,128130,1,0,0:0:0:0:
320,192,128449,1,0,0:0:0:0:
448,192,128449,1,0,0:0:0:0:
64,192,128609,128,0,128928:0:0:0:0:
320,192,128768,1,0,0:0:0:0:
448,192,128848,1,0,0:0:0:0:
320,192,128928,1,0,0:0:0:0:
64,192,129088,1,0,0:0:0:0:
192,192,129088,1,0,0:0:0:0:
448,192,129247,128,0,129566:0:0:0:0:
64,192,129247,1,0,0:0:0:0:
192,192,129407,1,0,0:0:0:0:
320,192,129566,1,0,0:0:0:0:
320,192,129726,1,0,0:0:0:0:
64,192,129726,1,0,0:0:0:0:
448,192,129885,128,0,130045:0:0:0:0:
64,192,129965,128,0,130205:0:0:0:0:
192,192,130045,128,0,130683:0:0:0:0:
448,192,130205,1,0,0:0:0:0:
320,192,130205,1,0,0:0:0:0:
448,192,130364,1,0,0:0:0:0:
64,192,130364,1,0,0:0:0:0:
320,192,130683,1,0,0:0:0:0:
448,192,130683,128,0,131641:0:0:0:0:
192,192,130843,1,0,0:0:0:0:
64,192,131002,1,0,0:0:0:0:
320,192,131002,1,0,0:0:0:0:
320,192,131162,128,0,131481:0:0:0:0:
64,192,131322,1,0,0:0:0:0:
64,192,131481,1,0,0:0:0:0:
320,192,131641,1,0,0:0:0:0:
192,192,131641,1,0,0:0:0:0:
320,192,131800,128,0,132040:0:0:0:0:
64,192,131800,128,0,131960:0:0:0:0:
448,192,131880,128,0,132119:0:0:0:0:
192,192,131960,1,0,0:0:0:0:
320,192,132119,128,0,132279:0:0:0:0:
64,192,132119,1,0,0:0:0:0:
192,192,132279,1,0,0:0:0:0:
64,192,132279,1,0,0:0:0:0:
192,192,132439,128,0,132758:0:0:0:0:
448,192,132598,1,0,0:0:0:0:
64,192,132758,1,0,0:0:0:0:
448,192,132758,128,0,133077:0:0:0:0:
320,192,132917,128,0,133236:0:0:0:0:
64,192,132917,1,0,0:0:0:0:
192,192,133236,128,0,133556:0:0:0:0:
64,192,133236,128,0,133476:0:0:0:0:
448,192,133236,128,0,133396:0:0:0:0:
320,192,133556,128,0,133795:0:0:0:0:
64,192,133556,128,0,133875:0:0:0:0:
448,192,133715,128,0,133875:0:0:0:0:
192,192,133875,128,0,134034:0:0:0:0:
320,192,133875,128,0,133955:0:0:0:0:
320,192,134034,1,0,0:0:0:0:
192,192,134114,128,0,134353:0:0:0:0:
64,192,134114,128,0,134274:0:0:0:0:
448,192,134194,1,0,0:0:0:0:
64,192,134353,128,0,134513:0:0:0:0:
320,192,134353,128,0,134673:0:0:0:0:
448,192,134513,128,0,134673:0:0:0:0:
192,192,134513,128,0,134593:0:0:0:0:
192,192,134673,1,0,0:0:0:0:
320,192,134832,128,0,134992:0:0:0:0:
448,192,134832,128,0,135151:0:0:0:0:
192,192,134912,128,0,135072:0:0:0:0:
64,192,134992,128,0,135151:0:0:0:0:
320,192,135151,128,0,135311:0:0:0:0:
192,192,135151,128,0,135311:0:0:0:0:
448,192,135311,1,0,0:0:0:0:
192,192,135471,128,0,135790:0:0:0:0:
448,192,135471,128,0,135710:0:0:0:0:
320,192,135630,128,0,135790:0:0:0:0:
64,192,135790,1,0,0:0:0:0:
448,192,135790,1,0,0:0:0:0:
64,192,135949,128,0,136109:0:0:0:0:
192,192,136029,128,0,136268:0:0:0:0:
448,192,136109,128,0,136268:0:0:0:0:
320,192,136109,128,0,136189:0:0:0:0:
320,192,136268,1,0,0:0:0:0:
448,192,136428,128,0,136667:0:0:0:0:
192,192,136428,128,0,136508:0:0:0:0:
192,192,136588,1,0,0:0:0:0:
320,192,136667,128,0,136827:0:0:0:0:
64,192,136747,1,0,0:0:0:0:
448,192,136747,128,0,136907:0:0:0:0:
64,192,136907,128,0,137066:0:0:0:0:
320,192,136907,128,0,136986:0:0:0:0:
192,192,137066,128,0,137306:0:0:0:0:
320,192,137066,128,0,137226:0:0:0:0:
448,192,137226,1,0,0:0:0:0:
192,192,137385,128,0,137545:0:0:0:0:
448,192,137385,128,0,137625:0:0:0:0:
320,192,137545,128,0,137705:0:0:0:0:
192,192,137625,128,0,137864:0:0:0:0:
448,192,137705,128,0,137864:0:0:0:0:
64,192,137705,128,0,137944:0:0:0:0:
320,192,137864,1,0,0:0:0:0:
448,192,137944,128,0,138263:0:0:0:0:
64,192,138024,1,0,0:0:0:0:
192,192,138024,1,0,0:0:0:0:
320,192,138183,128,0,138263:0:0:0:0:
320,192,138343,128,0,138502:0:0:0:0:
64,192,138343,128,0,138582:0:0:0:0:
192,192,138343,128,0,138662:0:0:0:0:
320,192,138662,128,0,138822:0:0:0:0:
64,192,138662,128,0,138822:0:0:0:0:
192,192,138822,1,0,0:0:0:0:
320,192,138981,128,0,139061:0:0:0:0:
192,192,138981,128,0,139380:0:0:0:0:
320,192,139141,1,0,0:0:0:0:
64,192,139221,128,0,139460:0:0:0:0:
448,192,139300,1,0,0:0:0:0:
448,192,139460,128,0,139779:0:0:0:0:
192,192,139460,128,0,139619:0:0:0:0:
64,192,139619,128,0,139699:0:0:0:0:
320,192,139619,128,0,139779:0:0:0:0:
64,192,139779,1,0,0:0:0:0:
320,192,139939,128,0,140098:0:0:0:0:
448,192,139939,128,0,140258:0:0:0:0:
64,192,140018,128,0,140178:0:0:0:0:
192,192,140098,128,0,140258:0:0:0:0:
320,192,140258,128,0,140417:0:0:0:0:
64,192,140258,128,0,140417:0:0:0:0:
448,192,140417,1,0,0:0:0:0:
64,192,140577,128,0,140896:0:0:0:0:
448,192,140577,128,0,140816:0:0:0:0:
320,192,140736,128,0,140896:0:0:0:0:
192,192,140896,1,0,0:0:0:0:
448,192,140896,1,0,0:0:0:0:
320,192,141056,1,0,0:0:0:0:
192,192,141215,128,0,141455:0:0:0:0:
64,192,141215,128,0,141375:0:0:0:0:
320,192,141375,1,0,0:0:0:0:
64,192,141455,128,0,141614:0:0:0:0:
192,192,141534,128,0,141614:0:0:0:0:
448,192,141534,128,0,141694:0:0:0:0:
192,192,141694,1,0,0:0:0:0:
448,192,141774,128,0,142013:0:0:0:0:
320,192,141774,128,0,142013:0:0:0:0:
64,192,141853,1,0,0:0:0:0:
192,192,142013,128,0,142093:0:0:0:0:
448,192,142173,128,0,142492:0:0:0:0:
192,192,142173,128,0,142412:0:0:0:0:
64,192,142332,1,0,0:0:0:0:
320,192,142492,128,0,142651:0:0:0:0:
192,192,142492,128,0,142651:0:0:0:0:
448,192,142651,1,0,0:0:0:0:
448,192,142811,128,0,143369:0:0:0:0:
64,192,142811,128,0,142891:0:0:0:0:
64,192,142971,5,0,0:0:0:0:
192,192,143050,128,0,143369:0:0:0:0:
320,192,143130,128,0,143369:0:0:0:0:
64,192,143290,128,0,143369:0:0:0:0:
320,192,143449,128,0,144247:0:0:0:0:
64,192,143449,128,0,143689:0:0:0:0:
448,192,143449,128,0,143768:0:0:0:0:
192,192,143768,1,0,0:0:0:0:
64,192,143768,1,0,0:0:0:0:
448,192,143928,1,0,0:0:0:0:
64,192,144088,1,0,0:0:0:0:
64,192,144247,1,0,0:0:0:0:
320,192,144407,128,0,144566:0:0:0:0:
192,192,144407,1,0,0:0:0:0:
448,192,144566,128,0,145524:0:0:0:0:
192,192,144566,128,0,144885:0:0:0:0:
64,192,144885,1,0,0:0:0:0:
320,192,145045,1,0,0:0:0:0:
64,192,145045,1,0,0:0:0:0:
192,192,145205,1,0,0:0:0:0:
320,192,145364,1,0,0:0:0:0:
64,192,145524,1,0,0:0:0:0:
192,192,145524,1,0,0:0:0:0:
448,192,145683,1,0,0:0:0:0:
192,192,145683,128,0,145843:0:0:0:0:
64,192,145843,128,0,148236:0:0:0:0:
192,192,146002,1,0,0:0:0:0:
320,192,146002,128,0,146322:0:0:0:0:
448,192,146322,1,0,0:0:0:0:
192,192,146322,1,0,0:0:0:0:
192,192,146481,128,0,146800:0:0:0:0:
448,192,146641,1,0,0:0:0:0:
448,192,146800,1,0,0:0:0:0:
192,192,146960,1,0,0:0:0:0:
320,192,146960,1,0,0:0:0:0:
448,192,147119,128,0,147439:0:0:0:0:
192,192,147119,1,0,0:0:0:0:
320,192,147439,1,0,0:0:0:0:
320,192,147598,1,0,0:0:0:0:
192,192,147598,1,0,0:0:0:0:
448,192,147758,1,0,0:0:0:0:
192,192,147917,1,0,0:0:0:0:
448,192,148077,1,0,0:0:0:0:
320,192,148077,128,0,148396:0:0:0:0:
448,192,148236,1,0,0:0:0:0:
192,192,148236,1,0,0:0:0:0:
64,192,148556,128,0,148795:0:0:0:0:
320,192,148556,128,0,148875:0:0:0:0:
448,192,148556,1,0,0:0:0:0:
192,192,148875,1,0,0:0:0:0:
64,192,148875,1,0,0:0:0:0:
448,192,149034,128,0,149353:0:0:0:0:
192,192,149194,1,0,0:0:0:0:
192,192,149353,1,0,0:0:0:0:
448,192,149513,1,0,0:0:0:0:
320,192,149513,1,0,0:0:0:0:
64,192,149673,128,0,149992:0:0:0:0:
448,192,149673,1,0,0:0:0:0:
320,192,149832,1,0,0:0:0:0:
192,192,149992,1,0,0:0:0:0:
192,192,150151,1,0,0:0:0:0:
448,192,150151,1,0,0:0:0:0:
320,192,150311,1,0,0:0:0:0:
448,192,150471,1,0,0:0:0:0:
64,192,150630,1,0,0:0:0:0:
192,192,150630,1,0,0:0:0:0:
64,192,150790,1,0,0:0:0:0:
320,192,150790,1,0,0:0:0:0:
448,192,150949,1,0,0:0:0:0:
448,192,151109,1,0,0:0:0:0:
192,192,151109,128,0,152066:0:0:0:0:
64,192,151109,128,0,151268:0:0:0:0:
320,192,151268,1,0,0:0:0:0:
64,192,151428,1,0,0:0:0:0:
320,192,151428,1,0,0:0:0:0:
448,192,151588,1,0,0:0:0:0:
64,192,151747,1,0,0:0:0:0:
64,192,151907,1,0,0:0:0:0:
320,192,152066,1,0,0:0:0:0:
448,192,152066,1,0,0:0:0:0:
320,192,152226,128,0,152385:0:0:0:0:
448,192,152385,128,0,152864:0:0:0:0:
64,192,152385,128,0,152705:0:0:0:0:
192,192,152545,1,0,0:0:0:0:
192,192,152705,1,0,0:0:0:0:
320,192,152705,1,0,0:0:0:0:
64,192,152864,1,0,0:0:0:0:
64,192,153024,128,0,153582:0:0:0:0:
320,192,153024,128,0,153183:0:0:0:0:
448,192,153024,128,0,153183:0:0:0:0:
192,192,153183,1,0,0:0:0:0:
320,192,153343,128,0,153662:0:0:0:0:
192,192,153343,128,0,153582:0:0:0:0:
448,192,153662,128,0,153822:0:0:0:0:
192,192,153662,1,0,0:0:0:0:
64,192,153662,1,0,0:0:0:0:
192,192,153822,1,0,0:0:0:0:
64,192,153822,1,0,0:0:0:0:
320,192,153981,1,0,0:0:0:0:
64,192,153981,1,0,0:0:0:0:
448,192,154061,1,0,0:0:0:0:
192,192,154141,1,0,0:0:0:0:
320,192,154221,1,0,0:0:0:0:
448,192,154300,1,0,0:0:0:0:
64,192,154300,1,0,0:0:0:0:
192,192,154380,1,0,0:0:0:0:
320,192,154460,1,0,0:0:0:0:
448,192,154460,1,0,0:0:0:0:
192,192,154540,1,0,0:0:0:0:
64,192,154619,1,0,0:0:0:0:
320,192,154619,1,0,0:0:0:0:
448,192,154699,1,0,0:0:0:0:
192,192,154779,1,0,0:0:0:0:
320,192,154779,1,0,0:0:0:0:
448,192,154859,1,0,0:0:0:0:
192,192,154939,1,0,0:0:0:0:
64,192,154939,1,0,0:0:0:0:
320,192,155018,1,0,0:0:0:0:
64,192,155098,1,0,0:0:0:0:
320,192,155178,1,0,0:0:0:0:
448,192,155178,1,0,0:0:0:0:
192,192,155258,1,0,0:0:0:0:
448,192,155338,1,0,0:0:0:0:
192,192,155417,1,0,0:0:0:0:
64,192,155417,1,0,0:0:0:0:
320,192,155497,1,0,0:0:0:0:
64,192,155577,1,0,0:0:0:0:
448,192,155657,1,0,0:0:0:0:
192,192,155736,1,0,0:0:0:0:
320,192,155736,1,0,0:0:0:0:
64,192,155816,1,0,0:0:0:0:
192,192,155896,1,0,0:0:0:0:
448,192,155976,1,0,0:0:0:0:
64,192,156056,1,0,0:0:0:0:
320,192,156056,1,0,0:0:0:0:
448,192,156135,1,0,0:0:0:0:
192,192,156215,1,0,0:0:0:0:
64,192,156215,1,0,0:0:0:0:
320,192,156295,1,0,0:0:0:0:
448,192,156375,1,0,0:0:0:0:
192,192,156375,1,0,0:0:0:0:
64,192,156455,1,0,0:0:0:0:
192,192,156534,1,0,0:0:0:0:
320,192,156534,1,0,0:0:0:0:
64,192,156614,1,0,0:0:0:0:
320,192,156694,128,0,156853:0:0:0:0:
448,192,156694,128,0,156774:0:0:0:0:
64,192,156853,128,0,156933:0:0:0:0:
448,192,156853,128,0,156933:0:0:0:0:
448,192,157013,128,0,157093:0:0:0:0:
64,192,157013,128,0,157093:0:0:0:0:
448,192,157173,128,0,157252:0:0:0:0:
64,192,157173,128,0,157252:0:0:0:0:
448,192,157332,128,0,157492:0:0:0:0:
64,192,157332,128,0,157412:0:0:0:0:
192,192,157492,128,0,157572:0:0:0:0:
320,192,157492,128,0,157572:0:0:0:0:
64,192,157492,128,0,157811:0:0:0:0:
192,192,157651,128,0,157811:0:0:0:0:
320,192,157651,128,0,157811:0:0:0:0:
64,192,158130,128,0,158210:0:0:0:0:
448,192,158130,128,0,158210:0:0:0:0:
320,192,158130,128,0,158449:0:0:0:0:
64,192,158290,128,0,158449:0:0:0:0:
448,192,158290,128,0,158449:0:0:0:0:
320,192,158768,128,0,158928:0:0:0:0:
64,192,158768,128,0,158928:0:0:0:0:
192,192,158768,128,0,158848:0:0:0:0:
448,192,158848,128,0,159008:0:0:0:0:
192,192,158928,128,0,159088:0:0:0:0:
320,192,159008,128,0,159088:0:0:0:0:
64,192,159088,128,0,159167:0:0:0:0:
448,192,159088,128,0,159247:0:0:0:0:
192,192,159247,128,0,159407:0:0:0:0:
64,192,159247,128,0,159566:0:0:0:0:
448,192,159327,128,0,159566:0:0:0:0:
320,192,159407,128,0,159486:0:0:0:0:
320,192,159566,1,0,0:0:0:0:
192,192,159566,128,0,159646:0:0:0:0:
192,192,159726,128,0,159885:0:0:0:0:
448,192,159726,128,0,159965:0:0:0:0:
320,192,159885,128,0,160045:0:0:0:0:
64,192,159885,128,0,159965:0:0:0:0:
448,192,160045,128,0,160125:0:0:0:0:
64,192,160045,128,0,160284:0:0:0:0:
448,192,160205,1,0,0:0:0:0:
64,192,160364,128,0,160683:0:0:0:0:
192,192,160364,128,0,160603:0:0:0:0:
320,192,160444,128,0,160603:0:0:0:0:
448,192,160524,128,0,160683:0:0:0:0:
192,192,160683,128,0,160843:0:0:0:0:
320,192,160683,128,0,160763:0:0:0:0:
64,192,160763,128,0,160923:0:0:0:0:
320,192,160843,128,0,161002:0:0:0:0:
192,192,160923,128,0,161002:0:0:0:0:
64,192,161002,1,0,0:0:0:0:
448,192,161002,1,0,0:0:0:0:
192,192,161162,128,0,161242:0:0:0:0:
192,192,161322,128,0,161481:0:0:0:0:
448,192,161322,128,0,161481:0:0:0:0:
320,192,161481,128,0,161641:0:0:0:0:
64,192,161481,128,0,161561:0:0:0:0:
64,192,161641,128,0,161800:0:0:0:0:
448,192,161641,128,0,161721:0:0:0:0:
320,192,161800,128,0,161960:0:0:0:0:
448,192,161800,128,0,162119:0:0:0:0:
192,192,161880,128,0,162040:0:0:0:0:
64,192,161960,128,0,162279:0:0:0:0:
320,192,162119,1,0,0:0:0:0:
192,192,162119,128,0,162199:0:0:0:0:
192,192,162279,128,0,162518:0:0:0:0:
448,192,162279,128,0,162359:0:0:0:0:
448,192,162439,128,0,162598:0:0:0:0:
64,192,162598,128,0,162678:0:0:0:0:
192,192,162598,128,0,162838:0:0:0:0:
320,192,162678,128,0,162917:0:0:0:0:
64,192,162758,128,0,162917:0:0:0:0:
448,192,162917,128,0,163077:0:0:0:0:
192,192,162917,128,0,162997:0:0:0:0:
64,192,162997,128,0,163157:0:0:0:0:
192,192,163077,128,0,163236:0:0:0:0:
448,192,163157,128,0,163236:0:0:0:0:
64,192,163236,128,0,163556:0:0:0:0:
320,192,163236,128,0,163316:0:0:0:0:
320,192,163396,1,0,0:0:0:0:
192,192,163556,1,0,0:0:0:0:
448,192,163556,1,0,0:0:0:0:
192,192,163715,128,0,163875:0:0:0:0:
320,192,163715,128,0,163795:0:0:0:0:
448,192,163875,128,0,163955:0:0:0:0:
320,192,163875,128,0,164034:0:0:0:0:
64,192,163875,128,0,164194:0:0:0:0:
192,192,163955,128,0,164114:0:0:0:0:
448,192,164034,128,0,164194:0:0:0:0:
192,192,164194,128,0,164353:0:0:0:0:
320,192,164194,128,0,164274:0:0:0:0:
64,192,164353,128,0,164433:0:0:0:0:
320,192,164353,128,0,164593:0:0:0:0:
448,192,164433,128,0,164593:0:0:0:0:
64,192,164513,128,0,164673:0:0:0:0:
192,192,164593,128,0,164673:0:0:0:0:
448,192,164673,128,0,164832:0:0:0:0:
320,192,164673,128,0,164752:0:0:0:0:
64,192,164832,128,0,164992:0:0:0:0:
320,192,164832,128,0,165072:0:0:0:0:
448,192,164992,128,0,165072:0:0:0:0:
448,192,165151,128,0,165630:0:0:0:0:
64,192,165151,128,0,165231:0:0:0:0:
64,192,165311,1,0,0:0:0:0:
192,192,165471,128,0,165630:0:0:0:0:
320,192,165471,128,0,165949:0:0:0:0:
64,192,165630,1,0,0:0:0:0:
448,192,165790,128,0,165869:0:0:0:0:
192,192,165790,128,0,165949:0:0:0:0:
448,192,165949,1,0,0:0:0:0:
64,192,166109,128,0,166189:0:0:0:0:
192,192,166109,128,0,166268:0:0:0:0:
64,192,166268,128,0,166508:0:0:0:0:
320,192,166268,128,0,166348:0:0:0:0:
192,192,166348,128,0,166428:0:0:0:0:
320,192,166428,128,0,166588:0:0:0:0:
448,192,166428,128,0,166508:0:0:0:0:
192,192,166508,128,0,166588:0:0:0:0:
448,192,166588,128,0,166747:0:0:0:0:
64,192,166588,128,0,166667:0:0:0:0:
320,192,166747,128,0,166907:0:0:0:0:
64,192,166747,128,0,166986:0:0:0:0:
192,192,166907,128,0,166986:0:0:0:0:
448,192,167066,1,0,0:0:0:0:
192,192,167066,1,0,0:0:0:0:
448,192,167226,128,0,167385:0:0:0:0:
64,192,167385,1,0,0:0:0:0:
320,192,167545,1,0,0:0:0:0:
192,192,167705,128,0,168024:0:0:0:0:
320,192,167705,1,0,0:0:0:0:
64,192,167864,1,0,0:0:0:0:
320,192,168024,128,0,168103:0:0:0:0:
448,192,168024,1,0,0:0:0:0:
320,192,168183,1,0,0:0:0:0:
64,192,168183,128,0,168263:0:0:0:0:
448,192,168343,128,0,168423:0:0:0:0:
64,192,168343,128,0,168582:0:0:0:0:
320,192,168502,128,0,168662:0:0:0:0:
448,192,168502,128,0,168901:0:0:0:0:
192,192,168582,128,0,168742:0:0:0:0:
64,192,168662,1,0,0:0:0:0:
320,192,168742,1,0,0:0:0:0:
192,192,168822,128,0,168901:0:0:0:0:
64,192,168822,128,0,168981:0:0:0:0:
320,192,168901,1,0,0:0:0:0:
192,192,168981,128,0,169141:0:0:0:0:
448,192,168981,128,0,169141:0:0:0:0:
64,192,169061,128,0,169221:0:0:0:0:
320,192,169141,128,0,169300:0:0:0:0:
192,192,169221,128,0,169300:0:0:0:0:
448,192,169300,128,0,169380:0:0:0:0:
64,192,169300,128,0,169460:0:0:0:0:
448,192,169460,128,0,169779:0:0:0:0:
320,192,169460,128,0,169619:0:0:0:0:
64,192,169540,128,0,169779:0:0:0:0:
192,192,169619,128,0,169699:0:0:0:0:
192,192,169779,128,0,170018:0:0:0:0:
320,192,169779,128,0,169859:0:0:0:0:
64,192,169939,128,0,170098:0:0:0:0:
320,192,169939,128,0,170098:0:0:0:0:
192,192,170098,128,0,170258:0:0:0:0:
448,192,170098,128,0,170178:0:0:0:0:
448,192,170258,128,0,170417:0:0:0:0:
64,192,170258,128,0,170338:0:0:0:0:
320,192,170417,128,0,170497:0:0:0:0:
64,192,170417,128,0,170577:0:0:0:0:
320,192,170577,128,0,170816:0:0:0:0:
448,192,170577,128,0,170736:0:0:0:0:
64,192,170657,128,0,170816:0:0:0:0:
192,192,170736,128,0,170816:0:0:0:0:
192,192,170896,128,0,171056:0:0:0:0:
320,192,170896,128,0,170976:0:0:0:0:
64,192,170976,128,0,171135:0:0:0:0:
320,192,171056,128,0,171215:0:0:0:0:
64,192,171215,1,0,0:0:0:0:
448,192,171215,1,0,0:0:0:0:
64,192,171375,128,0,171534:0:0:0:0:
192,192,171455,128,0,171641:0:0:0:0:
448,192,171534,128,0,171614:0:0:0:0:
320,192,171588,128,0,171774:0:0:0:0:
64,192,171641,128,0,171774:0:0:0:0:
448,192,171694,128,0,171853:0:0:0:0:
192,192,171774,128,0,171853:0:0:0:0:
64,192,171853,128,0,172013:0:0:0:0:
320,192,171853,128,0,172093:0:0:0:0:
448,192,172013,128,0,172173:0:0:0:0:
192,192,172013,128,0,172252:0:0:0:0:
64,192,172093,128,0,172332:0:0:0:0:
320,192,172173,128,0,172252:0:0:0:0:
192,192,172332,128,0,172492:0:0:0:0:
320,192,172332,128,0,172651:0:0:0:0:
64,192,172492,128,0,172811:0:0:0:0:
448,192,172492,128,0,172731:0:0:0:0:
192,192,172651,128,0,172811:0:0:0:0:
320,192,172811,128,0,172891:0:0:0:0:
448,192,172811,128,0,173050:0:0:0:0:
64,192,172891,128,0,173050:0:0:0:0:
320,192,172971,128,0,173130:0:0:0:0:
192,192,173050,128,0,173130:0:0:0:0:
64,192,173130,128,0,173369:0:0:0:0:
448,192,173130,128,0,173290:0:0:0:0:
320,192,173290,1,0,0:0:0:0:
192,192,173449,128,0,173529:0:0:0:0:
320,192,173449,128,0,173689:0:0:0:0:
448,192,173529,128,0,173689:0:0:0:0:
192,192,173609,1,0,0:0:0:0:
64,192,173768,128,0,174088:0:0:0:0:
448,192,173768,128,0,173928:0:0:0:0:
320,192,173848,128,0,174008:0:0:0:0:
192,192,173928,128,0,174088:0:0:0:0:
448,192,174088,1,0,0:0:0:0:
320,192,174088,1,0,0:0:0:0:
448,192,174247,128,0,174407:0:0:0:0:
192,192,174247,128,0,174566:0:0:0:0:
320,192,174407,1,0,0:0:0:0:
64,192,174407,1,0,0:0:0:0:
448,192,174566,128,0,174646:0:0:0:0:
64,192,174566,128,0,174726:0:0:0:0:
192,192,174646,128,0,174885:0:0:0:0:
448,192,174726,128,0,174885:0:0:0:0:
320,192,174726,128,0,174806:0:0:0:0:
64,192,174885,128,0,174965:0:0:0:0:
320,192,174885,128,0,175045:0:0:0:0:
64,192,175045,128,0,175205:0:0:0:0:
448,192,175045,128,0,175284:0:0:0:0:
192,192,175205,128,0,175364:0:0:0:0:
448,192,175364,128,0,175603:0:0:0:0:
320,192,175364,128,0,175444:0:0:0:0:
64,192,175364,128,0,175524:0:0:0:0:
192,192,175524,1,0,0:0:0:0:
320,192,175524,128,0,175763:0:0:0:0:
448,192,175683,1,0,0:0:0:0:
192,192,175683,128,0,175843:0:0:0:0:
64,192,175683,128,0,175763:0:0:0:0:
64,192,175843,128,0,175923:0:0:0:0:
320,192,175843,1,0,0:0:0:0:
192,192,175923,1,0,0:0:0:0:
64,192,176002,128,0,176242:0:0:0:0:
448,192,176002,128,0,176082:0:0:0:0:
320,192,176002,128,0,176162:0:0:0:0:
192,192,176162,5,0,0:0:0:0:
448,192,176162,128,0,176401:0:0:0:0:
64,192,176322,128,0,176401:0:0:0:0:
192,192,176322,128,0,176481:0:0:0:0:
320,192,176322,1,0,0:0:0:0:
448,192,176481,128,0,176561:0:0:0:0:
64,192,176481,128,0,176641:0:0:0:0:
448,192,176641,128,0,176800:0:0:0:0:
192,192,176641,128,0,176800:0:0:0:0:
320,192,176641,128,0,176721:0:0:0:0:
64,192,176721,128,0,176880:0:0:0:0:
320,192,176800,128,0,176960:0:0:0:0:
192,192,176880,128,0,176960:0:0:0:0:
64,192,176960,128,0,177119:0:0:0:0:
448,192,176960,128,0,177040:0:0:0:0:
448,192,177119,128,0,177439:0:0:0:0:
320,192,177119,128,0,177279:0:0:0:0:
64,192,177199,128,0,177439:0:0:0:0:
192,192,177279,128,0,177359:0:0:0:0:
320,192,177439,128,0,177518:0:0:0:0:
192,192,177439,1,0,0:0:0:0:
64,192,177598,128,0,177838:0:0:0:0:
320,192,177598,128,0,177758:0:0:0:0:
448,192,177758,128,0,177838:0:0:0:0:
192,192,177758,128,0,177917:0:0:0:0:
448,192,177917,128,0,178157:0:0:0:0:
64,192,177917,128,0,177997:0:0:0:0:
64,192,178077,1,0,0:0:0:0:
320,192,178236,128,0,178476:0:0:0:0:
448,192,178236,128,0,178556:0:0:0:0:
192,192,178316,128,0,178476:0:0:0:0:
64,192,178396,128,0,178556:0:0:0:0:
192,192,178556,128,0,178635:0:0:0:0:
320,192,178556,128,0,178715:0:0:0:0:
448,192,178635,128,0,178795:0:0:0:0:
192,192,178715,128,0,178875:0:0:0:0:
320,192,178795,128,0,178875:0:0:0:0:
64,192,178875,1,0,0:0:0:0:
448,192,178875,1,0,0:0:0:0:
64,192,179034,128,0,179194:0:0:0:0:
192,192,179034,128,0,179114:0:0:0:0:
192,192,179194,128,0,179353:0:0:0:0:
448,192,179194,128,0,179274:0:0:0:0:
448,192,179353,1,0,0:0:0:0:
64,192,179513,128,0,179593:0:0:0:0:
320,192,179513,128,0,179673:0:0:0:0:
64,192,179673,128,0,179992:0:0:0:0:
192,192,179673,128,0,179832:0:0:0:0:
320,192,179752,128,0,179912:0:0:0:0:
448,192,179832,128,0,180151:0:0:0:0:
320,192,179992,128,0,180072:0:0:0:0:
192,192,179992,1,0,0:0:0:0:
64,192,180151,128,0,180231:0:0:0:0:
320,192,180151,128,0,180311:0:0:0:0:
64,192,180311,128,0,180550:0:0:0:0:
192,192,180364,128,0,180471:0:0:0:0:
320,192,180417,128,0,180710:0:0:0:0:
448,192,180471,128,0,180550:0:0:0:0:
192,192,180550,128,0,180790:0:0:0:0:
448,192,180630,128,0,180790:0:0:0:0:
320,192,180790,128,0,180869:0:0:0:0:
64,192,180790,128,0,181029:0:0:0:0:
448,192,180869,128,0,181029:0:0:0:0:
320,192,180949,128,0,181109:0:0:0:0:
192,192,181029,128,0,181109:0:0:0:0:
64,192,181109,128,0,181189:0:0:0:0:
448,192,181109,128,0,181428:0:0:0:0:
64,192,181268,1,0,0:0:0:0:
192,192,181428,1,0,0:0:0:0:
320,192,181428,1,0,0:0:0:0:
320,192,181588,128,0,181747:0:0:0:0:
448,192,181747,128,0,182066:0:0:0:0:
192,192,181747,128,0,181907:0:0:0:0:
64,192,181747,128,0,181827:0:0:0:0:
320,192,181907,128,0,181986:0:0:0:0:
64,192,181907,128,0,182066:0:0:0:0:
192,192,182066,128,0,182146:0:0:0:0:
320,192,182066,128,0,182226:0:0:0:0:
192,192,182226,128,0,182465:0:0:0:0:
448,192,182226,128,0,182306:0:0:0:0:
64,192,182306,128,0,182465:0:0:0:0:
448,192,182385,128,0,182545:0:0:0:0:
320,192,182465,128,0,182545:0:0:0:0:
192,192,182545,128,0,182625:0:0:0:0:
64,192,182545,128,0,182705:0:0:0:0:
192,192,182705,128,0,182944:0:0:0:0:
448,192,182705,128,0,182864:0:0:0:0:
64,192,182864,128,0,182944:0:0:0:0:
448,192,183024,128,0,183103:0:0:0:0:
64,192,183024,128,0,183502:0:0:0:0:
448,192,183183,1,0,0:0:0:0:
192,192,183343,128,0,183662:0:0:0:0:
320,192,183343,128,0,183502:0:0:0:0:
448,192,183502,1,0,0:0:0:0:
320,192,183662,128,0,183822:0:0:0:0:
64,192,183662,128,0,183742:0:0:0:0:
64,192,183822,1,0,0:0:0:0:
192,192,183981,128,0,184141:0:0:0:0:
320,192,183981,128,0,184221:0:0:0:0:
448,192,184141,128,0,184300:0:0:0:0:
64,192,184300,128,0,184380:0:0:0:0:
320,192,184300,128,0,184619:0:0:0:0:
192,192,184300,128,0,184460:0:0:0:0:
64,192,184460,128,0,184619:0:0:0:0:
448,192,184460,128,0,184619:0:0:0:0:
192,192,184619,1,0,0:0:0:0:
320,192,184779,128,0,184859:0:0:0:0:
448,192,184779,128,0,184939:0:0:0:0:
320,192,184939,1,0,0:0:0:0:
64,192,184939,1,0,0:0:0:0:
64,192,185098,128,0,185258:0:0:0:0:
448,192,185258,1,0,0:0:0:0:
192,192,185417,1,0,0:0:0:0:
192,192,185577,1,0,0:0:0:0:
320,192,185577,128,0,185896:0:0:0:0:
448,192,185736,1,0,0:0:0:0:
64,192,185896,128,0,186135:0:0:0:0:
320,192,186056,128,0,186135:0:0:0:0:
448,192,186056,1,0,0:0:0:0:
448,192,186215,128,0,186455:0:0:0:0:
64,192,186215,128,0,186295:0:0:0:0:
64,192,186375,128,0,186774:0:0:0:0:
192,192,186375,128,0,186534:0:0:0:0:
320,192,186455,128,0,186614:0:0:0:0:
448,192,186534,1,0,0:0:0:0:
192,192,186614,1,0,0:0:0:0:
448,192,186694,128,0,186774:0:0:0:0:
320,192,186694,128,0,186774:0:0:0:0:
192,192,186774,1,0,0:0:0:0:
64,192,186853,128,0,187013:0:0:0:0:
320,192,186853,128,0,187013:0:0:0:0:
448,192,186933,128,0,187093:0:0:0:0:
192,192,187013,128,0,187173:0:0:0:0:
320,192,187093,128,0,187173:0:0:0:0:
448,192,187173,128,0,187332:0:0:0:0:
64,192,187173,128,0,187252:0:0:0:0:
192,192,187332,128,0,187492:0:0:0:0:
64,192,187332,128,0,187651:0:0:0:0:
448,192,187412,128,0,187651:0:0:0:0:
320,192,187492,128,0,187572:0:0:0:0:
192,192,187651,128,0,187731:0:0:0:0:
320,192,187651,128,0,187891:0:0:0:0:
192,192,187811,128,0,187971:0:0:0:0:
448,192,187811,128,0,187971:0:0:0:0:
64,192,187971,128,0,188050:0:0:0:0:
320,192,187971,128,0,188130:0:0:0:0:
448,192,188130,128,0,188210:0:0:0:0:
64,192,188130,128,0,188290:0:0:0:0:
448,192,188290,1,0,0:0:0:0:
192,192,188449,128,0,188689:0:0:0:0:
64,192,188449,128,0,188768:0:0:0:0:
320,192,188529,128,0,188689:0:0:0:0:
448,192,188609,128,0,188768:0:0:0:0:
320,192,188768,128,0,188848:0:0:0:0:
192,192,188768,128,0,188928:0:0:0:0:
64,192,188848,128,0,189008:0:0:0:0:
320,192,188928,128,0,189088:0:0:0:0:
192,192,189008,128,0,189088:0:0:0:0:
448,192,189088,1,0,0:0:0:0:
64,192,189088,1,0,0:0:0:0:
320,192,189247,128,0,189327:0:0:0:0:
320,192,189407,128,0,189566:0:0:0:0:
64,192,189407,128,0,189486:0:0:0:0:
448,192,189486,128,0,189646:0:0:0:0:
64,192,189566,128,0,189726:0:0:0:0:
320,192,189646,128,0,189726:0:0:0:0:
192,192,189726,128,0,189885:0:0:0:0:
448,192,189726,128,0,189806:0:0:0:0:
448,192,189885,128,0,190045:0:0:0:0:
64,192,189885,128,0,190045:0:0:0:0:
320,192,189965,128,0,190125:0:0:0:0:
192,192,190045,128,0,190125:0:0:0:0:
320,192,190205,128,0,190284:0:0:0:0:
192,192,190205,128,0,190364:0:0:0:0:
64,192,190364,128,0,190603:0:0:0:0:
448,192,190364,128,0,190683:0:0:0:0:
320,192,190364,128,0,190524:0:0:0:0:
64,192,190683,128,0,190843:0:0:0:0:
192,192,190683,128,0,190843:0:0:0:0:
320,192,190683,128,0,190923:0:0:0:0:
448,192,190763,128,0,191002:0:0:0:0:
64,192,190923,128,0,191082:0:0:0:0:
192,192,190923,128,0,191082:0:0:0:0:
320,192,191002,128,0,191162:0:0:0:0:
448,192,191162,128,0,191242:0:0:0:0:
192,192,191162,1,0,0:0:0:0:
64,192,191242,1,0,0:0:0:0:
320,192,191322,128,0,191481:0:0:0:0:
448,192,191322,128,0,191481:0:0:0:0:
192,192,191322,128,0,191561:0:0:0:0:
320,192,191561,128,0,191721:0:0:0:0:
448,192,191561,128,0,191721:0:0:0:0:
64,192,191641,128,0,191880:0:0:0:0:
192,192,191800,128,0,191880:0:0:0:0:
320,192,191800,1,0,0:0:0:0:
448,192,191880,128,0,192199:0:0:0:0:
64,192,191960,1,0,0:0:0:0:
192,192,191960,128,0,192119:0:0:0:0:
64,192,192119,128,0,192359:0:0:0:0:
320,192,192119,128,0,192279:0:0:0:0:
192,192,192279,128,0,192439:0:0:0:0:
448,192,192279,128,0,192359:0:0:0:0:
448,192,192439,128,0,192598:0:0:0:0:
64,192,192439,128,0,192518:0:0:0:0:
320,192,192518,128,0,192758:0:0:0:0:
192,192,192598,128,0,192678:0:0:0:0:
64,192,192598,128,0,192758:0:0:0:0:
192,192,192758,128,0,192917:0:0:0:0:
448,192,192758,128,0,192838:0:0:0:0:
64,192,192917,128,0,193157:0:0:0:0:
448,192,192917,128,0,193236:0:0:0:0:
320,192,193077,128,0,193236:0:0:0:0:
64,192,193236,128,0,193316:0:0:0:0:
192,192,193236,128,0,193316:0:0:0:0:
64,192,193396,128,0,193556:0:0:0:0:
448,192,193396,128,0,193476:0:0:0:0:
192,192,193396,128,0,193556:0:0:0:0:
448,192,193556,128,0,193635:0:0:0:0:
192,192,193715,128,0,193795:0:0:0:0:
448,192,193875,128,0,193955:0:0:0:0:
320,192,193875,128,0,193955:0:0:0:0:
192,192,193875,128,0,194034:0:0:0:0:
448,192,194034,128,0,194194:0:0:0:0:
320,192,194034,128,0,194194:0:0:0:0:
64,192,194114,128,0,194353:0:0:0:0:
320,192,194353,128,0,194433:0:0:0:0:
192,192,194513,128,0,194593:0:0:0:0:
64,192,194513,128,0,194593:0:0:0:0:
320,192,194513,128,0,194832:0:0:0:0:
192,192,194673,128,0,194832:0:0:0:0:
64,192,194673,128,0,194832:0:0:0:0:
448,192,194832,128,0,194992:0:0:0:0:
64,192,194992,1,0,0:0:0:0:
320,192,195151,128,0,195231:0:0:0:0:
448,192,195151,128,0,195231:0:0:0:0:
192,192,195151,128,0,195471:0:0:0:0:
320,192,195311,128,0,195471:0:0:0:0:
448,192,195311,128,0,195471:0:0:0:0:
64,192,195471,128,0,195590:0:0:0:0:
448,192,195790,128,0,196029:0:0:0:0:
64,192,195790,128,0,196109:0:0:0:0:
320,192,195790,128,0,195869:0:0:0:0:
192,192,195949,128,0,196029:0:0:0:0:
320,192,195949,128,0,196109:0:0:0:0:
192,192,196109,128,0,196268:0:0:0:0:
448,192,196109,1,0,0:0:0:0:
64,192,196268,128,0,196428:0:0:0:0:
448,192,196268,128,0,196588:0:0:0:0:
320,192,196428,128,0,196986:0:0:0:0:
64,192,196588,1,0,0:0:0:0:
192,192,196588,1,0,0:0:0:0:
448,192,196747,1,0,0:0:0:0:
64,192,196747,128,0,196907:0:0:0:0:
192,192,196907,1,0,0:0:0:0:
448,192,197066,128,0,197146:0:0:0:0:
320,192,197066,128,0,197226:0:0:0:0:
192,192,197226,128,0,197385:0:0:0:0:
448,192,197226,128,0,197385:0:0:0:0:
64,192,197385,1,0,0:0:0:0:
320,192,197385,128,0,197545:0:0:0:0:
64,192,197545,128,0,197864:0:0:0:0:
192,192,197545,128,0,197625:0:0:0:0:
192,192,197705,128,0,197944:0:0:0:0:
448,192,197758,128,0,198024:0:0:0:0:
320,192,197864,1,0,0:0:0:0:
64,192,197944,1,0,0:0:0:0:
320,192,198024,128,0,198343:0:0:0:0:
192,192,198024,128,0,198183:0:0:0:0:
448,192,198183,128,0,198343:0:0:0:0:
64,192,198343,128,0,198502:0:0:0:0:
192,192,198343,128,0,198423:0:0:0:0:
320,192,198502,128,0,198582:0:0:0:0:
192,192,198502,128,0,198662:0:0:0:0:
320,192,198662,128,0,198822:0:0:0:0:
64,192,198662,1,0,0:0:0:0:
448,192,198822,128,0,198981:0:0:0:0:
64,192,198822,128,0,199141:0:0:0:0:
192,192,198981,128,0,199540:0:0:0:0:
448,192,199141,1,0,0:0:0:0:
320,192,199141,1,0,0:0:0:0:
64,192,199300,1,0,0:0:0:0:
448,192,199300,128,0,199460:0:0:0:0:
320,192,199460,1,0,0:0:0:0:
64,192,199619,128,0,199699:0:0:0:0:
192,192,199619,128,0,199779:0:0:0:0:
320,192,199779,128,0,199939:0:0:0:0:
64,192,199779,128,0,199939:0:0:0:0:
448,192,199939,1,0,0:0:0:0:
192,192,199939,128,0,200098:0:0:0:0:
448,192,200098,128,0,200417:0:0:0:0:
320,192,200098,128,0,200258:0:0:0:0:
192,192,200258,128,0,200338:0:0:0:0:
192,192,200417,128,0,200577:0:0:0:0:
320,192,200417,1,0,0:0:0:0:
320,192,200577,128,0,200736:0:0:0:0:
64,192,200577,128,0,200816:0:0:0:0:
192,192,200736,128,0,200896:0:0:0:0:
448,192,200896,128,0,201056:0:0:0:0:
64,192,200896,128,0,201215:0:0:0:0:
320,192,200896,128,0,200976:0:0:0:0:
192,192,201056,128,0,201135:0:0:0:0:
320,192,201056,128,0,201215:0:0:0:0:
192,192,201215,128,0,201375:0:0:0:0:
448,192,201215,1,0,0:0:0:0:
64,192,201375,128,0,201534:0:0:0:0:
448,192,201375,128,0,201694:0:0:0:0:
320,192,201534,128,0,202093:0:0:0:0:
64,192,201694,1,0,0:0:0:0:
192,192,201694,1,0,0:0:0:0:
448,192,201853,1,0,0:0:0:0:
64,192,201853,128,0,202013:0:0:0:0:
192,192,202013,1,0,0:0:0:0:
448,192,202173,128,0,202252:0:0:0:0:
320,192,202173,128,0,202332:0:0:0:0:
192,192,202332,128,0,202492:0:0:0:0:
448,192,202332,128,0,202492:0:0:0:0:
64,192,202492,1,0,0:0:0:0:
320,192,202492,128,0,202651:0:0:0:0:
64,192,202651,128,0,202971:0:0:0:0:
192,192,202651,128,0,202731:0:0:0:0:
192,192,202811,128,0,203050:0:0:0:0:
448,192,202864,128,0,203130:0:0:0:0:
320,192,202971,1,0,0:0:0:0:
64,192,203050,1,0,0:0:0:0:
320,192,203130,128,0,203449:0:0:0:0:
192,192,203130,128,0,203290:0:0:0:0:
448,192,203290,128,0,203449:0:0:0:0:
64,192,203449,128,0,203609:0:0:0:0:
192,192,203449,128,0,203529:0:0:0:0:
320,192,203609,128,0,203689:0:0:0:0:
192,192,203609,128,0,203768:0:0:0:0:
320,192,203768,128,0,203928:0:0:0:0:
64,192,203768,1,0,0:0:0:0:
448,192,203928,128,0,204088:0:0:0:0:
64,192,203928,128,0,204247:0:0:0:0:
192,192,204088,128,0,204646:0:0:0:0:
448,192,204247,1,0,0:0:0:0:
320,192,204247,1,0,0:0:0:0:
64,192,204407,1,0,0:0:0:0:
448,192,204407,128,0,204566:0:0:0:0:
320,192,204566,1,0,0:0:0:0:
64,192,204726,128,0,204806:0:0:0:0:
192,192,204726,128,0,204885:0:0:0:0:
448,192,204726,128,0,204965:0:0:0:0:
320,192,204885,128,0,205045:0:0:0:0:
64,192,204885,1,0,0:0:0:0:
192,192,204965,1,0,0:0:0:0:
448,192,205045,1,0,0:0:0:0:
64,192,205045,128,0,205205:0:0:0:0:
448,192,205205,128,0,205524:0:0:0:0:
320,192,205205,1,0,0:0:0:0:
192,192,205205,128,0,205364:0:0:0:0:
320,192,205364,128,0,205524:0:0:0:0:
64,192,205364,1,0,0:0:0:0:
64,192,205524,128,0,205843:0:0:0:0:
192,192,205524,1,0,0:0:0:0:
448,192,205683,128,0,205923:0:0:0:0:
192,192,205683,128,0,206002:0:0:0:0:
320,192,205843,128,0,206002:0:0:0:0:
64,192,206002,128,0,206082:0:0:0:0:
64,192,206162,128,0,206322:0:0:0:0:
320,192,206481,128,0,206800:0:0:0:0:
192,192,206800,128,0,206960:0:0:0:0:
64,192,206960,128,0,207119:0:0:0:0:
192,192,207119,128,0,207279:0:0:0:0:
448,192,207279,128,0,207359:0:0:0:0:
448,192,207439,128,0,207598:0:0:0:0:
64,192,207758,1,0,0:0:0:0:
192,192,207798,128,0,208077:0:0:0:0:
320,192,208077,128,0,208236:0:0:0:0:
64,192,208236,128,0,208396:0:0:0:0:
448,192,208396,128,0,208675:0:0:0:0:
320,192,208516,128,0,208755:0:0:0:0:
