osu file format v14

[General]
AudioFilename: audio.mp3
AudioLeadIn: 0
PreviewTime: 35998
Countdown: 0
SampleSet: Soft
StackLeniency: 1
Mode: 0
LetterboxInBreaks: 0
WidescreenStoryboard: 1

[Editor]
Bookmarks: 13939,25234,30881,59116,70410,87351,104292,125469,126881,133763,138175
DistanceSpacing: 1.4
BeatDivisor: 4
GridSize: 4
TimelineZoom: 1.6

[Metadata]
Title:Good-bye sengen
TitleUnicode:グッバイ宣言
Artist:Chinozo
ArtistUnicode:Chinozo
Creator:Ryuusei Aika
Version:Irin's Normal
Source:
Tags:ァ儿七千ग アルセチカ arusechika aruseee kakeyan kakeyan26 japanese pop jpop j-pop Irin Addy2607 Addy Battle kanor Good bye Goodbye declaration decleration v-flower vflower v flower vocaloid ボーカロイド vocasynth female vocal
BeatmapID:2913662
BeatmapSetID:1408477

[Difficulty]
HPDrainRate:3
CircleSize:3
OverallDifficulty:4
ApproachRate:5.4
SliderMultiplier:1.2
SliderTickRate:1

[Events]
//Background and Video events
0,0,"posture check.jpg",0,0
//Break Periods
2,104492,113742
//Storyboard Layer 0 (Background)
//Storyboard Layer 1 (Fail)
//Storyboard Layer 2 (Pass)
//Storyboard Layer 3 (Foreground)
//Storyboard Layer 4 (Overlay)
//Storyboard Sound Samples

[TimingPoints]
1234,352.941176470588,4,2,1,55,1,0
2645,-100,4,2,1,75,0,0
13939,-111.111111111111,4,2,1,55,0,0
25234,-100,4,2,1,65,0,0
26116,-100,4,2,1,55,0,0
26292,-100,4,2,1,65,0,0
26644,-100,4,2,1,65,0,0
26822,-100,4,2,1,65,0,0
29468,-100,4,2,1,65,0,0
29645,-100,4,2,1,65,0,0
30704,-100,4,2,1,55,0,0
30881,-100,4,2,1,65,0,0
31233,-100,4,2,1,65,0,0
31586,-100,4,2,1,65,0,0
31938,-100,4,2,1,65,0,0
32116,-100,4,2,1,65,0,0
36528,-100,4,2,1,75,0,1
59116,-100,4,2,1,75,0,0
63350,-100,4,2,1,75,0,0
63528,-100,4,2,1,75,0,0
67234,-100,4,2,1,55,0,0
67410,-100,4,2,1,75,0,0
67938,-100,4,2,1,75,0,0
68292,-100,4,2,1,75,0,0
70762,-100,4,2,1,55,0,0
80291,-100,4,2,1,45,0,0
80469,-100,4,2,1,55,0,0
80997,-100,4,2,1,45,0,0
81704,-111.111111111111,4,2,1,55,0,0
92998,-100,4,2,1,55,0,0
125469,-100,4,2,1,65,0,0
126704,-100,4,2,1,65,0,0
126881,-100,4,2,1,65,0,0
131292,-100,4,2,1,55,0,0
131469,-100,4,2,1,65,0,0
132703,-100,4,2,1,55,0,0
132881,-100,4,2,1,65,0,0
138175,-100,4,2,1,75,0,1
154410,-100,4,2,1,75,0,1
154586,-100,4,2,1,75,0,1
160586,-100,4,2,1,75,0,0
161469,-100,4,2,1,55,0,0
161645,-100,4,2,1,75,0,0
164997,-100,4,2,1,75,0,0
165175,-100,4,2,1,75,0,0
169322,-100,4,2,1,40,0,0
169939,-100,4,2,1,40,0,0
170645,-100,4,2,1,20,0,0

[Colours]
Combo1 : 232,189,89
Combo2 : 48,200,207

[HitObjects]
0,96,2645,6,0,P|53:58|113:80,1,120,4|8,3:2|0:0,0:0:0:0:
137,113,3175,1,2,0:0:0:0:
201,27,3528,1,2,0:0:0:0:
201,27,3704,2,0,P|262:19|336:7,1,120,10|0,0:0|3:0,2:0:0:0:
373,0,4234,1,2,0:0:0:0:
450,75,4586,1,2,0:0:0:0:
450,75,4763,2,0,P|456:140|411:176,1,120,0|10,3:0|0:0,2:0:0:0:
368,154,5292,1,2,0:0:0:0:
368,154,5469,6,0,P|298:144|232:137,1,120,0|8,3:0|0:0,0:0:0:0:
203,167,5998,1,2,0:0:0:0:
118,99,6351,1,2,0:0:0:0:
118,99,6528,2,0,P|69:140|58:197,1,120,10|0,0:0|3:0,0:0:0:0:
98,228,7057,1,2,0:0:0:0:
98,228,7234,1,8,0:0:0:0:
144,325,7586,2,0,L|129:392,2,60,0|10|10,3:0|0:0|0:0,2:0:0:0:
196,311,8116,1,8,0:3:0:0:
196,311,8292,6,0,P|264:300|329:297,1,120,4|8,3:2|0:0,0:0:0:0:
358,330,8822,1,2,0:0:0:0:
462,302,9175,1,2,0:0:0:0:
462,302,9351,2,0,L|487:181,1,120,10|0,0:0|3:0,0:0:0:0:
496,131,9881,1,2,0:0:0:0:
415,59,10234,1,2,0:0:0:0:
415,59,10410,2,0,P|362:21|308:41,1,120,0|10,3:0|0:0,2:0:0:0:
283,80,10939,1,2,0:0:0:0:
283,80,11116,6,0,P|274:150|266:216,1,120,0|8,3:0|0:0,0:0:0:0:
259,252,11645,1,2,0:0:0:0:
204,345,11998,1,2,0:0:0:0:
204,345,12175,2,0,P|153:376|95:353,1,120,10|0,0:0|3:0,0:0:0:0:
68,312,12704,1,2,0:0:0:0:
68,312,12881,2,0,L|53:183,1,120,8|0,0:0|0:0,2:0:0:0:
163,32,13939,6,0,P|243:5|301:61,1,162,4|2,3:2|0:2,2:0:0:0:
196,177,14998,2,0,P|115:203|57:147,1,162,2|2,3:2|0:0,2:0:0:0:
163,32,16057,1,0,3:0:0:0:
318,181,16763,6,0,P|327:268|335:361,2,162,2|2|2,3:2|0:0|3:2,0:0:0:0:
412,49,18351,1,2,0:0:0:0:
257,1,18881,2,0,P|200:5|129:21,1,108,0|0,3:0|3:0,2:0:0:0:
55,67,19586,6,0,L|35:188,1,108,4|0,3:2|3:0,2:0:0:0:
18,280,20292,2,0,P|57:318|118:314,1,108,2|0,3:0|3:0,2:0:0:0:
199,260,20998,2,0,P|251:247|301:281,1,108,0|0,3:0|3:0,0:0:0:0:
359,360,21704,1,0,3:0:0:0:
466,345,22057,1,0,3:0:0:0:
503,243,22410,6,0,P|496:181|488:117,1,108,2|0,3:2|3:0,0:0:0:0:
446,36,23116,2,0,P|389:23|339:56,1,108,2|0,3:2|3:0,0:0:0:0:
315,148,23822,1,2,3:2:0:0:
208,168,24175,1,2,3:2:0:0:
144,80,24528,2,0,P|149:54|154:20,2,54.0000000000001,0|2|0,3:0|0:0|1:0,2:0:0:0:
105,118,25057,1,2,0:0:0:0:
105,118,25234,6,0,P|66:167|80:226,1,120,4|8,3:2|0:0,0:0:0:0:
120,260,25763,1,2,0:0:0:0:
202,190,26116,1,0,2:0:0:0:
202,190,26292,2,0,P|264:178|325:171,1,120,8|0,0:0|3:0,2:0:0:0:
371,191,26822,1,2,0:0:0:0:
371,191,26998,1,8,0:0:0:0:
442,272,27351,2,0,P|438:305|426:334,1,60,0|2,3:0|0:0,2:0:0:0:
383,360,27704,2,0,P|350:356|321:344,1,60,8|2,0:0|0:0,2:0:0:0:
287,307,28057,6,0,L|149:322,1,120,0|8,3:0|0:0,0:0:0:0:
131,360,28586,1,2,0:0:0:0:
33,313,28939,1,2,0:0:0:0:
33,313,29116,2,0,P|2:268|21:202,1,120,8|0,0:0|3:0,2:0:0:0:
60,177,29645,1,2,0:0:0:0:
60,177,29822,1,8,0:0:0:0:
160,217,30175,2,0,P|193:215|229:203,1,60,0|10,3:0|0:0,2:0:0:0:
249,162,30528,2,0,P|247:129|235:93,1,60,8|0,0:0|2:0,2:0:0:0:
204,62,30881,6,0,L|336:77,1,120,4|8,3:2|2:0,0:0:0:0:
400,0,31586,2,0,P|460:-2|515:53,1,120,2|8,3:2|2:0,0:0:0:0:
494,86,32116,1,2,0:0:0:0:
494,86,32292,1,0,3:0:0:0:
407,150,32645,1,8,0:0:0:0:
462,242,32998,2,0,P|449:282|445:310,1,60,0|8,3:0|0:0,2:0:0:0:
460,351,33351,1,8,0:0:0:0:
460,351,33528,6,0,P|401:332|334:316,1,120,4|0,3:2|3:0,0:0:0:0:
236,326,34234,1,2,0:0:0:0:
236,326,34410,2,0,P|247:362|253:390,2,60,0|2|8,3:0|3:2|3:2,0:0:0:0:
198,286,34939,2,0,B|220:156|194:285|215:155,2,120,10|10|10,3:2|3:2|3:2,2:0:0:0:
147,307,35822,1,10,3:2:0:0:
147,307,35998,2,0,P|115:316|78:315,1,60,8|8,3:1|3:1,2:0:0:0:
19,232,36528,6,0,L|31:94,1,120,4|8,3:2|0:0,0:0:0:0:
2,65,37057,1,2,0:0:0:0:
2,65,37234,1,0,3:0:0:0:
87,0,37586,1,8,0:0:0:0:
91,4,37763,2,0,P|153:-5|201:23,1,120,2|2,3:2|3:2,0:0:0:0:
223,73,38292,1,8,0:0:0:0:
170,167,38645,2,0,P|158:202|156:237,1,60,0|10,3:0|0:0,0:0:0:0:
185,270,38998,2,0,P|220:282|255:284,1,60,10|2,0:0|0:0,0:0:0:0:
291,259,39351,5,0,3:0:0:0:
406,277,39704,1,8,0:0:0:0:
406,277,39881,1,2,0:0:0:0:
406,277,40057,2,0,P|396:214|389:149,1,120,2|8,3:2|0:0,0:0:0:0:
362,111,40586,1,2,0:0:0:0:
362,111,40763,2,0,B|385:69|434:63|434:63|477:73,2,120,2|10|2,3:2|0:0|3:2,0:0:0:0:
309,125,41645,2,0,L|234:108,1,60,8|8,0:0|0:0,2:0:0:0:
215,9,42175,6,0,L|78:33,1,120,2|8,3:2|0:0,0:0:0:0:
47,6,42704,1,2,0:0:0:0:
47,6,42881,1,0,3:0:0:0:
4,107,43234,1,8,0:0:0:0:
4,107,43410,2,0,P|16:181|67:193,1,120,2|2,3:2|3:2,0:0:0:0:
103,181,43939,1,8,0:0:0:0:
197,129,44292,2,0,P|233:126|268:133,1,60,0|10,3:0|0:0,0:0:0:0:
285,175,44645,2,0,P|321:177|356:170,1,60,10|2,0:0|0:0,0:0:0:0:
383,135,44998,6,0,L|400:268,1,120,0|8,3:0|0:0,0:0:0:0:
418,310,45528,1,2,0:0:0:0:
418,310,45704,2,0,P|367:344|308:333,1,120,2|10,3:2|0:0,0:0:0:0:
221,275,46410,1,2,3:2:0:0:
148,354,46763,1,8,0:0:0:0:
57,294,47116,2,0,P|26:303|-10:307,2,60,0|0|8,3:0|1:0|0:0,2:0:0:0:
90,251,47645,1,0,1:0:0:0:
90,251,47822,6,0,P|79:185|67:124,1,120,4|8,3:2|0:0,0:0:0:0:
31,102,48351,1,2,0:0:0:0:
31,102,48528,1,0,3:0:0:0:
105,24,48881,1,8,0:0:0:0:
105,24,49057,2,0,L|227:42,1,120,2|2,3:2|3:2,0:0:0:0:
253,86,49586,1,8,0:0:0:0:
348,35,49939,2,0,P|383:23|418:21,1,60,0|10,3:0|0:0,0:0:0:0:
453,45,50292,2,0,P|465:80|467:115,1,60,10|2,0:0|0:0,0:0:0:0:
431,150,50645,5,0,3:0:0:0:
457,264,50998,1,8,0:0:0:0:
457,264,51175,1,2,0:0:0:0:
457,264,51351,2,0,P|399:293|345:274,1,120,2|8,3:2|0:0,0:0:0:0:
307,245,51881,1,2,0:0:0:0:
307,245,52057,2,0,B|218:249|274:276|182:281,2,120,2|10|2,3:2|0:0|3:2,0:0:0:0:
321,192,52939,2,0,P|315:159|313:129,1,60,10|8,0:0|0:0,2:0:0:0:
365,37,53469,6,0,P|305:21|240:10,1,120,0|8,3:0|0:0,0:0:0:0:
203,41,53998,1,2,0:0:0:0:
203,41,54175,1,0,3:0:0:0:
99,38,54528,1,8,0:0:0:0:
99,38,54704,2,0,P|69:102|82:154,1,120,2|2,3:2|3:2,0:0:0:0:
123,179,55234,1,8,0:0:0:0:
55,263,55586,2,0,P|61:298|77:330,1,60,0|10,3:0|0:0,0:0:0:0:
117,347,55939,2,0,P|152:339|184:323,1,60,10|2,0:0|0:0,0:0:0:0:
213,293,56292,6,0,L|335:310,1,120,0|8,3:0|0:0,0:0:0:0:
378,338,56822,1,2,0:0:0:0:
378,338,56998,2,0,P|363:278|394:226,1,120,2|10,3:2|0:0,0:0:0:0:
467,152,57704,1,0,3:0:0:0:
415,57,58057,2,0,L|346:70,1,60,8|2,0:0|3:2,2:0:0:0:
302,58,58410,2,0,P|298:24|288:-10,2,60,0|8|0,1:0|1:2|1:0,2:0:0:0:
259,91,58939,1,8,1:2:0:0:
259,91,59116,6,0,P|250:158|241:224,1,120,4|8,3:2|0:0,0:0:0:0:
264,315,59822,2,0,P|228:321|189:331,1,60,0|0,3:0|3:2,0:0:0:0:
165,363,60175,2,0,P|95:368|63:333,1,120,10|0,0:0|3:0,2:0:0:0:
79,283,60704,1,2,0:0:0:0:
79,283,60881,1,8,0:0:0:0:
27,188,61234,2,0,P|31:154|44:121,1,60,0|2,3:0|3:2,0:0:0:0:
81,95,61586,2,0,P|115:99|148:112,1,60,8|2,0:0|0:0,0:0:0:0:
176,146,61939,6,0,L|296:125,1,120,2|8,3:2|0:0,0:0:0:0:
362,41,62645,2,0,P|398:45|431:57,1,60,0|0,3:0|3:0,2:0:0:0:
433,104,62998,2,0,P|411:162|432:233,1,120,10|0,0:0|3:0,0:0:0:0:
471,241,63528,1,2,0:0:0:0:
471,241,63704,1,8,0:0:0:0:
429,340,64057,2,0,P|399:329|365:323,1,60,0|10,3:0|3:2,2:0:0:0:
333,362,64410,2,0,P|301:367|266:366,1,60,10|0,0:0|0:0,2:0:0:0:
231,333,64763,6,0,L|251:207,1,120,4|8,3:2|0:0,0:0:0:0:
320,132,65469,2,0,P|310:101|306:65,1,60,0|0,3:0|3:0,2:0:0:0:
323,22,65822,2,0,P|260:-1|196:16,1,120,10|0,0:0|3:0,0:0:0:0:
171,47,66351,1,2,0:0:0:0:
171,47,66528,1,8,0:0:0:0:
65,22,66881,2,0,P|49:56|44:93,1,60,0|2,3:0|3:2,2:0:0:0:
71,124,67234,2,0,P|87:158|92:195,1,60,8|2,2:0|3:2,2:0:0:0:
77,232,67586,6,0,P|142:217|206:205,1,120,2|2,3:2|0:2,2:0:0:0:
292,252,68292,1,2,3:2:0:0:
373,180,68645,1,2,3:2:0:0:
321,84,68998,1,2,3:2:0:0:
512,339,70410,6,0,L|394:319,1,120,4|8,3:2|2:0,2:0:0:0:
348,349,70939,1,2,2:0:0:0:
255,292,71292,1,2,2:0:0:0:
255,292,71469,2,0,P|256:229|314:197,1,120,10|0,2:0|3:0,2:0:0:0:
352,205,71998,1,2,2:0:0:0:
449,158,72351,1,2,2:0:0:0:
449,158,72528,2,0,L|431:32,1,120,0|10,3:0|2:0,2:0:0:0:
394,0,73057,1,2,2:0:0:0:
394,0,73234,6,0,P|352:46|282:21,1,120,0|8,3:0|2:0,2:0:0:0:
263,0,73763,1,2,2:0:0:0:
187,76,74116,1,2,2:0:0:0:
187,76,74292,2,0,L|208:206,1,120,10|0,2:0|3:0,2:0:0:0:
253,220,74822,1,2,2:0:0:0:
253,220,74998,1,8,2:0:0:0:
214,324,75351,2,0,L|224:390,2,60,0|10|10,3:0|2:0|2:0,2:0:0:0:
162,306,75881,1,8,2:3:0:0:
162,306,76057,6,0,L|32:285,1,120,4|8,3:2|2:0,2:0:0:0:
9,244,76586,1,2,2:0:0:0:
34,138,76939,1,2,2:0:0:0:
34,138,77116,2,0,P|93:99|149:112,1,120,10|0,2:0|3:0,2:0:0:0:
176,146,77645,1,2,2:0:0:0:
245,63,77998,1,2,2:0:0:0:
245,63,78175,2,0,P|306:85|353:52,1,120,0|10,3:0|2:0,2:0:0:0:
383,17,78704,1,2,2:0:0:0:
383,17,78881,6,0,P|394:83|403:149,1,120,0|8,3:0|2:0,2:0:0:0:
371,180,79410,1,2,2:0:0:0:
471,220,79763,1,2,2:0:0:0:
471,220,79939,2,0,P|500:283|467:333,1,120,10|0,2:0|3:0,2:0:0:0:
430,349,80469,1,0,2:0:0:0:
430,349,80645,2,0,P|367:338|301:330,1,120,2|0,2:0|3:0,2:0:0:0:
121,374,81704,6,0,P|43:327|56:236,1,162,4|2,3:2|0:2,2:0:0:0:
117,120,82763,2,0,P|195:167|182:258,1,162,2|2,3:2|0:0,0:0:0:0:
121,374,83822,1,0,3:0:0:0:
328,314,84528,6,0,P|409:330|502:354,2,162,2|2|2,3:2|0:0|3:2,0:0:0:0:
185,239,86116,1,2,0:0:0:0:
292,117,86645,2,0,P|280:59|269:4,1,108,0|0,3:0|3:0,2:0:0:0:
162,3,87351,6,0,P|104:15|49:26,1,108,4|0,3:2|3:0,0:0:0:0:
2,118,88057,2,0,P|-7:173|37:224,1,108,2|0,3:2|3:0,0:0:0:0:
120,256,88763,2,0,P|174:243|231:237,1,108,0|0,3:0|3:0,2:0:0:0:
289,325,89469,1,0,3:0:0:0:
396,314,89822,1,0,3:0:0:0:
466,231,90175,6,0,P|451:168|431:112,1,108,2|0,3:2|3:0,0:0:0:0:
365,46,90881,2,0,P|322:82|251:59,1,108,2|0,3:2|3:0,0:0:0:0:
195,1,91586,1,2,3:2:0:0:
111,69,91939,1,2,3:2:0:0:
163,162,92292,2,0,P|192:171|219:182,2,54.0000000000001,0|2|2,3:0|0:0|3:2,2:0:0:0:
52,210,92998,6,0,P|68:276|79:341,1,120,4|8,3:2|0:0,2:0:0:0:
75,384,93528,1,2,0:0:0:0:
172,337,93881,1,0,0:0:0:0:
172,337,94057,2,0,P|234:325|295:318,1,120,8|0,0:0|3:0,0:0:0:0:
328,356,94586,1,2,0:0:0:0:
328,356,94763,1,8,0:0:0:0:
418,297,95116,2,0,P|414:264|402:235,1,60,0|2,3:0|0:0,0:0:0:0:
378,191,95469,2,0,P|382:158|394:129,1,60,8|2,0:0|0:0,0:0:0:0:
434,100,95822,6,0,P|369:91|309:81,1,120,0|8,3:0|0:0,2:0:0:0:
281,39,96351,1,2,0:0:0:0:
201,111,96704,1,2,0:0:0:0:
201,111,96881,2,0,L|228:253,1,120,8|0,0:0|3:0,0:0:0:0:
266,262,97410,1,2,0:0:0:0:
266,262,97586,1,8,0:0:0:0:
197,345,97939,2,0,L|129:334,1,60,0|10,3:0|0:0,2:0:0:0:
88,312,98292,2,0,P|99:280|104:244,1,60,8|0,0:0|0:0,0:0:0:0:
61,219,98645,6,0,P|51:146|44:93,1,120,4|8,3:2|0:0,2:0:0:0:
100,7,99351,2,0,P|162:-6|216:35,1,120,2|8,3:2|0:0,0:0:0:0:
210,76,99881,1,2,0:0:0:0:
210,76,100057,1,0,3:0:0:0:
298,137,100410,1,8,0:0:0:0:
370,56,100763,2,0,P|410:43|438:39,1,60,0|8,3:0|0:0,2:0:0:0:
475,64,101116,2,0,P|488:104|492:132,1,60,8|8,0:0|0:3,2:0:0:0:
460,166,101469,6,0,P|446:233|435:296,1,120,4|8,3:2|1:0,0:0:0:0:
366,366,102175,2,0,L|292:380,1,60,0|0,3:0|3:0,2:0:0:0:
268,339,102528,2,0,L|194:325,1,60,8|8,1:0|0:3,2:0:0:0:
167,362,102881,1,8,0:1:0:0:
109,270,103234,1,8,0:1:0:0:
190,199,103586,2,0,B|200:164|200:164|188:133,1,60,8|8,3:1|3:1,0:0:0:0:
154,102,103939,2,0,B|119:92|119:92|88:104,1,60,8|8,3:1|3:1,0:0:0:0:
61,141,104292,5,4,3:2:0:0:
32,167,114881,6,0,B|20:133|20:133|32:93,1,60,0|0,3:0|1:0,2:0:0:0:
57,65,115234,2,0,B|91:53|91:53|131:65,1,60,8|8,3:1|1:0,2:0:0:0:
151,97,115586,6,0,P|227:120|283:45,1,180,4|2,3:2|0:0,0:0:0:0:
391,24,116469,1,2,0:0:0:0:
391,24,116645,2,0,P|408:109|425:224,1,180,0|2,3:0|0:0,0:0:0:0:
473,302,117528,1,2,0:0:0:0:
473,302,117704,2,0,P|415:344|355:326,1,120,0|0,3:0|3:0,0:0:0:0:
262,327,118410,6,0,B|218:215|218:215|252:155,1,180,0|2,3:0|0:0,0:0:0:0:
311,77,119292,1,2,0:0:0:0:
311,77,119469,2,0,P|248:3|154:26,1,180,0|2,3:0|0:0,0:0:0:0:
125,36,120175,1,0,3:0:0:0:
47,111,120528,1,0,3:0:0:0:
84,212,120881,1,0,3:0:0:0:
184,173,121233,6,0,P|268:169|316:266,1,180,0|2,3:0|0:0,0:0:0:0:
298,351,122116,1,2,0:0:0:0:
298,351,122292,2,0,P|206:328|110:311,1,180,0|2,3:0|0:0,0:0:0:0:
15,330,123175,2,0,L|34:200,1,120,2|2,0:0|0:0,0:0:0:0:
1,166,123704,1,0,3:0:0:0:
57,74,124057,6,0,P|154:57|247:48,1,180,0|0,3:0|0:0,0:0:0:0:
320,124,124939,1,2,0:0:0:0:
320,124,125116,2,0,P|355:122|387:106,1,60,0|2,3:0|0:0,0:0:0:0:
397,62,125469,6,0,L|423:197,1,120,0|8,3:0|1:0,0:0:0:0:
507,242,126175,2,0,B|519:276|519:276|507:316,1,60,8|8,1:0|1:0,2:0:0:0:
482,344,126528,2,0,B|448:356|448:356|408:344,1,60,8|8,1:0|1:0,2:0:0:0:
387,309,126881,6,0,L|252:293,1,120,4|8,3:2|0:0,0:0:0:0:
179,357,127586,2,0,P|117:375|68:341,1,120,0|8,3:0|0:0,0:0:0:0:
38,245,128292,2,0,P|42:211|54:180,1,60,0|2,3:0|0:0,0:0:0:0:
90,150,128645,1,8,0:0:0:0:
90,150,128822,2,0,P|80:88|62:27,2,120,2|2|2,0:0|3:2|3:2,0:0:0:0:
187,210,129881,5,2,0:0:0:0:
187,210,130057,2,0,P|222:217|252:200,1,60,8|2,0:0|0:0,2:0:0:0:
273,162,130410,2,0,P|334:149|392:177,1,120,0|8,3:0|0:0,2:0:0:0:
407,220,130939,1,2,3:2:0:0:
512,197,131292,1,0,2:0:0:0:
512,197,131469,2,0,P|526:232|534:268,2,60,8|2|0,0:0|0:0|3:0,2:0:0:0:
507,88,132175,1,8,0:0:0:0:
507,88,132351,6,0,L|375:61,1,120,4|0,3:2|2:0,0:0:0:0:
331,50,132881,1,8,0:0:0:0:
335,54,133057,2,0,P|281:95|224:64,1,120,0|0,3:0|3:0,0:0:0:0:
197,34,133586,1,8,0:0:0:0:
201,38,133763,1,0,3:0:0:0:
117,106,134116,1,0,3:0:0:0:
177,196,134469,1,0,3:0:0:0:
177,196,134645,1,0,3:0:0:0:
331,146,135175,5,2,0:0:0:0:
415,214,135528,1,2,0:0:0:0:
355,304,135881,2,0,L|364:372,1,60,2|2,0:0|0:0,0:0:0:0:
335,383,138175,6,0,L|203:363,1,120,4|8,3:2|0:0,0:0:0:0:
160,375,138704,1,2,0:0:0:0:
164,379,138881,1,0,3:0:0:0:
174,267,139234,1,8,0:0:0:0:
178,271,139410,2,0,P|187:209|159:161,1,120,2|2,3:2|3:2,0:0:0:0:
105,158,139939,1,8,0:0:0:0:
107,50,140292,2,0,P|142:38|177:36,1,60,0|10,3:0|0:0,0:0:0:0:
206,69,140645,2,0,P|242:74|277:70,1,60,10|2,0:0|0:0,0:0:0:0:
314,49,140998,5,0,3:0:0:0:
427,31,141351,1,8,0:0:0:0:
427,31,141528,1,2,0:0:0:0:
427,31,141704,2,0,P|447:86|402:147,1,120,2|8,3:2|0:0,0:0:0:0:
380,174,142234,1,2,0:0:0:0:
380,174,142410,2,0,B|334:167|334:167|292:174|265:212,2,120,2|10|2,3:2|0:0|3:2,0:0:0:0:
402,223,143292,2,0,L|413:292,1,60,8|8,0:0|0:0,0:0:0:0:
369,382,143822,6,0,L|242:359,1,120,2|8,3:2|0:0,0:0:0:0:
193,347,144351,1,2,0:0:0:0:
196,351,144528,1,0,3:0:0:0:
135,261,144881,1,8,0:0:0:0:
138,266,145057,2,0,P|111:218|140:155,1,120,2|2,3:2|3:2,0:0:0:0:
185,142,145586,1,8,0:0:0:0:
292,144,145939,2,0,P|312:114|324:80,1,60,0|10,3:0|0:0,0:0:0:0:
309,40,146292,2,0,P|278:20|245:8,1,60,10|2,0:0|0:0,0:0:0:0:
208,36,146645,6,0,L|75:53,1,120,0|8,3:0|0:0,0:0:0:0:
31,54,147175,1,2,0:0:0:0:
35,58,147351,2,0,P|73:106|64:169,1,120,2|10,3:2|0:0,0:0:0:0:
1,247,148057,1,2,3:2:0:0:
71,329,148410,1,8,0:0:0:0:
177,299,148763,2,0,P|209:309|242:313,2,60,0|0|8,3:0|1:0|0:0,2:0:0:0:
144,249,149292,1,0,1:0:0:0:
148,253,149469,6,0,L|172:128,1,120,4|8,3:2|0:0,0:0:0:0:
143,94,149998,1,2,0:0:0:0:
143,94,150175,1,0,3:0:0:0:
209,9,150528,1,8,0:0:0:0:
213,13,150704,2,0,P|271:3|326:33,1,120,2|2,3:2|3:2,0:0:0:0:
356,73,151234,1,8,0:0:0:0:
461,94,151586,2,0,P|473:129|475:164,1,60,0|10,3:0|0:0,0:0:0:0:
466,205,151939,2,0,P|429:212|398:227,1,60,10|10,0:0|0:0,0:0:0:0:
365,254,152292,6,0,P|392:311|370:367,1,120,0|8,3:0|0:0,0:0:0:0:
266,363,152998,2,0,L|125:339,1,120,2|8,3:2|0:0,0:0:0:0:
95,329,153528,1,2,0:0:0:0:
95,329,153704,2,0,P|85:295|88:260,1,60,2|0,3:2|0:0,0:0:0:0:
127,235,154057,2,0,P|142:157|96:124,1,120,10|2,0:0|2:0,0:0:0:0:
71,105,154586,2,0,L|145:90,1,60,10|8,0:0|0:0,2:0:0:0:
224,37,155116,6,0,L|346:59,1,120,0|8,3:0|0:0,0:0:0:0:
383,23,155645,1,2,0:0:0:0:
383,23,155822,1,0,3:0:0:0:
456,93,156175,1,8,0:0:0:0:
460,97,156351,2,0,P|490:161|477:213,1,120,2|2,3:2|3:2,0:0:0:0:
444,247,156881,1,8,0:0:0:0:
351,191,157234,2,0,P|316:197|284:213,1,60,0|10,3:0|0:0,0:0:0:0:
267,253,157586,2,0,P|275:288|291:320,1,60,10|2,0:0|0:0,0:0:0:0:
304,360,157939,6,0,L|182:343,1,120,0|8,3:0|0:0,0:0:0:0:
127,345,158469,1,2,0:0:0:0:
131,349,158645,2,0,P|156:292|125:236,1,120,2|10,3:2|0:0,0:0:0:0:
37,192,159351,1,0,3:0:0:0:
87,96,159704,2,0,L|156:88,1,60,8|2,0:0|3:2,0:0:0:0:
192,60,160057,2,0,P|182:22|180:-5,2,60,0|8|0,1:0|1:2|1:0,2:0:0:0:
240,83,160586,1,8,1:2:0:0:
240,83,160763,6,0,P|229:143|222:216,1,120,4|8,3:2|0:0,0:0:0:0:
300,276,161469,2,0,P|334:265|372:259,1,60,0|0,3:0|3:2,2:0:0:0:
408,279,161822,2,0,P|403:209|438:177,1,120,10|0,0:0|3:0,0:0:0:0:
488,191,162351,1,2,0:0:0:0:
488,191,162528,1,8,0:0:0:0:
512,84,162881,2,0,P|508:50|495:17,1,60,0|2,3:0|3:2,0:0:0:0:
455,1,163234,2,0,P|421:5|388:18,1,60,8|2,0:0|0:0,0:0:0:0:
364,49,163586,6,0,P|300:40|244:28,1,120,2|8,3:2|0:0,0:0:0:0:
138,45,164292,2,0,P|124:83|114:115,1,60,0|0,3:0|3:0,2:0:0:0:
139,151,164645,2,0,P|85:129|23:174,1,120,10|0,0:0|3:0,2:0:0:0:
11,205,165175,1,2,0:0:0:0:
11,205,165351,1,8,0:0:0:0:
50,305,165704,2,0,P|80:317|115:322,1,60,0|8,3:0|3:1,0:0:0:0:
145,283,166057,2,0,P|181:276|216:274,1,60,8|8,0:1|0:1,0:0:0:0:
241,313,166410,6,0,L|257:178,1,120,4|8,3:2|1:0,0:0:0:0:
297,94,167116,2,0,P|336:96|372:86,1,60,8|0,1:0|3:0,2:0:0:0:
405,68,167469,2,0,P|417:128|428:197,1,120,8|8,1:0|1:0,2:0:0:0:
412,293,168175,2,0,L|354:280,1,60,8|0,1:0|0:3,0:0:0:0:
317,320,168528,2,0,P|283:336|246:341,1,60,0|0,1:0|1:0,0:0:0:0:
214,312,168881,2,0,P|198:278|193:241,1,60,8|8,1:0|1:0,2:0:0:0:
221,209,169234,6,0,L|246:82,1,120,0|0,3:0|2:0,2:0:0:0:
181,3,169939,1,0,3:0:0:0:
82,48,170292,1,2,0:0:0:0:
106,153,170645,1,2,0:0:0:0:
