osu file format v14

[General]
AudioFilename: audio.mp3
AudioLeadIn: 0
PreviewTime: 35998
Countdown: 0
SampleSet: Soft
StackLeniency: 0.8
Mode: 0
LetterboxInBreaks: 0
WidescreenStoryboard: 1

[Editor]
DistanceSpacing: 1.3
BeatDivisor: 4
GridSize: 4
TimelineZoom: 1.6

[Metadata]
Title:Good-bye sengen
TitleUnicode:グッバイ宣言
Artist:Chinozo
ArtistUnicode:Chinozo
Creator:Ryuusei Aika
Version:Addy's Hard
Source:
Tags:ァ儿七千ग アルセチカ arusechika aruseee kakeyan kakeyan26 japanese pop jpop j-pop Irin Addy2607 Addy Battle kanor Good bye Goodbye declaration decleration v-flower vflower v flower vocaloid ボーカロイド vocasynth female vocal
BeatmapID:2917421
BeatmapSetID:1408477

[Difficulty]
HPDrainRate:4
CircleSize:3.6
OverallDifficulty:6
ApproachRate:8
SliderMultiplier:1.4
SliderTickRate:1

[Events]
//Background and Video events
0,0,"posture check.jpg",0,0
//Break Periods
2,104492,114131
//Storyboard Layer 0 (Background)
//Storyboard Layer 1 (Fail)
//Storyboard Layer 2 (Pass)
//Storyboard Layer 3 (Foreground)
//Storyboard Layer 4 (Overlay)
//Storyboard Sound Samples

[TimingPoints]
1234,352.941176470588,4,2,1,55,1,0
1939,-111.111111111111,4,2,1,55,0,0
2645,-100,4,2,1,75,0,0
7145,-100,4,2,1,55,0,0
7233,-100,4,2,1,75,0,0
12792,-100,4,2,1,55,0,0
12881,-100,4,2,1,75,0,0
13939,-111.111111111111,4,2,1,55,0,0
19939,-111.111111111111,4,2,1,55,0,0
20645,-111.111111111111,4,2,1,55,0,0
25233,-100,4,2,1,65,0,0
26115,-100,4,2,1,55,0,0
26292,-100,4,2,1,65,0,0
26645,-100,4,2,1,55,0,0
26821,-100,4,2,1,65,0,0
29469,-100,4,2,1,55,0,0
29645,-100,4,2,1,65,0,0
30704,-100,4,2,1,55,0,0
30881,-100,4,2,1,65,0,0
35468,-100,4,2,1,55,0,0
35644,-100,4,2,1,65,0,0
36528,-90.9090909090909,4,2,1,75,0,1
40939,-90.9090909090909,4,2,1,55,0,1
41116,-90.9090909090909,4,2,1,75,0,1
41292,-90.9090909090909,4,2,1,55,0,1
41469,-90.9090909090909,4,2,1,75,0,1
45880,-90.9090909090909,4,2,1,55,0,1
46057,-90.9090909090909,4,2,1,75,0,1
46233,-90.9090909090909,4,2,1,55,0,1
46410,-90.9090909090909,4,2,1,75,0,1
52233,-90.9090909090909,4,2,1,55,0,1
52410,-90.9090909090909,4,2,1,75,0,1
52586,-90.9090909090909,4,2,1,55,0,1
52763,-90.9090909090909,4,2,1,75,0,1
57174,-90.9090909090909,4,2,1,55,0,1
57351,-90.9090909090909,4,2,1,75,0,1
59116,-100,4,2,1,75,0,1
67233,-100,4,2,1,55,0,1
67409,-100,4,2,1,75,0,1
67586,-111.111111111111,4,2,1,75,0,0
70410,-100,4,2,1,75,0,0
70586,-100,4,2,1,55,0,0
80292,-100,4,2,1,45,0,0
80469,-100,4,2,1,55,0,0
80910,-100,4,2,1,45,0,0
81704,-111.111111111111,4,2,1,55,0,0
87704,-111.111111111111,4,2,1,55,0,0
88410,-111.111111111111,4,2,1,55,0,0
92998,-100,4,2,1,55,0,0
94410,-100,4,2,1,55,0,0
97234,-100,4,2,1,55,0,0
104292,-111.111111111111,4,2,1,55,0,0
125468,-111.111111111111,4,2,1,65,0,0
126881,-100,4,2,1,65,0,0
129351,-100,4,2,1,55,0,0
129528,-100,4,2,1,65,0,0
131291,-100,4,2,1,55,0,0
131469,-100,4,2,1,65,0,0
132703,-100,4,2,1,55,0,0
132881,-100,4,2,1,65,0,0
133233,-100,4,2,1,55,0,0
133409,-100,4,2,1,65,0,0
136763,-100,4,2,1,15,0,0
136939,-100,4,2,1,15,0,0
137116,-100,4,2,1,25,0,0
137292,-100,4,2,1,25,0,0
137469,-100,4,2,1,45,0,0
138175,-90.9090909090909,4,2,1,75,0,1
147527,-90.9090909090909,4,2,1,55,0,1
147616,-90.9090909090909,4,2,1,75,0,1
147880,-90.9090909090909,4,2,1,55,0,1
148057,-90.9090909090909,4,2,1,75,0,1
152468,-90.9090909090909,4,2,1,55,0,1
152645,-90.9090909090909,4,2,1,75,0,1
152821,-90.9090909090909,4,2,1,55,0,1
152998,-90.9090909090909,4,2,1,75,0,1
153174,-90.9090909090909,4,2,1,55,0,1
153351,-90.9090909090909,4,2,1,75,0,1
159175,-90.9090909090909,4,2,1,55,0,1
159351,-90.9090909090909,4,2,1,75,0,1
160763,-100,4,2,1,75,0,1
161469,-100,4,2,1,55,0,1
161645,-100,4,2,1,75,0,1
166410,-90.9090909090909,4,2,1,75,0,1
169233,-111.111111111111,4,2,1,75,0,0
169939,-111.111111111111,4,2,1,40,0,0
170645,-111.111111111111,4,2,1,20,0,0

[Colours]
Combo1 : 232,189,89
Combo2 : 48,200,207

[HitObjects]
156,7,1234,5,2,0:3:0:0:
156,7,1586,1,2,0:3:0:0:
50,52,1939,6,0,L|46:133,1,62.9999980773926,2|2,0:3|0:0,0:0:0:0:
48,204,2292,1,2,0:0:0:0:
48,204,2381,1,0,0:0:0:0:
48,204,2469,1,2,0:0:0:0:
78,289,2645,6,0,L|-3:285,2,70,4|2|8,3:2|0:0|0:0,0:0:0:0:
156,240,3175,2,0,B|212:235|212:235|237:251|237:251|301:247,1,140,2|2,0:0|0:0,0:0:0:0:
369,294,3704,6,0,L|365:375,2,70,10|2|0,0:0|0:0|3:0,0:0:0:0:
447,247,4233,2,0,P|477:203|444:121,1,140,2|2,0:0|0:0,0:0:0:0:
384,62,4763,2,0,L|306:62,1,70,0|2,3:0|0:0,0:0:0:0:
277,43,5028,1,2,0:0:0:0:
277,43,5116,2,0,L|199:43,1,70,10|2,0:0|0:0,0:0:0:0:
117,113,5469,6,0,L|122:198,2,70,0|2|8,3:0|0:0|0:0,0:0:0:0:
45,56,5998,1,2,0:0:0:0:
19,143,6175,2,0,L|24:228,1,70,0|2,3:0|0:0,0:0:0:0:
11,303,6528,6,0,P|46:289|95:307,1,70,10|2,0:0|0:0,0:0:0:0:
141,359,6881,1,0,3:0:0:0:
200,290,7057,1,2,0:0:0:0:
200,290,7145,1,0,0:0:0:0:
200,290,7233,1,8,0:0:0:0:
135,225,7410,1,2,0:0:0:0:
200,162,7586,2,0,L|281:163,1,70,0|10,3:0|0:0,0:0:0:0:
334,227,7939,1,10,0:0:0:0:
442,184,8116,1,8,0:3:0:0:
442,184,8204,1,8,0:3:0:0:
442,184,8292,6,0,L|442:108,2,70,4|2|8,3:2|0:0|0:0,0:0:0:0:
434,275,8822,2,0,B|408:309|408:309|302:306,1,140,2|2,0:0|0:0,0:0:0:0:
226,342,9351,6,0,P|189:355|157:343,2,70,10|2|0,0:0|0:0|3:0,0:0:0:0:
247,252,9881,2,0,L|247:89,1,140,2|2,0:0|0:0,0:0:0:0:
295,34,10410,2,0,L|213:34,1,70,0|2,3:0|0:0,0:0:0:0:
182,37,10675,1,2,0:0:0:0:
182,37,10763,2,0,L|100:37,1,70,10|2,0:0|0:0,0:0:0:0:
4,70,11116,6,0,P|-6:35|10:0,2,70,0|2|8,3:0|0:0|0:0,0:0:0:0:
80,119,11645,1,2,0:0:0:0:
17,185,11822,2,0,P|39:219|25:256,1,70,0|2,3:0|0:0,0:0:0:0:
2,331,12175,6,0,L|82:326,1,70,10|2,0:0|0:0,0:0:0:0:
138,264,12528,1,0,3:0:0:0:
201,342,12704,1,2,0:0:0:0:
201,342,12792,1,0,0:0:0:0:
201,342,12881,1,8,0:0:0:0:
271,284,13057,1,10,0:0:0:0:
335,347,13233,1,0,0:0:0:0:
485,245,13586,5,2,0:3:0:0:
485,245,13763,1,2,0:3:0:0:
429,185,13939,6,0,P|457:140|430:71,1,125.999996154785,4|2,3:2|0:2,0:0:0:0:
365,29,14469,2,0,B|316:26|316:26|292:39|292:39|234:35,1,125.999996154785,2|2,0:2|0:2,0:0:0:0:
163,13,14998,2,0,P|121:33|114:118,1,125.999996154785,2|2,3:2|3:2,0:0:0:0:
54,169,15528,2,0,B|114:140|114:140|175:170,1,125.999996154785,2|0,0:0|0:0,0:0:0:0:
225,223,16057,1,0,3:0:0:0:
349,116,16410,1,0,3:0:0:0:
492,194,16763,6,0,L|488:331,1,125.999996154785,2|2,3:2|3:2,0:0:0:0:
416,358,17292,2,0,P|374:321|304:330,1,125.999996154785,2|2,0:0|0:0,0:0:0:0:
237,371,17822,1,2,3:2:0:0:
113,263,18175,2,0,L|108:326,1,62.9999980773926,0|2,3:0|0:0,0:0:0:0:
31,297,18528,2,0,L|36:234,1,62.9999980773926,0|2,3:0|0:0,0:0:0:0:
2,158,18881,2,0,L|8:83,1,62.9999980773926,0|2,3:0|0:0,0:0:0:0:
62,34,19233,1,0,3:0:0:0:
209,104,19586,6,0,P|175:121|118:99,2,94.499997116089,4|2|2,3:2|0:0|0:0,0:0:0:0:
270,49,20292,2,0,P|304:32|361:54,2,94.499997116089,2|2|2,3:0|0:0|0:0,0:0:0:0:
209,104,20998,2,0,P|239:155|226:228,1,125.999996154785,0|0,3:0|3:0,0:0:0:0:
106,326,21704,2,0,L|31:320,2,62.9999980773926,0|2|0,3:0|0:0|3:0,0:0:0:0:
173,373,22233,1,2,0:0:0:0:
236,321,22410,6,0,B|283:318|283:318|307:334|307:334|366:332,1,125.999996154785,2|0,3:2|3:0,0:0:0:0:
427,287,22939,1,2,0:0:0:0:
427,287,23116,1,2,3:2:0:0:
338,148,23469,1,0,3:0:0:0:
203,242,23822,2,0,L|130:238,1,62.9999980773926,2|2,3:2|0:0,0:0:0:0:
60,258,24175,2,0,L|64:185,1,62.9999980773926,2|0,3:2|0:0,0:0:0:0:
38,116,24528,2,0,L|111:120,1,62.9999980773926,0|2,3:0|0:0,0:0:0:0:
182,125,24881,1,0,1:0:0:0:
342,40,25233,6,0,P|401:12|473:54,1,140,4|8,3:2|0:0,0:0:0:0:
497,127,25763,2,0,B|501:180|501:180|486:206|486:206|490:276,1,140,2|0,0:0|0:0,0:0:0:0:
449,344,26292,2,0,B|400:375|350:333|364:323|315:258|233:314,1,210,8|2,0:0|0:0,0:0:0:0:
189,358,26998,1,8,0:0:0:0:
17,296,27351,2,0,L|14:208,2,70,0|2|8,3:0|0:0|0:0,0:0:0:0:
85,356,27881,1,2,0:0:0:0:
139,283,28057,6,0,L|134:143,1,140,0|8,3:0|0:0,0:0:0:0:
143,52,28586,2,0,P|200:92|280:64,1,140,2|2,0:0|0:0,0:0:0:0:
346,35,29116,2,0,B|292:0|292:0|316:169,1,210,8|2,0:0|0:0,0:0:0:0:
274,227,29822,1,8,0:0:0:0:
402,355,30175,2,0,L|491:349,1,70,0|10,3:0|0:0,0:0:0:0:
426,270,30528,2,0,L|337:276,1,70,8|0,0:0|0:0,0:0:0:0:
274,227,30881,6,0,P|226:207|178:230,2,105,4|2|2,3:2|0:0|0:0,0:0:0:0:
312,144,31586,2,0,P|360:124|408:147,2,105,2|2|2,3:2|0:0|0:0,0:0:0:0:
255,71,32292,2,0,P|211:38|127:72,1,140,0|8,3:0|0:0,0:0:0:0:
45,220,32998,2,0,L|41:140,2,70,0|8|8,3:0|0:0|0:0,0:0:0:0:
12,305,33528,6,0,B|64:300|64:300|92:319|92:319|154:313,1,140,4|0,3:2|3:0,0:0:0:0:
206,245,34057,1,8,0:0:0:0:
206,245,34233,1,2,0:0:0:0:
271,308,34410,2,0,L|270:380,2,70,0|2|8,3:0|3:2|3:2,0:0:0:0:
335,243,34939,5,10,3:2:0:0:
200,119,35292,2,0,L|128:118,2,70,10|0|10,3:2|0:0|3:2,0:0:0:0:
264,54,35822,1,10,3:2:0:0:
328,117,35998,1,8,3:1:0:0:
328,117,36175,1,8,3:1:0:0:
499,13,36528,6,0,L|502:101,1,77.0000023498536,4|2,3:2|0:0,0:0:0:0:
508,143,36792,1,0,0:0:0:0:
508,143,36881,1,8,0:0:0:0:
420,95,37057,1,2,0:0:0:0:
427,194,37233,2,0,L|431:340,1,115.50000352478,0|0,3:0|0:0,0:0:0:0:
431,359,37586,1,8,0:0:0:0:
336,326,37763,6,0,B|279:327|279:327|250:351|250:351|184:352,1,154.000004699707,2|2,3:2|3:2,0:0:0:0:
90,349,38292,2,0,L|88:256,1,77.0000023498536,8|2,0:0|0:0,0:0:0:0:
17,200,38645,1,0,3:0:0:0:
17,200,38822,1,10,0:0:0:0:
77,121,38998,1,10,0:0:0:0:
77,121,39175,1,2,0:0:0:0:
148,190,39351,6,0,B|182:220|182:220|309:202,1,154.000004699707,0|8,3:0|0:0,0:0:0:0:
389,189,39881,1,2,0:0:0:0:
454,113,40057,2,0,B|420:83|420:83|293:101,1,154.000004699707,2|8,3:2|0:0,0:0:0:0:
213,117,40586,1,2,0:0:0:0:
145,42,40763,6,0,P|101:32|59:54,1,77.0000023498536,2|0,3:2|0:0,0:0:0:0:
11,122,41116,2,0,P|0:166|22:208,1,77.0000023498536,10|0,0:0|0:0,0:0:0:0:
82,266,41469,1,2,3:2:0:0:
161,204,41645,1,8,0:0:0:0:
161,204,41822,1,8,0:0:0:0:
296,351,42175,5,0,0:0:0:0:
403,357,42351,1,0,0:0:0:0:
403,357,42439,1,0,0:0:0:0:
403,357,42528,1,8,0:0:0:0:
465,278,42704,1,2,0:0:0:0:
399,202,42881,2,0,L|394:66,1,115.50000352478,0|0,3:0|0:0,0:0:0:0:
392,36,43233,1,8,0:0:0:0:
298,72,43410,6,0,B|242:66|242:66|212:86|212:86|126:80,1,154.000004699707,2|2,3:2|3:2,0:0:0:0:
80,10,43939,2,0,P|49:51|57:93,1,77.0000023498536,8|2,0:0|0:0,0:0:0:0:
96,163,44292,1,0,3:0:0:0:
96,163,44469,1,10,0:0:0:0:
35,242,44645,1,10,0:0:0:0:
35,242,44822,1,2,0:0:0:0:
98,318,44998,6,0,B|142:296|178:333|165:342|202:369|246:342,1,154.000004699707,0|8,3:0|0:0,0:0:0:0:
320,286,45528,1,2,0:0:0:0:
236,231,45704,2,0,L|232:132,1,77.0000023498536,2|0,3:2|0:0,0:0:0:0:
188,63,46057,2,0,L|287:59,1,77.0000023498536,10|0,0:0|0:0,0:0:0:0:
347,125,46410,5,2,3:2:0:0:
347,125,46586,1,2,0:0:0:0:
405,44,46763,1,8,0:0:0:0:
405,44,46939,1,2,0:0:0:0:
485,103,47116,2,0,L|489:202,1,77.0000023498536,0|0,3:0|1:0,0:0:0:0:
494,234,47381,1,0,1:0:0:0:
494,234,47469,1,8,0:0:0:0:
454,325,47645,1,0,1:0:0:0:
356,263,47822,5,4,3:2:0:0:
328,363,47998,1,2,0:0:0:0:
328,363,48086,1,0,0:0:0:0:
328,363,48175,1,8,0:0:0:0:
228,361,48351,1,2,0:0:0:0:
190,268,48528,2,0,L|189:142,1,115.50000352478,0|0,3:0|0:0,0:0:0:0:
190,102,48881,1,8,0:0:0:0:
260,30,49057,6,0,B|326:65|326:65|399:28,1,154.000004699707,2|2,3:2|3:2,0:0:0:0:
479,86,49586,2,0,L|476:184,1,77.0000023498536,8|2,0:0|0:0,0:0:0:0:
417,243,49939,1,0,3:0:0:0:
417,243,50116,1,10,0:0:0:0:
351,174,50292,1,10,0:0:0:0:
351,174,50469,1,2,0:0:0:0:
281,245,50645,6,0,B|286:353|286:353|239:308,1,154.000004699707,0|8,3:0|0:0,0:0:0:0:
183,247,51175,1,2,0:0:0:0:
110,315,51351,2,0,B|76:346|76:346|81:238,1,154.000004699707,2|8,3:2|0:0,0:0:0:0:
14,163,51881,1,2,0:0:0:0:
64,76,52057,6,0,P|98:63|144:87,1,77.0000023498536,2|0,3:2|0:0,0:0:0:0:
215,135,52410,2,0,P|249:148|295:124,1,77.0000023498536,10|0,0:0|0:0,0:0:0:0:
350,58,52763,1,2,3:2:0:0:
431,119,52939,1,10,0:0:0:0:
431,119,53116,1,8,0:0:0:0:
374,311,53469,5,0,0:0:0:0:
376,218,53645,1,0,0:0:0:0:
376,218,53733,1,0,0:0:0:0:
376,218,53822,1,8,0:0:0:0:
276,220,53998,1,2,0:0:0:0:
282,320,54175,2,0,L|152:328,1,115.50000352478,0|0,3:0|0:0,0:0:0:0:
116,332,54528,1,8,0:0:0:0:
23,369,54704,6,0,B|18:314|18:314|38:286|38:286|32:208,1,154.000004699707,2|2,3:2|3:2,0:0:0:0:
4,125,55233,2,0,L|86:117,1,77.0000023498536,8|2,0:0|0:0,0:0:0:0:
162,60,55586,1,0,3:0:0:0:
162,60,55763,1,10,0:0:0:0:
225,143,55939,1,10,0:0:0:0:
225,143,56116,1,2,0:0:0:0:
272,55,56292,6,0,L|435:43,1,154.000004699707,0|8,3:0|0:0,0:0:0:0:
500,111,56822,1,2,0:0:0:0:
452,198,56998,2,0,L|362:204,1,77.0000023498536,2|0,3:2|0:0,0:0:0:0:
301,137,57351,2,0,L|211:143,1,77.0000023498536,10|2,0:0|0:0,0:0:0:0:
157,217,57704,5,0,3:0:0:0:
157,217,57881,1,2,0:0:0:0:
87,145,58057,1,8,0:0:0:0:
87,145,58233,1,2,3:2:0:0:
35,231,58410,2,0,L|-5:228,2,38.5000011749268,0|0|8,1:0|1:0|1:2,0:0:0:0:
88,315,58763,2,0,L|185:307,1,77.0000023498536,0|8,1:0|1:2,0:0:0:0:
232,247,59116,6,0,P|266:219|363:251,1,140,4|8,3:2|0:0,0:0:0:0:
411,308,59645,1,2,0:0:0:0:
481,249,59822,2,0,L|479:167,1,70,0|0,3:0|3:2,0:0:0:0:
510,93,60175,6,0,B|462:84|462:84|430:103|430:103|362:95,1,140,10|0,0:0|3:0,0:0:0:0:
320,24,60704,1,2,0:0:0:0:
253,86,60881,2,0,L|259:176,1,70,8|2,0:0|0:0,0:0:0:0:
196,222,61233,1,0,3:0:0:0:
196,222,61410,1,2,3:2:0:0:
126,163,61586,2,0,L|120:73,1,70,8|2,0:0|0:0,0:0:0:0:
36,59,61939,6,0,L|48:223,1,140,2|8,3:2|0:0,0:0:0:0:
114,259,62469,1,2,0:0:0:0:
74,340,62645,2,0,P|33:327|2:340,2,70,0|0|10,3:0|3:0|0:0,0:0:0:0:
165,329,63175,6,0,P|220:357|299:317,1,140,2|2,0:0|0:0,0:0:0:0:
346,259,63704,2,0,L|345:182,1,70,8|2,0:0|0:0,0:0:0:0:
404,120,64057,1,0,3:0:0:0:
404,120,64233,1,10,3:2:0:0:
343,52,64410,2,0,L|266:53,1,70,10|0,0:0|0:0,0:0:0:0:
182,38,64763,6,0,B|149:19|149:19|163:128,1,140,4|8,3:2|0:0,0:0:0:0:
221,189,65292,1,2,0:0:0:0:
138,227,65469,2,0,L|57:225,1,70,0|0,3:0|3:0,0:0:0:0:
26,306,65822,6,0,L|188:310,1,140,10|0,0:0|3:0,0:0:0:0:
239,363,66351,1,2,0:0:0:0:
310,306,66528,2,0,P|299:271|323:226,1,70,8|2,0:0|0:0,0:0:0:0:
396,280,66881,1,0,3:0:0:0:
396,280,67057,1,2,3:2:0:0:
478,317,67233,2,0,P|489:282|465:237,1,70,8|2,0:0|3:2,0:0:0:0:
430,185,67586,5,2,3:2:0:0:
430,185,68292,5,2,3:2:0:0:
492,33,68645,1,2,3:2:0:0:
328,44,68998,1,2,3:2:0:0:
328,44,69704,5,0,0:0:0:0:
270,102,69881,2,0,L|276:173,2,62.9999980773926,2|0|2,0:0|0:0|0:0,0:0:0:0:
181,78,70410,6,0,L|187:149,2,70,4|0|8,3:2|0:0|0:0,0:0:0:0:
100,121,70939,2,0,L|112:265,1,140,2|2,0:0|0:0,0:0:0:0:
64,339,71469,6,0,P|21:352|-16:331,2,70,10|0|0,0:0|0:0|3:0,0:0:0:0:
111,260,71998,2,0,P|169:232|241:273,1,140,2|2,0:0|0:0,0:0:0:0:
272,344,72528,2,0,L|350:341,1,70,0|0,3:0|0:0,0:0:0:0:
391,341,72792,1,0,0:0:0:0:
391,341,72881,2,0,L|469:338,1,70,10|2,0:0|0:0,0:0:0:0:
423,233,73233,6,0,L|344:235,2,70,0|0|8,3:0|0:0|0:0,0:0:0:0:
497,178,73763,1,2,0:0:0:0:
434,112,73939,2,0,L|355:114,1,70,0|2,3:0|0:0,0:0:0:0:
282,155,74292,6,0,L|279:76,1,70,10|0,0:0|0:0,0:0:0:0:
220,15,74645,1,0,3:0:0:0:
155,79,74822,1,2,0:0:0:0:
155,79,74910,1,0,0:0:0:0:
155,79,74998,1,8,0:0:0:0:
89,15,75175,1,2,0:0:0:0:
35,88,75351,2,0,L|37:166,1,70,0|10,3:0|0:0,0:0:0:0:
103,220,75704,1,10,0:0:0:0:
71,333,75881,1,8,0:3:0:0:
71,333,75969,1,0,0:0:0:0:
71,333,76057,6,0,L|-8:333,2,70,4|0|8,3:2|0:0|0:0,0:0:0:0:
155,299,76586,2,0,B|186:284|225:306|213:314|245:345|298:321,1,140,2|2,0:0|0:0,0:0:0:0:
365,280,77116,6,0,P|376:316|359:363,2,70,10|0|0,0:0|0:0|3:0,0:0:0:0:
310,206,77645,2,0,P|286:146|310:72,1,140,2|2,0:0|0:0,0:0:0:0:
227,29,78175,2,0,L|130:30,1,70,0|0,3:0|0:0,0:0:0:0:
118,16,78439,1,0,0:0:0:0:
118,16,78528,2,0,L|21:17,1,70,10|2,0:0|0:0,0:0:0:0:
96,117,78881,6,0,L|193:116,2,70,0|0|8,3:0|0:0|0:0,0:0:0:0:
28,178,79410,1,2,0:0:0:0:
98,235,79586,2,0,L|195:234,1,70,0|2,3:0|0:0,0:0:0:0:
252,267,79939,6,0,L|251:170,1,70,10|0,0:0|0:0,0:0:0:0:
248,105,80292,1,0,3:0:0:0:
248,13,80469,1,0,0:0:0:0:
338,15,80645,1,2,0:0:0:0:
340,105,80822,2,0,L|386:105,2,35,0|0|0,0:0|0:0|3:0,0:0:0:0:
489,218,81351,5,2,0:3:0:0:
489,218,81528,1,2,0:3:0:0:
442,285,81704,6,0,B|394:278|394:278|369:290|369:290|308:283,1,125.999996154785,4|2,3:2|3:2,0:0:0:0:
266,346,82233,2,0,P|210:374|155:344,1,125.999996154785,2|2,0:2|0:2,0:0:0:0:
81,314,82763,2,0,B|104:254|104:254|72:189,1,125.999996154785,2|2,3:2|3:2,0:0:0:0:
15,143,83292,2,0,P|58:164|129:129,1,125.999996154785,2|0,0:0|0:0,0:0:0:0:
178,71,83822,2,0,L|172:3,2,62.9999980773926,0|2|0,3:0|0:0|3:0,0:0:0:0:
287,193,84528,6,0,P|328:218|404:188,1,125.999996154785,2|2,3:2|3:2,0:0:0:0:
478,211,85057,2,0,L|469:68,1,125.999996154785,2|2,0:0|0:0,0:0:0:0:
461,3,85586,1,2,3:2:0:0:
343,117,85939,2,0,L|338:45,1,62.9999980773926,0|2,3:0|0:0,0:0:0:0:
260,29,86292,2,0,L|264:100,1,62.9999980773926,0|2,3:0|0:0,0:0:0:0:
202,146,86645,2,0,L|206:217,1,62.9999980773926,0|2,3:0|0:0,0:0:0:0:
269,260,86998,1,0,3:0:0:0:
394,154,87351,6,0,L|500:148,2,94.499997116089,4|2|2,3:2|0:0|0:0,0:0:0:0:
383,235,88057,2,0,L|489:229,2,94.499997116089,2|2|2,3:2|0:0|0:0,0:0:0:0:
340,305,88763,2,0,B|313:334|313:334|210:328,1,125.999996154785,0|0,3:0|3:0,0:0:0:0:
66,291,89469,2,0,L|69:368,2,62.9999980773926,0|2|0,3:0|0:0|3:0,0:0:0:0:
112,223,89998,1,2,0:0:0:0:
41,180,90175,6,0,P|10:146|34:67,1,125.999996154785,2|0,3:2|3:0,0:0:0:0:
95,29,90704,1,2,0:0:0:0:
95,29,90881,2,0,B|139:26|139:26|164:42|164:42|226:39,1,125.999996154785,2|0,3:2|3:0,0:0:0:0:
281,89,91410,1,2,0:0:0:0:
281,89,91586,1,2,3:2:0:0:
218,142,91763,2,0,L|176:145,2,31.4999990386963,2|0|2,0:0|0:0|3:2,0:0:0:0:
375,187,92292,2,0,L|382:270,1,62.9999980773926,0|2,3:0|0:0,0:0:0:0:
390,331,92645,1,2,3:2:0:0:
210,299,92998,6,0,B|157:296|157:296|134:310|134:310|70:307,1,140,4|8,3:2|0:0,0:0:0:0:
7,243,93528,2,0,P|50:210|51:120,1,140,2|0,0:0|0:0,0:0:0:0:
28,41,94057,2,0,B|-11:87|-11:87|156:75,1,210,8|2,0:0|0:0,0:0:0:0:
203,12,94763,1,8,0:0:0:0:
319,151,95116,2,0,L|318:69,1,70,0|2,3:0|0:0,0:0:0:0:
405,56,95469,2,0,L|406:138,1,70,8|2,0:0|0:0,0:0:0:0:
463,197,95822,6,0,P|494:238|456:330,1,140,0|8,3:0|0:0,0:0:0:0:
383,335,96351,2,0,B|319:305|319:305|247:336,1,140,2|2,0:0|0:0,0:0:0:0:
171,370,96881,2,0,B|158:221|158:221|205:279,1,210,8|2,0:0|0:0,0:0:0:0:
252,197,97586,1,8,0:0:0:0:
151,45,97939,2,0,L|240:40,2,70,0|10|8,3:0|0:0|0:0,0:0:0:0:
69,2,98469,1,0,0:0:0:0:
15,75,98645,6,0,L|20:165,1,70,4|0,3:2|0:0,0:0:0:0:
25,235,98998,2,0,L|30:325,1,70,8|2,0:0|0:0,0:0:0:0:
116,331,99351,2,0,L|111:241,1,70,2|0,3:2|0:0,0:0:0:0:
155,182,99704,1,8,0:0:0:0:
155,182,99881,1,2,0:0:0:0:
204,105,100057,6,0,P|165:86|100:111,2,105,0|2|2,3:0|0:0|0:0,0:0:0:0:
270,167,100763,2,0,L|274:253,1,70,0|8,3:0|0:0,0:0:0:0:
211,303,101116,1,8,0:0:0:0:
290,365,101292,1,8,0:3:0:0:
290,365,101381,1,8,0:3:0:0:
290,365,101469,6,0,B|343:361|343:361|374:381|374:381|437:377,1,140,4|8,3:2|1:0,0:0:0:0:
476,303,101998,1,0,0:0:0:0:
480,307,102175,2,0,P|438:275|443:191,1,140,0|8,3:0|1:0,0:0:0:0:
493,122,102704,1,8,0:3:0:0:
493,122,102792,1,8,0:3:0:0:
493,122,102881,6,0,L|437:119,3,35,8|8|8|8,0:1|0:1|0:1|0:1,0:0:0:0:
419,96,103233,2,0,L|363:99,3,35,8|8|8|8,0:1|0:1|0:1|0:1,0:0:0:0:
345,122,103586,2,0,L|257:118,1,70,8|8,3:1|3:1,0:0:0:0:
202,63,103939,2,0,L|114:67,1,70,8|8,3:1|3:1,0:0:0:0:
50,72,104292,5,4,3:2:0:0:
473,344,114881,5,0,3:0:0:0:
418,282,115057,2,0,L|374:284,2,31.4999990386963,0|0|8,1:0|1:0|3:1,0:0:0:0:
477,225,115410,1,8,1:0:0:0:
416,170,115586,6,0,L|276:176,1,125.999996154785,4|2,3:2|0:0,0:0:0:0:
222,127,116116,2,0,L|224:80,2,31.4999990386963,2|0|0,0:0|0:0|3:0,0:0:0:0:
161,182,116469,1,2,0:0:0:0:
93,135,116645,2,0,B|52:104|52:104|73:249,1,188.999994232178,0|2,3:0|0:0,0:0:0:0:
37,314,117351,2,0,L|-12:309,2,31.4999990386963,0|0|2,3:0|0:0|0:0,0:0:0:0:
103,370,117704,1,0,3:0:0:0:
103,370,117881,1,2,0:0:0:0:
162,314,118057,1,0,3:0:0:0:
315,369,118410,6,0,L|308:229,1,125.999996154785,0|0,3:0|3:0,0:0:0:0:
302,161,118939,2,0,L|255:164,2,31.4999990386963,2|0|0,0:0|0:0|3:0,0:0:0:0:
362,105,119292,1,2,0:0:0:0:
299,51,119469,2,0,L|98:63,1,188.999994232178,0|2,3:0|0:0,0:0:0:0:
40,20,120175,2,0,P|26:49|34:94,1,62.9999980773926,0|2,3:0|0:0,0:0:0:0:
47,158,120528,2,0,P|67:182|111:194,1,62.9999980773926,0|2,0:0|0:0,0:0:0:0:
177,188,120881,1,0,3:0:0:0:
289,69,121233,6,0,B|342:65|342:65|366:80|366:80|424:77,1,125.999996154785,0|0,3:0|3:0,0:0:0:0:
484,40,121763,2,0,L|481:-3,2,31.4999990386963,2|0|0,0:0|0:0|3:0,0:0:0:0:
490,121,122116,1,2,0:0:0:0:
494,202,122292,2,0,B|453:181|402:210|421:232|368:276|308:233,1,188.999994232178,0|2,3:0|0:0,0:0:0:0:
255,288,122998,1,0,3:0:0:0:
195,231,123175,2,0,L|196:161,1,62.9999980773926,2|0,0:0|0:0,0:0:0:0:
200,85,123528,1,2,0:0:0:0:
127,122,123704,1,0,3:0:0:0:
4,13,124057,6,0,B|30:39|30:39|27:205,1,188.999994232178,0|0,3:0|0:0,0:0:0:0:
72,259,124763,2,0,L|117:255,2,31.4999990386963,0|2|2,3:0|0:0|0:0,0:0:0:0:
49,338,125116,2,0,L|190:325,1,125.999996154785,0|0,3:0|3:0,0:0:0:0:
237,267,125645,1,0,1:0:0:0:
237,267,125733,1,0,1:0:0:0:
237,267,125822,1,8,1:0:0:0:
291,328,125998,1,8,1:0:0:0:
339,261,126175,2,0,L|333:185,1,62.9999980773926,8|8,1:0|1:0,0:0:0:0:
382,131,126528,1,8,1:0:0:0:
229,31,126881,6,0,B|179:24|179:24|149:42|149:42|93:37,1,140,4|8,3:2|0:0,0:0:0:0:
17,86,127410,1,2,0:0:0:0:
17,86,127586,2,0,P|61:124|53:207,1,140,0|8,3:0|0:0,0:0:0:0:
84,293,128116,1,2,0:0:0:0:
84,293,128292,6,0,L|-1:289,2,70,0|2|8,3:0|0:0|0:0,0:0:0:0:
151,354,128822,2,0,L|297:348,1,140,2|2,0:0|3:2,0:0:0:0:
365,295,129351,1,0,0:0:0:0:
365,295,129528,6,0,B|428:320|428:320|494:288,1,140,2|2,3:2|0:0,0:0:0:0:
502,197,130057,2,0,L|502:117,1,70,8|2,0:0|0:0,0:0:0:0:
414,100,130410,2,0,L|414:180,2,70,0|2|8,3:0|0:0|0:0,0:0:0:0:
327,69,130939,6,0,B|302:101|302:101|187:97,1,140,2|0,3:2|0:0,0:0:0:0:
136,41,131469,1,8,0:0:0:0:
136,41,131645,1,2,0:0:0:0:
70,105,131822,2,0,L|76:200,1,70,0|2,3:0|0:0,0:0:0:0:
29,254,132175,1,8,0:0:0:0:
91,319,132351,6,0,B|142:314|142:314|169:331|169:331|240:327,1,140,4|0,3:2|0:0,0:0:0:0:
288,261,132881,1,8,0:0:0:0:
288,261,133057,1,0,3:0:0:0:
221,199,133233,2,0,L|218:118,1,70,0|0,0:0|3:0,0:0:0:0:
216,37,133586,1,8,0:0:0:0:
295,80,133763,5,0,3:0:0:0:
459,1,134116,1,0,3:0:0:0:
450,186,134469,1,0,3:0:0:0:
450,186,134645,1,0,3:0:0:0:
216,37,135175,5,2,0:0:0:0:
34,17,135528,1,2,0:0:0:0:
106,188,135881,1,2,0:0:0:0:
106,188,136057,1,2,0:0:0:0:
106,188,136763,6,0,L|101:100,1,70
12,101,137116,2,0,L|17:189,1,70
24,265,137469,1,2,0:3:0:0:
24,265,137645,1,2,0:3:0:0:
32,359,137822,1,2,0:3:0:0:
32,359,137998,1,2,0:3:0:0:
132,354,138175,5,4,3:1:0:0:
239,356,138351,1,2,0:0:0:0:
239,356,138439,1,0,0:0:0:0:
239,356,138528,1,8,0:0:0:0:
313,289,138704,1,2,0:0:0:0:
259,210,138881,2,0,L|122:215,1,115.50000352478,0|0,3:0|0:0,0:0:0:0:
93,218,139233,1,8,0:0:0:0:
5,168,139410,6,0,B|-2:63|-2:63|12:84|40:98,1,154.000004699707,2|2,3:2|3:2,0:0:0:0:
97,16,139939,2,0,P|137:5|176:21,1,77.0000023498536,8|2,0:0|0:0,0:0:0:0:
237,96,140292,1,0,3:0:0:0:
237,96,140469,1,10,0:0:0:0:
311,29,140645,1,10,0:0:0:0:
311,29,140822,1,2,0:0:0:0:
394,83,140998,6,0,B|401:141|401:141|387:169|387:169|396:245,1,154.000004699707,0|8,3:0|0:0,0:0:0:0:
464,305,141528,1,2,0:0:0:0:
381,361,141704,2,0,B|353:331|353:331|229:335,1,154.000004699707,2|8,3:2|0:0,0:0:0:0:
150,379,142233,1,2,0:0:0:0:
78,308,142410,6,0,L|73:210,1,77.0000023498536,2|0,3:2|0:0,0:0:0:0:
26,142,142763,2,0,L|124:137,1,77.0000023498536,10|0,0:0|0:0,0:0:0:0:
179,73,143116,1,0,0:0:0:0:
101,10,143292,1,0,0:0:0:0:
101,10,143469,1,0,0:0:0:0:
158,201,143822,5,2,3:2:0:0:
257,201,143998,1,2,0:0:0:0:
257,201,144086,1,0,0:0:0:0:
257,201,144175,1,8,0:0:0:0:
330,132,144351,1,2,0:0:0:0:
280,44,144528,2,0,L|410:40,1,115.50000352478,0|0,3:0|0:0,0:0:0:0:
446,40,144881,1,8,0:0:0:0:
507,118,145057,6,0,L|512:283,1,154.000004699707,2|2,3:2|3:2,0:0:0:0:
454,351,145586,2,0,P|415:365|379:348,1,77.0000023498536,8|2,0:0|0:0,0:0:0:0:
311,274,145939,1,0,3:0:0:0:
315,278,146116,1,10,0:0:0:0:
246,350,146292,1,10,0:0:0:0:
246,350,146469,1,2,0:0:0:0:
170,284,146645,6,0,P|210:222|182:136,1,154.000004699707,0|8,3:0|0:0,0:0:0:0:
136,64,147175,1,2,0:0:0:0:
228,27,147351,2,0,L|316:27,1,77.0000023498536,2|0,3:2|0:0,0:0:0:0:
355,28,147616,1,0,0:0:0:0:
359,32,147704,2,0,L|447:32,1,77.0000023498536,10|0,0:0|0:0,0:0:0:0:
496,111,148057,5,2,3:2:0:0:
500,115,148233,1,2,0:0:0:0:
421,175,148410,1,8,0:0:0:0:
421,175,148586,1,2,0:0:0:0:
499,237,148763,1,0,3:0:0:0:
483,341,148939,1,0,1:0:0:0:
483,341,149028,1,0,1:0:0:0:
483,341,149116,1,8,0:0:0:0:
398,287,149292,1,8,1:0:0:0:
328,380,149469,5,4,3:2:0:0:
253,330,149645,1,2,0:0:0:0:
253,330,149733,1,0,0:0:0:0:
253,330,149822,1,8,0:0:0:0:
246,230,149998,1,2,0:0:0:0:
340,197,150175,2,0,L|339:64,1,115.50000352478,0|0,3:0|0:0,0:0:0:0:
337,31,150528,1,8,0:0:0:0:
246,73,150704,6,0,B|210:52|170:76|181:91|146:121|94:96,1,154.000004699707,2|2,3:2|3:2,0:0:0:0:
11,54,151233,2,0,L|17:153,1,77.0000023498536,8|2,0:0|0:0,0:0:0:0:
90,197,151586,1,0,3:0:0:0:
23,272,151763,1,10,0:0:0:0:
94,341,151939,1,10,0:0:0:0:
161,266,152116,1,10,0:0:0:0:
232,336,152292,6,0,L|325:332,1,77.0000023498536,0|0,3:0|0:0,0:0:0:0:
409,325,152645,2,0,L|502:321,1,77.0000023498536,8|0,0:0|0:0,0:0:0:0:
510,224,152998,2,0,L|417:228,1,77.0000023498536,2|0,3:2|0:0,0:0:0:0:
332,232,153351,1,8,0:0:0:0:
382,145,153528,1,2,0:0:0:0:
300,87,153704,6,0,L|304:0,2,77.0000023498536,2|0|10,3:2|0:0|0:0,0:0:0:0:
226,155,154233,2,0,B|176:152|176:152|141:173|141:173|53:170,1,154.000004699707,2|10,0:0|0:0,0:0:0:0:
10,245,154763,1,8,0:0:0:0:
10,245,154939,1,2,0:0:0:0:
72,323,155116,5,0,3:0:0:0:
179,331,155292,1,2,0:0:0:0:
179,331,155381,1,0,0:0:0:0:
179,331,155469,1,8,0:0:0:0:
257,272,155645,1,2,0:0:0:0:
341,327,155822,2,0,P|377:356|458:340,1,115.50000352478,0|0,3:0|0:0,0:0:0:0:
490,333,156175,1,8,0:0:0:0:
465,236,156351,6,0,B|472:129|472:129|432:161,1,154.000004699707,2|2,3:2|3:2,0:0:0:0:
338,182,156881,2,0,L|254:178,1,77.0000023498536,8|2,0:0|0:0,0:0:0:0:
192,250,157233,1,0,3:0:0:0:
192,250,157410,1,10,0:0:0:0:
120,188,157586,1,10,0:0:0:0:
120,188,157763,1,2,0:0:0:0:
190,116,157939,6,0,B|178:15|178:15|219:46,1,154.000004699707,0|8,3:0|0:0,0:0:0:0:
302,103,158469,1,2,0:0:0:0:
381,42,158645,2,0,B|422:10|422:10|410:111,1,154.000004699707,2|10,3:2|0:0,0:0:0:0:
474,189,159175,1,0,0:0:0:0:
418,271,159351,6,0,L|329:267,1,77.0000023498536,0|2,3:0|0:0,0:0:0:0:
274,342,159704,2,0,L|185:338,1,77.0000023498536,8|2,0:0|3:2,0:0:0:0:
140,269,160057,1,0,1:0:0:0:
140,269,160145,1,0,1:0:0:0:
140,269,160233,1,8,1:2:0:0:
213,200,160410,1,0,1:0:0:0:
143,128,160586,1,8,1:2:0:0:
204,60,160763,6,0,B|257:56|257:56|286:78|286:78|348:73,1,140,4|8,3:2|0:0,0:0:0:0:
400,8,161292,1,2,0:0:0:0:
466,70,161469,2,0,L|472:167,1,70,0|0,3:0|3:2,0:0:0:0:
509,222,161822,6,0,P|467:192|376:233,1,140,10|0,0:0|3:0,0:0:0:0:
347,297,162351,1,2,0:0:0:0:
278,236,162528,2,0,L|280:147,1,70,8|2,0:0|0:0,0:0:0:0:
221,103,162880,1,0,3:0:0:0:
221,103,163057,1,2,3:2:0:0:
149,159,163233,2,0,L|147:248,1,70,8|2,0:0|0:0,0:0:0:0:
148,320,163586,6,0,B|169:352|169:352|285:348,1,140,2|8,3:2|0:0,0:0:0:0:
347,297,164116,1,2,0:0:0:0:
420,350,164292,2,0,P|464:364|502:350,2,70,0|0|10,3:0|3:0|0:0,0:0:0:0:
347,297,164822,6,0,P|374:230|345:163,1,140,2|2,0:0|0:0,0:0:0:0:
275,118,165351,2,0,P|235:139|202:128,1,70,8|2,0:0|0:0,0:0:0:0:
144,73,165704,1,0,3:0:0:0:
84,141,165881,2,0,L|27:137,2,35,8|8|8,3:1|0:1|0:1,0:0:0:0:
151,216,166233,1,8,0:1:0:0:
151,216,166322,1,8,0:1:0:0:
151,216,166410,6,0,L|151:310,1,77.0000023498536,4|0,3:2|0:0,0:0:0:0:
215,370,166763,1,8,1:0:0:0:
296,311,166939,1,0,3:0:0:0:
379,366,167116,2,0,L|379:272,1,77.0000023498536,8|0,1:0|3:0,0:0:0:0:
448,216,167469,1,8,1:0:0:0:
384,139,167645,1,0,3:0:0:0:
437,54,167822,6,0,B|381:88|381:88|330:64,1,115.50000352478,8|0,1:0|0:0,0:0:0:0:
293,39,168175,1,8,1:0:0:0:
222,109,168351,1,0,0:3:0:0:
297,175,168528,2,0,L|297:258,1,77.0000023498536,0|0,1:0|1:0,0:0:0:0:
230,327,168881,1,8,1:0:0:0:
230,327,168969,1,8,1:0:0:0:
230,327,169057,1,8,1:0:0:0:
157,266,169233,5,0,3:0:0:0:
157,266,169939,5,0,3:0:0:0:
25,364,170292,1,2,0:0:0:0:
15,200,170645,1,2,0:0:0:0:
