osu file format v14

[General]
AudioFilename: audio.mp3
AudioLeadIn: 0
PreviewTime: 35569
Countdown: 0
SampleSet: Normal
StackLeniency: 0.7
Mode: 1
LetterboxInBreaks: 0
WidescreenStoryboard: 1

[Editor]
Bookmarks: 12010,13422,24716,36010,47304,58598,69892,81186,92480,102010,103775,126363,137657
DistanceSpacing: 0.6
BeatDivisor: 1
GridSize: 16
TimelineZoom: 1.4

[Metadata]
Title:Good-bye sengen
TitleUnicode:グッバイ宣言
Artist:Chinozo
ArtistUnicode:Chinozo
Creator:6_6
Version:Futsuu
Source:
Tags:japanese pop jpop j-pop さんかくずわり sankaku zuwari goodbye declaration 引き籠り hikikomori FusRoYay vocaloid ボーカロイド vocasynth v-flower vflower female vocal
BeatmapID:3492228
BeatmapSetID:1709032

[Difficulty]
HPDrainRate:7
CircleSize:2
OverallDifficulty:4
ApproachRate:10
SliderMultiplier:1.4
SliderTickRate:1

[Events]
//Background and Video events
0,0,"bg.jpg",0,65
//Break Periods
//Storyboard Layer 0 (Background)
//Storyboard Layer 1 (Fail)
//Storyboard Layer 2 (Pass)
//Storyboard Layer 3 (Foreground)
//Storyboard Layer 4 (Overlay)
//Storyboard Sound Samples

[TimingPoints]
-3519,352.941176470588,4,1,0,60,1,0
539,-100,4,1,0,40,0,0
1245,-100,4,1,0,60,0,0
2039,-100,4,1,0,75,0,0
2216,-100,4,1,0,60,0,0
6980,-100,4,1,0,65,0,0
7598,-100,4,1,0,65,0,0
7863,-100,4,1,0,60,0,0
12628,-100,4,1,0,45,0,0
13245,-100,4,1,0,55,0,0
13598,-100,4,1,0,50,0,0
18980,-100,4,1,0,60,0,0
19157,-100,4,1,0,50,0,0
19686,-100,4,1,0,60,0,0
19863,-100,4,1,0,50,0,0
20392,-100,4,1,0,60,0,0
20569,-100,4,1,0,50,0,0
24186,-100,4,1,0,50,0,0
24539,-100,4,1,0,60,0,0
24804,-100,4,1,0,50,0,0
25157,-100,4,1,0,60,0,0
25333,-100,4,1,0,50,0,0
25686,-100,4,1,0,60,0,0
25951,-100,4,1,0,50,0,0
27451,-100,4,1,0,60,0,0
27583,-100,4,1,0,55,0,0
27672,-100,4,1,0,50,0,0
27981,-100,4,1,0,60,0,0
28113,-100,4,1,0,55,0,0
28201,-100,4,1,0,50,0,0
28510,-100,4,1,0,60,0,0
28775,-100,4,1,0,50,0,0
29657,-100,4,1,0,50,0,0
29745,-100,4,1,0,50,0,0
29833,-100,4,1,0,50,0,0
29922,-100,4,1,0,50,0,0
30010,-100,4,1,0,50,0,0
30098,-100,4,1,0,50,0,0
30186,-100,4,1,0,50,0,0
30275,-100,4,1,0,50,0,0
30363,-100,4,1,0,50,0,0
32128,-100,4,1,0,50,0,0
32216,-100,4,1,0,50,0,0
32304,-100,4,1,0,50,0,0
32392,-100,4,1,0,50,0,0
32480,-100,4,1,0,50,0,0
32569,-100,4,1,0,50,0,0
32657,-100,4,1,0,50,0,0
32745,-100,4,1,0,50,0,0
32833,-100,4,1,0,50,0,0
32922,-100,4,1,0,50,0,0
33010,-100,4,1,0,65,0,0
33186,-100,4,1,0,60,0,0
33363,-100,4,1,0,60,0,0
33451,-100,4,1,0,60,0,0
33539,-100,4,1,0,60,0,0
33628,-100,4,1,0,60,0,0
33716,-100,4,1,0,60,0,0
33804,-100,4,1,0,60,0,0
33892,-100,4,1,0,60,0,0
33980,-100,4,1,0,60,0,0
34069,-100,4,1,0,60,0,0
34157,-100,4,1,0,60,0,0
34245,-100,4,1,0,60,0,0
34333,-100,4,1,0,65,0,0
34422,-100,4,1,0,65,0,0
35392,-100,4,1,0,50,0,0
35745,-100,4,1,0,65,0,0
35922,-100,4,1,0,85,0,0
36010,-100,4,1,0,85,0,1
36098,-100,4,1,0,75,0,1
58157,-100,4,1,0,75,0,1
58333,-100,4,1,0,75,0,1
58510,-100,4,1,0,70,0,1
58598,-100,4,1,0,70,0,0
58686,-100,4,1,0,65,0,0
59039,-100,4,1,0,70,0,0
59216,-100,4,1,0,65,0,0
59569,-100,4,1,0,70,0,0
59745,-100,4,1,0,65,0,0
61333,-100,4,1,0,70,0,0
61466,-100,4,1,0,65,0,0
61862,-100,4,1,0,70,0,0
62039,-100,4,1,0,65,0,0
62392,-100,4,1,0,70,0,0
62833,-100,4,1,0,65,0,0
66980,-100,4,1,0,75,0,0
67069,-100,4,1,0,75,0,0
67245,-100,4,1,0,40,0,0
67598,-100,4,1,0,65,0,0
67951,-100,4,1,0,60,0,0
68304,-100,4,1,0,65,0,0
68657,-100,4,1,0,30,0,0
69804,-100,4,1,0,60,0,0
74745,-100,4,1,0,65,0,0
75363,-100,4,1,0,65,0,0
75628,-100,4,1,0,60,0,0
80392,-100,4,1,0,60,0,0
81098,-100,4,1,0,60,0,0
81363,-100,4,1,0,50,0,0
86745,-100,4,1,0,60,0,0
86922,-100,4,1,0,50,0,0
87451,-100,4,1,0,60,0,0
87628,-100,4,1,0,50,0,0
88157,-100,4,1,0,60,0,0
88334,-100,4,1,0,50,0,0
92304,-100,4,1,0,60,0,0
92569,-100,4,1,0,50,0,0
92922,-100,4,1,0,60,0,0
93098,-100,4,1,0,50,0,0
93451,-100,4,1,0,60,0,0
93716,-100,4,1,0,50,0,0
95216,-100,4,1,0,60,0,0
95348,-100,4,1,0,55,0,0
95437,-100,4,1,0,50,0,0
95746,-100,4,1,0,60,0,0
95878,-100,4,1,0,55,0,0
95966,-100,4,1,0,50,0,0
96275,-100,4,1,0,60,0,0
96540,-100,4,1,0,50,0,0
98039,-100,4,1,0,65,0,0
98216,-100,4,1,0,60,0,0
100863,-100,4,1,0,60,0,0
102275,-100,4,1,0,60,0,0
102319,-100,4,1,0,65,0,0
102363,-100,4,1,0,65,0,0
102451,-100,4,1,0,65,0,0
102539,-100,4,1,0,65,0,0
102628,-100,4,1,0,65,0,0
102716,-100,4,1,0,65,0,0
102804,-100,4,1,0,65,0,0
102892,-100,4,1,0,65,0,0
102980,-100,4,1,0,65,0,0
103069,-100,4,1,0,65,0,0
103157,-100,4,1,0,65,0,0
103245,-100,4,1,0,65,0,0
103333,-100,4,1,0,65,0,0
103422,-100,4,1,0,65,0,0
103510,-100,4,1,0,65,0,0
103598,-100,4,1,0,65,0,0
103686,-100,4,1,0,70,0,0
103775,-100,4,1,0,70,0,0
103951,-100,4,1,0,50,0,0
114275,-100,4,1,0,60,0,0
114363,-100,4,1,0,61,0,0
114451,-100,4,1,0,63,0,0
114539,-100,4,1,0,64,0,0
114628,-100,4,1,0,66,0,0
114716,-100,4,1,0,67,0,0
114804,-100,4,1,0,69,0,0
114892,-100,4,1,0,70,0,0
114980,-100,4,1,0,75,0,0
115069,-100,4,1,0,75,0,0
115245,-100,4,1,0,60,0,0
119304,-100,4,1,0,60,0,0
120010,-100,4,1,0,60,0,0
120098,-100,4,1,0,60,0,0
120275,-100,4,1,0,60,0,0
120451,-100,4,1,0,60,0,0
120628,-100,4,1,0,65,0,0
120804,-100,4,1,0,60,0,0
121157,-100,4,1,0,65,0,0
121333,-100,4,1,0,60,0,0
121686,-100,4,1,0,65,0,0
121862,-100,4,1,0,60,0,0
122216,-100,4,1,0,65,0,0
122789,-100,4,1,0,60,0,0
122965,-100,4,1,0,60,0,0
123142,-100,4,1,0,65,0,0
123318,-100,4,1,0,60,0,0
123451,-100,4,1,0,60,0,0
123893,-100,4,1,0,60,0,0
124907,-100,4,1,0,65,0,0
125128,-100,4,1,0,65,0,0
125216,-100,4,1,0,65,0,0
125304,-100,4,1,0,65,0,0
125392,-100,4,1,0,65,0,0
125480,-100,4,1,0,65,0,0
125569,-100,4,1,0,65,0,0
125657,-100,4,1,0,65,0,0
125745,-100,4,1,0,65,0,0
125833,-100,4,1,0,65,0,0
125922,-100,4,1,0,65,0,0
126010,-100,4,1,0,65,0,0
126098,-100,4,1,0,65,0,0
126186,-100,4,1,0,65,0,0
126275,-100,4,1,0,65,0,0
126363,-100,4,1,0,65,0,0
126539,-100,4,1,0,55,0,0
131216,-100,4,1,0,65,0,0
131304,-100,4,1,0,65,0,0
131392,-100,4,1,0,60,0,0
131480,-100,4,1,0,60,0,0
131657,-100,4,1,0,60,0,0
131745,-100,4,1,0,70,0,0
131833,-100,4,1,0,70,0,0
132010,-100,4,1,0,65,0,0
132186,-100,4,1,0,65,0,0
132363,-100,4,1,0,65,0,0
132539,-100,4,1,0,65,0,0
132716,-100,4,1,0,65,0,0
132892,-100,4,1,0,65,0,0
133069,-100,4,1,0,65,0,0
133157,-100,4,1,0,75,0,0
134480,-100,4,1,0,35,0,0
136069,-100,4,1,0,45,0,0
136510,-100,4,1,0,50,0,0
136863,-100,4,1,0,55,0,0
137039,-100,4,1,0,60,0,0
137216,-100,4,1,0,65,0,0
137392,-100,4,1,0,70,0,0
137569,-100,4,1,0,90,0,0
137657,-100,4,1,0,90,0,1
137745,-100,4,1,0,80,0,1
160157,-100,4,1,0,80,0,1
160245,-100,4,1,0,80,0,0
160333,-100,4,1,0,75,0,0
160686,-100,4,1,0,80,0,0
160863,-100,4,1,0,75,0,0
161260,-100,4,1,0,80,0,0
161392,-100,4,1,0,75,0,0
162980,-100,4,1,0,80,0,0
163113,-100,4,1,0,75,0,0
163509,-100,4,1,0,80,0,0
163642,-100,4,1,0,75,0,0
164039,-100,4,1,0,80,0,0
164172,-100,4,1,0,75,0,0
164436,-100,4,1,0,85,0,0
164525,-100,4,1,0,75,0,0
165804,-100,4,1,0,85,0,0
165892,-100,4,1,0,85,0,1
166069,-100,4,1,0,80,0,1
168628,-100,4,1,0,75,0,1
168716,-100,4,1,0,75,0,0
168892,-100,4,1,0,65,0,0
169245,-100,4,1,0,75,0,0
169598,-100,4,1,0,65,0,0
169951,-100,4,1,0,35,0,0

[HitObjects]
256,192,716,5,2,0:0:0:0:
256,192,1069,1,2,0:0:0:0:
256,192,1422,1,0,0:0:0:0:
256,192,1598,1,0,0:0:0:0:
256,192,1775,1,2,0:0:0:0:
272,192,2128,1,6,0:0:0:0:
272,192,2480,1,0,0:0:0:0:
256,192,2657,1,0,0:0:0:0:
256,192,3186,1,2,0:0:0:0:
272,192,3539,1,0,0:0:0:0:
256,192,3716,1,0,0:0:0:0:
256,192,4069,1,0,0:0:0:0:
256,192,4245,1,2,0:0:0:0:
256,192,4422,1,0,0:0:0:0:
272,192,4598,1,0,0:0:0:0:
256,176,4951,1,2,0:0:0:0:
272,192,5304,1,0,0:0:0:0:
256,176,5480,1,0,0:0:0:0:
256,176,6010,1,2,0:0:0:0:
256,192,6186,1,0,0:0:0:0:
256,176,6363,1,2,0:0:0:0:
256,192,6539,1,0,0:0:0:0:
272,192,6716,1,0,0:0:0:0:
256,176,7069,1,2,0:0:0:0:
256,176,7775,1,6,0:0:0:0:
256,192,8128,1,0,0:0:0:0:
256,176,8304,1,0,0:0:0:0:
256,176,8833,1,2,0:0:0:0:
256,192,9186,1,0,0:0:0:0:
256,176,9363,1,0,0:0:0:0:
256,192,9716,1,0,0:0:0:0:
256,176,9892,1,2,0:0:0:0:
256,192,10069,1,0,0:0:0:0:
256,176,10245,1,0,0:0:0:0:
256,176,10598,1,2,0:0:0:0:
256,192,10951,1,0,0:0:0:0:
256,176,11128,1,0,0:0:0:0:
256,176,11657,1,2,0:0:0:0:
256,192,11833,1,0,0:0:0:0:
256,176,12010,1,2,0:0:0:0:
256,192,12186,1,0,0:0:0:0:
256,176,12363,1,0,0:0:0:0:
256,192,12716,1,0,0:0:0:0:
256,176,13422,1,2,0:0:0:0:
256,176,13951,1,0,0:0:0:0:
256,176,14480,1,2,0:0:0:0:
256,176,15010,1,0,0:0:0:0:
256,176,15539,1,2,0:0:0:0:
256,192,15716,1,2,0:0:0:0:
256,176,15892,1,2,0:0:0:0:
256,176,16245,1,0,0:0:0:0:
256,176,16775,1,0,0:0:0:0:
256,192,17128,1,2,0:0:0:0:
272,176,17304,1,2,0:0:0:0:
272,176,18010,1,0,0:0:0:0:
272,176,18186,1,0,0:0:0:0:
272,176,18363,1,2,0:0:0:0:
272,176,18716,1,2,0:0:0:0:
272,176,19069,1,4,0:0:0:0:
256,192,19598,1,2,0:0:0:0:
272,176,19775,1,0,0:0:0:0:
256,192,20304,1,2,0:0:0:0:
272,176,20480,1,0,0:0:0:0:
256,192,21186,1,0,0:0:0:0:
256,192,21363,1,0,0:0:0:0:
272,192,21539,1,0,0:0:0:0:
256,192,21716,1,0,0:0:0:0:
272,192,21892,1,2,0:0:0:0:
256,192,22245,1,0,0:0:0:0:
272,192,22598,1,2,0:0:0:0:
256,192,22951,1,2,0:0:0:0:
256,192,23304,1,0,0:0:0:0:
272,192,23657,1,2,0:0:0:0:
256,192,24010,1,0,0:0:0:0:
256,192,24716,1,6,0:0:0:0:
256,192,25245,1,6,0:0:0:0:
256,192,25775,1,6,0:0:0:0:
256,192,26480,1,0,0:0:0:0:
256,192,26833,1,2,0:0:0:0:
256,192,27010,1,2,0:0:0:0:
256,192,27186,1,0,0:0:0:0:
256,192,27539,1,4,0:0:0:0:
256,192,28069,1,6,0:0:0:0:
256,192,28598,1,4,0:0:0:0:
256,192,29304,1,2,0:0:0:0:
256,192,29480,1,0,0:0:0:0:
256,192,29657,1,2,0:0:0:0:
256,192,29833,1,2,0:0:0:0:
256,192,30010,1,2,0:0:0:0:
256,192,30363,1,4,0:0:0:0:
256,192,30892,1,2,0:0:0:0:
256,192,31069,1,0,0:0:0:0:
256,192,31598,1,2,0:0:0:0:
256,192,31775,1,0,0:0:0:0:
256,192,32480,1,0,0:0:0:0:
256,192,33010,1,6,0:0:0:0:
256,192,33539,1,2,0:0:0:0:
256,192,33892,1,0,0:0:0:0:
256,192,34245,1,0,0:0:0:0:
240,192,34422,1,6,0:0:0:0:
256,192,34775,1,6,0:0:0:0:
256,192,35128,1,6,0:0:0:0:
256,192,35304,1,6,0:0:0:0:
256,192,36010,1,4,0:0:0:0:
256,192,36363,1,0,0:0:0:0:
256,192,36716,1,2,0:0:0:0:
256,192,37069,1,0,0:0:0:0:
256,192,37245,1,0,0:0:0:0:
256,192,37598,1,0,0:0:0:0:
272,192,37775,1,0,0:0:0:0:
272,192,38128,1,2,0:0:0:0:
272,192,38480,1,2,0:0:0:0:
272,192,38657,1,0,0:0:0:0:
272,192,38833,1,0,0:0:0:0:
272,192,39363,1,2,0:0:0:0:
272,192,39539,1,0,0:0:0:0:
272,192,40069,1,2,0:0:0:0:
272,192,40245,1,0,0:0:0:0:
272,192,40598,1,0,0:0:0:0:
272,192,40951,1,2,0:0:0:0:
256,192,41657,1,4,0:0:0:0:
256,192,42010,1,2,0:0:0:0:
256,192,42186,1,2,0:0:0:0:
256,192,42363,1,2,0:0:0:0:
272,192,42716,1,0,0:0:0:0:
256,192,42892,1,0,0:0:0:0:
256,192,43245,1,0,0:0:0:0:
272,192,43422,1,0,0:0:0:0:
272,192,43775,1,2,0:0:0:0:
272,192,44127,1,2,0:0:0:0:
256,192,44304,1,0,0:0:0:0:
272,192,44480,1,0,0:0:0:0:
272,192,45010,1,2,0:0:0:0:
272,192,45186,1,2,0:0:0:0:
272,192,45539,1,2,0:0:0:0:
272,192,45892,1,0,0:0:0:0:
272,192,46069,1,0,0:0:0:0:
272,192,46245,1,0,0:0:0:0:
256,192,46422,1,0,0:0:0:0:
272,192,46598,1,2,0:0:0:0:
256,192,47304,1,4,0:0:0:0:
256,192,47657,1,0,0:0:0:0:
256,192,48010,1,2,0:0:0:0:
272,192,48363,1,0,0:0:0:0:
256,192,48539,1,0,0:0:0:0:
256,192,48892,1,0,0:0:0:0:
272,192,49069,1,0,0:0:0:0:
272,192,49422,1,2,0:0:0:0:
272,192,49774,1,2,0:0:0:0:
256,192,49951,1,0,0:0:0:0:
272,192,50127,1,0,0:0:0:0:
272,192,50657,1,2,0:0:0:0:
272,192,50833,1,0,0:0:0:0:
272,192,51363,1,2,0:0:0:0:
272,192,51539,1,0,0:0:0:0:
272,192,51892,1,0,0:0:0:0:
272,192,52245,1,2,0:0:0:0:
256,192,52951,1,4,0:0:0:0:
256,192,53304,1,2,0:0:0:0:
256,192,53480,1,2,0:0:0:0:
256,192,53657,1,2,0:0:0:0:
272,192,54010,1,0,0:0:0:0:
256,192,54186,1,0,0:0:0:0:
256,192,54539,1,0,0:0:0:0:
272,192,54716,1,0,0:0:0:0:
272,192,55069,1,2,0:0:0:0:
272,192,55421,1,2,0:0:0:0:
256,192,55598,1,0,0:0:0:0:
272,192,55774,1,0,0:0:0:0:
272,192,56304,1,2,0:0:0:0:
272,192,56480,1,2,0:0:0:0:
272,192,56833,1,2,0:0:0:0:
272,192,57186,1,2,0:0:0:0:
256,192,57363,1,2,0:0:0:0:
272,192,57539,1,0,0:0:0:0:
256,192,57716,1,0,0:0:0:0:
272,192,57892,1,2,0:0:0:0:
256,192,58598,1,0,0:0:0:0:
256,192,59128,1,2,0:0:0:0:
256,192,59657,1,0,0:0:0:0:
256,192,60186,1,0,0:0:0:0:
256,192,60363,1,2,0:0:0:0:
256,192,60539,1,0,0:0:0:0:
256,192,60716,1,2,0:0:0:0:
256,192,61069,1,0,0:0:0:0:
256,192,61422,1,0,0:0:0:0:
256,192,61951,1,2,0:0:0:0:
256,192,62480,1,2,0:0:0:0:
256,192,62657,1,2,0:0:0:0:
240,192,63010,1,2,0:0:0:0:
256,192,63186,1,0,0:0:0:0:
256,192,63363,1,0,0:0:0:0:
256,192,63539,1,2,0:0:0:0:
256,192,63892,1,0,0:0:0:0:
256,192,64245,1,0,0:0:0:0:
256,192,64775,1,2,0:0:0:0:
256,192,65304,1,0,0:0:0:0:
256,192,65833,1,0,0:0:0:0:
256,192,66010,1,0,0:0:0:0:
256,192,66186,1,2,0:0:0:0:
256,192,66363,1,2,0:0:0:0:
256,192,66716,1,0,0:0:0:0:
256,192,67069,1,0,0:0:0:0:
256,192,67775,1,2,0:0:0:0:
256,192,68128,1,2,0:0:0:0:
256,192,68480,1,0,0:0:0:0:
256,208,69186,1,0,0:0:0:0:
256,192,69539,1,0,0:0:0:0:
272,192,69892,1,6,0:0:0:0:
272,192,70244,1,0,0:0:0:0:
256,192,70421,1,0,0:0:0:0:
256,192,70950,1,2,0:0:0:0:
272,192,71303,1,0,0:0:0:0:
256,192,71480,1,0,0:0:0:0:
256,192,71833,1,0,0:0:0:0:
256,192,72009,1,2,0:0:0:0:
256,192,72186,1,0,0:0:0:0:
272,192,72362,1,0,0:0:0:0:
256,176,72715,1,2,0:0:0:0:
272,192,73068,1,0,0:0:0:0:
256,176,73244,1,0,0:0:0:0:
256,176,73774,1,2,0:0:0:0:
256,192,73950,1,0,0:0:0:0:
256,176,74127,1,2,0:0:0:0:
256,192,74303,1,0,0:0:0:0:
272,192,74480,1,0,0:0:0:0:
256,176,74833,1,2,0:0:0:0:
256,176,75539,1,6,0:0:0:0:
256,192,75892,1,0,0:0:0:0:
256,176,76068,1,0,0:0:0:0:
256,176,76597,1,2,0:0:0:0:
256,192,76950,1,0,0:0:0:0:
256,176,77127,1,0,0:0:0:0:
256,192,77480,1,0,0:0:0:0:
256,176,77656,1,2,0:0:0:0:
256,192,77833,1,0,0:0:0:0:
256,176,78009,1,0,0:0:0:0:
256,176,78362,1,2,0:0:0:0:
256,192,78715,1,0,0:0:0:0:
256,176,78892,1,0,0:0:0:0:
256,176,79421,1,2,0:0:0:0:
256,192,79597,1,0,0:0:0:0:
256,176,79774,1,2,0:0:0:0:
256,192,79950,1,0,0:0:0:0:
256,176,80127,1,0,0:0:0:0:
256,192,80480,1,0,0:0:0:0:
256,176,81186,5,2,0:0:0:0:
256,176,81715,1,0,0:0:0:0:
256,176,82244,1,2,0:0:0:0:
256,176,82774,1,0,0:0:0:0:
256,176,83303,1,2,0:0:0:0:
272,176,83480,1,0,0:0:0:0:
256,176,83657,1,2,0:0:0:0:
256,176,84010,1,0,0:0:0:0:
256,176,84539,1,0,0:0:0:0:
272,176,84892,1,0,0:0:0:0:
272,176,85069,1,2,0:0:0:0:
272,176,85598,1,2,0:0:0:0:
272,176,85774,1,2,0:0:0:0:
272,176,86127,1,2,0:0:0:0:
272,176,86480,1,0,0:0:0:0:
272,176,86833,1,4,0:0:0:0:
256,192,87363,1,2,0:0:0:0:
272,176,87539,1,0,0:0:0:0:
256,192,88069,1,2,0:0:0:0:
272,176,88244,1,0,0:0:0:0:
256,192,88950,1,0,0:0:0:0:
256,208,89128,1,0,0:0:0:0:
272,192,89304,1,2,0:0:0:0:
272,192,89656,1,2,0:0:0:0:
272,192,90010,1,0,0:0:0:0:
272,192,90362,1,2,0:0:0:0:
272,192,90716,1,0,0:0:0:0:
272,192,90892,1,2,0:0:0:0:
256,192,91068,1,0,0:0:0:0:
256,208,91245,1,0,0:0:0:0:
272,192,91421,1,2,0:0:0:0:
256,192,91774,1,0,0:0:0:0:
256,192,91951,1,0,0:0:0:0:
272,192,92128,1,0,0:0:0:0:
256,192,92480,1,6,0:0:0:0:
256,192,93009,1,6,0:0:0:0:
256,192,93539,1,6,0:0:0:0:
256,192,94069,1,2,0:0:0:0:
256,192,94244,1,0,0:0:0:0:
256,192,94422,1,0,0:0:0:0:
256,192,94597,1,2,0:0:0:0:
256,192,94950,1,0,0:0:0:0:
256,192,95303,1,4,0:0:0:0:
256,192,95833,1,6,0:0:0:0:
256,192,96362,1,4,0:0:0:0:
256,192,96892,1,0,0:0:0:0:
256,192,97068,1,2,0:0:0:0:
256,192,97245,1,0,0:0:0:0:
256,192,97421,1,0,0:0:0:0:
256,192,97598,1,2,0:0:0:0:
256,192,97774,1,2,0:0:0:0:
256,192,98127,1,4,0:0:0:0:
256,192,98833,1,2,0:0:0:0:
256,192,99186,1,2,0:0:0:0:
256,192,99539,1,0,0:0:0:0:
256,192,99716,1,0,0:0:0:0:
256,192,99892,1,2,0:0:0:0:
256,192,100245,1,0,0:0:0:0:
256,192,100598,1,0,0:0:0:0:
272,192,100951,1,0,0:0:0:0:
272,192,101304,1,0,0:0:0:0:
256,192,101480,1,0,0:0:0:0:
272,192,101657,1,2,0:0:0:0:
272,192,102010,1,0,0:0:0:0:
272,192,102363,1,2,0:0:0:0:
256,192,102539,1,2,0:0:0:0:
256,192,102716,1,0,0:0:0:0:
256,192,102892,1,0,0:0:0:0:
272,192,103069,1,2,0:0:0:0:
256,192,103422,1,2,0:0:0:0:
272,192,103775,1,4,0:0:0:0:
272,192,104480,1,0,0:0:0:0:
272,192,105186,1,0,0:0:0:0:
256,192,105892,1,0,0:0:0:0:
256,192,106069,1,2,0:0:0:0:
256,192,106245,1,2,0:0:0:0:
256,192,106598,1,0,0:0:0:0:
256,192,107304,1,0,0:0:0:0:
256,192,108010,1,0,0:0:0:0:
256,192,108186,1,2,0:0:0:0:
256,192,108363,1,0,0:0:0:0:
256,192,108539,1,0,0:0:0:0:
256,192,108716,1,2,0:0:0:0:
256,176,109069,1,2,0:0:0:0:
256,192,109245,1,0,0:0:0:0:
256,192,109422,1,0,0:0:0:0:
256,192,110128,1,0,0:0:0:0:
256,176,110833,1,0,0:0:0:0:
256,192,111010,1,0,0:0:0:0:
256,192,111186,1,0,0:0:0:0:
256,176,111539,1,2,0:0:0:0:
256,192,111716,1,2,0:0:0:0:
240,176,111892,1,2,0:0:0:0:
256,192,112245,1,0,0:0:0:0:
256,192,112598,1,2,0:0:0:0:
256,192,112951,1,0,0:0:0:0:
256,192,113657,1,0,0:0:0:0:
256,192,113833,1,2,0:0:0:0:
256,192,114010,1,2,0:0:0:0:
256,192,114363,1,0,0:0:0:0:
256,192,114716,1,0,0:0:0:0:
256,192,115069,1,6,0:0:0:0:
256,192,115775,1,2,0:0:0:0:
256,192,115951,1,0,0:0:0:0:
256,192,116128,1,0,0:0:0:0:
256,192,116480,1,0,0:0:0:0:
256,192,116657,1,0,0:0:0:0:
256,192,116833,1,2,0:0:0:0:
256,192,117010,1,0,0:0:0:0:
256,192,117186,1,2,0:0:0:0:
256,192,117539,1,0,0:0:0:0:
256,192,117892,1,2,0:0:0:0:
256,192,118069,1,2,0:0:0:0:
256,192,118245,1,0,0:0:0:0:
256,192,118598,1,2,0:0:0:0:
256,192,118951,1,2,0:0:0:0:
256,192,119128,1,2,0:0:0:0:
256,192,119657,1,0,0:0:0:0:
256,192,120010,1,2,0:0:0:0:
256,192,120363,1,2,0:0:0:0:
256,192,120716,1,0,0:0:0:0:
256,192,121069,1,0,0:0:0:0:
256,192,121245,1,0,0:0:0:0:
256,192,121775,1,2,0:0:0:0:
256,192,122128,1,0,0:0:0:0:
256,192,122304,1,0,0:0:0:0:
256,192,122657,1,2,0:0:0:0:
256,192,123010,1,0,0:0:0:0:
256,192,123186,1,2,0:0:0:0:
256,192,123539,1,0,0:0:0:0:
240,192,123716,1,2,0:0:0:0:
256,192,124245,1,2,0:0:0:0:
256,192,124598,1,2,0:0:0:0:
256,192,124951,1,0,0:0:0:0:
256,192,125128,1,0,0:0:0:0:
256,192,125480,1,0,0:0:0:0:
256,192,125657,1,0,0:0:0:0:
256,192,126010,1,0,0:0:0:0:
256,192,126363,1,6,0:0:0:0:
256,192,127069,1,2,0:0:0:0:
256,192,127422,1,2,0:0:0:0:
256,192,127775,1,0,0:0:0:0:
256,192,127951,1,2,0:0:0:0:
256,192,128128,1,0,0:0:0:0:
256,192,128304,1,2,0:0:0:0:
256,192,128657,1,2,0:0:0:0:
240,192,128834,1,2,0:0:0:0:
256,192,129010,1,0,0:0:0:0:
256,192,129186,1,0,0:0:0:0:
256,192,129539,1,0,0:0:0:0:
256,192,129716,1,0,0:0:0:0:
256,192,129892,1,2,0:0:0:0:
256,192,130245,1,0,0:0:0:0:
256,192,130422,1,2,0:0:0:0:
272,192,130775,1,2,0:0:0:0:
256,192,130951,1,2,0:0:0:0:
256,192,131128,1,0,0:0:0:0:
272,192,131304,1,2,0:0:0:0:
256,192,131833,1,4,0:0:0:0:
256,192,132363,1,2,0:0:0:0:
256,192,132716,1,2,0:0:0:0:
256,192,133069,1,2,0:0:0:0:
256,192,133245,1,4,0:0:0:0:
256,192,133598,1,4,0:0:0:0:
256,192,133951,1,4,0:0:0:0:
256,192,134128,1,4,0:0:0:0:
256,192,134657,2,6,L|368:192,5,70
256,192,136245,1,0,0:0:0:0:
256,192,136598,1,0,0:0:0:0:
256,192,136951,1,2,0:0:0:0:
256,192,137128,1,2,0:0:0:0:
256,192,137304,1,2,0:0:0:0:
256,192,137657,1,4,0:0:0:0:
256,192,138010,1,2,0:0:0:0:
256,192,138363,1,2,0:0:0:0:
256,192,138716,1,0,0:0:0:0:
256,192,138892,1,0,0:0:0:0:
256,192,139245,1,0,0:0:0:0:
272,192,139422,1,0,0:0:0:0:
272,192,139775,1,2,0:0:0:0:
272,192,140127,1,2,0:0:0:0:
272,192,140304,1,2,0:0:0:0:
272,192,140480,1,0,0:0:0:0:
272,192,141010,1,2,0:0:0:0:
272,192,141186,1,0,0:0:0:0:
272,192,141716,1,2,0:0:0:0:
272,192,141892,1,0,0:0:0:0:
272,192,142245,1,0,0:0:0:0:
272,192,142598,1,2,0:0:0:0:
256,192,143304,1,4,0:0:0:0:
256,192,143657,1,2,0:0:0:0:
256,192,143833,1,2,0:0:0:0:
256,192,144010,1,2,0:0:0:0:
272,192,144363,1,2,0:0:0:0:
256,192,144539,1,0,0:0:0:0:
256,192,144892,1,0,0:0:0:0:
272,192,145069,1,0,0:0:0:0:
272,192,145422,1,2,0:0:0:0:
272,192,145774,1,2,0:0:0:0:
256,192,145951,1,0,0:0:0:0:
272,192,146127,1,0,0:0:0:0:
272,192,146657,1,2,0:0:0:0:
272,192,146833,1,2,0:0:0:0:
272,192,147186,1,2,0:0:0:0:
272,192,147539,1,0,0:0:0:0:
272,192,147716,1,0,0:0:0:0:
272,192,147892,1,2,0:0:0:0:
256,192,148069,1,2,0:0:0:0:
272,192,148245,1,0,0:0:0:0:
256,192,148951,1,4,0:0:0:0:
256,192,149304,1,2,0:0:0:0:
256,192,149657,1,2,0:0:0:0:
272,192,150010,1,0,0:0:0:0:
256,192,150186,1,0,0:0:0:0:
256,192,150539,1,0,0:0:0:0:
272,192,150716,1,0,0:0:0:0:
272,192,151069,1,2,0:0:0:0:
272,192,151245,1,0,0:0:0:0:
272,192,151421,1,2,0:0:0:0:
256,192,151598,1,0,0:0:0:0:
272,192,151774,1,2,0:0:0:0:
272,192,152128,1,2,0:0:0:0:
272,192,152480,1,0,0:0:0:0:
272,192,153010,1,2,0:0:0:0:
272,192,153186,1,0,0:0:0:0:
272,192,153363,1,0,0:0:0:0:
272,192,153539,1,2,0:0:0:0:
256,192,153716,1,0,0:0:0:0:
272,192,153892,1,2,0:0:0:0:
256,192,154245,1,2,0:0:0:0:
256,192,154598,1,4,0:0:0:0:
256,192,154951,1,2,0:0:0:0:
256,192,155127,1,2,0:0:0:0:
256,192,155304,1,2,0:0:0:0:
272,192,155657,1,0,0:0:0:0:
256,192,155833,1,0,0:0:0:0:
256,192,156186,1,0,0:0:0:0:
272,192,156363,1,0,0:0:0:0:
272,192,156716,1,2,0:0:0:0:
272,192,157068,1,2,0:0:0:0:
256,192,157245,1,0,0:0:0:0:
272,192,157421,1,0,0:0:0:0:
272,192,157951,1,2,0:0:0:0:
272,192,158127,1,2,0:0:0:0:
272,192,158480,1,2,0:0:0:0:
272,192,158833,1,2,0:0:0:0:
256,192,159010,1,2,0:0:0:0:
272,192,159186,1,0,0:0:0:0:
256,192,159363,1,0,0:0:0:0:
272,192,159539,1,2,0:0:0:0:
256,192,160245,1,0,0:0:0:0:
256,192,160775,1,2,0:0:0:0:
256,192,161304,1,0,0:0:0:0:
256,192,161833,1,0,0:0:0:0:
256,192,162010,1,2,0:0:0:0:
256,192,162186,1,0,0:0:0:0:
256,192,162363,1,2,0:0:0:0:
256,192,162716,1,0,0:0:0:0:
256,192,163069,1,0,0:0:0:0:
256,192,163598,1,2,0:0:0:0:
256,192,164127,1,2,0:0:0:0:
256,192,164304,1,2,0:0:0:0:
240,192,164657,1,2,0:0:0:0:
256,192,164833,1,0,0:0:0:0:
256,192,165010,1,2,0:0:0:0:
256,192,165186,1,2,0:0:0:0:
256,192,165539,1,0,0:0:0:0:
256,192,165892,5,6,0:0:0:0:
256,176,166245,1,0,0:0:0:0:
256,192,166598,1,2,0:0:0:0:
256,192,166951,1,2,0:0:0:0:
256,192,167304,1,0,0:0:0:0:
256,192,167480,1,0,0:0:0:0:
256,192,167657,1,2,0:0:0:0:
256,176,167833,1,0,0:0:0:0:
256,192,168010,1,2,0:0:0:0:
256,192,168186,1,2,0:0:0:0:
256,192,168363,1,0,0:0:0:0:
256,192,168716,1,4,0:0:0:0:
256,192,169422,1,4,0:0:0:0:
256,192,170128,1,6,0:0:0:0:
