osu file format v14

[General]
AudioFilename: audio.mp3
AudioLeadIn: 0
PreviewTime: 65384
Countdown: 0
SampleSet: Normal
StackLeniency: 0.7
Mode: 0
LetterboxInBreaks: 0
WidescreenStoryboard: 1

[Editor]
Bookmarks: 6327,12975
DistanceSpacing: 1.9
BeatDivisor: 4
GridSize: 4
TimelineZoom: 1.300001

[Metadata]
Title:Okashi na yume o Ohitotsu douzo
TitleUnicode:お菓子な夢をおひとつどうぞ♪
Artist:Chino(Minase Inori)
ArtistUnicode:チノ(水瀬いのり)
Creator:- Skanbis -
Version:Normal
Source:ご注文はうさぎですか??
Tags:gochuumon wa usagi desu ka is the order a rabbit gochiusa ごちうさ fimoree FuruSatori Asuka_-
BeatmapID:1215980
BeatmapSetID:551753

[Difficulty]
HPDrainRate:4
CircleSize:3
OverallDifficulty:4
ApproachRate:5
SliderMultiplier:1.00000000596046
SliderTickRate:1

[Events]
//Background and Video events
0,0,"chimame.jpg",0,0
//Break Periods
2,63013,63996
//Storyboard Layer 0 (Background)
//Storyboard Layer 1 (Fail)
//Storyboard Layer 2 (Pass)
//Storyboard Layer 3 (Foreground)
//Storyboard Layer 4 (Overlay)
//Storyboard Sound Samples

[TimingPoints]
1099,342.857142857143,4,1,1,40,1,0
1401,-166.666666666667,4,1,1,40,0,0
13235,-133.333333333333,4,1,1,50,0,0
26863,-100,4,1,1,60,0,0
48806,-133.333333333333,4,1,1,55,0,0
65260,-100,4,1,1,75,0,0
65556,-100,4,1,1,75,0,1
84030,-100,4,1,1,75,0,1
84130,-100,4,1,1,75,0,1
84584,-133.333333333333,4,1,1,75,0,1
87499,-166.666666666667,4,1,1,40,0,0

[Colours]
Combo1 : 255,0,128
Combo2 : 128,128,255
Combo3 : 255,128,0
Combo4 : 0,255,255
Combo5 : 0,128,255

[HitObjects]
136,96,2470,6,0,P|120:124|112:164,1,59.999998526573
184,248,3156,2,0,P|228:256|252:252,1,59.999998526573
360,220,3841,2,0,P|376:184|376:156,1,59.999998526573
280,92,4527,2,0,P|324:72|348:72,1,59.999998526573
456,76,5213,6,0,P|452:100|460:144,1,59.999998526573
440,244,5899,2,0,P|432:280|416:304,1,59.999998526573
324,248,6584,2,0,P|288:260|264:280,1,59.999998526573
248,168,7270,1,0,0:0:0:0:
144,208,7613,1,0,0:0:0:0:
88,320,7956,6,0,P|152:340|168:340,1,59.999998526573
272,292,8641,2,0,P|280:260|280:228,1,59.999998526573
196,136,9327,2,0,P|168:128|132:108,1,59.999998526573
260,40,10013,1,0,0:0:0:0:
340,140,10356,1,0,0:0:0:0:
256,244,10699,5,0,0:0:0:0:
124,200,11041,1,0,0:0:0:0:
212,308,11384,1,0,0:0:0:0:
196,172,11727,1,0,0:0:0:0:
256,192,12070,12,0,13099,0:0:0:0:
132,240,13441,6,0,P|168:276|196:284,1,75.0000033080576
304,200,14127,2,0,P|348:220|372:244,1,75.0000033080576
292,360,14813,2,0,L|216:360,2,75.0000033080576
424,308,15841,1,0,0:0:0:0:
432,176,16184,6,0,P|392:136|372:132,1,75.0000033080576
240,180,16870,2,0,P|192:156|176:124,1,75.0000033080576
68,224,17556,2,0,L|68:300,2,75.0000033080576
84,84,18583,1,0,0:0:0:0:
216,32,18927,6,0,L|276:92,1,75.0000033080576
272,228,19613,2,0,L|208:292,1,75.0000033080576
76,296,20298,2,0,P|108:320|152:336,2,75.0000033080576
152,176,21327,1,0,0:0:0:0:
284,124,21670,6,0,L|216:92,1,75.0000033080576
356,72,22356,2,0,L|440:44,1,75.0000033080576
380,184,23041,1,0,0:0:0:0:
240,212,23384,1,0,0:0:0:0:
364,284,23727,2,0,P|316:288|280:300,1,75.0000033080576
304,152,24413,1,0,0:0:0:0:
168,200,24756,6,0,P|152:228|120:264,1,75.0000033080576
324,56,25784,2,0,B|360:76|396:56|396:56|436:28|480:60,1,150.000006616115
452,328,27156,5,0,0:0:0:0:
360,212,27499,2,0,L|244:184,1,100.000000596046
296,336,28184,1,0,0:0:0:0:
184,236,28527,2,0,P|160:280|176:336,2,100.000000596046
284,124,29556,1,0,0:0:0:0:
412,48,29899,6,0,L|368:144,1,100.000000596046
368,288,30584,1,0,0:0:0:0:
260,184,30927,1,0,0:0:0:0:
400,152,31270,2,0,P|408:208|384:256,2,100.000000596046
260,116,32299,1,0,0:0:0:0:
320,52,32641,6,0,P|260:32|220:36,1,100.000000596046
236,184,33327,1,0,0:0:0:0:
132,92,33670,2,0,P|72:76|48:40,2,100.000000596046
276,44,34699,2,0,P|336:48|372:72,1,100.000000596046
436,180,35384,5,0,0:0:0:0:
296,232,35727,1,0,0:0:0:0:
392,116,36070,2,0,P|368:136|296:152,1,100.000000596046
232,172,36584,1,0,0:0:0:0:
112,80,36927,1,0,0:0:0:0:
168,220,37270,1,0,0:0:0:0:
188,72,37613,2,0,L|236:60,1,50.000000298023
156,196,38127,6,0,P|100:216|124:124,1,200.000001192092
264,84,39156,1,0,0:0:0:0:
264,84,39499,2,0,P|356:44|452:60,1,200.000001192092
328,144,40527,1,0,0:0:0:0:
328,144,40870,6,0,P|340:184|332:252,2,100.000000596046
260,280,41899,2,0,P|212:280|160:300,1,100.000000596046
228,164,42584,1,0,0:0:0:0:
160,28,42927,1,0,0:0:0:0:
152,176,43270,2,0,L|76:244,1,100.000000596046
77,242,43956,1,0,0:0:0:0:
160,272,44299,5,0,0:0:0:0:
152,184,44641,1,0,0:0:0:0:
232,220,44984,1,0,0:0:0:0:
228,136,45327,2,0,P|296:168|312:196,1,100.000000596046
392,240,46013,6,0,L|300:292,1,100.000000596046
232,344,46699,2,0,P|228:304|200:240,2,100.000000596046
144,316,47727,2,0,P|116:264|80:232,1,100.000000596046
152,168,48413,2,0,P|204:136|252:104,1,100.000000596046
272,200,49099,6,0,P|360:220|424:196,1,150.000006616115
328,140,50470,2,0,P|296:108|196:96,1,150.000006616115
120,32,51841,2,0,P|76:112|88:176,1,150.000006616115
180,184,53213,2,0,P|168:240|116:328,1,150.000006616115
68,324,54241,1,0,0:0:0:0:
32,224,54584,6,0,L|80:156,1,75.0000033080576
168,96,55270,2,0,L|116:40,1,75.0000033080576
232,32,55956,2,0,L|312:32,1,75.0000033080576
400,104,56641,2,0,P|404:156|424:180,1,75.0000033080576
348,324,57327,6,0,P|412:224|416:196,1,150.000006616115
220,80,58699,2,0,P|136:84|84:120,1,150.000006616115
256,192,60070,12,0,62813,0:0:0:0:
172,308,65556,6,0,P|288:296|356:240,1,200.000001192092
428,116,66584,1,0,0:0:0:0:
304,32,66927,2,0,L|204:52,1,100.000000596046
60,24,67613,2,0,L|124:112,1,100.000000596046
248,184,68299,1,0,0:0:0:0:
124,268,68641,6,0,P|60:300|36:332,1,100.000000596046
192,312,69327,1,0,0:0:0:0:
104,188,69670,2,0,P|156:184|208:196,2,100.000000596046
236,116,70699,1,0,0:0:0:0:
272,260,71041,6,0,L|332:172,2,100.000000596046
424,264,72070,1,0,0:0:0:0:
464,120,72413,2,0,P|424:88|364:76,1,100.000000596046
232,36,73099,2,0,P|228:100|244:140,1,100.000000596046
340,244,73784,5,0,0:0:0:0:
400,104,74127,1,0,0:0:0:0:
432,252,74470,2,0,P|424:316|396:348,1,100.000000596046
252,332,75156,2,0,P|176:284|64:280,1,200.000001192092
196,204,76184,1,0,0:0:0:0:
56,156,76527,6,0,P|20:104|20:64,1,100.000000596046
160,116,77213,2,0,L|268:116,1,100.000000596046
392,188,77899,1,0,0:0:0:0:
332,52,78241,2,0,P|392:76|424:100,2,100.000000596046
184,88,79270,6,0,P|136:96|84:128,1,100.000000596046
228,184,79956,2,0,L|312:252,1,100.000000596046
344,100,80641,1,0,0:0:0:0:
472,180,80984,1,0,0:0:0:0:
460,328,81327,2,0,L|372:260,1,100.000000596046
208,328,82013,5,0,0:0:0:0:
112,308,82356,1,0,0:0:0:0:
52,232,82699,2,0,L|156:216,1,100.000000596046
200,232,83213,1,0,0:0:0:0:
164,136,83556,2,0,P|220:88|248:76,1,100.000000596046
292,88,84070,1,0,0:0:0:0:
364,24,84584,6,0,P|396:92|424:120,1,112.500004962086
468,203,85441,1,0,0:0:0:0:
407,274,85784,2,0,P|351:218|277:209,1,150.000006616115
312,299,86813,2,0,P|256:307|228:299,1,75.0000033080576
225,189,87499,5,0,0:0:0:0:
156,300,87841,1,0,0:0:0:0:
76,212,88184,2,0,P|56:176|52:144,2,59.999998526573
148,116,89213,2,0,P|180:76|200:68,1,59.999998526573
256,172,89899,1,0,0:0:0:0:
388,104,90241,6,0,P|364:72|356:44,2,59.999998526573
448,208,91270,2,0,P|460:240|460:268,1,59.999998526573
352,316,91956,2,0,P|312:320|288:332,1,59.999998526573
176,304,92641,1,0,0:0:0:0:
232,200,92984,5,0,0:0:0:0:
128,140,93327,2,0,P|104:104|100:80,2,59.999998526573
236,88,94356,1,0,0:0:0:0:
356,104,94699,2,0,L|416:72,1,59.999998526573
476,176,95384,1,0,0:0:0:0:
360,204,95727,5,0,0:0:0:0:
272,288,96070,1,0,0:0:0:0:
160,252,96413,2,0,P|140:296|152:336,1,89.9999977898594
308,296,97441,5,0,0:0:0:0:
352,216,97784,1,0,0:0:0:0:
396,140,98127,1,0,0:0:0:0:
256,192,98470,12,0,101041,0:0:0:0:
