osu file format v14

[General]
AudioFilename: audio.mp3
AudioLeadIn: 0
PreviewTime: 65384
Countdown: 0
SampleSet: Normal
StackLeniency: 0.7
Mode: 0
LetterboxInBreaks: 0
WidescreenStoryboard: 1

[Editor]
Bookmarks: 6327,12975
DistanceSpacing: 0.8
BeatDivisor: 1
GridSize: 4
TimelineZoom: 1.300001

[Metadata]
Title:Okashi na yume o Ohitotsu douzo
TitleUnicode:お菓子な夢をおひとつどうぞ♪
Artist:Chino(Minase Inori)
ArtistUnicode:チノ(水瀬いのり)
Creator:- Skanbis -
Version:Easy
Source:ご注文はうさぎですか??
Tags:gochuumon wa usagi desu ka is the order a rabbit gochiusa ごちうさ fimoree FuruSatori Asuka_-
BeatmapID:1309118
BeatmapSetID:551753

[Difficulty]
HPDrainRate:1
CircleSize:2
OverallDifficulty:1
ApproachRate:2
SliderMultiplier:0.80000000596046
SliderTickRate:1

[Events]
//Background and Video events
0,0,"chimame.jpg",0,0
//Break Periods
2,63013,63996
//Storyboard Layer 0 (Background)
//Storyboard Layer 1 (Fail)
//Storyboard Layer 2 (Pass)
//Storyboard Layer 3 (Foreground)
//Storyboard Layer 4 (Overlay)
//Storyboard Sound Samples

[TimingPoints]
1099,342.857142857143,4,1,1,40,1,0
1401,-166.666666666667,4,1,1,40,0,0
13235,-133.333333333333,4,1,1,50,0,0
26863,-100,4,1,1,60,0,0
48806,-133.333333333333,4,1,1,55,0,0
65260,-100,4,1,1,75,0,0
65556,-100,4,1,1,75,0,1
87499,-166.666666666667,4,1,1,40,0,0

[Colours]
Combo1 : 255,0,128
Combo2 : 128,128,255
Combo3 : 255,128,0
Combo4 : 0,255,255
Combo5 : 0,128,255

[HitObjects]
144,212,2470,6,0,P|200:160|252:152,1,95.9999977855678
236,248,3841,2,0,P|296:208|316:152,1,95.9999977855678
396,168,5213,2,0,P|356:112|320:96,1,95.9999977855678
244,120,6584,2,0,P|256:52|300:16,1,95.9999977855678
356,80,7956,5,0,0:0:0:0:
404,164,8641,1,0,0:0:0:0:
380,256,9327,1,0,0:0:0:0:
304,312,10013,1,0,0:0:0:0:
228,256,10699,5,0,0:0:0:0:
196,164,11384,1,0,0:0:0:0:
136,240,12070,1,0,0:0:0:0:
108,148,12756,1,0,0:0:0:0:
56,256,13441,5,0,0:0:0:0:
160,316,14127,1,0,0:0:0:0:
276,280,14813,1,0,0:0:0:0:
324,168,15499,2,0,L|400:144,2,60.000002735853
272,60,16870,5,0,0:0:0:0:
152,60,17556,1,0,0:0:0:0:
92,164,18241,2,0,L|28:124,2,60.000002735853
180,244,19613,5,0,0:0:0:0:
288,188,20299,1,0,0:0:0:0:
392,248,20984,2,0,L|480:272,2,60.000002735853
400,128,22356,5,0,0:0:0:0:
284,100,23041,2,0,L|208:156,2,60.000002735853
352,200,24413,1,0,0:0:0:0:
304,236,24756,6,0,P|275:243|246:252,1,60.000002735853
340,328,25784,2,0,P|396:260|396:212,1,120.000005471706
332,164,27156,6,0,P|255:187|176:191,1,160.000001192092
140,104,28527,2,0,L|92:280,1,160.000001192092
168,312,29899,1,0,0:0:0:0:
312,276,30584,5,0,0:0:0:0:
424,212,31270,1,0,0:0:0:0:
308,152,31956,1,0,0:0:0:0:
216,72,32641,5,0,0:0:0:0:
92,104,33327,1,0,0:0:0:0:
184,192,34013,1,0,0:0:0:0:
64,232,34699,1,0,0:0:0:0:
160,316,35384,5,0,0:0:0:0:
284,288,36070,1,0,0:0:0:0:
392,216,36756,1,0,0:0:0:0:
452,104,37441,1,0,0:0:0:0:
332,60,38127,6,0,L|236:96,2,80.000000596046
300,184,39499,2,0,L|300:264,2,80.000000596046
384,304,40870,6,0,P|462:294|504:212,1,160.000001192092
392,172,42241,2,0,P|313:164|256:96,1,160.000001192092
180,208,43613,2,0,P|181:286|116:336,1,160.000001192092
256,268,44984,6,0,L|220:180,1,80.000000596046
304,136,45670,2,0,L|336:220,1,80.000000596046
344,300,46356,2,0,P|422:294|486:247,1,160.000001192092
340,120,47727,2,0,P|260:123|188:168,1,160.000001192092
224,296,49099,6,0,P|140:300|100:264,1,120.000005471706
80,192,50470,2,0,P|119:147|168:113,1,120.000005471706
256,152,51841,2,0,P|316:196|376:192,1,120.000005471706
436,252,53213,2,0,P|402:301|380:357,1,120.000005471706
288,324,54584,6,0,L|288:240,1,60.000002735853
240,208,55270,2,0,L|164:208,1,60.000002735853
116,184,55956,6,0,L|116:244,1,60.000002735853
56,204,56641,2,0,L|56:144,1,60.000002735853
108,96,57327,2,0,B|108:36|108:36|168:36,1,120.000005471706
300,48,58699,1,0,0:0:0:0:
220,152,59384,1,0,0:0:0:0:
256,192,60070,12,0,62813,0:0:0:0:
216,316,65556,5,0,0:0:0:0:
112,244,66241,1,0,0:0:0:0:
120,116,66927,1,0,0:0:0:0:
228,48,67613,1,0,0:0:0:0:
332,120,68299,6,0,L|408:156,1,80.000000596046
332,216,68984,2,0,L|258:184,1,80.000000596046
260,280,69670,2,0,L|187:249,3,80.000000596046
124,148,71041,5,0,0:0:0:0:
228,72,71727,1,0,0:0:0:0:
332,148,72413,1,0,0:0:0:0:
436,72,73099,1,0,0:0:0:0:
436,200,73784,6,0,L|368:268,1,80.000000596046
336,168,74470,2,0,L|268:236,1,80.000000596046
184,224,75156,2,0,L|116:156,3,80.000000596046
200,160,76527,5,0,0:0:0:0:
328,144,77213,1,0,0:0:0:0:
356,268,77899,1,0,0:0:0:0:
480,232,78584,1,0,0:0:0:0:
396,176,79270,6,0,L|324:142,1,80.000000596046
471,115,79956,2,0,L|400:80,1,80.000000596046
256,60,80641,2,0,L|172:60,3,80.000000596046
112,132,82013,5,0,0:0:0:0:
236,160,82699,1,0,0:0:0:0:
156,216,83213,2,0,L|98:271,2,80.000000596046
156,216,84070,1,0,0:0:0:0:
280,268,84756,6,0,P|356:328|361:230,1,240.000001788138
256,192,86127,12,0,87499,0:0:0:0:
344,136,88870,6,0,P|268:96|172:104,1,143.999996678352
152,96,90241,2,0,P|120:156|136:252,1,143.999996678352
156,280,91613,2,0,P|244:288|296:256,1,143.999996678352
288,204,92984,6,0,P|224:128|216:80,1,143.999996678352
264,52,94356,2,0,P|348:76|392:128,1,143.999996678352
400,172,95727,2,0,P|336:220|288:300,1,143.999996678352
256,312,97099,2,0,P|180:296|124:236,1,143.999996678352
256,192,98470,12,0,100870,0:0:0:0:
