osu file format v14

[General]
AudioFilename: audio.mp3
AudioLeadIn: 0
PreviewTime: 65384
Countdown: 0
SampleSet: Normal
StackLeniency: 0.7
Mode: 1
LetterboxInBreaks: 0
WidescreenStoryboard: 0

[Editor]
Bookmarks: 13441,27156,38127,49099,65556,87499
DistanceSpacing: 1
BeatDivisor: 4
GridSize: 4
TimelineZoom: 1.1

[Metadata]
Title:Okashi na Yume o Ohitotsu Douzo
TitleUnicode:お菓子な夢をおひとつどうぞ♪
Artist:Chino(Minase Inori)
ArtistUnicode:チノ(水瀬いのり)
Creator:404 AccNotFound
Version:Futsuu
Source:ご注文はうさぎですか??
Tags:gochuumon wa usagi desu ka is the order a rabbit gochiusa ごちうさ akemi_homura
BeatmapID:1265894
BeatmapSetID:593993

[Difficulty]
HPDrainRate:6
CircleSize:5
OverallDifficulty:3.5
ApproachRate:5
SliderMultiplier:1.4
SliderTickRate:1

[Events]
//Background and Video events
0,0,"S7sjUQQ.jpg",0,0
//Break Periods
//Storyboard Layer 0 (Background)
//Storyboard Layer 1 (Fail)
//Storyboard Layer 2 (Pass)
//Storyboard Layer 3 (Foreground)
//Storyboard Sound Samples

[TimingPoints]
2470,342.857142857143,4,1,0,75,1,0
49098,-100,4,1,0,60,0,0
60070,-100,4,1,0,70,0,0
65555,-100,4,1,0,75,0,1
85955,-100,4,1,0,75,0,0

[HitObjects]
156,160,2470,5,2,0:0:0:0:
192,116,3155,1,2,0:0:0:0:
192,136,3670,1,0,0:0:0:0:
156,160,4527,1,0,0:0:0:0:
156,160,5212,1,0,0:0:0:0:
156,160,5898,1,0,0:0:0:0:
156,160,6412,1,2,0:0:0:0:
156,160,7270,1,2,0:0:0:0:
156,160,7955,1,2,0:0:0:0:
180,116,8641,1,2,0:0:0:0:
156,160,9155,1,0,0:0:0:0:
156,160,10012,1,0,0:0:0:0:
156,160,10698,1,0,0:0:0:0:
180,116,11041,1,0,0:0:0:0:
220,164,11384,1,0,0:0:0:0:
220,164,11898,1,2,0:0:0:0:
108,192,13441,1,6,0:0:0:0:
108,192,13784,1,2,0:0:0:0:
152,156,14127,1,0,0:0:0:0:
152,156,14812,1,2,0:0:0:0:
152,156,15155,1,0,0:0:0:0:
152,156,15327,1,2,0:0:0:0:
152,156,16184,1,2,0:0:0:0:
152,156,16527,1,2,0:0:0:0:
152,156,16870,1,0,0:0:0:0:
152,156,17555,1,0,0:0:0:0:
152,156,17898,1,2,0:0:0:0:
152,156,18070,1,2,0:0:0:0:
152,156,18927,1,2,0:0:0:0:
152,156,19270,1,2,0:0:0:0:
152,156,19612,1,0,0:0:0:0:
152,156,20298,1,2,0:0:0:0:
152,156,20641,1,0,0:0:0:0:
152,156,20812,1,2,0:0:0:0:
152,156,21670,1,2,0:0:0:0:
152,156,22012,1,2,0:0:0:0:
152,156,22355,1,0,0:0:0:0:
152,156,23041,1,0,0:0:0:0:
152,156,23384,1,2,0:0:0:0:
152,156,23555,1,2,0:0:0:0:
156,156,24755,1,4,0:0:0:0:
156,156,25098,1,4,0:0:0:0:
156,156,25784,1,6,0:0:0:0:
160,160,26298,1,6,0:0:0:0:
164,140,27155,5,4,0:0:0:0:
144,184,27670,1,2,0:0:0:0:
160,152,28184,1,0,0:0:0:0:
156,168,28527,1,2,0:0:0:0:
176,152,29041,1,2,0:0:0:0:
284,136,29898,1,0,0:0:0:0:
216,88,30241,1,0,0:0:0:0:
284,136,30584,1,2,0:0:0:0:
284,136,31098,1,2,0:0:0:0:
200,112,31441,1,2,0:0:0:0:
132,128,31784,1,2,0:0:0:0:
284,136,32641,1,4,0:0:0:0:
284,136,32984,1,2,0:0:0:0:
284,136,33327,1,0,0:0:0:0:
160,144,33841,1,2,0:0:0:0:
228,128,34527,1,2,0:0:0:0:
200,152,35384,1,0,0:0:0:0:
196,172,35727,1,0,0:0:0:0:
200,188,36070,1,2,0:0:0:0:
176,176,36584,1,6,0:0:0:0:
176,176,37270,1,6,0:0:0:0:
184,216,38127,1,6,0:0:0:0:
196,80,38641,1,2,0:0:0:0:
288,248,39155,1,0,0:0:0:0:
108,96,39498,1,2,0:0:0:0:
332,216,40012,1,0,0:0:0:0:
204,184,40870,1,0,0:0:0:0:
184,232,41212,1,0,0:0:0:0:
188,208,41555,1,2,0:0:0:0:
224,104,42070,1,2,0:0:0:0:
244,80,42412,1,2,0:0:0:0:
160,104,42755,1,2,0:0:0:0:
68,300,43612,1,4,0:0:0:0:
112,144,43955,1,2,0:0:0:0:
112,144,44298,1,0,0:0:0:0:
164,160,44812,1,2,0:0:0:0:
72,284,45498,1,2,0:0:0:0:
72,284,46355,1,2,0:0:0:0:
152,56,46870,1,0,0:0:0:0:
168,160,47212,1,2,0:0:0:0:
156,144,47555,1,6,0:0:0:0:
252,196,49098,1,4,0:0:0:0:
252,196,49784,1,2,0:0:0:0:
252,196,50470,1,0,0:0:0:0:
284,152,50812,1,0,0:0:0:0:
252,196,51155,1,2,0:0:0:0:
252,196,51841,1,0,0:0:0:0:
344,260,52527,1,2,0:0:0:0:
252,196,53212,1,0,0:0:0:0:
252,196,54584,1,4,0:0:0:0:
252,196,55270,1,2,0:0:0:0:
252,196,55955,1,4,0:0:0:0:
252,196,56298,1,0,0:0:0:0:
252,196,56641,1,2,0:0:0:0:
252,196,57327,1,6,0:0:0:0:
256,192,58698,1,4,0:0:0:0:
112,132,60070,5,6,0:0:0:0:
200,160,60755,1,2,0:0:0:0:
200,160,61441,1,4,0:0:0:0:
32,192,61784,1,0,0:0:0:0:
152,140,62127,1,0,0:0:0:0:
200,192,62812,5,6,0:0:0:0:
204,196,63327,1,0,0:0:0:0:
200,192,63670,1,0,0:0:0:0:
200,192,64012,1,6,0:0:0:0:
204,196,64355,1,2,0:0:0:0:
244,152,64527,1,2,0:0:0:0:
200,192,64698,1,2,0:0:0:0:
152,188,65212,1,2,0:0:0:0:
252,200,65555,1,4,0:0:0:0:
224,112,65898,1,6,0:0:0:0:
184,152,66241,1,0,0:0:0:0:
288,152,66755,1,2,0:0:0:0:
252,200,67270,1,2,0:0:0:0:
220,204,67612,1,0,0:0:0:0:
220,204,68298,1,0,0:0:0:0:
196,116,68641,1,0,0:0:0:0:
220,204,68984,1,2,0:0:0:0:
220,204,69670,1,2,0:0:0:0:
196,88,70184,1,2,0:0:0:0:
220,204,71041,1,4,0:0:0:0:
196,120,71384,1,6,0:0:0:0:
240,200,71727,1,0,0:0:0:0:
220,204,72241,1,2,0:0:0:0:
220,204,72584,1,0,0:0:0:0:
296,148,72927,1,2,0:0:0:0:
220,204,73098,1,2,0:0:0:0:
220,204,73784,1,0,0:0:0:0:
196,116,74127,1,0,0:0:0:0:
220,204,74470,1,2,0:0:0:0:
64,176,75155,2,2,L|168:164,6,70
220,204,76527,5,4,0:0:0:0:
192,100,76870,1,6,0:0:0:0:
220,204,77212,1,0,0:0:0:0:
220,204,77727,1,2,0:0:0:0:
220,204,78241,1,2,0:0:0:0:
204,120,78584,1,0,0:0:0:0:
220,204,79270,1,0,0:0:0:0:
192,100,79612,1,0,0:0:0:0:
220,204,79955,1,2,0:0:0:0:
220,204,80641,1,2,0:0:0:0:
96,152,81155,1,2,0:0:0:0:
220,204,82012,1,4,0:0:0:0:
260,136,82355,1,6,0:0:0:0:
220,204,82698,1,0,0:0:0:0:
220,204,83212,1,6,0:0:0:0:
204,104,83555,1,4,0:0:0:0:
220,204,83898,1,6,0:0:0:0:
240,184,84070,1,6,0:0:0:0:
184,96,84755,1,0,0:0:0:0:
220,204,85441,1,2,0:0:0:0:
256,192,85955,12,0,87155,0:0:0:0:
156,160,87498,5,6,0:0:0:0:
192,116,88184,1,2,0:0:0:0:
192,136,88698,1,0,0:0:0:0:
156,160,89555,1,0,0:0:0:0:
156,160,90241,1,0,0:0:0:0:
156,160,90927,1,0,0:0:0:0:
156,160,91441,1,2,0:0:0:0:
156,160,92298,1,2,0:0:0:0:
156,160,92984,1,2,0:0:0:0:
180,116,93670,1,2,0:0:0:0:
156,160,94184,1,0,0:0:0:0:
156,160,95041,1,0,0:0:0:0:
156,160,95727,1,0,0:0:0:0:
180,116,96070,1,0,0:0:0:0:
220,164,96412,1,0,0:0:0:0:
220,164,96927,1,2,0:0:0:0:
208,128,97441,5,2,0:0:0:0:
140,144,97784,1,0,0:0:0:0:
140,152,98127,1,0,0:0:0:0:
88,136,98470,1,6,0:0:0:0:
