osu file format v14

[General]
AudioFilename: audio.mp3
AudioLeadIn: 0
PreviewTime: 65384
Countdown: 0
SampleSet: Normal
StackLeniency: 0.7
Mode: 1
LetterboxInBreaks: 0
WidescreenStoryboard: 0

[Editor]
Bookmarks: 13441,27156,38127,49099,65556,87499
DistanceSpacing: 1
BeatDivisor: 4
GridSize: 4
TimelineZoom: 0.5999999

[Metadata]
Title:Okashi na Yume o Ohitotsu Douzo
TitleUnicode:お菓子な夢をおひとつどうぞ♪
Artist:Chino(Minase Inori)
ArtistUnicode:チノ(水瀬いのり)
Creator:404 AccNotFound
Version:Akemi's Kantan
Source:ご注文はうさぎですか??
Tags:gochuumon wa usagi desu ka is the order a rabbit gochiusa ごちうさ akemi_homura
BeatmapID:1266767
BeatmapSetID:593993

[Difficulty]
HPDrainRate:7
CircleSize:2
OverallDifficulty:3
ApproachRate:5
SliderMultiplier:1.4
SliderTickRate:1

[Events]
//Background and Video events
0,0,"S7sjUQQ.jpg",0,0
//Break Periods
//Storyboard Layer 0 (Background)
//Storyboard Layer 1 (Fail)
//Storyboard Layer 2 (Pass)
//Storyboard Layer 3 (Foreground)
//Storyboard Sound Samples

[TimingPoints]
2470,342.857142857143,4,1,0,75,1,0
65555,-100,4,1,0,75,0,1
85955,-100,4,1,0,75,0,0

[HitObjects]
256,192,2470,5,8,0:0:0:0:
256,192,3670,1,0,0:0:0:0:
256,192,5212,1,8,0:0:0:0:
256,192,6412,1,0,0:0:0:0:
256,192,7955,1,8,0:0:0:0:
256,192,9155,1,0,0:0:0:0:
256,192,10698,1,8,0:0:0:0:
256,192,11384,1,8,0:0:0:0:
256,192,11898,1,8,0:0:0:0:
256,192,13441,1,12,0:0:0:0:
256,192,14127,1,0,0:0:0:0:
256,192,14812,1,0,0:0:0:0:
256,192,15327,1,0,0:0:0:0:
256,192,16184,1,8,0:0:0:0:
256,192,16870,1,0,0:0:0:0:
256,192,17555,1,0,0:0:0:0:
256,192,18070,1,8,0:0:0:0:
256,192,18927,1,8,0:0:0:0:
256,192,19612,1,0,0:0:0:0:
256,192,20298,1,0,0:0:0:0:
256,192,20812,1,0,0:0:0:0:
256,192,21670,1,8,0:0:0:0:
256,192,22355,1,0,0:0:0:0:
256,192,23041,1,0,0:0:0:0:
256,192,23555,1,8,0:0:0:0:
256,192,24755,1,0,0:0:0:0:
256,192,25098,1,0,0:0:0:0:
256,192,25784,1,12,0:0:0:0:
256,192,27155,1,8,0:0:0:0:
256,192,27841,1,0,0:0:0:0:
256,192,28527,1,8,0:0:0:0:
256,192,29898,1,0,0:0:0:0:
256,192,30584,1,8,0:0:0:0:
256,192,31270,1,0,0:0:0:0:
256,192,32641,1,8,0:0:0:0:
256,192,33327,1,0,0:0:0:0:
156,200,34012,1,8,0:0:0:0:
256,192,35384,1,0,0:0:0:0:
256,192,36584,1,12,0:0:0:0:
256,192,37270,1,12,0:0:0:0:
256,192,38127,1,8,0:0:0:0:
256,192,38812,1,0,0:0:0:0:
248,192,39498,1,8,0:0:0:0:
248,192,40870,1,0,0:0:0:0:
248,192,41555,1,8,0:0:0:0:
248,192,42241,1,0,0:0:0:0:
248,192,43612,1,8,0:0:0:0:
248,192,44298,1,0,0:0:0:0:
252,196,44984,1,8,0:0:0:0:
252,196,46355,1,8,0:0:0:0:
252,196,47555,1,12,0:0:0:0:
252,196,49098,1,0,0:0:0:0:
252,196,50470,1,0,0:0:0:0:
252,196,51841,1,8,0:0:0:0:
252,196,53212,5,8,0:0:0:0:
252,196,54584,1,0,0:0:0:0:
252,196,55955,1,8,0:0:0:0:
252,196,57327,1,0,0:0:0:0:
256,192,58698,1,0,0:0:0:0:
256,192,59384,5,8,0:0:0:0:
256,192,60070,12,0,62470,0:0:0:0:
252,200,62812,5,4,0:0:0:0:
252,200,64012,5,12,0:0:0:0:
252,200,64698,1,12,0:0:0:0:
252,200,65555,1,4,0:0:0:0:
252,200,66927,1,8,0:0:0:0:
252,200,67270,1,8,0:0:0:0:
220,204,67612,1,0,0:0:0:0:
220,204,68298,1,0,0:0:0:0:
220,204,69670,1,0,0:0:0:0:
220,204,70012,1,8,0:0:0:0:
220,204,70355,1,8,0:0:0:0:
220,204,71041,1,8,0:0:0:0:
220,204,72412,1,8,0:0:0:0:
220,204,72755,1,0,0:0:0:0:
220,204,73098,1,8,0:0:0:0:
220,204,73784,1,8,0:0:0:0:
256,192,74984,12,0,76184,0:0:0:0:
220,204,76527,5,4,0:0:0:0:
220,204,77898,1,0,0:0:0:0:
220,204,78241,1,0,0:0:0:0:
220,204,78584,1,8,0:0:0:0:
220,204,79270,1,0,0:0:0:0:
220,204,80641,1,8,0:0:0:0:
220,204,80984,1,8,0:0:0:0:
220,204,81327,1,0,0:0:0:0:
220,204,82012,1,0,0:0:0:0:
220,204,83212,1,12,0:0:0:0:
220,204,84070,1,12,0:0:0:0:
220,204,84755,1,0,0:0:0:0:
220,204,85098,1,8,0:0:0:0:
220,204,85441,1,0,0:0:0:0:
220,204,85955,1,12,0:0:0:0:
220,204,87498,5,8,0:0:0:0:
220,204,88698,1,0,0:0:0:0:
220,204,90241,1,8,0:0:0:0:
220,204,91441,5,0,0:0:0:0:
220,204,92984,1,8,0:0:0:0:
220,204,94184,1,0,0:0:0:0:
220,204,95727,1,8,0:0:0:0:
220,204,96927,1,8,0:0:0:0:
220,204,97784,1,8,0:0:0:0:
220,204,98470,1,4,0:0:0:0:
