osu file format v14

[General]
AudioFilename: audio.mp3
AudioLeadIn: 0
PreviewTime: 65384
Countdown: 0
SampleSet: Normal
StackLeniency: 0.7
Mode: 1
LetterboxInBreaks: 0
WidescreenStoryboard: 0

[Editor]
Bookmarks: 13441,27156,29899,32641,35384,38127,40870,43613,46355,49099,65556,87499
DistanceSpacing: 1
BeatDivisor: 4
GridSize: 4
TimelineZoom: 1.1

[Metadata]
Title:Okashi na Yume o Ohitotsu Douzo
TitleUnicode:お菓子な夢をおひとつどうぞ♪
Artist:Chino(Minase Inori)
ArtistUnicode:チノ(水瀬いのり)
Creator:404 AccNotFound
Version:Muzukashii
Source:ご注文はうさぎですか??
Tags:gochuumon wa usagi desu ka is the order a rabbit gochiusa ごちうさ akemi_homura
BeatmapID:1273954
BeatmapSetID:593993

[Difficulty]
HPDrainRate:6
CircleSize:5
OverallDifficulty:4
ApproachRate:5
SliderMultiplier:1.4
SliderTickRate:1

[Events]
//Background and Video events
0,0,"S7sjUQQ.jpg",0,0
//Break Periods
//Storyboard Layer 0 (Background)
//Storyboard Layer 1 (Fail)
//Storyboard Layer 2 (Pass)
//Storyboard Layer 3 (Foreground)
//Storyboard Sound Samples

[TimingPoints]
2470,342.857142857143,4,1,0,75,1,0
49098,-100,4,1,0,60,0,0
60070,-100,4,1,0,70,0,0
65555,-100,4,1,0,75,0,1
85955,-100,4,1,0,75,0,0

[HitObjects]
156,160,2470,5,2,0:0:0:0:
192,116,2984,1,2,0:0:0:0:
156,160,3155,1,2,0:0:0:0:
156,160,3670,1,0,0:0:0:0:
192,136,4012,1,0,0:0:0:0:
156,160,4355,1,0,0:0:0:0:
156,160,4527,1,2,0:0:0:0:
156,160,5212,1,0,0:0:0:0:
176,116,5727,1,0,0:0:0:0:
156,160,5898,1,0,0:0:0:0:
156,160,6412,1,2,0:0:0:0:
208,200,6755,1,2,0:0:0:0:
208,204,7098,1,0,0:0:0:0:
208,204,7270,1,2,0:0:0:0:
156,160,7955,1,2,0:0:0:0:
180,116,8470,1,2,0:0:0:0:
156,160,8641,1,2,0:0:0:0:
156,160,9155,1,0,0:0:0:0:
180,116,9498,1,0,0:0:0:0:
156,160,9841,1,0,0:0:0:0:
156,160,10012,1,2,0:0:0:0:
156,160,10698,1,0,0:0:0:0:
180,116,11041,1,0,0:0:0:0:
220,164,11384,1,0,0:0:0:0:
220,164,11555,1,0,0:0:0:0:
220,164,11898,1,2,0:0:0:0:
108,192,13441,1,2,0:0:0:0:
232,192,13612,1,2,0:0:0:0:
108,192,13784,1,2,0:0:0:0:
152,156,14127,1,0,0:0:0:0:
264,132,14298,1,0,0:0:0:0:
276,140,14470,1,0,0:0:0:0:
152,156,14812,1,2,0:0:0:0:
152,156,15155,1,0,0:0:0:0:
152,156,15327,1,2,0:0:0:0:
152,156,16184,1,2,0:0:0:0:
264,132,16355,1,2,0:0:0:0:
152,156,16527,1,2,0:0:0:0:
152,156,16870,1,0,0:0:0:0:
256,136,17041,1,0,0:0:0:0:
256,136,17212,1,0,0:0:0:0:
152,156,17555,1,0,0:0:0:0:
152,156,17898,1,2,0:0:0:0:
152,156,18070,1,2,0:0:0:0:
152,156,18927,1,2,0:0:0:0:
220,156,19098,1,2,0:0:0:0:
152,156,19270,1,2,0:0:0:0:
152,156,19612,1,0,0:0:0:0:
220,156,19784,1,0,0:0:0:0:
220,156,19955,1,0,0:0:0:0:
152,156,20298,1,2,0:0:0:0:
152,156,20641,1,0,0:0:0:0:
152,156,20812,1,2,0:0:0:0:
152,156,21670,1,2,0:0:0:0:
176,96,21841,1,2,0:0:0:0:
176,96,22012,1,2,0:0:0:0:
152,156,22355,1,0,0:0:0:0:
176,100,22527,1,0,0:0:0:0:
176,104,22698,1,0,0:0:0:0:
152,156,23041,1,2,0:0:0:0:
152,156,23384,1,0,0:0:0:0:
152,156,23555,1,0,0:0:0:0:
264,256,23641,1,0,0:0:0:0:
264,268,23727,1,0,0:0:0:0:
264,268,23898,1,2,0:0:0:0:
264,268,24070,1,2,0:0:0:0:
156,156,24755,1,4,0:0:0:0:
156,156,25098,1,4,0:0:0:0:
156,156,25784,1,6,0:0:0:0:
160,160,26298,1,6,0:0:0:0:
164,140,27155,5,4,0:0:0:0:
132,80,27498,1,2,0:0:0:0:
276,152,27670,1,0,0:0:0:0:
180,112,28184,1,2,0:0:0:0:
180,112,28355,1,2,0:0:0:0:
284,136,28527,1,0,0:0:0:0:
136,140,28870,1,0,0:0:0:0:
284,136,29041,1,2,0:0:0:0:
284,136,29898,1,0,0:0:0:0:
216,88,30241,1,0,0:0:0:0:
232,148,30412,1,0,0:0:0:0:
284,136,30584,1,2,0:0:0:0:
180,124,30927,1,0,0:0:0:0:
284,136,31098,1,2,0:0:0:0:
208,104,31441,1,2,0:0:0:0:
284,136,31784,1,2,0:0:0:0:
284,136,32641,1,4,0:0:0:0:
284,136,32984,1,2,0:0:0:0:
284,136,33327,1,0,0:0:0:0:
144,152,33498,1,0,0:0:0:0:
180,124,33670,1,0,0:0:0:0:
160,144,33841,1,2,0:0:0:0:
144,152,34184,1,0,0:0:0:0:
228,128,34527,1,2,0:0:0:0:
200,152,35384,1,0,0:0:0:0:
196,172,35727,1,0,0:0:0:0:
196,132,36070,1,2,0:0:0:0:
216,132,36412,1,0,0:0:0:0:
176,176,36584,1,6,0:0:0:0:
136,136,36927,1,4,0:0:0:0:
176,176,37270,1,6,0:0:0:0:
184,216,38127,1,6,0:0:0:0:
240,232,38470,1,0,0:0:0:0:
196,80,38641,1,2,0:0:0:0:
240,160,39155,1,2,0:0:0:0:
288,248,39327,1,2,0:0:0:0:
260,232,39498,1,0,0:0:0:0:
108,96,39841,1,0,0:0:0:0:
332,216,40012,1,2,0:0:0:0:
204,184,40870,1,0,0:0:0:0:
184,232,41212,1,0,0:0:0:0:
168,240,41384,1,0,0:0:0:0:
188,208,41555,1,2,0:0:0:0:
128,92,41898,1,0,0:0:0:0:
224,104,42070,1,2,0:0:0:0:
60,160,42412,1,2,0:0:0:0:
36,136,42755,1,2,0:0:0:0:
68,300,43612,1,4,0:0:0:0:
112,144,43955,1,2,0:0:0:0:
112,144,44298,1,0,0:0:0:0:
164,160,44470,1,0,0:0:0:0:
280,120,44641,1,0,0:0:0:0:
164,160,44812,1,2,0:0:0:0:
108,152,45155,1,0,0:0:0:0:
72,284,45498,1,2,0:0:0:0:
72,284,46355,1,0,0:0:0:0:
268,188,46698,1,2,0:0:0:0:
168,160,46870,1,0,0:0:0:0:
72,284,47212,1,2,0:0:0:0:
156,144,47555,1,6,0:0:0:0:
200,144,47898,1,0,0:0:0:0:
156,144,48241,1,2,0:0:0:0:
312,188,48327,1,2,0:0:0:0:
156,144,48412,1,2,0:0:0:0:
252,196,49098,1,4,0:0:0:0:
136,156,49441,1,0,0:0:0:0:
140,156,49612,1,0,0:0:0:0:
252,196,49784,1,2,0:0:0:0:
188,152,50127,1,0,0:0:0:0:
252,196,50470,1,2,0:0:0:0:
284,152,50812,1,0,0:0:0:0:
168,220,50984,1,2,0:0:0:0:
252,196,51155,1,0,0:0:0:0:
252,196,51841,1,0,0:0:0:0:
128,188,52184,1,0,0:0:0:0:
136,192,52355,1,0,0:0:0:0:
344,260,52527,1,2,0:0:0:0:
124,168,52870,1,0,0:0:0:0:
252,196,53212,1,2,0:0:0:0:
284,152,53555,1,0,0:0:0:0:
124,168,53727,1,2,0:0:0:0:
252,196,54584,1,4,0:0:0:0:
136,176,54927,1,0,0:0:0:0:
168,88,55098,1,0,0:0:0:0:
252,196,55270,1,2,0:0:0:0:
176,168,55612,1,0,0:0:0:0:
252,196,55955,1,6,0:0:0:0:
200,56,56298,1,0,0:0:0:0:
288,176,56384,1,0,0:0:0:0:
204,64,56470,1,0,0:0:0:0:
252,196,56641,1,2,0:0:0:0:
252,196,57327,1,4,0:0:0:0:
152,156,57670,1,2,0:0:0:0:
152,144,57841,1,0,0:0:0:0:
252,196,58012,1,2,0:0:0:0:
224,136,58355,1,0,0:0:0:0:
256,192,58698,1,6,0:0:0:0:
248,144,59041,1,0,0:0:0:0:
24,184,59212,1,0,0:0:0:0:
256,192,59384,1,2,0:0:0:0:
112,132,60070,5,4,0:0:0:0:
268,68,60412,1,2,0:0:0:0:
132,200,60755,1,0,0:0:0:0:
144,168,60927,1,0,0:0:0:0:
116,152,61098,1,2,0:0:0:0:
260,80,61441,1,0,0:0:0:0:
260,80,61527,1,0,0:0:0:0:
164,204,61612,1,0,0:0:0:0:
164,204,61784,1,2,0:0:0:0:
164,204,61955,1,2,0:0:0:0:
152,140,62127,1,0,0:0:0:0:
200,192,62812,1,4,0:0:0:0:
200,120,62984,1,4,0:0:0:0:
204,196,63327,1,4,0:0:0:0:
200,192,63670,1,4,0:0:0:0:
200,192,64012,1,6,0:0:0:0:
204,196,64355,1,6,0:0:0:0:
244,152,64527,1,6,0:0:0:0:
200,192,64698,1,6,0:0:0:0:
128,88,65212,1,2,0:0:0:0:
252,200,65555,1,4,0:0:0:0:
224,112,65898,1,6,0:0:0:0:
252,200,66241,1,0,0:0:0:0:
208,140,66584,1,0,0:0:0:0:
288,152,66755,1,2,0:0:0:0:
180,124,67098,1,2,0:0:0:0:
252,200,67270,1,0,0:0:0:0:
228,152,67355,1,0,0:0:0:0:
104,160,67441,1,0,0:0:0:0:
220,204,67612,1,2,0:0:0:0:
220,204,68127,1,0,0:0:0:0:
192,116,68470,1,0,0:0:0:0:
196,116,68641,1,2,0:0:0:0:
220,204,68984,1,0,0:0:0:0:
240,120,69155,1,0,0:0:0:0:
196,116,69327,1,0,0:0:0:0:
220,204,69670,1,2,0:0:0:0:
144,120,69841,1,2,0:0:0:0:
176,112,70012,1,2,0:0:0:0:
176,112,70184,1,2,0:0:0:0:
220,204,71041,1,4,0:0:0:0:
196,120,71384,1,6,0:0:0:0:
220,204,71727,1,0,0:0:0:0:
196,120,72070,1,2,0:0:0:0:
220,204,72241,1,2,0:0:0:0:
180,104,72584,1,0,0:0:0:0:
220,204,72755,1,0,0:0:0:0:
180,108,72927,1,0,0:0:0:0:
220,204,73098,1,2,0:0:0:0:
36,124,73441,1,2,0:0:0:0:
220,204,73612,1,2,0:0:0:0:
192,56,73784,1,0,0:0:0:0:
196,116,74127,1,0,0:0:0:0:
220,204,74470,1,2,0:0:0:0:
196,116,74641,1,2,0:0:0:0:
196,96,74812,1,2,0:0:0:0:
168,208,74984,1,2,0:0:0:0:
208,120,75327,1,0,0:0:0:0:
148,80,75412,1,0,0:0:0:0:
208,120,75498,1,0,0:0:0:0:
208,120,75670,1,0,0:0:0:0:
208,120,75841,1,0,0:0:0:0:
220,204,76527,5,4,0:0:0:0:
192,100,76870,1,6,0:0:0:0:
220,204,77212,1,0,0:0:0:0:
192,100,77555,1,0,0:0:0:0:
220,204,77727,1,2,0:0:0:0:
188,128,78070,1,2,0:0:0:0:
220,204,78241,1,0,0:0:0:0:
148,80,78327,1,0,0:0:0:0:
200,92,78412,1,0,0:0:0:0:
204,120,78584,1,2,0:0:0:0:
220,204,79098,1,0,0:0:0:0:
160,104,79441,1,0,0:0:0:0:
192,100,79612,1,2,0:0:0:0:
220,204,79955,1,0,0:0:0:0:
24,180,80127,1,0,0:0:0:0:
192,100,80298,1,0,0:0:0:0:
220,204,80641,1,2,0:0:0:0:
160,100,80812,1,2,0:0:0:0:
220,204,80984,1,2,0:0:0:0:
96,152,81155,1,2,0:0:0:0:
220,204,82012,1,4,0:0:0:0:
260,136,82355,1,6,0:0:0:0:
220,204,82698,1,0,0:0:0:0:
220,204,83212,1,6,0:0:0:0:
204,104,83555,1,4,0:0:0:0:
220,204,83898,1,6,0:0:0:0:
288,172,84070,1,6,0:0:0:0:
184,96,84584,1,0,0:0:0:0:
188,136,84927,1,2,0:0:0:0:
220,204,85098,1,0,0:0:0:0:
220,204,85441,1,2,0:0:0:0:
184,96,85612,1,2,0:0:0:0:
256,192,85955,12,0,87155,0:0:0:0:
156,160,87498,5,6,0:0:0:0:
192,116,88012,1,2,0:0:0:0:
156,160,88184,1,2,0:0:0:0:
156,160,88698,1,0,0:0:0:0:
192,136,89041,1,0,0:0:0:0:
156,160,89384,1,0,0:0:0:0:
156,160,89555,1,2,0:0:0:0:
156,160,90241,1,0,0:0:0:0:
176,116,90755,1,0,0:0:0:0:
156,160,90927,1,0,0:0:0:0:
156,160,91441,1,2,0:0:0:0:
176,116,91784,1,2,0:0:0:0:
156,160,92127,1,0,0:0:0:0:
156,160,92298,1,2,0:0:0:0:
156,160,92984,1,2,0:0:0:0:
180,116,93498,1,2,0:0:0:0:
156,160,93670,1,2,0:0:0:0:
156,160,94184,1,0,0:0:0:0:
180,116,94527,1,0,0:0:0:0:
156,160,94870,1,0,0:0:0:0:
156,160,95041,1,2,0:0:0:0:
156,160,95727,1,0,0:0:0:0:
180,116,96070,1,0,0:0:0:0:
220,164,96412,1,0,0:0:0:0:
220,164,96584,1,0,0:0:0:0:
220,164,96927,1,2,0:0:0:0:
208,128,97441,1,2,0:0:0:0:
140,144,97784,1,0,0:0:0:0:
224,208,97870,1,0,0:0:0:0:
224,208,97955,1,0,0:0:0:0:
140,152,98127,1,2,0:0:0:0:
88,136,98470,1,6,0:0:0:0:
