osu file format v14

[General]
AudioFilename: audio.mp3
AudioLeadIn: 0
PreviewTime: 36143
Countdown: 0
SampleSet: Soft
StackLeniency: 1
Mode: 0
LetterboxInBreaks: 0
WidescreenStoryboard: 1

[Editor]
Bookmarks: 58172,102057
DistanceSpacing: 1.43
BeatDivisor: 4
GridSize: 4
TimelineZoom: 1.299999

[Metadata]
Title:Shinsaku no Shiawase wa Kochira!
TitleUnicode:新作のしあわせはこちら!
Artist:Chino(CV.Minase Inori)
ArtistUnicode:チノ(CV.水瀬いのり)
Creator:pishifat
Version:Collab Hard
Source:ご注文はうさぎですか??
Tags:_83 bor borborygmos pyroflayer gochuumon wa usagi desu ka is the order a rabbit gochiusa ごちうさ
BeatmapID:1313959
BeatmapSetID:588701

[Difficulty]
HPDrainRate:6
CircleSize:4
OverallDifficulty:6.5
ApproachRate:7.5
SliderMultiplier:0.999999999999999
SliderTickRate:1

[Events]
//Background and Video events
0,0,"vlcsnap-00101.png",0,0
//Break Periods
//Storyboard Layer 0 (Background)
//Storyboard Layer 1 (Fail)
//Storyboard Layer 2 (Pass)
//Storyboard Layer 3 (Foreground)
//Storyboard Sound Samples

[TimingPoints]
572,342.857142857143,4,2,1,15,1,0
572,-66.6666666666667,4,2,1,15,0,0
1257,-66.6666666666667,4,2,1,30,0,0
1943,-100,4,2,1,45,0,0
3829,-100,4,2,1,45,0,0
4172,-100,4,2,1,45,0,0
6743,-100,4,2,1,35,0,0
7257,-100,4,2,1,45,0,0
10172,-100,4,2,1,50,0,0
12057,-100,4,2,1,25,0,0
13600,-100,4,2,1,45,0,0
13943,-100,4,2,1,60,0,0
14286,-66.6666666666667,4,2,1,70,0,1
23886,-76.9230769230769,4,2,1,70,0,0
25257,-66.6666666666667,4,2,1,70,0,1
33486,-66.6666666666667,4,2,1,70,0,1
34857,-66.6666666666667,4,2,1,50,0,1
35714,-76.9230769230769,4,2,1,60,0,1
36229,-66.6666666666667,4,2,1,60,0,0
36486,-66.6666666666667,4,2,1,5,0,0
36572,-66.6666666666667,4,2,1,60,0,0
41372,-66.6666666666667,4,2,1,60,0,0
41714,-66.6666666666667,4,2,1,60,0,0
42057,-66.6666666666667,4,2,1,60,0,0
45657,-66.6666666666667,4,2,1,50,0,0
46000,-66.6666666666667,4,2,1,40,0,0
46514,-76.9230769230769,4,2,1,40,0,0
47200,-66.6666666666667,4,2,1,60,0,0
47714,-66.6666666666667,4,2,1,60,0,0
52343,-66.6666666666667,4,2,1,60,0,0
52686,-66.6666666666667,4,2,1,60,0,0
53029,-66.6666666666667,4,2,1,60,0,0
56714,-66.6666666666667,4,2,1,20,0,0
56972,-66.6666666666667,4,2,1,60,0,0
57057,-66.6666666666667,4,2,1,20,0,0
57314,-66.6666666666667,4,2,1,60,0,0
57829,-66.6666666666667,4,2,1,30,0,0
58000,-66.6666666666667,4,2,1,50,0,0
74629,-66.6666666666667,4,2,1,55,0,0
77372,-66.6666666666667,4,2,1,60,0,0
79429,-66.6666666666667,4,2,1,60,0,0
79686,-66.6666666666667,4,2,1,5,0,0
79772,-66.6666666666667,4,2,1,60,0,0
79857,-66.6666666666667,4,2,1,20,0,0
80114,-66.6666666666667,4,2,1,70,0,1
85600,-66.6666666666667,4,2,1,70,0,1
85943,-66.6666666666667,4,2,1,70,0,1
89714,-66.6666666666667,4,2,1,55,0,0
90057,-66.6666666666667,4,2,1,55,0,0
90400,-66.6666666666667,4,2,1,55,0,0
90743,-66.6666666666667,4,2,1,65,0,0
91086,-66.6666666666667,4,2,1,70,0,1
96572,-66.6666666666667,4,2,1,70,0,1
96914,-66.6666666666667,4,2,1,70,0,1
100686,-66.6666666666667,4,2,1,60,0,0
101200,-66.6666666666667,4,2,1,40,0,0
101543,-66.6666666666667,4,2,1,60,0,0
101714,-66.6666666666667,4,2,1,60,0,0
102057,-66.6666666666667,4,2,1,75,0,1
111657,-66.6666666666667,4,2,1,50,0,1
113029,-100,4,2,1,50,0,0
124000,-66.6666666666667,4,2,1,40,0,0
124686,-66.6666666666667,4,2,1,35,0,0
125372,-66.6666666666667,4,2,1,30,0,0
126057,-66.6666666666667,4,2,1,25,0,0
126657,-66.6666666666667,4,2,1,20,0,0

[Colours]
Combo1 : 138,138,255
Combo2 : 177,254,141
Combo3 : 140,184,255
Combo4 : 224,116,191

[HitObjects]
95,72,572,5,0,0:0:0:0:
95,72,914,1,0,0:0:0:0:
307,8,1257,2,0,L|351:12,6,25.0000009536743,0|0|0|0|0|0|0,1:0|3:0|3:0|3:0|3:0|3:0|1:0,0:0:0:0:
237,154,1943,6,0,P|287:156|336:189,1,99.9999999999999,4|2,0:3|0:0,0:0:0:0:
328,181,2629,2,0,P|380:191|393:190,1,50,2|2,0:0|0:0,0:0:0:0:
328,271,2972,2,0,P|303:273|279:281,1,50,2|2,0:0|0:0,0:0:0:0:
208,328,3314,5,4,0:3:0:0:
208,328,3829,2,0,P|158:326|109:293,1,99.9999999999999,2|2,0:0|0:0,0:0:0:0:
83,218,4343,2,0,L|78:155,1,50,2|2,0:0|0:0,0:0:0:0:
75,82,4686,5,4,0:3:0:0:
276,102,5029,1,2,0:0:0:0:
140,22,5372,1,2,0:0:0:0:
223,32,5543,1,2,0:0:0:0:
161,225,5886,1,2,0:0:0:0:
161,225,6057,5,4,0:3:0:0:
391,34,6743,2,0,L|502:48,2,99.9999999999999,2|2|4,0:0|0:0|0:3,0:0:0:0:
228,169,7772,6,0,P|262:186|291:186,1,50,2|0,0:0|0:0,0:0:0:0:
344,229,8114,2,0,P|284:245|256:289,1,99.9999999999999,4|2,0:3|0:0,0:0:0:0:
509,222,8800,6,0,P|475:186|426:177,1,99.9999999999999,4|2,0:3|0:0,0:0:0:0:
387,102,9314,2,0,P|348:123|335:145,1,50,2|4,0:0|0:3,0:0:0:0:
272,86,9657,2,0,P|236:119|227:168,1,99.9999999999999,2|2,0:0|0:0,0:0:0:0:
253,254,10172,5,4,0:3:0:0:
253,254,10343,1,4,0:3:0:0:
177,292,10514,1,4,0:3:0:0:
177,292,10686,1,4,0:3:0:0:
99,328,10857,1,4,0:3:0:0:
99,328,11029,1,4,0:3:0:0:
24,367,11200,1,4,0:3:0:0:
24,367,11372,1,4,0:3:0:0:
23,282,11543,5,2,0:3:0:0:
326,233,13600,6,0,L|330:263,6,16.6666666666667,0|0|0|0|0|0|8,1:0|3:0|3:0|3:0|3:0|3:0|1:0,0:0:0:0:
64,180,14286,5,6,0:0:0:0:
53,340,14629,1,2,1:2:0:0:
126,127,14972,1,4,0:3:0:0:
37,260,15315,1,2,1:2:0:0:
208,109,15657,5,4,0:3:0:0:
126,127,15829,1,2,0:0:0:0:
64,180,16000,1,2,1:2:0:0:
37,260,16172,1,2,0:0:0:0:
53,340,16343,2,0,L|57:401,2,37.5000014305115,0|0|0,1:0|1:0|1:0,0:0:0:0:
136,315,16686,2,0,P|171:325|208:368,1,75.000002861023,0|0,1:0|1:0,0:0:0:0:
198,350,16943,1,0,1:0:0:0:
198,350,17029,5,6,0:0:0:0:
352,190,17372,1,2,1:2:0:0:
283,332,17714,1,4,0:3:0:0:
328,110,18057,1,2,1:2:0:0:
342,271,18400,5,4,0:3:0:0:
268,236,18572,1,2,0:0:0:0:
342,271,18743,1,2,1:2:0:0:
268,236,18914,1,2,0:0:0:0:
192,197,19086,2,0,L|187:149,2,37.5000014305115,0|0|0,1:0|1:0|1:0,0:0:0:0:
106,194,19429,2,0,P|66:211|38:248,1,75.000002861023,0|0,1:0|1:0,0:0:0:0:
45,233,19686,1,0,1:0:0:0:
45,233,19772,5,6,0:0:0:0:
226,326,20114,1,2,1:2:0:0:
319,145,20457,1,4,0:3:0:0:
138,52,20800,1,2,1:2:0:0:
200,241,21143,5,4,0:3:0:0:
236,170,21314,1,0,0:0:0:0:
165,133,21486,1,0,1:0:0:0:
129,205,21657,1,0,0:0:0:0:
129,288,21829,2,0,L|105:331,2,37.5000014305115,0|0|0,1:0|1:0|1:0,0:0:0:0:
194,351,22172,2,0,P|266:361|293:351,1,75.000002861023,0|0,1:0|1:0,0:0:0:0:
266,360,22429,1,0,1:0:0:0:
266,360,22514,5,6,0:2:0:0:
175,152,22857,1,2,1:2:0:0:
389,317,23200,1,4,0:3:0:0:
295,107,23543,1,2,1:2:0:0:
504,281,23886,6,0,L|509:212,1,64.9999970245362,2|2,0:3|0:0,0:0:0:0:
447,149,24229,2,0,L|442:81,1,64.9999970245362,2|2,0:0|0:0,0:0:0:0:
361,39,24572,2,0,L|357:94,2,32.4999985122681,0|0|0,3:0|3:0|3:0,0:0:0:0:
274,26,24914,2,0,P|214:39|196:58,1,64.9999970245362,0|0,3:0|3:0,0:0:0:0:
166,115,25257,5,6,0:0:0:0:
255,248,25600,1,2,1:2:0:0:
86,99,25943,1,4,0:3:0:0:
229,170,26286,1,2,1:2:0:0:
5,125,26628,5,4,0:3:0:0:
86,99,26800,1,0,0:0:0:0:
166,115,26971,1,2,1:2:0:0:
229,170,27143,1,0,0:0:0:0:
253,249,27314,2,0,L|318:261,2,37.5000014305115,0|0|0,1:0|1:0|1:0,0:0:0:0:
180,292,27657,2,0,P|150:309|90:307,1,75.000002861023,0|0,1:0|1:0,0:0:0:0:
110,312,27914,1,0,1:0:0:0:
111,313,28000,5,6,0:0:0:0:
140,93,28343,1,2,1:2:0:0:
76,237,28685,1,4,0:3:0:0:
217,61,29028,1,2,1:2:0:0:
85,153,29371,5,4,0:3:0:0:
159,187,29543,1,2,0:0:0:0:
85,153,29714,1,2,1:2:0:0:
159,187,29885,1,2,0:0:0:0:
238,220,30057,2,0,L|284:219,2,37.5000014305115,0|0|0,1:0|1:0|1:0,0:0:0:0:
254,132,30400,2,0,P|263:89|295:55,1,75.000002861023,0|0,1:0|1:0,0:0:0:0:
281,64,30657,1,0,1:0:0:0:
281,64,30743,5,6,0:0:0:0:
157,226,31085,1,2,1:2:0:0:
320,349,31428,1,4,0:3:0:0:
443,187,31771,1,0,1:2:0:0:
246,215,32114,5,4,0:3:0:0:
309,263,32285,1,2,0:0:0:0:
358,199,32457,1,2,1:2:0:0:
293,151,32628,1,2,0:0:0:0:
212,137,32800,2,0,L|173:105,2,37.5000014305115,0|0|0,1:0|1:0|1:0,0:0:0:0:
259,60,33143,2,0,P|296:43|350:45,1,75.000002861023,0|0,1:0|1:0,0:0:0:0:
416,64,33486,5,4,0:2:0:0:
416,64,33657,1,4,0:3:0:0:
457,141,33829,1,4,0:3:0:0:
457,141,34000,1,4,0:3:0:0:
450,226,34172,1,4,0:3:0:0:
450,226,34343,1,4,0:3:0:0:
402,292,34514,1,4,0:3:0:0:
451,363,34685,5,4,0:1:0:0:
329,40,35714,2,0,P|290:45|250:72,1,64.9999970245362,4|0,0:3|1:0,0:0:0:0:
267,56,36229,6,0,L|283:215,2,150.000005722046,4|2|4,0:0|1:2|0:3,0:0:0:0:
56,116,37257,1,0,1:0:0:0:
137,72,37429,2,0,L|147:165,1,75.000002861023,2|4,0:0|0:3,0:0:0:0:
124,229,37772,5,2,0:0:0:0:
93,315,37943,2,0,L|189:305,1,75.000002861023,2|2,1:2|0:0,0:0:0:0:
248,280,38286,2,0,L|322:287,1,75.000002861023,4|2,0:3|0:0,0:0:0:0:
396,332,38629,2,0,L|470:324,1,75.000002861023,2|2,1:2|0:0,0:0:0:0:
495,241,38972,5,4,0:3:0:0:
495,241,39314,2,0,P|474:191|481:155,1,75.000002861023,0|0,1:0|0:0,0:0:0:0:
487,87,39657,2,0,P|449:88|417:106,1,75.000002861023,4|0,0:3|0:0,0:0:0:0:
389,187,40000,1,0,1:3:0:0:
332,119,40172,6,0,P|333:81|351:49,1,75.000002861023,2|4,0:2|0:3,0:0:0:0:
241,100,40514,2,0,P|224:68|223:31,1,75.000002861023,2|0,0:0|1:0,0:0:0:0:
149,112,40857,2,0,P|117:92|98:60,1,75.000002861023,2|4,0:0|0:3,0:0:0:0:
98,60,41114,1,0,3:3:0:0:
98,60,41200,1,0,3:3:0:0:
34,127,41372,2,0,L|25:221,1,75.000002861023,0|0,1:0|0:0,0:0:0:0:
16,290,41714,6,0,L|169:271,1,150.000005722046,4|2,0:0|1:2,0:0:0:0:
242,309,42229,1,0,0:0:0:0:
325,293,42400,1,4,0:3:0:0:
193,103,42743,1,0,1:0:0:0:
142,181,42914,2,0,L|226:192,1,75.000002861023,2|4,0:0|0:3,0:0:0:0:
299,160,43257,5,2,0:0:0:0:
385,122,43429,2,0,L|378:220,1,75.000002861023,0|2,1:0|0:0,0:0:0:0:
471,181,43772,2,0,L|476:255,1,75.000002861023,4|2,0:3|0:0,0:0:0:0:
392,284,44114,2,0,L|386:358,1,75.000002861023,2|2,1:2|0:0,0:0:0:0:
303,315,44457,6,0,P|223:316|157:371,2,150.000005722046,4|0|4,0:3|1:0|0:3,0:0:0:0:
385,358,45314,1,0,3:0:0:0:
459,314,45486,1,0,1:0:0:0:
385,358,45657,5,4,0:0:0:0:
371,109,46514,2,0,L|364:44,1,64.9999970245362
293,144,46857,2,0,L|286:79,1,64.9999970245362
199,28,47200,6,0,L|44:46,1,150.000005722046,4|2,0:0|1:2,0:0:0:0:
0,113,47714,1,0,0:0:0:0:
20,194,47886,1,4,0:3:0:0:
218,226,48229,1,2,1:2:0:0:
145,275,48400,2,0,L|48:262,1,75.000002861023,2|4,0:0|0:3,0:0:0:0:
92,351,48743,5,2,0:0:0:0:
170,384,48914,2,0,L|244:374,1,75.000002861023,2|2,1:2|0:0,0:0:0:0:
304,310,49257,2,0,L|309:262,2,37.5000014305115,4|0|2,0:3|3:0|0:0,0:0:0:0:
369,366,49600,2,0,L|443:375,1,75.000002861023,2|2,1:2|0:0,0:0:0:0:
501,315,49943,5,4,0:3:0:0:
501,315,50286,2,0,P|481:264|487:222,1,75.000002861023,0|0,1:0|0:0,0:0:0:0:
464,147,50629,2,0,P|422:181|379:189,1,75.000002861023,4|0,0:3|0:0,0:0:0:0:
320,175,50972,1,0,1:0:0:0:
273,104,51143,6,0,P|211:80|178:86,1,75.000002861023,2|4,0:0|0:3,0:0:0:0:
149,143,51486,2,0,P|112:147|79:166,1,75.000002861023,2|0,0:0|1:0,0:0:0:0:
84,251,51829,2,0,P|54:273|36:306,1,75.000002861023,2|4,0:0|0:3,0:0:0:0:
36,306,52086,1,0,3:0:0:0:
36,306,52172,1,0,3:0:0:0:
110,372,52343,2,0,L|192:365,1,75.000002861023,0|0,1:0|0:0,0:0:0:0:
272,352,52686,6,0,L|287:174,2,150.000005722046,4|2|4,0:3|1:2|0:3,0:0:0:0:
453,184,53714,1,2,1:2:0:0:
374,230,53886,2,0,L|363:139,1,75.000002861023,2|4,0:2|0:3,0:0:0:0:
390,77,54229,5,2,0:0:0:0:
313,37,54400,2,0,L|230:31,1,75.000002861023,2|2,1:2|0:0,0:0:0:0:
179,98,54743,2,0,L|187:146,2,37.5000014305115,4|0|2,0:3|3:0|0:0,0:0:0:0:
106,52,55086,2,0,L|31:58,1,75.000002861023,4|2,0:3|0:0,0:0:0:0:
8,144,55429,6,0,L|13:192,3,37.5000014305115,0|0|0|0,3:0|3:0|3:0|3:0,0:0:0:0:
15,200,55772,1,4,1:2:0:0:
274,224,56114,1,4,0:3:0:0:
191,244,56286,2,0,L|180:344,1,75.000002861023,2|0,0:0|1:0,0:0:0:0:
131,384,56629,5,0,1:0:0:0:
157,149,56972,1,0,1:0:0:0:
366,35,57314,1,0,1:0:0:0:
32,60,58000,1,0,0:0:0:0:
111,24,58172,6,0,P|119:84|107:185,1,150.000005722046,6|0,0:0|1:0,0:0:0:0:
65,249,58686,1,4,0:3:0:0:
116,319,58857,2,0,P|120:256|154:157,1,150.000005722046,2|0,0:0|1:0,0:0:0:0:
223,131,59372,1,2,0:0:0:0:
230,45,59543,6,0,P|244:125|285:208,1,150.000005722046,4|0,0:3|1:0,0:0:0:0:
336,249,60057,1,4,0:3:0:0:
419,280,60229,2,0,P|343:281|262:315,1,150.000005722046,2|0,0:0|1:0,0:0:0:0:
373,164,60914,5,2,0:0:0:0:
506,301,61257,1,2,1:2:0:0:
373,164,61600,2,0,L|461:151,1,75.000002861023,2|0,0:0|0:0,0:0:0:0:
505,89,61943,1,2,1:2:0:0:
453,20,62114,6,0,P|397:49|283:60,1,150.000005722046,0|4,0:0|0:3,0:0:0:0:
230,30,62629,1,0,1:3:0:0:
230,30,62800,1,4,0:3:0:0:
139,35,62972,1,0,0:0:0:0:
139,35,63143,1,0,0:0:0:0:
54,75,63314,1,0,1:0:0:0:
220,164,63657,6,0,P|151:186|55:193,1,150.000005722046,4|2,0:0|1:2,0:0:0:0:
288,330,64343,2,0,P|357:308|453:301,1,150.000005722046,2|2,0:0|1:2,0:0:0:0:
193,284,65029,5,4,0:3:0:0:
138,350,65200,2,0,P|64:343|-11:391,2,150.000005722046,2|4|4,0:0|0:3|0:3,0:0:0:0:
193,284,66057,2,0,P|189:232|157:186,1,75.000002861023,2|2,1:2|0:0,0:0:0:0:
119,155,66400,5,6,0:0:0:0:
119,155,66914,1,4,0:3:0:0:
230,21,67257,2,0,L|217:104,2,75.000002861023,4|2|2,0:3|1:2|0:0,0:0:0:0:
314,60,67772,5,6,0:0:0:0:
314,60,68286,1,4,0:3:0:0:
84,0,68800,2,0,P|78:47|53:78,1,75.000002861023,2|0,0:0|0:0,0:0:0:0:
0,125,69143,5,4,0:0:0:0:
26,309,69486,2,0,L|101:295,1,75.000002861023,2|4,1:2|0:3,0:0:0:0:
177,335,69829,2,0,P|240:340|336:356,1,150.000005722046,2|2,0:0|1:2,0:0:0:0:
496,191,70514,6,0,P|438:218|347:252,1,150.000005722046,4|2,0:3|1:2,0:0:0:0:
271,212,71029,2,0,P|234:163|141:194,2,150.000005722046,4|4|2,0:3|0:3|0:0,0:0:0:0:
344,168,71886,6,0,P|374:93|368:20,1,150.000005722046,4|0,0:3|1:0,0:0:0:0:
512,194,72572,2,0,P|448:243|417:310,1,150.000005722046,2|0,0:0|1:0,0:0:0:0:
335,164,73257,6,0,P|356:86|343:14,1,150.000005722046,4|0,0:3|1:0,0:0:0:0:
512,202,73943,2,0,P|454:258|429:327,1,150.000005722046,2|0,0:0|1:0,0:0:0:0:
426,93,74629,5,4,0:0:0:0:
333,274,74972,1,4,0:3:0:0:
152,181,75314,1,4,0:3:0:0:
245,0,75657,1,4,0:3:0:0:
131,191,76000,6,0,P|82:142|50:61,1,150.000005722046,4|4,0:0|0:3,0:0:0:0:
142,50,76514,1,0,0:0:0:0:
182,134,76686,2,0,P|169:207|129:270,1,150.000005722046,4|4,0:3|0:3,0:0:0:0:
320,384,77372,5,4,0:0:0:0:
320,384,77543,1,4,0:3:0:0:
386,318,77714,1,4,0:3:0:0:
386,318,77885,1,4,0:3:0:0:
320,252,78058,1,4,0:3:0:0:
320,252,78229,1,4,0:3:0:0:
386,186,78401,1,4,0:3:0:0:
386,186,78572,1,4,0:3:0:0:
320,120,78743,5,6,0:3:0:0:
87,311,79429,2,0,P|70:343|123:384,1,112.500004291534,2|0,0:0|0:0,0:0:0:0:
110,362,79772,2,0,L|105:238,1,112.500004291534,8|0,0:0|0:0,0:0:0:0:
114,234,80114,5,6,0:0:0:0:
268,195,80457,1,2,1:2:0:0:
44,191,80800,1,4,0:3:0:0:
114,234,80972,1,2,0:0:0:0:
199,234,81143,1,2,1:2:0:0:
268,195,81314,6,0,P|325:208|400:266,1,150.000005722046,2|0,0:0|0:0,0:0:0:0:
512,95,82000,2,0,P|447:132|372:139,1,150.000005722046,2|2,0:0|1:2,0:0:0:0:
292,119,82514,1,2,1:2:0:0:
232,59,82685,1,2,0:2:0:0:
148,40,82857,5,4,0:3:0:0:
296,123,83200,1,6,1:2:0:0:
70,63,83543,1,4,0:3:0:0:
148,40,83715,1,2,0:2:0:0:
296,123,84057,1,2,0:2:0:0:
416,10,84400,6,0,L|503:0,2,75.000002861023,0|0|0,0:0|1:3|0:0,0:0:0:0:
383,91,84914,2,0,L|393:178,1,75.000002861023,4|0,0:3|0:0,0:0:0:0:
458,221,85257,1,0,1:0:0:0:
328,384,85600,5,4,0:0:0:0:
458,221,85943,2,0,P|443:264|392:291,1,75.000002861023,0|0,1:0|0:0,0:0:0:0:
336,302,86286,2,0,P|276:280|229:200,1,150.000005722046,4|2,0:3|1:2,0:0:0:0:
88,55,86972,6,0,P|114:112|91:202,1,150.000005722046,4|2,0:3|1:2,0:0:0:0:
32,258,87486,2,0,P|38:304|61:346,1,75.000002861023,2|0,0:0|0:0,0:0:0:0:
122,279,87829,2,0,P|158:307|204:320,1,75.000002861023,2|0,1:2|1:0,0:0:0:0:
200,230,88172,6,0,P|246:224|288:201,1,75.000002861023,2|4,0:0|0:0,0:0:0:0:
145,384,88686,1,0,1:0:0:0:
159,291,88857,1,2,0:0:0:0:
184,206,89029,1,6,0:0:0:0:
145,384,89372,1,0,1:0:0:0:
184,206,89714,6,0,L|121:195,3,37.5000014305115,0|0|0|0,3:0|3:0|3:0|3:0,0:0:0:0:
117,210,90057,2,0,L|54:221,3,37.5000014305115,8|8|8|8,0:3|0:3|0:3|0:3,0:0:0:0:
68,217,90400,1,4,0:3:0:0:
68,217,90486,1,4,0:3:0:0:
68,217,90572,1,4,0:3:0:0:
68,217,90658,1,4,0:3:0:0:
68,217,90743,1,8,0:0:0:0:
121,83,91086,5,6,0:0:0:0:
263,153,91429,1,2,1:2:0:0:
43,110,91772,1,4,0:3:0:0:
121,83,91944,1,2,0:0:0:0:
204,100,92115,1,2,1:2:0:0:
263,153,92286,6,0,P|321:152|406:110,1,150.000005722046,2|0,0:0|0:0,0:0:0:0:
490,294,92972,2,0,P|448:253|358:221,1,150.000005722046,2|2,0:0|1:2,0:0:0:0:
277,220,93486,1,2,1:2:0:0:
194,241,93657,1,2,0:0:0:0:
136,304,93829,5,4,0:3:0:0:
271,218,94172,1,6,1:2:0:0:
116,384,94515,1,4,0:3:0:0:
136,304,94687,1,2,0:0:0:0:
277,220,95029,1,2,0:0:0:0:
127,134,95372,6,0,L|110:218,2,75.000002861023,0|0|0,0:0|1:0|0:0,0:0:0:0:
191,75,95886,2,0,L|275:58,1,75.000002861023,4|0,0:3|0:0,0:0:0:0:
327,0,96229,1,0,1:0:0:0:
512,99,96572,5,4,0:0:0:0:
327,0,96914,2,0,P|365:20|399:75,1,75.000002861023,2|0,1:2|0:0,0:0:0:0:
408,135,97257,2,0,P|376:197|291:226,1,150.000005722046,4|2,0:3|1:2,0:0:0:0:
96,345,97943,6,0,P|154:307|242:324,1,150.000005722046,6|2,0:0|1:2,0:0:0:0:
296,382,98457,2,0,P|342:376|384:353,1,75.000002861023,2|0,0:0|0:0,0:0:0:0:
317,292,98800,2,0,P|345:256|358:210,1,75.000002861023,2|0,1:2|1:0,0:0:0:0:
268,214,99143,6,0,P|262:167|239:125,1,75.000002861023,2|4,0:0|0:0,0:0:0:0:
250,142,99486,1,4,0:3:0:0:
188,85,99657,1,4,0:3:0:0:
188,85,99829,1,8,0:3:0:0:
126,143,100000,1,4,0:0:0:0:
126,143,100172,1,4,0:3:0:0:
64,85,100343,1,4,0:3:0:0:
64,85,100515,1,8,0:3:0:0:
2,143,100686,5,2,0:3:0:0:
288,355,101543,1,4,0:3:0:0:
365,325,101714,2,0,P|382:287|384:241,1,75.000002861023,8|0,0:0|0:0,0:0:0:0:
394,173,102057,5,6,0:0:0:0:
234,184,102400,1,0,1:2:0:0:
447,111,102743,1,4,0:3:0:0:
314,200,103086,1,0,1:0:0:0:
465,29,103428,5,4,0:3:0:0:
447,111,103600,1,2,0:0:0:0:
394,173,103771,1,2,1:2:0:0:
314,200,103943,1,2,0:0:0:0:
230,187,104114,1,0,1:0:0:0:
230,187,104286,1,0,1:0:0:0:
259,101,104457,2,0,P|249:66|206:29,1,75.000002861023,0|0,1:0|1:0,0:0:0:0:
223,38,104714,1,0,1:0:0:0:
224,39,104800,5,4,0:0:0:0:
75,203,105143,1,2,1:2:0:0:
144,61,105485,1,4,0:3:0:0:
99,283,105828,1,2,1:2:0:0:
85,122,106171,5,4,0:3:0:0:
159,157,106343,1,2,0:0:0:0:
85,122,106514,1,2,1:2:0:0:
159,157,106685,1,2,0:0:0:0:
235,196,106857,1,0,1:0:0:0:
235,196,107029,1,0,1:0:0:0:
321,199,107200,2,0,P|361:182|389:145,1,75.000002861023,0|0,1:0|1:0,0:0:0:0:
382,160,107457,1,0,1:0:0:0:
382,160,107543,5,4,0:2:0:0:
201,67,107885,1,2,1:2:0:0:
108,248,108228,1,4,0:3:0:0:
289,341,108571,1,2,1:2:0:0:
227,152,108914,5,4,0:3:0:0:
191,223,109085,1,2,0:0:0:0:
262,260,109257,1,2,1:2:0:0:
298,188,109428,1,2,0:0:0:0:
298,105,109600,1,0,1:0:0:0:
298,105,109772,1,0,1:0:0:0:
233,42,109943,2,0,P|161:32|134:42,1,75.000002861023,0|0,1:0|1:0,0:0:0:0:
91,84,110285,5,4,0:0:0:0:
91,84,110457,1,4,0:3:0:0:
153,157,110629,1,4,0:3:0:0:
153,157,110801,1,4,0:3:0:0:
91,230,110972,1,4,0:3:0:0:
91,230,111144,1,4,0:3:0:0:
153,303,111314,1,4,0:3:0:0:
91,376,111486,5,4,0:1:0:0:
344,81,113029,5,6,0:0:0:0:
344,81,113372,1,2,0:0:0:0:
211,99,113714,1,4,0:3:0:0:
211,99,114057,1,2,0:0:0:0:
344,81,114400,6,0,L|273:91,1,50,4|2,0:3|0:0,0:0:0:0:
211,99,114743,2,0,L|161:92,1,50,2|4,0:0|0:3,0:0:0:0:
76,82,115086,2,0,P|16:119|2:149,1,99.9999999999999,6|0,0:3|0:0,0:0:0:0:
58,322,115772,5,4,0:3:0:0:
58,322,116115,1,2,0:0:0:0:
144,236,116457,1,4,0:3:0:0:
144,236,116800,1,2,0:0:0:0:
58,322,117143,6,0,L|64:257,1,50,4|2,0:3|0:0,0:0:0:0:
144,236,117486,2,0,L|151:297,1,50,2|4,0:0|0:3,0:0:0:0:
205,353,117829,2,0,P|247:375|300:367,1,99.9999999999999,6|0,0:3|0:0,0:0:0:0:
426,228,118514,5,6,0:0:0:0:
426,228,118857,1,2,0:0:0:0:
302,175,119200,1,4,0:3:0:0:
302,175,119543,1,2,0:0:0:0:
426,228,119886,6,0,L|370:219,1,50,4|2,0:3|0:0,0:0:0:0:
302,175,120229,2,0,L|245:184,1,50,2|0,0:0|0:0,0:0:0:0:
170,157,120572,2,0,P|166:104|199:55,1,99.9999999999999,6|0,0:3|0:0,0:0:0:0:
439,29,121257,5,4,0:3:0:0:
439,29,121600,1,2,0:0:0:0:
394,160,121943,1,4,0:3:0:0:
394,160,122286,1,2,0:0:0:0:
439,29,122629,6,0,L|434:93,2,50,4|0|2,0:0|0:0|0:0,0:0:0:0:
353,50,123143,1,4,0:3:0:0:
353,50,123657,5,4,0:3:0:0:
256,192,123743,12,0,126657,0:0:0:0:
