osu file format v14

[General]
AudioFilename: audio.mp3
AudioLeadIn: 0
PreviewTime: 36143
Countdown: 0
SampleSet: Soft
StackLeniency: 0.2
Mode: 0
LetterboxInBreaks: 0
WidescreenStoryboard: 1

[Editor]
Bookmarks: 102229,102314,102486,102657,102743,102914,103000,103172,103343,103429,103600
DistanceSpacing: 1.43
BeatDivisor: 4
GridSize: 4
TimelineZoom: 2.899999

[Metadata]
Title:Shinsaku no Shiawase wa Kochira!
TitleUnicode:新作のしあわせはこちら!
Artist:Chino(CV.Minase Inori)
ArtistUnicode:チノ(CV.水瀬いのり)
Creator:pishifat
Version:Insane
Source:ご注文はうさぎですか??
Tags:_83 bor borborygmos pyroflayer gochuumon wa usagi desu ka is the order a rabbit gochiusa ごちうさ
BeatmapID:1246270
BeatmapSetID:588701

[Difficulty]
HPDrainRate:6.5
CircleSize:4
OverallDifficulty:8
ApproachRate:9
SliderMultiplier:2
SliderTickRate:1

[Events]
//Background and Video events
0,0,"vlcsnap-00101.png",0,0
//Break Periods
//Storyboard Layer 0 (Background)
//Storyboard Layer 1 (Fail)
//Storyboard Layer 2 (Pass)
//Storyboard Layer 3 (Foreground)
//Storyboard Sound Samples

[TimingPoints]
572,342.857142857143,4,2,1,15,1,0
572,-200,4,2,1,15,0,0
1257,-125,4,2,1,30,0,0
1943,-133.333333333333,4,2,1,45,0,0
3829,-153.846153846153,4,2,1,45,0,0
4172,-133.333333333333,4,2,1,45,0,0
6743,-133.333333333333,4,2,1,35,0,0
7257,-133.333333333333,4,2,1,45,0,0
10172,-125,4,2,1,50,0,0
12057,-200,4,2,1,25,0,0
13600,-133.333333333333,4,2,1,45,0,0
13943,-200,4,2,1,60,0,0
14200,-200,4,2,1,5,0,0
14286,-111.111111111111,4,2,1,70,0,1
23886,-111.111111111111,4,2,1,70,0,0
25257,-111.111111111111,4,2,1,70,0,1
33486,-80,4,2,1,70,0,1
34857,-166.666666666667,4,2,1,50,0,1
35714,-166.666666666667,4,2,1,60,0,1
36229,-100,4,2,1,60,0,0
36486,-100,4,2,1,5,0,0
36572,-125,4,2,1,60,0,0
41372,-166.666666666667,4,2,1,60,0,0
41714,-100,4,2,1,60,0,0
42057,-125,4,2,1,60,0,0
45657,-166.666666666667,4,2,1,50,0,0
46000,-166.666666666667,4,2,1,40,0,0
47200,-100,4,2,1,60,0,0
47714,-125,4,2,1,60,0,0
52343,-166.666666666667,4,2,1,60,0,0
52686,-125,4,2,1,60,0,0
53029,-125,4,2,1,60,0,0
56714,-125,4,2,1,20,0,0
56972,-125,4,2,1,60,0,0
57057,-125,4,2,1,20,0,0
57314,-166.666666666667,4,2,1,60,0,0
57829,-166.666666666667,4,2,1,30,0,0
58000,-133.333333333333,4,2,1,50,0,0
74629,-111.111111111111,4,2,1,55,0,0
77372,-111.111111111111,4,2,1,60,0,0
79429,-66.6666666666667,4,2,1,60,0,0
79686,-66.6666666666667,4,2,1,5,0,0
79772,-66.6666666666667,4,2,1,60,0,0
79857,-66.6666666666667,4,2,1,20,0,0
80114,-111.111111111111,4,2,1,70,0,1
85600,-95.2380952380952,4,2,1,70,0,1
85943,-111.111111111111,4,2,1,70,0,1
89714,-76.9230769230769,4,2,1,55,0,0
90057,-90.9090909090909,4,2,1,55,0,0
90400,-111.111111111111,4,2,1,55,0,0
90743,-142.857142857143,4,2,1,65,0,0
91086,-111.111111111111,4,2,1,70,0,1
96572,-95.2380952380952,4,2,1,70,0,1
96914,-111.111111111111,4,2,1,70,0,1
100686,-90.9090909090909,4,2,1,60,0,0
101200,-90.9090909090909,4,2,1,40,0,0
101543,-90.9090909090909,4,2,1,60,0,0
101714,-200,4,2,1,60,0,0
102057,-100,4,2,1,75,0,1
111657,-166.666666666667,4,2,1,50,0,1
113029,-125,4,2,1,50,0,0
124000,-125,4,2,1,40,0,0
124686,-125,4,2,1,35,0,0
125372,-125,4,2,1,30,0,0
126057,-125,4,2,1,25,0,0
126657,-125,4,2,1,20,0,0

[Colours]
Combo1 : 138,138,255
Combo2 : 177,254,141
Combo3 : 140,184,255
Combo4 : 224,116,191

[HitObjects]
180,124,572,6,0,L|87:67,1,100
94,71,1257,2,0,L|58:49,6,26.6666666666667,0|0|0|0|0|0|0,1:0|3:0|3:0|3:0|3:0|3:0|1:0,3:0:0:0:
94,71,1943,6,0,P|134:81|182:84,1,75.0000028610231,4|0,0:3|0:0,0:0:0:0:
240,167,2286,2,0,P|202:170|166:180,1,75.0000028610231,2|0,0:0|0:0,0:0:0:0:
94,71,2629,1,2,0:0:0:0:
167,84,2800,1,2,0:0:0:0:
240,167,2972,1,2,0:0:0:0:
166,180,3143,1,2,0:0:0:0:
276,67,3314,5,4,0:3:0:0:
276,67,3829,2,0,P|349:55|404:35,1,129.999994049073,2|2,0:0|0:0,0:0:0:0:
276,67,4343,1,2,0:0:0:0:
401,36,4514,1,2,0:0:0:0:
370,162,4686,6,0,P|389:225|390:257,1,75.0000028610231,4|0,0:3|0:0,0:0:0:0:
488,130,5029,2,0,P|494:93|508:58,1,75.0000028610231,2|0,0:0|0:0,0:0:0:0:
370,162,5372,1,2,0:0:0:0:
488,130,5543,1,2,0:0:0:0:
488,130,5886,1,2,0:0:0:0:
401,36,6057,5,4,0:3:0:0:
488,130,6743,5,2,0:0:0:0:
370,162,7086,1,2,0:0:0:0:
401,36,7429,1,4,0:3:0:0:
341,296,7772,6,0,P|288:308|256:326,1,75.0000028610231,2|0,0:0|0:0,0:0:0:0:
189,174,8114,2,0,P|225:213|257:232,1,75.0000028610231,4|0,0:3|0:0,0:0:0:0:
162,367,8457,2,0,P|178:315|178:278,1,75.0000028610231,2|0,0:0|0:0,0:0:0:0:
415,299,8800,6,0,P|340:294|270:318,1,150.000005722046,4|2,0:3|0:0,0:0:0:0:
189,174,9314,2,0,P|225:213|257:232,1,75.0000028610231,2|4,0:0|0:3,0:0:0:0:
162,367,9657,2,0,P|178:315|178:278,1,75.0000028610231,2|0,0:0|0:0,0:0:0:0:
179,294,10000,1,2,0:0:0:0:
269,317,10172,5,4,0:3:0:0:
242,225,10343,1,4,0:3:0:0:
179,294,10514,1,4,0:3:0:0:
329,249,10686,5,8,0:3:0:0:
189,174,10857,5,4,0:3:0:0:
162,367,11029,1,4,0:3:0:0:
341,296,11200,1,4,0:3:0:0:
152,207,11372,5,8,0:3:0:0:
143,209,11458,1,4,0:3:0:0:
134,211,11543,1,2,0:3:0:0:
134,211,12057,5,0,0:0:0:0:
143,209,12228,1,0,0:0:0:0:
152,207,12400,1,0,0:0:0:0:
106,135,12572,6,0,L|209:110,1,100
203,112,13600,2,0,L|164:120,5,25.0000009536744,0|0|0|0|0|0,1:0|3:0|3:0|3:0|3:0|3:0,3:0:0:0:
254,57,13943,6,0,P|304:39|340:41,1,75,8|0,1:0|0:0,0:0:0:0:
326,39,14286,6,0,P|302:109|306:155,1,89.9999972534181,6|0,0:0|0:0,0:0:0:0:
158,279,14629,2,0,P|152:234|133:193,1,89.9999972534181,2|0,1:2|0:0,0:0:0:0:
340,44,14972,6,0,P|304:108|300:154,1,89.9999972534181,4|0,0:3|0:0,0:0:0:0:
173,274,15315,2,0,P|159:231|134:194,1,89.9999972534181,2|0,1:2|0:0,0:0:0:0:
354,53,15657,5,4,0:3:0:0:
301,123,15829,1,2,0:0:0:0:
188,267,16000,1,2,1:2:0:0:
134,194,16172,1,2,0:0:0:0:
25,19,16343,5,0,1:0:0:0:
25,19,16429,1,0,1:0:0:0:
25,19,16514,1,0,1:0:0:0:
76,90,16686,1,0,1:0:0:0:
47,179,16857,1,0,1:0:0:0:
47,179,16943,1,0,1:0:0:0:
47,179,17029,6,0,P|121:188|155:208,1,89.9999972534181,6|0,0:0|0:0,0:0:0:0:
313,77,17372,2,0,P|270:91|225:92,1,89.9999972534181,2|0,1:2|0:0,0:0:0:0:
51,164,17714,6,0,P|122:185|152:211,1,89.9999972534181,4|0,0:3|0:0,0:0:0:0:
309,62,18057,2,0,P|269:83|225:92,1,89.9999972534181,2|0,1:2|0:0,0:0:0:0:
57,150,18400,5,4,0:3:0:0:
133,194,18572,1,2,0:0:0:0:
302,48,18743,1,2,1:2:0:0:
225,92,18914,1,2,0:0:0:0:
276,232,19086,5,0,1:0:0:0:
276,232,19172,1,0,1:0:0:0:
276,232,19257,1,0,1:0:0:0:
356,282,19429,2,0,P|337:308|294:324,1,44.999998626709,0|0,1:0|1:0,1:0:0:0:
334,329,19600,2,0,P|310:343|267:340,1,44.999998626709,0|0,1:0|1:0,1:0:0:0:
159,340,19772,6,0,P|183:270|179:224,1,89.9999972534181,6|0,0:0|0:0,0:0:0:0:
332,89,20115,2,0,P|338:134|357:175,1,89.9999972534181,2|0,1:2|0:0,0:0:0:0:
145,335,20458,6,0,P|181:271|185:225,1,89.9999972534181,4|0,0:3|0:0,0:0:0:0:
318,95,20801,2,0,P|332:138|357:175,1,89.9999972534181,2|0,1:2|0:0,0:0:0:0:
131,326,21143,5,4,0:3:0:0:
184,256,21315,1,0,0:0:0:0:
303,102,21486,1,0,1:0:0:0:
357,175,21658,1,0,0:0:0:0:
477,346,21829,5,0,1:0:0:0:
477,346,21914,1,0,1:0:0:0:
477,346,22000,1,0,1:0:0:0:
397,286,22172,1,0,1:0:0:0:
315,322,22343,1,0,1:0:0:0:
315,322,22429,1,0,1:0:0:0:
315,322,22514,6,0,P|248:338|213:368,1,89.9999972534181,6|0,0:2|0:0,0:0:0:0:
78,190,22857,2,0,P|117:211|161:217,1,89.9999972534181,2|0,1:2|0:0,0:0:0:0:
309,307,23200,6,0,P|245:334|216:370,1,89.9999972534181,4|0,0:3|0:0,0:0:0:0:
83,175,23543,2,0,P|117:202|160:216,1,89.9999972534181,2|0,1:2|0:0,0:0:0:0:
378,101,23886,5,2,3:2:0:0:
362,26,24057,1,2,0:0:0:0:
456,123,24229,1,2,0:0:0:0:
433,196,24400,1,2,0:0:0:0:
442,307,24572,5,0,3:0:0:0:
442,307,24657,1,0,3:0:0:0:
442,307,24743,1,0,3:0:0:0:
503,254,24914,1,0,3:0:0:0:
503,254,25000,1,0,3:0:0:0:
503,254,25086,1,0,3:0:0:0:
354,293,25257,6,0,P|330:223|334:177,1,89.9999972534181,6|0,0:0|0:0,0:0:0:0:
187,52,25600,2,0,P|181:97|162:138,1,89.9999972534181,2|0,1:2|0:0,0:0:0:0:
368,288,25943,6,0,P|332:224|328:178,1,89.9999972534181,4|0,0:3|0:0,0:0:0:0:
201,58,26286,2,0,P|187:101|162:138,1,89.9999972534181,2|0,1:2|0:0,0:0:0:0:
382,279,26628,5,4,0:3:0:0:
329,209,26800,1,0,0:0:0:0:
216,65,26971,1,2,1:2:0:0:
162,138,27143,1,0,0:0:0:0:
53,313,27314,5,0,1:0:0:0:
53,313,27400,1,0,1:0:0:0:
53,313,27485,1,0,1:0:0:0:
138,278,27657,1,0,1:0:0:0:
196,360,27829,1,0,1:0:0:0:
196,360,27914,1,0,1:0:0:0:
196,360,28000,6,0,P|122:369|88:389,1,89.9999972534181,6|0,0:0|0:0,0:0:0:0:
11,188,28343,2,0,P|54:202|99:203,1,89.9999972534181,2|0,1:2|0:0,0:0:0:0:
192,345,28685,6,0,P|121:366|91:392,1,89.9999972534181,4|0,0:3|0:0,0:0:0:0:
15,173,29028,2,0,P|55:194|99:203,1,89.9999972534181,2|0,1:2|0:0,0:0:0:0:
186,331,29371,5,4,0:3:0:0:
110,375,29543,1,2,0:0:0:0:
22,159,29714,1,2,1:2:0:0:
99,203,29885,1,2,0:0:0:0:
247,51,30057,5,0,1:0:0:0:
247,51,30143,1,0,1:0:0:0:
247,51,30228,1,0,1:0:0:0:
160,93,30400,2,0,P|182:116|226:127,1,44.999998626709,0|0,1:0|1:0,1:0:0:0:
186,136,30571,2,0,P|211:146|253:138,1,44.999998626709,0|0,1:0|1:0,1:0:0:0:
359,80,30743,6,0,P|335:150|339:196,1,89.9999972534181,6|0,0:0|0:0,0:0:0:0:
186,331,31086,2,0,P|180:286|161:245,1,89.9999972534181,2|0,1:2|0:0,0:0:0:0:
373,85,31429,6,0,P|337:149|333:195,1,89.9999972534181,4|0,0:3|0:0,0:0:0:0:
200,325,31772,2,0,P|186:282|161:245,1,89.9999972534181,0|0,1:2|0:0,0:0:0:0:
387,94,32114,5,4,0:3:0:0:
334,164,32286,1,2,0:0:0:0:
215,318,32457,1,2,1:2:0:0:
161,245,32629,1,2,0:0:0:0:
54,85,32800,5,0,1:0:0:0:
54,85,32886,1,0,1:0:0:0:
54,85,32972,1,0,1:0:0:0:
138,117,33143,1,0,1:0:0:0:
230,157,33314,1,0,1:0:0:0:
230,157,33400,1,0,1:0:0:0:
230,157,33486,5,4,0:2:0:0:
257,81,33657,1,4,0:3:0:0:
238,232,33829,5,4,0:3:0:0:
158,246,34000,1,4,0:3:0:0:
302,183,34172,5,4,0:3:0:0:
354,245,34343,1,4,0:3:0:0:
256,192,34514,5,4,0:3:0:0:
256,192,34686,1,4,0:1:0:0:
256,192,34857,12,4,35714,0:3:0:0:
183,50,35886,6,0,P|157:61|117:68,1,59.9999981689454,0|0,1:0|0:0,0:0:0:0:
5,128,36229,6,0,P|81:143|59:220,1,150,4|0,0:0|0:0,0:0:0:0:
79,202,36572,2,0,P|156:225|177:223,1,80,2|0,1:2|0:0,0:0:0:0:
249,353,36914,2,0,P|230:274|218:257,1,80,4|0,0:3|0:0,0:0:0:0:
141,139,37257,1,0,1:0:0:0:
296,133,37429,6,0,P|237:188|228:207,1,80,2|4,0:0|0:3,0:0:0:0:
231,276,37772,1,2,0:0:0:0:
79,202,37943,5,2,1:2:0:0:
154,225,38114,1,2,0:0:0:0:
296,133,38287,1,4,0:3:0:0:
238,186,38458,1,2,0:0:0:0:
249,353,38629,1,2,1:2:0:0:
231,276,38800,1,2,0:0:0:0:
366,355,38972,6,0,P|404:367|443:370,1,80,4|0,0:3|0:0,0:0:0:0:
407,170,39314,1,0,1:0:0:0:
371,232,39486,1,0,0:0:0:0:
421,285,39657,1,4,0:3:0:0:
486,254,39829,1,0,0:0:0:0:
477,183,40000,1,0,1:3:0:0:
294,177,40172,6,4,P|255:189|216:192,1,80,2|4,0:2|0:3,0:0:0:0:
375,138,40514,2,0,P|383:99|400:63,1,80,2|0,0:0|1:0,0:0:0:0:
369,225,40857,2,0,P|398:251|420:284,1,80,2|4,0:0|0:3,0:0:0:0:
420,284,41114,1,0,3:3:0:0:
420,284,41200,1,0,3:3:0:0:
301,322,41372,6,0,P|339:336|357:350,1,59.9999981689454,0|0,1:0|0:0,0:0:0:0:
242,257,41714,6,0,P|170:250|134:187,1,150,4|0,0:0|0:0,0:0:0:0:
134,187,42057,1,2,1:2:0:0:
184,115,42229,1,0,0:0:0:0:
59,57,42400,2,0,P|127:39|163:48,1,80,4|0,0:3|0:0,0:0:0:0:
271,117,42743,1,0,1:0:0:0:
366,10,42914,6,0,P|433:28|460:54,1,80,2|4,0:0|0:3,0:0:0:0:
492,107,43257,1,2,0:0:0:0:
366,10,43429,5,0,1:0:0:0:
440,33,43600,1,2,0:0:0:0:
271,117,43772,1,4,0:3:0:0:
341,84,43943,1,2,0:0:0:0:
135,40,44114,1,2,1:2:0:0:
210,63,44286,1,2,0:0:0:0:
11,157,44457,6,0,P|79:139|115:148,1,80,4|0,0:3|0:0,0:0:0:0:
87,140,44714,1,0,3:0:0:0:
94,147,44800,2,0,P|132:158|163:182,1,80,0|0,1:0|0:0,0:0:0:0:
163,182,45057,1,0,3:0:0:0:
163,182,45143,5,4,0:3:0:0:
79,228,45314,1,0,3:0:0:0:
11,157,45486,1,0,1:0:0:0:
61,314,45657,5,4,0:0:0:0:
243,143,46000,2,0,L|254:201,4,59.9999981689454
243,143,46772,1,0,0:0:0:0:
250,150,46857,2,0,P|284:141|311:126,1,59.9999981689454
487,25,47200,6,0,P|416:40|388:106,1,150,4|0,0:0|0:0,0:0:0:0:
388,106,47543,1,2,1:2:0:0:
465,164,47714,1,0,0:0:0:0:
384,260,47886,2,0,P|351:237|312:230,1,80,4|0,0:3|0:0,0:0:0:0:
175,318,48229,1,2,1:2:0:0:
222,176,48400,6,0,P|182:183|150:205,1,80,2|4,0:0|0:3,0:0:0:0:
89,274,48743,1,2,0:0:0:0:
222,176,48914,5,2,1:2:0:0:
150,205,49086,1,2,0:0:0:0:
313,126,49257,2,0,L|335:79,2,40,4|0|2,0:3|3:0|0:0,0:0:0:0:
384,260,49600,1,2,1:2:0:0:
312,230,49772,1,2,0:0:0:0:
425,71,49943,6,0,P|464:70|500:87,1,80,4|0,0:3|0:0,0:0:0:0:
384,260,50286,1,0,1:0:0:0:
378,189,50457,1,0,0:0:0:0:
443,160,50629,1,4,0:3:0:0:
491,215,50800,1,0,0:0:0:0:
453,276,50972,1,0,1:0:0:0:
313,126,51143,6,0,P|273:125|237:142,1,80,2|4,0:0|0:3,0:0:0:0:
104,58,51486,2,0,P|123:92|155:115,1,80,2|0,0:0|1:0,0:0:0:0:
154,275,51829,2,0,P|174:240|177:201,1,80,2|4,0:0|0:3,0:0:0:0:
177,201,52086,1,0,3:0:0:0:
177,201,52172,1,0,3:0:0:0:
227,334,52343,6,0,P|268:303|278:287,1,59.9999981689454,0|0,1:0|0:0,0:0:0:0:
295,49,52686,5,4,0:3:0:0:
295,49,53029,2,0,P|313:127|325:144,1,80,2|0,1:2|0:0,0:0:0:0:
249,271,53371,2,0,P|307:215|316:196,1,80,4|0,0:3|0:0,0:0:0:0:
380,71,53714,1,2,1:2:0:0:
463,202,53886,6,0,P|385:178|364:180,1,80,2|4,0:2|0:3,0:0:0:0:
306,217,54229,1,2,0:0:0:0:
295,49,54400,5,2,1:2:0:0:
312,125,54571,1,2,0:0:0:0:
463,202,54743,2,0,L|409:188,2,40,4|0|2,0:3|3:0|0:0,0:0:0:0:
247,272,55086,1,4,0:3:0:0:
306,217,55257,1,2,0:0:0:0:
179,329,55429,5,0,3:0:0:0:
140,323,55514,1,0,3:0:0:0:
100,317,55600,1,0,3:0:0:0:
61,312,55686,1,0,3:0:0:0:
33,283,55771,1,4,1:2:0:0:
270,49,56114,5,4,0:3:0:0:
183,183,56286,2,0,P|201:123|199:76,1,80,2|0,0:0|1:0,0:0:0:0:
80,152,56629,6,0,P|95:140|109:125,1,40,0|0,1:0|0:0,0:0:0:0:
366,217,56972,2,0,P|358:199|355:175,1,40,0|0,1:0|0:0,0:0:0:0:
26,308,57314,6,0,P|94:275|211:281,1,179.999994506836,0|0,1:0|0:0,0:0:0:0:
196,276,58000,1,0,0:0:0:0:
311,350,58172,6,0,L|457:300,1,150.000005722046,6|0,0:0|1:0,0:0:0:0:
313,261,58686,1,4,0:3:0:0:
313,261,58857,2,0,L|459:211,1,150.000005722046,2|0,0:0|1:0,0:0:0:0:
321,167,59372,1,2,0:0:0:0:
321,167,59543,6,0,L|175:117,1,150.000005722046,4|0,0:3|1:0,0:0:0:0:
319,78,60057,1,4,0:3:0:0:
319,78,60229,2,0,L|173:28,1,150.000005722046,2|0,0:0|1:0,0:0:0:0:
45,276,60914,6,0,L|142:242,1,75.0000028610231,2|0,0:0|0:0,0:0:0:0:
195,222,61257,1,2,1:2:0:0:
32,192,61429,1,4,0:3:0:0:
32,192,61600,2,0,L|102:167,1,75.0000028610231,2|0,0:0|0:0,0:0:0:0:
19,107,61943,2,0,L|89:82,1,75.0000028610231,2|0,1:2|0:0,0:0:0:0:
176,51,62286,5,4,0:3:0:0:
260,159,62457,1,4,0:3:0:0:
334,168,62629,1,0,1:3:0:0:
387,116,62800,1,4,0:3:0:0:
381,41,62972,1,0,0:0:0:0:
319,1,63143,1,0,0:0:0:0:
247,23,63314,1,0,1:0:0:0:
491,196,63657,5,4,0:0:0:0:
491,196,64000,1,2,1:2:0:0:
417,77,64172,1,4,0:3:0:0:
338,109,64343,1,2,0:0:0:0:
247,23,64514,1,4,0:3:0:0:
220,102,64686,2,0,L|186:199,1,75.0000028610231,2|0,1:2|0:0,0:0:0:0:
0,160,65029,5,4,0:3:0:0:
27,239,65200,2,0,L|51:309,1,75.0000028610231,2|0,0:0|1:0,0:0:0:0:
89,159,65543,2,0,L|113:229,1,75.0000028610231,4|0,0:3|0:0,0:0:0:0:
149,79,65886,1,4,0:3:0:0:
179,154,66057,1,2,1:2:0:0:
149,79,66229,1,2,0:0:0:0:
207,233,66400,6,0,L|348:281,1,150.000005722046,6|0,0:0|1:0,0:0:0:0:
197,139,66914,2,0,L|267:163,1,75.0000028610231,4|0,0:3|0:0,0:0:0:0:
179,43,67257,1,4,0:3:0:0:
255,71,67428,1,2,1:2:0:0:
179,43,67600,1,2,0:0:0:0:
331,96,67772,6,0,L|472:47,1,150.000005722046,6|0,0:0|1:0,0:0:0:0:
335,10,68286,1,4,0:3:0:0:
335,10,68629,1,0,0:0:0:0:
264,34,68800,1,0,0:0:0:0:
193,59,68972,1,0,0:0:0:0:
33,155,69143,5,4,0:0:0:0:
33,155,69486,1,2,1:2:0:0:
115,286,69657,1,4,0:3:0:0:
142,208,69829,2,0,L|166:137,1,75.0000028610231,2|4,0:0|0:3,0:0:0:0:
207,280,70172,2,0,L|231:209,1,75.0000028610231,2|0,1:2|0:0,0:0:0:0:
364,333,70514,6,0,L|339:262,1,75.0000028610231,4|0,0:3|0:0,0:0:0:0:
313,182,70857,1,2,1:2:0:0:
435,278,71029,2,0,L|410:207,1,75.0000028610231,4|0,0:3|0:0,0:0:0:0:
507,221,71372,2,0,L|482:150,1,75.0000028610231,4|0,0:3|1:0,0:0:0:0:
453,69,71714,1,2,0:0:0:0:
313,182,71886,6,0,L|172:133,1,150.000005722046,4|0,0:3|1:0,0:0:0:0:
249,250,72400,1,4,0:3:0:0:
249,250,72572,2,0,L|108:201,1,150.000005722046,2|0,0:0|1:0,0:0:0:0:
312,312,73257,6,0,L|401:280,2,75.0000028610231,4|4|0,0:3|0:3|1:0,0:0:0:0:
376,380,73771,1,4,0:3:0:0:
376,380,73943,2,0,L|517:331,1,150.000005722046,2|0,0:0|1:0,0:0:0:0:
227,144,74629,5,4,0:0:0:0:
206,223,74972,1,4,0:3:0:0:
284,243,75314,1,4,0:3:0:0:
305,164,75657,1,4,0:3:0:0:
229,142,76000,5,4,0:0:0:0:
204,220,76343,1,4,0:3:0:0:
281,244,76685,1,4,0:3:0:0:
306,166,77028,1,4,0:3:0:0:
307,169,77372,5,4,0:0:0:0:
278,245,77543,1,4,0:3:0:0:
203,217,77714,1,4,0:3:0:0:
232,141,77886,1,4,0:3:0:0:
329,163,78057,5,4,0:3:0:0:
283,266,78228,1,4,0:3:0:0:
181,222,78400,1,4,0:3:0:0:
227,118,78571,1,4,0:3:0:0:
256,192,78743,5,6,0:3:0:0:
256,192,79429,6,0,B|306:185|366:238|313:258|355:326|440:320,1,225.000008583069,2|0,0:0|0:0,0:0:0:0:
420,320,79772,6,0,B|455:331|455:331|475:362,1,75.0000028610231,8|0,0:0|0:0,0:0:0:0:
184,277,80114,6,0,P|175:233|154:193,1,89.9999972534181,6|0,0:0|0:0,0:0:0:0:
328,29,80457,2,0,P|306:68|298:112,1,89.9999972534181,2|0,1:2|0:0,0:0:0:0:
184,277,80800,1,4,0:3:0:0:
154,193,80972,1,2,0:0:0:0:
328,29,81143,1,2,1:2:0:0:
298,112,81314,6,0,P|201:103|106:73,1,179.999994506836,2|0,0:0|0:0,0:0:0:0:
40,33,81829,1,0,1:0:0:0:
154,193,82000,2,0,P|81:215|39:249,1,89.9999972534181,2|0,0:0|0:0,0:0:0:0:
69,221,82257,1,0,1:0:0:0:
69,221,82343,1,2,1:2:0:0:
91,314,82514,1,2,1:2:0:0:
36,382,82686,1,2,0:2:0:0:
248,196,82857,6,0,P|262:238|260:283,1,89.9999972534181,4|0,0:3|0:0,0:0:0:0:
395,328,83200,2,0,P|424:294|464:273,1,89.9999972534181,6|0,1:2|0:0,0:0:0:0:
421,55,83543,1,4,0:3:0:0:
349,110,83714,2,0,P|387:134|431:143,1,89.9999972534181,2|0,0:2|1:0,0:0:0:0:
248,196,84057,6,0,P|210:220|167:229,1,89.9999972534181,2|4,0:2|0:3,0:0:0:0:
175,26,84400,1,0,0:0:0:0:
219,82,84572,1,0,1:3:0:0:
177,140,84743,1,0,0:0:0:0:
109,120,84914,2,0,L|50:168,2,44.999998626709,4|0|0,0:3|3:0|0:0,0:0:0:0:
107,49,85257,1,0,1:0:0:0:
148,330,85600,6,0,P|172:263|275:245,1,157.499995193482,4|0,0:0|0:0,0:0:0:0:
248,236,85943,1,0,1:0:0:0:
331,282,86114,1,0,0:0:0:0:
510,116,86286,2,0,P|459:121|404:161,1,89.9999972534181,4|0,0:3|0:0,0:0:0:0:
277,44,86629,2,0,P|306:85|368:113,1,89.9999972534181,2|0,1:2|0:0,0:0:0:0:
331,282,86972,6,0,P|352:235|345:167,1,89.9999972534181,4|0,0:3|0:0,0:0:0:0:
277,44,87314,1,2,1:2:0:0:
245,214,87486,2,0,P|240:163|200:107,1,89.9999972534181,2|0,0:0|0:0,0:0:0:0:
221,129,87743,1,0,1:0:0:0:
221,129,87829,1,2,1:2:0:0:
134,200,88000,2,0,P|104:158|42:130,1,89.9999972534181,0|2,1:0|0:0,0:0:0:0:
55,362,88343,6,0,P|149:323|232:321,1,179.999994506836,4|0,0:0|1:0,0:0:0:0:
323,351,88857,1,2,0:0:0:0:
245,214,89029,2,0,P|339:253|422:255,1,179.999994506836,6|0,0:0|1:0,0:0:0:0:
196,84,89714,6,0,P|197:51|213:24,1,64.9999970245363,0|0,3:0|3:0,3:0:0:0:
203,66,89886,2,0,P|218:38|247:24,1,64.9999970245363,0|0,3:0|3:0,3:0:0:0:
282,96,90057,6,8,P|307:85|335:86,1,55.0000016784668,8|8,0:3|0:3,0:3:0:0:
301,97,90229,2,8,P|328:99|352:114,1,55.0000016784668,8|8,0:3|0:3,0:3:0:0:
299,181,90400,6,4,P|315:195|326:216,1,44.999998626709,4|4,0:3|0:3,0:3:0:0:
305,202,90572,2,4,P|311:223|310:246,1,44.999998626709,4|4,0:3|0:3,0:3:0:0:
224,230,90743,6,0,P|219:247|211:262,1,34.9999989318848,8|4,0:0|3:3,0:0:0:0:
204,242,90915,2,0,P|191:254|177:263,1,34.9999989318848,4|4,3:0|3:0,0:0:0:0:
52,202,91086,6,0,P|73:202|148:169,1,89.9999972534181,6|0,0:0|0:0,0:0:0:0:
253,378,91429,2,0,P|212:358|167:355,1,89.9999972534181,2|0,1:2|0:0,0:0:0:0:
52,202,91772,1,4,0:3:0:0:
137,179,91943,1,2,0:0:0:0:
253,378,92114,1,2,1:2:0:0:
167,355,92286,6,0,P|205:245|253:180,1,179.999994506836,2|0,0:0|0:0,0:0:0:0:
325,148,92800,1,0,1:0:0:0:
421,302,92972,2,0,P|393:255|385:200,1,89.9999972534181,2|0,0:0|0:0,0:0:0:0:
385,220,93229,1,0,1:0:0:0:
385,220,93314,1,2,1:2:0:0:
463,179,93486,1,2,1:2:0:0:
478,91,93657,1,2,0:0:0:0:
255,45,93829,6,0,P|243:88|219:126,1,89.9999972534181,4|0,0:3|0:0,0:0:0:0:
304,240,94172,2,0,P|347:228|391:230,1,89.9999972534181,6|0,1:2|0:0,0:0:0:0:
483,15,94514,1,4,0:3:0:0:
389,24,94686,2,0,P|410:64|442:96,1,89.9999972534181,2|0,0:0|1:0,0:0:0:0:
440,318,95029,6,0,P|471:286|492:246,1,89.9999972534181,2|4,0:0|0:3,0:0:0:0:
291,107,95372,1,0,0:0:0:0:
248,162,95544,1,0,1:0:0:0:
288,221,95715,1,0,0:0:0:0:
357,201,95886,2,0,L|416:249,2,44.999998626709,4|0|0,0:3|1:0|0:0,0:0:0:0:
359,130,96229,1,0,1:0:0:0:
126,316,96572,6,0,P|67:305|20:221,1,157.499995193482,4|0,0:0|0:0,0:0:0:0:
21,226,96914,2,0,P|83:198|131:204,1,89.9999972534181,2|0,1:2|0:0,0:0:0:0:
192,56,97257,2,0,P|185:124|156:162,1,89.9999972534181,4|0,0:3|0:0,0:0:0:0:
251,286,97600,2,0,P|212:265|185:230,1,89.9999972534181,2|0,1:2|0:0,0:0:0:0:
341,13,97943,6,0,P|301:34|274:69,1,89.9999972534181,6|0,0:0|0:0,0:0:0:0:
413,196,98286,1,2,1:2:0:0:
476,134,98457,2,0,P|437:110|393:105,1,89.9999972534181,2|0,0:0|0:0,0:0:0:0:
393,105,98714,1,0,1:0:0:0:
393,105,98800,1,2,1:2:0:0:
507,324,98972,2,0,P|508:279|490:238,1,89.9999972534181,0|2,1:0|0:0,0:0:0:0:
239,81,99314,5,4,0:0:0:0:
202,208,99485,1,4,0:3:0:0:
325,176,99656,1,4,0:3:0:0:
133,164,99828,5,8,0:3:0:0:
355,215,99999,5,4,0:0:0:0:
260,35,100171,1,4,0:3:0:0:
151,208,100342,1,4,0:3:0:0:
346,136,100514,5,8,0:3:0:0:
352,129,100600,1,4,0:3:0:0:
357,122,100685,1,2,0:3:0:0:
357,122,101200,5,0,0:0:0:0:
352,129,101371,1,0,0:0:0:0:
245,177,101543,1,4,0:3:0:0:
149,102,101714,6,0,P|111:105|77:120,1,75,8|0,0:0|0:0,0:0:0:0:
77,120,102057,6,0,P|101:39|101:2,1,100,6|0,0:0|0:0,0:0:0:0:
245,177,102400,2,0,P|251:226|270:272,1,100,0|0,1:2|0:0,0:0:0:0:
60,114,102743,6,0,P|97:39|104:1,1,100,4|0,0:3|0:0,0:0:0:0:
228,182,103086,2,0,P|243:229|269:271,1,100,0|0,1:0|0:0,0:0:0:0:
45,105,103429,5,4,0:3:0:0:
101,23,103600,1,2,0:0:0:0:
213,190,103772,1,2,1:2:0:0:
269,271,103943,1,2,0:0:0:0:
399,110,104114,5,0,1:0:0:0:
462,34,104286,1,0,1:0:0:0:
399,110,104457,1,0,1:0:0:0:
303,86,104629,1,0,1:0:0:0:
303,86,104714,1,0,1:0:0:0:
303,86,104800,6,0,P|251:82|190:50,1,100,4|0,0:0|0:0,0:0:0:0:
386,229,105143,2,0,P|431:209|481:206,1,100,2|0,1:2|0:0,0:0:0:0:
298,102,105486,6,0,P|247:89|192:46,1,100,4|0,0:3|0:0,0:0:0:0:
391,245,105829,2,0,P|432:217|481:205,1,100,2|0,1:2|0:0,0:0:0:0:
289,117,106172,5,4,0:3:0:0:
207,62,106343,1,2,0:0:0:0:
399,260,106515,1,2,1:2:0:0:
480,205,106686,1,2,0:0:0:0:
222,282,106857,5,0,1:0:0:0:
182,374,107029,1,0,1:0:0:0:
51,243,107200,1,0,1:0:0:0:
51,243,107286,1,0,1:0:0:0:
51,243,107372,1,0,1:0:0:0:
51,243,107457,1,0,1:0:0:0:
51,243,107543,6,0,P|75:323|75:361,1,100,4|0,0:2|0:0,0:0:0:0:
219,186,107886,2,0,P|225:136|244:90,1,100,2|0,1:2|0:0,0:0:0:0:
34,249,108229,6,0,P|71:323|78:361,1,100,4|0,0:3|0:0,0:0:0:0:
202,181,108572,2,0,P|217:133|243:91,1,100,2|0,1:2|0:0,0:0:0:0:
19,258,108915,5,4,0:3:0:0:
75,340,109086,1,2,0:0:0:0:
187,173,109258,1,2,1:2:0:0:
243,92,109429,1,2,0:0:0:0:
385,230,109600,5,0,1:0:0:0:
453,296,109772,1,0,1:0:0:0:
385,230,109943,1,0,1:0:0:0:
314,168,110114,1,0,1:0:0:0:
314,168,110200,1,0,1:0:0:0:
314,168,110286,5,4,0:0:0:0:
351,73,110457,1,4,0:3:0:0:
206,153,110629,5,4,0:3:0:0:
108,165,110800,1,4,0:3:0:0:
251,252,110972,5,4,0:3:0:0:
311,329,111143,1,4,0:3:0:0:
256,192,111314,5,4,0:3:0:0:
256,192,111486,1,4,0:1:0:0:
256,192,111657,12,0,112686,0:0:0:0:
76,71,113029,5,6,0:0:0:0:
149,84,113372,1,2,0:0:0:0:
222,167,113714,1,4,0:3:0:0:
148,180,114057,1,2,0:0:0:0:
76,71,114400,5,4,0:3:0:0:
149,84,114572,1,2,0:0:0:0:
222,167,114743,1,2,0:0:0:0:
148,180,114914,1,4,0:3:0:0:
258,67,115086,5,6,0:3:0:0:
258,67,115429,1,0,0:0:0:0:
352,162,115772,5,4,0:3:0:0:
371,233,116114,1,2,0:0:0:0:
470,130,116457,1,4,0:3:0:0:
489,58,116800,1,2,0:0:0:0:
352,162,117143,5,4,0:3:0:0:
371,233,117314,1,2,0:0:0:0:
470,130,117486,1,2,0:0:0:0:
489,58,117657,1,4,0:3:0:0:
297,105,117829,5,6,0:3:0:0:
297,105,118172,1,0,0:0:0:0:
436,313,118514,5,6,0:0:0:0:
363,300,118857,1,2,0:0:0:0:
290,217,119199,1,4,0:3:0:0:
364,204,119542,1,2,0:0:0:0:
436,313,119885,5,4,0:3:0:0:
363,300,120057,1,2,0:0:0:0:
290,217,120228,1,2,0:0:0:0:
364,204,120399,1,4,0:3:0:0:
254,317,120571,5,6,0:3:0:0:
254,317,120914,1,0,0:0:0:0:
160,222,121257,5,4,0:3:0:0:
140,150,121599,1,2,0:0:0:0:
42,254,121942,1,4,0:3:0:0:
22,325,122285,1,2,0:0:0:0:
160,222,122628,5,4,0:0:0:0:
140,150,122799,1,2,0:0:0:0:
42,254,122971,1,2,0:0:0:0:
22,325,123142,1,4,0:3:0:0:
256,192,123657,5,4,0:3:0:0:
256,192,123743,12,0,126657,0:0:0:0:
