osu file format v14

[General]
AudioFilename: audio.mp3
AudioLeadIn: 0
PreviewTime: 36143
Countdown: 0
SampleSet: Soft
StackLeniency: 0.8
Mode: 0
LetterboxInBreaks: 0
WidescreenStoryboard: 1

[Editor]
Bookmarks: 572,36229,58172,79772,80114,113029
DistanceSpacing: 1
BeatDivisor: 4
GridSize: 16
TimelineZoom: 1.399999

[Metadata]
Title:Shinsaku no Shiawase wa Kochira!
TitleUnicode:新作のしあわせはこちら!
Artist:Chino(CV.Minase Inori)
ArtistUnicode:チノ(CV.水瀬いのり)
Creator:pishifat
Version:Collab Normal
Source:ご注文はうさぎですか??
Tags:_83 bor borborygmos pyroflayer gochuumon wa usagi desu ka is the order a rabbit gochiusa ごちうさ
BeatmapID:1313202
BeatmapSetID:588701

[Difficulty]
HPDrainRate:3
CircleSize:3.3
OverallDifficulty:4
ApproachRate:5
SliderMultiplier:1.3
SliderTickRate:2

[Events]
//Background and Video events
0,0,"vlcsnap-00101.png",0,0
//Break Periods
//Storyboard Layer 0 (Background)
//Storyboard Layer 1 (Fail)
//Storyboard Layer 2 (Pass)
//Storyboard Layer 3 (Foreground)
//Storyboard Sound Samples

[TimingPoints]
572,342.857142857143,4,2,1,15,1,0
572,-125,4,2,1,15,0,0
1943,-125,4,2,1,40,0,0
14286,-100,4,2,1,70,0,1
23886,-100,4,2,1,70,0,0
25257,-100,4,2,1,70,0,1
36229,-111.111111111111,4,2,1,60,0,0
80114,-100,4,2,1,70,0,1
89714,-100,4,2,1,55,0,0
91086,-100,4,2,1,70,0,1
100686,-100,4,2,1,60,0,0
102057,-100,4,2,1,75,0,1
113029,-125,4,2,1,50,0,0
126657,-125,4,2,1,5,0,0

[Colours]
Combo1 : 138,138,255
Combo2 : 177,254,141
Combo3 : 140,184,255
Combo4 : 224,116,191

[HitObjects]
89,70,572,5,0,0:0:0:0:
89,70,914,1,0,0:0:0:0:
182,24,1257,2,0,L|234:33,2,52,0|0|0,1:0|3:0|1:0,0:0:0:0:
89,70,1943,6,0,P|102:124|98:187,1,104,4|2,0:3|0:0,0:0:0:0:
53,265,2629,2,0,P|23:256|1:251,2,52,2|2|2,0:0|0:0|0:0,0:0:0:0:
89,302,3143,2,0,P|157:321|224:261,1,156,2|0,0:0|0:0,0:0:0:0:
262,242,3829,1,2,0:0:0:0:
362,267,4172,2,0,P|354:294|348:326,2,52,2|2|2,0:0|0:0|0:0,0:0:0:0:
400,232,4686,6,0,P|446:230|503:224,1,104,4|2,0:3|0:0,0:0:0:0:
503,119,5372,2,0,L|480:59,1,52,2|2,0:0|0:0,0:0:0:0:
391,23,5886,1,2,0:0:0:0:
345,46,6057,2,0,P|334:97|330:156,1,104,4|0,0:3|0:0,0:0:0:0:
237,196,6743,2,0,P|221:146|194:93,1,104,2|2,0:0|0:0,0:0:0:0:
110,43,7429,5,4,0:3:0:0:
110,43,7772,2,0,P|134:29|159:5,2,52,2|0|4,0:0|0:0|0:3,0:0:0:0:
8,64,8457,1,2,0:0:0:0:
25,166,8800,2,0,P|117:200|137:211,1,104,4|2,0:3|0:0,0:0:0:0:
163,234,9314,2,0,P|191:224|270:208,2,104,2|2|2,0:0|0:0|0:0,0:0:0:0:
159,286,10172,6,0,L|233:301,1,52,4|4,0:3|0:3,0:0:0:0:
256,318,10514,2,0,L|306:307,1,52,4|4,0:3|0:3,0:0:0:0:
353,286,10857,2,0,L|403:296,1,52,4|4,0:3|0:3,0:0:0:0:
450,318,11200,2,0,L|500:307,1,52,4|4,0:3|0:3,0:0:0:0:
496,358,11543,5,2,0:3:0:0:
256,192,13600,1,0,1:0:0:0:
256,192,13943,1,8,1:0:0:0:
286,65,14286,6,0,B|348:71|406:18|406:18|369:85|383:140|383:140|457:133|510:60,1,390,6|2,0:0|1:2,0:0:0:0:
491,209,15657,2,0,P|424:259|417:303,1,130,4|2,0:3|1:2,0:0:0:0:
303,236,16343,2,0,L|322:312,2,65,0|0|0,1:0|1:0|1:0,0:0:0:0:
213,331,17029,6,0,B|151:325|95:376|95:376|130:311|113:251|113:251|42:263|-11:336,1,390,6|2,0:0|1:2,0:0:0:0:
18,187,18400,2,0,L|92:162,2,65,4|2|2,0:3|0:0|1:2,0:0:0:0:
33,137,18914,1,2,0:0:0:0:
43,85,19086,2,0,P|103:69|157:28,1,130,0|0,1:0|1:0,0:0:0:0:
219,144,19772,6,0,B|264:101|263:25|263:25|289:95|339:122|339:122|383:62|365:-25,1,390,6|2,0:0|1:2,0:0:0:0:
493,33,21143,2,0,P|459:97|454:180,1,130,4|0,0:3|1:0,0:0:0:0:
467,282,21829,2,0,L|482:370,2,65,0|0|0,1:0|1:0|1:0,0:0:0:0:
343,240,22514,6,0,B|357:303|313:363|313:363|263:336|238:264|238:264|238:342|193:385,1,390,6|2,0:2|1:2,0:0:0:0:
68,348,23886,2,0,L|-20:363,2,65,2|2|2,0:3|0:0|0:0,0:0:0:0:
34,307,24400,1,2,0:0:0:0:
67,267,24572,1,0,3:0:0:0:
67,267,24914,1,0,3:0:0:0:
7,151,25257,6,0,B|74:121|88:56|88:56|138:82|152:163|152:163|221:135|237:63,1,390,6|2,0:0|1:2,0:0:0:0:
273,193,26629,2,0,P|248:258|250:328,1,130,4|2,0:3|1:2,0:0:0:0:
370,361,27314,2,0,L|438:370,2,65,0|0|0,1:0|1:0|1:0,0:0:0:0:
479,290,28000,6,0,B|429:235|443:170|443:170|387:173|341:241|341:241|290:188|304:116,1,390,6|2,0:0|1:2,0:0:0:0:
212,29,29372,2,0,L|203:112,2,65,4|2|2,0:3|0:0|1:2,0:0:0:0:
164,50,29886,1,2,0:0:0:0:
113,62,30057,2,0,P|40:57|1:16,1,130,0|0,1:0|1:0,0:0:0:0:
22,147,30743,6,0,B|36:212|105:240|105:240|119:159|169:133|169:133|183:198|250:228,1,390,6|0,0:0|1:2,0:0:0:0:
376,197,32114,2,0,P|397:128|374:60,1,130,4|2,0:3|1:2,0:0:0:0:
264,19,32800,2,0,L|181:15,2,65,0|0|0,1:0|1:0|1:0,0:0:0:0:
382,73,33486,6,0,P|393:104|396:144,1,65,4|4,0:2|0:3,0:0:0:0:
392,187,33829,2,0,P|386:219|368:255,1,65,4|4,0:3|0:3,0:0:0:0:
343,291,34172,2,0,P|321:315|288:337,1,65,4|4,0:3|0:3,0:0:0:0:
248,356,34514,2,0,P|216:365|177:368,1,65,4|4,0:3|0:1,0:0:0:0:
133,364,34857,1,0,0:0:0:0:
34,21,36229,5,4,0:0:0:0:
108,111,36572,2,0,P|159:112|245:71,2,116.999996429443,2|4|0,1:2|0:3|1:0,0:0:0:0:
62,123,37429,1,2,0:0:0:0:
72,240,37772,1,2,0:0:0:0:
117,228,37943,2,0,B|175:239|175:239|214:284|214:284|272:291|272:291|328:354,1,233.999992858887,2|2,1:2|1:2,0:0:0:0:
338,370,38800,1,2,0:0:0:0:
384,375,38972,5,4,0:3:0:0:
448,277,39314,1,0,1:0:0:0:
349,213,39657,2,0,P|332:131|351:79,1,116.999996429443,4|0,0:3|1:3,0:0:0:0:
365,60,40172,2,0,L|496:71,2,116.999996429443,2|2|2,0:2|0:0|0:0,0:0:0:0:
329,29,41029,1,4,0:3:0:0:
212,41,41372,1,0,1:0:0:0:
96,60,41714,5,4,0:0:0:0:
173,147,42057,2,0,L|161:242,1,58.4999982147217,2|0,1:2|0:0,0:0:0:0:
157,250,42400,2,0,P|214:224|296:236,1,116.999996429443,4|0,0:3|1:0,0:0:0:0:
310,243,42914,1,2,0:0:0:0:
405,320,43257,1,2,0:0:0:0:
441,290,43429,2,0,B|430:232|430:232|385:193|385:193|378:135|378:135|315:79,1,233.999992858887,0|2,1:0|1:2,0:0:0:0:
288,95,44286,1,2,0:0:0:0:
241,93,44457,5,4,0:3:0:0:
140,153,44800,1,0,1:0:0:0:
32,105,45143,2,0,L|24:33,2,58.4999982147217,4|0|0,0:3|3:0|1:0,0:0:0:0:
9,146,45657,1,4,0:0:0:0:
146,339,46514,6,0,B|200:361|200:361|228:310,1,116.999996429443
263,198,47200,5,4,0:0:0:0:
343,282,47543,2,0,L|425:271,1,58.4999982147217,2|0,1:2|0:0,0:0:0:0:
447,267,47886,2,0,P|405:208|399:135,1,116.999996429443,4|2,0:3|1:2,0:0:0:0:
404,119,48400,1,2,0:0:0:0:
486,36,48743,1,2,0:0:0:0:
445,13,48914,2,0,B|386:3|386:3|334:32|334:32|277:19|277:19|203:59,1,233.999992858887,2|2,1:2|1:2,0:0:0:0:
185,66,49772,1,2,0:0:0:0:
138,61,49943,5,4,0:3:0:0:
29,104,50286,1,0,1:0:0:0:
16,220,50629,2,0,P|49:266|126:297,1,116.999996429443,4|0,0:3|1:0,0:0:0:0:
147,283,51143,2,0,L|158:143,2,116.999996429443,2|2|2,0:0|0:0|0:0,0:0:0:0:
180,315,52000,1,4,0:3:0:0:
294,339,52343,1,0,1:0:0:0:
408,362,52686,5,4,0:3:0:0:
498,287,53029,2,0,P|487:240|451:172,2,116.999996429443,2|4|2,1:2|0:3|1:2,0:0:0:0:
494,333,53886,1,2,0:2:0:0:
396,268,54229,1,2,0:0:0:0:
350,278,54400,2,0,B|291:288|291:288|239:259|239:259|182:272|182:272|132:245,1,233.999992858887,2|4,1:2|0:3,0:0:0:0:
90,224,55257,1,2,0:0:0:0:
49,199,55429,6,0,L|41:122,2,58.4999982147217,0|0|4,3:0|3:0|1:2,0:0:0:0:
150,141,56114,1,4,0:3:0:0:
146,94,56286,1,2,0:0:0:0:
254,51,56629,5,0,1:0:0:0:
262,167,56972,1,0,1:0:0:0:
359,102,57314,1,0,1:0:0:0:
70,50,58172,6,0,P|49:146|5:220,2,175.499994644165,6|4|0,0:0|0:3|1:0,0:0:0:0:
110,73,59372,1,2,0:0:0:0:
154,58,59543,2,0,P|212:17|318:33,2,175.499994644165,4|4|0,0:3|0:3|1:0,0:0:0:0:
120,170,60914,6,0,L|98:311,1,116.999996429443,2|2,0:0|1:2,0:0:0:0:
211,327,61600,2,0,B|261:295|261:295|310:327|310:327,1,116.999996429443,2|2,0:0|1:2,0:0:0:0:
347,353,62114,1,0,0:0:0:0:
463,339,62457,2,0,B|433:290|433:290|460:236|460:236|425:189|425:189|458:141|458:141|421:83,1,292.499991073609,4|0,0:3|1:0,0:0:0:0:
312,65,63657,6,0,P|330:152|318:247,2,175.499994644165,4|4|2,0:0|0:3|1:2,0:0:0:0:
266,75,64857,1,0,0:0:0:0:
219,66,65029,2,0,P|159:28|50:39,2,175.499994644165,4|4|2,0:3|0:3|1:2,0:0:0:0:
266,75,66229,1,2,0:0:0:0:
315,115,66400,5,6,0:0:0:0:
315,115,66914,1,4,0:3:0:0:
230,195,67257,2,0,L|248:308,2,58.4999982147217,4|2|2,0:3|1:2|0:0,0:0:0:0:
185,165,67772,1,6,0:0:0:0:
185,165,68286,1,4,0:3:0:0:
86,201,68629,2,0,L|20:184,2,58.4999982147217,0|0|0,0:0|0:0|0:0,0:0:0:0:
89,247,69143,6,0,P|145:264|209:326,1,116.999996429443,4|2,0:0|1:2,0:0:0:0:
207,343,69657,1,4,0:3:0:0:
249,363,69829,2,0,P|306:356|358:328,1,116.999996429443,2|2,0:0|1:2,0:0:0:0:
436,241,70514,2,0,P|457:127|496:69,2,175.499994644165,4|4|0,0:3|0:3|1:0,0:0:0:0:
400,210,71714,1,2,0:0:0:0:
392,163,71886,6,0,P|371:78|342:32,1,116.999996429443,4|0,0:3|1:0,0:0:0:0:
247,10,72572,2,0,P|222:62|212:120,1,116.999996429443,2|0,0:0|1:0,0:0:0:0:
134,208,73257,2,0,P|129:150|109:95,1,116.999996429443,4|0,0:3|1:0,0:0:0:0:
8,45,73943,2,0,P|12:102|32:157,1,116.999996429443,2|0,0:0|1:0,0:0:0:0:
140,203,74629,5,4,0:0:0:0:
92,310,74972,1,4,0:3:0:0:
199,358,75314,1,4,0:3:0:0:
247,251,75657,1,4,0:3:0:0:
325,338,76000,2,0,P|410:309|482:294,1,116.999996429443,4|4,0:0|0:3,0:0:0:0:
482,296,76514,1,0,0:0:0:0:
497,251,76686,2,0,P|483:170|483:99,1,116.999996429443,4|4,0:3|0:3,0:0:0:0:
410,41,77372,6,0,L|388:125,1,58.4999982147217,4|4,0:0|0:3,0:0:0:0:
375,140,77714,2,0,L|313:201,1,58.4999982147217,4|4,0:3|0:3,0:0:0:0:
295,207,78057,2,0,L|210:228,1,58.4999982147217,4|4,0:3|0:3,0:0:0:0:
191,226,78400,2,0,L|107:202,1,58.4999982147217,4|4,0:3|0:3,0:0:0:0:
97,181,78743,1,6,0:3:0:0:
460,48,79772,1,8,0:0:0:0:
460,48,80114,6,0,B|422:105|350:106|350:106|413:154|385:243,1,260,6|4,0:0|0:3,0:0:0:0:
363,266,80972,2,0,P|319:282|270:272,1,65,2|2,0:0|1:2,0:0:0:0:
251,268,81314,2,0,B|149:246|175:338|44:291,1,195,2|0,0:0|1:0,0:0:0:0:
20,273,82000,1,2,0:0:0:0:
94,166,82343,2,0,L|82:97,2,65,2|2|2,1:2|1:2|0:2,0:0:0:0:
105,216,82857,5,4,0:3:0:0:
193,120,83200,1,6,1:2:0:0:
321,101,83543,1,4,0:3:0:0:
371,112,83714,1,2,0:2:0:0:
482,179,84057,2,0,P|509:227|522:305,1,130,2|0,0:2|0:0,0:0:0:0:
512,352,84572,1,0,1:3:0:0:
401,284,84914,2,0,L|391:363,2,65,4|0|0,0:3|0:0|1:0,0:0:0:0:
274,317,85600,5,4,0:0:0:0:
201,208,85943,2,0,P|132:194|101:204,1,65,0|0,1:0|0:0,0:0:0:0:
89,209,86286,2,0,P|126:113|111:62,1,130,4|2,0:3|1:2,0:0:0:0:
240,35,86972,2,0,P|295:66|360:66,1,130,4|2,0:3|1:2,0:0:0:0:
408,47,87486,2,0,P|375:102|374:166,1,130,2|2,0:0|1:2,0:0:0:0:
416,289,88172,1,2,0:0:0:0:
371,316,88343,6,0,L|229:336,1,130,4|0,0:0|1:0,0:0:0:0:
192,317,88857,1,2,0:0:0:0:
151,349,89029,2,0,L|9:369,1,130,6|0,0:0|1:0,0:0:0:0:
17,263,89714,6,0,P|36:236|68:211,1,65,0|0,3:0|3:0,0:0:0:0:
105,190,90057,2,0,P|134:177|174:171,1,65,8|8,0:3|0:3,0:0:0:0:
219,173,90400,2,0,P|251:177|281:189,1,65,4|4,0:3|0:3,0:0:0:0:
324,219,90743,1,8,0:0:0:0:
404,116,91086,6,0,B|403:33|339:16|339:16|294:78|219:52,1,260,6|4,0:0|0:3,0:0:0:0:
176,32,91943,2,0,P|112:42|90:53,1,65,2|2,0:0|1:2,0:0:0:0:
72,75,92286,2,0,B|43:175|136:150|92:281,1,195,2|0,0:0|1:0,0:0:0:0:
77,308,92972,1,2,0:0:0:0:
205,293,93314,2,0,L|199:374,2,65,2|2|2,1:2|1:2|0:0,0:0:0:0:
212,241,93829,5,4,0:3:0:0:
225,111,94172,1,6,1:2:0:0:
342,167,94515,1,4,0:3:0:0:
337,219,94686,1,2,0:0:0:0:
457,267,95029,2,0,L|469:135,1,130,2|0,0:0|0:0,0:0:0:0:
473,85,95544,1,0,1:0:0:0:
360,20,95886,2,0,L|353:89,2,65,4|0|0,0:3|0:0|1:0,0:0:0:0:
235,59,96572,5,4,0:0:0:0:
123,125,96914,2,0,P|51:103|4:61,2,130,2|4|2,1:2|0:3|1:2,0:0:0:0:
238,186,97943,2,0,P|261:254|249:328,1,130,6|2,0:0|1:2,0:0:0:0:
230,356,98457,2,0,L|376:371,1,130,2|2,0:0|1:2,0:0:0:0:
463,290,99143,1,2,0:0:0:0:
453,239,99314,6,0,P|441:208|423:181,1,65,4|4,0:0|0:3,0:0:0:0:
388,145,99657,2,0,P|362:124|333:110,1,65,4|4,0:3|0:3,0:0:0:0:
283,97,100000,2,0,P|250:92|218:95,1,65,4|4,0:0|0:3,0:0:0:0:
169,108,100342,2,0,P|139:121|112:139,1,65,4|4,0:3|0:3,0:0:0:0:
75,176,100685,1,2,0:3:0:0:
246,371,101543,1,4,0:3:0:0:
258,320,101714,1,8,0:0:0:0:
283,192,102057,6,0,B|218:174|162:224|162:224|143:154|196:109|196:109|128:79|55:137,1,390,6|0,0:0|1:0,0:0:0:0:
35,250,103429,2,0,P|56:302|129:357,1,130,4|2,0:3|1:2,0:0:0:0:
240,359,104114,2,0,L|245:294,2,65,0|0|0,1:0|1:0|1:0,0:0:0:0:
350,290,104800,6,0,B|385:227|460:247|460:247|465:183|390:145|390:145|479:144|494:58,1,390,4|2,0:0|1:2,0:0:0:0:
365,36,106172,2,0,P|303:67|277:128,1,130,4|2,0:3|1:2,0:0:0:0:
238,153,106686,1,2,0:0:0:0:
186,146,106857,2,0,L|175:71,2,65,0|0|0,1:0|1:0|1:0,0:0:0:0:
58,150,107543,6,0,B|-6:173|-25:247|-25:247|32:290|95:255|95:255|80:337|146:381,1,390,4|2,0:2|1:2,0:0:0:0:
218,277,108914,2,0,P|268:241|350:256,1,130,4|2,0:3|1:2,0:0:0:0:
447,310,109600,2,0,L|456:390,2,65,0|0|0,1:0|1:0|1:0,0:0:0:0:
449,179,110286,6,0,P|460:147|463:107,1,65,4|4,0:0|0:3,0:0:0:0:
423,86,110629,2,0,P|404:111|380:133,1,65,4|4,0:3|0:3,0:0:0:0:
335,102,110972,2,0,P|346:70|349:30,1,65,4|4,0:3|0:3,0:0:0:0:
309,8,111315,2,0,P|289:34|266:55,1,65,4|4,0:3|0:1,0:0:0:0:
216,38,111657,1,0,0:0:0:0:
49,319,113029,6,0,B|101:320|152:295|152:295|196:321|259:330|259:330,2,208,6|4|4,0:0|0:3|0:3,0:0:0:0:
21,287,114572,1,2,0:0:0:0:
36,248,114743,2,0,P|45:213|47:179,1,52,2|4,0:0|0:3,0:0:0:0:
295,120,115772,6,0,B|243:121|192:96|192:96|148:122|85:131|85:131,2,208,4|4|4,0:3|0:3|0:3,0:0:0:0:
323,88,117315,1,2,0:0:0:0:
308,49,117486,2,0,P|299:14|297:-20,1,52,2|4,0:0|0:3,0:0:0:0:
314,257,118514,6,0,B|366:256|417:281|417:281|461:255|524:246|524:246,2,208,6|4|4,0:0|0:3|0:3,0:0:0:0:
286,289,120057,1,2,0:0:0:0:
301,328,120228,2,0,P|310:363|312:397,1,52,2|4,0:0|0:3,0:0:0:0:
146,177,121257,6,0,B|198:176|249:201|249:201|293:175|356:166|356:166,2,208,4|4|4,0:3|0:3|0:0,0:0:0:0:
118,209,122800,1,2,0:0:0:0:
133,248,122971,2,0,P|142:283|144:317,1,52,2|4,0:0|0:3,0:0:0:0:
6,373,123657,1,4,0:3:0:0:
256,192,123829,12,0,126657,0:0:0:0:
