osu file format v14

[General]
AudioFilename: mpmpmpmpmpmp3.mp3
AudioLeadIn: 0
PreviewTime: 79970
Countdown: 0
SampleSet: Soft
StackLeniency: 0.7
Mode: 0
LetterboxInBreaks: 0
WidescreenStoryboard: 0

[Editor]
DistanceSpacing: 1
BeatDivisor: 2
GridSize: 8
TimelineZoom: 1

[Metadata]
Title:Shinsaku no Shiawase wa Kochira!
TitleUnicode:新作のしあわせはこちら!
Artist:Chino(CV.Minase Inori)
ArtistUnicode:チノ(CV.水瀬いのり)
Creator:Shioi
Version:Easy
Source:ご注文はうさぎですか??
Tags:gochuumon wa usagi desu ka is the order a rabbit gochiusa ごちうさ moeka no dap no_dap kibbleru scanter anais doormat
BeatmapID:949010
BeatmapSetID:441155

[Difficulty]
HPDrainRate:2
CircleSize:2.5
OverallDifficulty:2
ApproachRate:3
SliderMultiplier:1
SliderTickRate:2

[Events]
//Background and Video events
0,0,"bgbgbgbg.png",0,0
//Break Periods
//Storyboard Layer 0 (Background)
//Storyboard Layer 1 (Fail)
//Storyboard Layer 2 (Pass)
//Storyboard Layer 3 (Foreground)
//Storyboard Sound Samples

[TimingPoints]
513,342.857142857143,4,2,1,40,1,0
1884,-100,4,2,2,40,0,0
10113,-100,4,2,2,60,0,0
13541,-100,4,2,1,60,0,0
13884,-100,4,2,3,60,0,0
14227,-100,4,2,1,70,0,1
14913,-100,4,2,2,70,0,1
15084,-100,4,2,1,70,0,1
15598,-100,4,2,2,70,0,1
15770,-100,4,2,1,70,0,1
16113,-100,4,2,2,70,0,1
16284,-100,4,2,1,70,0,1
17655,-100,4,2,2,70,0,1
17827,-100,4,2,1,70,0,1
18341,-100,4,2,2,70,0,1
18513,-100,4,2,1,70,0,1
18855,-100,4,2,2,70,0,1
19027,-100,4,2,1,70,0,1
20398,-100,4,2,2,70,0,1
20570,-100,4,2,1,70,0,1
21084,-100,4,2,2,70,0,1
21255,-100,4,2,1,70,0,1
21598,-100,4,2,2,70,0,1
21770,-100,4,2,1,70,0,1
23141,-100,4,2,2,70,0,1
23313,-100,4,2,1,70,0,1
23827,-100,4,2,1,70,0,0
24341,-100,4,2,2,70,0,0
24513,-100,4,2,1,70,0,0
25198,-100,4,2,1,70,0,1
25884,-100,4,2,2,70,0,1
26055,-100,4,2,1,70,0,1
26570,-100,4,2,2,70,0,1
26741,-100,4,2,1,70,0,1
27084,-100,4,2,2,70,0,1
27255,-100,4,2,1,70,0,1
28627,-100,4,2,2,70,0,1
28798,-100,4,2,1,70,0,1
29313,-100,4,2,2,70,0,1
29484,-100,4,2,1,70,0,1
29827,-100,4,2,2,70,0,1
29998,-100,4,2,1,70,0,1
31370,-100,4,2,2,70,0,1
31541,-100,4,2,1,70,0,1
32055,-100,4,2,2,70,0,1
32227,-100,4,2,1,70,0,1
32570,-100,4,2,2,70,0,1
32741,-100,4,2,1,70,0,1
34627,-100,4,2,1,70,0,0
36170,-100,4,2,1,60,0,0
36855,-100,4,2,2,60,0,0
37027,-100,4,2,1,60,0,0
37370,-100,4,2,2,60,0,0
37541,-100,4,2,1,60,0,0
38227,-100,4,2,2,60,0,0
38398,-100,4,2,1,60,0,0
38913,-100,4,2,2,60,0,0
39084,-100,4,2,1,60,0,0
42341,-100,4,2,2,60,0,0
42684,-100,4,2,1,60,0,0
42855,-100,4,2,2,60,0,0
43027,-100,4,2,1,60,0,0
43713,-100,4,2,2,60,0,0
43884,-100,4,2,1,60,0,0
44398,-100,4,2,2,60,0,0
44570,-100,4,2,1,60,0,0
46455,-100,4,2,1,40,0,0
47141,-100,4,2,1,60,0,0
47827,-100,4,2,2,60,0,0
48170,-100,4,2,1,60,0,0
48341,-100,4,2,2,60,0,0
48513,-100,4,2,1,60,0,0
49884,-100,4,2,2,60,0,0
50227,-100,4,2,1,60,0,0
53313,-100,4,2,2,60,0,0
53484,-100,4,2,1,60,0,0
53827,-100,4,2,2,60,0,0
53998,-100,4,2,1,60,0,0
56227,-100,4,2,2,60,0,0
56398,-100,4,2,1,60,0,0
56570,-100,4,2,2,60,0,0
58113,-100,4,2,1,55,0,0
58627,-100,4,2,2,55,0,0
58970,-100,4,2,1,55,0,0
59484,-100,4,2,2,55,0,0
59827,-100,4,2,1,55,0,0
59998,-100,4,2,2,55,0,0
60341,-100,4,2,1,55,0,0
60855,-100,4,2,2,55,0,0
61198,-100,4,2,1,55,0,0
61370,-100,4,2,2,55,0,0
61713,-100,4,2,1,55,0,0
62227,-100,4,2,2,55,0,0
62398,-100,4,2,1,55,0,0
62741,-100,4,2,2,55,0,0
62913,-100,4,2,1,55,0,0
64113,-100,4,2,2,55,0,0
64455,-100,4,2,1,55,0,0
64970,-100,4,2,2,55,0,0
65141,-100,4,2,1,55,0,0
65484,-100,4,2,2,55,0,0
65827,-100,4,2,1,55,0,0
66855,-100,4,2,2,55,0,0
67198,-100,4,2,1,55,0,0
68227,-100,4,2,2,55,0,0
68570,-100,4,2,1,55,0,0
69598,-100,4,2,2,55,0,0
69770,-100,4,2,1,55,0,0
70455,-100,4,2,2,55,0,0
70798,-100,4,2,1,55,0,0
70970,-100,4,2,2,55,0,0
71313,-100,4,2,1,55,0,0
71827,-100,4,2,2,55,0,0
72170,-100,4,2,1,55,0,0
72341,-100,4,2,2,55,0,0
72513,-100,4,2,1,55,0,0
73198,-100,4,2,2,55,0,0
73370,-100,4,2,1,55,0,0
73713,-100,4,2,2,55,0,0
74055,-100,4,2,1,55,0,0
74570,-100,4,2,1,60,0,0
77313,-100,4,2,1,65,0,0
78684,-100,4,2,2,65,0,0
79370,-100,4,2,1,65,0,0
79713,-100,4,2,3,65,0,0
80055,-100,4,2,1,70,0,1
80741,-100,4,2,2,70,0,1
80913,-100,4,2,1,70,0,1
81255,-100,4,2,2,70,0,1
81427,-100,4,2,1,70,0,1
83484,-100,4,2,2,70,0,1
83827,-100,4,2,1,70,0,1
83998,-100,4,2,2,70,0,1
84341,-100,4,2,1,70,0,1
86227,-100,4,2,2,70,0,1
86398,-100,4,2,1,70,0,1
86913,-100,4,2,2,70,0,1
87084,-100,4,2,1,70,0,1
89655,-100,4,2,1,70,0,0
90684,-100,4,2,3,70,0,0
90770,-100,4,2,1,70,0,0
91027,-100,4,2,1,70,0,1
91713,-100,4,2,2,70,0,1
91884,-100,4,2,1,70,0,1
92227,-100,4,2,2,70,0,1
92398,-100,4,2,1,70,0,1
94455,-100,4,2,2,70,0,1
94798,-100,4,2,1,70,0,1
94970,-100,4,2,2,70,0,1
95313,-100,4,2,1,70,0,1
97198,-100,4,2,2,70,0,1
97370,-100,4,2,1,70,0,1
100627,-100,4,2,2,70,0,0
101655,-100,4,2,3,70,0,0
101998,-100,4,2,1,70,0,1
102684,-100,4,2,2,70,0,1
102855,-100,4,2,1,70,0,1
103370,-100,4,2,2,70,0,1
103541,-100,4,2,1,70,0,1
103884,-100,4,2,2,70,0,1
104055,-100,4,2,1,70,0,1
105427,-100,4,2,2,70,0,1
105598,-100,4,2,1,70,0,1
106113,-100,4,2,2,70,0,1
106284,-100,4,2,1,70,0,1
106627,-100,4,2,2,70,0,1
106798,-100,4,2,1,70,0,1
108170,-100,4,2,2,70,0,1
108341,-100,4,2,1,70,0,1
108855,-100,4,2,2,70,0,1
109027,-100,4,2,1,70,0,1
109370,-100,4,2,2,70,0,1
109541,-100,4,2,1,70,0,1
111427,-100,4,2,1,70,0,0
112970,-100,4,2,2,50,0,0
125484,-100,4,2,1,50,0,0

[Colours]
Combo1 : 141,28,255
Combo2 : 255,106,106
Combo3 : 34,183,255
Combo4 : 255,255,94
Combo5 : 60,255,60

[HitObjects]
48,90,1884,6,0,P|233:152|188:325,1,400,10|10,0:0|0:0,0:0:0:0:
464,90,4627,6,0,P|279:152|324:325,1,400,10|10,0:0|0:0,0:0:0:0:
102,52,7370,6,0,P|81:147|56:252,1,200,10|8,0:0|0:0,0:0:0:0:
125,320,8398,1,0,0:0:0:0:
201,255,8741,2,0,P|311:248|440:227,1,200,10|8,0:0|0:0,0:0:0:0:
472,166,9770,1,0,0:0:0:0:
422,79,10113,6,0,B|374:74|374:74|301:95,1,100,10|8,0:0|0:0,0:0:0:0:
247,153,10798,2,0,B|199:158|199:158|149:143,1,100,10|8,0:0|0:0,0:0:0:0:
83,67,11484,1,10,0:0:0:0:
248,297,14227,6,0,L|380:280,1,100,12|8,0:1|0:0,0:0:0:0:
434,333,14913,2,0,P|443:281|423:216,1,100,10|8,0:0|0:0,0:0:0:0:
349,179,15598,2,0,L|120:206,1,200,10|8,0:0|0:3,0:0:0:0:
65,149,16627,1,8,0:0:0:0:
106,57,16970,6,0,P|161:79|239:90,1,100,12|8,0:1|0:0,0:0:0:0:
299,69,17655,2,0,P|345:49|393:38,1,100,10|8,0:0|0:0,0:0:0:0:
480,89,18341,2,0,P|456:188|447:312,1,200,10|8,0:0|0:3,0:0:0:0:
376,356,19370,1,8,0:0:0:0:
287,309,19713,6,0,P|233:320|161:353,2,100,12|8|10,0:1|0:0|0:0,0:0:0:0:
369,252,20741,1,8,0:0:0:0:
466,276,21084,2,0,P|456:198|325:161,1,200,10|8,0:0|0:3,0:0:0:0:
274,211,22113,1,8,0:0:0:0:
212,132,22455,6,0,P|231:69|244:13,2,100,12|8|10,0:1|0:0|0:0,0:0:0:0:
159,217,23484,2,0,P|96:201|24:195,1,100,8|12,0:0|0:1,0:0:0:0:
351,54,25198,6,0,P|348:112|331:182,1,100,12|8,0:1|0:0,0:0:0:0:
248,193,25884,2,0,P|249:242|259:292,1,100,10|8,0:0|0:0,0:0:0:0:
337,353,26570,2,0,L|176:334,2,150,10|2|8,0:0|0:0|0:0,0:0:0:0:
427,309,27941,6,0,P|437:258|429:194,1,100,12|8,0:1|0:0,0:0:0:0:
374,129,28627,2,0,P|325:118|275:122,1,100,10|8,0:0|0:0,0:0:0:0:
217,204,29313,2,0,P|224:267|229:357,2,150,10|2|8,0:0|0:0|0:0,0:0:0:0:
169,115,30684,5,12,0:1:0:0:
93,179,31027,2,0,P|40:155|-5:144,2,100,8|10|8,0:0|0:0|0:0,0:0:0:0:
174,237,32055,2,0,P|250:211|344:192,2,150,10|2|8,0:0|0:0|0:0,0:0:0:0:
92,295,33427,5,12,0:1:0:0:
71,197,33770,1,8,0:1:0:0:
55,98,34113,2,0,P|132:82|155:145,1,150,8|12,0:1|0:1,0:0:0:0:
307,273,36170,6,0,L|326:153,1,100,12|8,0:1|0:0,0:0:0:0:
379,91,36855,2,0,L|201:66,2,150,10|2|8,0:0|0:0|0:0,0:0:0:0:
438,171,38227,2,0,L|422:269,1,100,10|8,0:0|0:0,0:0:0:0:
344,332,38913,5,10,0:0:0:0:
261,275,39255,2,0,B|184:259|184:259|48:291,1,200,8|8,0:0|0:0,0:0:0:0:
31,192,40284,2,0,L|52:54,1,100,8|8,0:1|0:0,0:0:0:0:
143,71,40970,2,0,L|127:169,1,100,8|8,0:3|0:0,0:0:0:0:
162,263,41655,6,0,P|254:316|363:283,1,200,12|10,0:1|0:0,0:0:0:0:
426,243,42684,1,8,0:0:0:0:
450,146,43027,2,0,P|392:152|328:141,1,100,8|8,0:1|0:0,0:0:0:0:
316,52,43713,2,0,P|266:47|216:53,1,100,10|8,0:0|0:0,0:0:0:0:
136,113,44398,5,10,0:0:0:0:
212,177,44741,2,0,B|219:255|178:287|178:287|115:234|39:276,1,250,8|12,0:3|0:1,0:0:0:0:
294,343,46455,2,0,P|319:247|406:254,1,200,10|12,0:1|0:1,0:0:0:0:
474,180,47484,6,0,L|466:44,1,100,8|10,0:0|0:0,0:0:0:0:
380,32,48170,1,8,0:0:0:0:
289,75,48513,2,0,B|202:87|202:87|158:29|73:43,1,200,8|8,0:1|0:3,0:0:0:0:
116,140,49541,1,8,0:0:0:0:
44,209,49884,6,0,P|56:261|60:320,1,100,10|8,0:0|0:0,0:0:0:0:
149,351,50570,2,0,P|205:340|324:345,2,150,8|2|8,0:1|0:0|0:0,0:0:0:0:
49,362,51941,2,0,P|57:310|65:220,1,100,8|8,0:3|0:0,0:0:0:0:
30,168,52627,5,12,0:1:0:0:
65,74,52970,2,0,B|100:87|113:113|113:113|191:71|266:101,1,200,8|8,0:0|0:0,0:0:0:0:
309,170,53998,2,0,P|301:236|292:293,2,100,8|8|8,0:1|0:0|0:3,0:0:0:0:
371,92,55027,1,8,0:0:0:0:
278,53,55370,6,0,P|242:38|169:44,1,100,8|12,0:3|0:1,0:0:0:0:
107,106,56055,2,0,P|130:190|137:276,1,150,8|10,0:1|0:0,0:0:0:0:
191,335,56913,2,0,P|236:325|314:323,1,100,10|10,0:0|0:0,0:0:0:0:
330,74,58113,6,0,L|137:41,2,150,12|10|8,0:1|0:0|0:0,0:0:0:0:
393,151,59484,2,0,L|414:302,2,150,10|10|8,0:0|0:0|0:0,0:0:0:0:
305,200,60855,6,0,P|203:200|140:108,1,200,10|0,0:0|0:0,0:0:0:0:
176,34,61884,1,8,0:0:0:0:
252,97,62227,2,0,P|333:75|436:60,2,150,10|10|10,0:0|0:0|0:0,0:0:0:0:
175,161,63598,6,0,P|163:267|239:352,1,200,12|0,0:1|0:0,0:0:0:0:
304,293,64627,1,8,0:0:0:0:
388,345,64970,2,0,P|442:263|428:167,1,200,10|0,0:0|0:0,0:0:0:0:
346,108,65998,1,8,0:0:0:0:
261,160,66341,6,0,P|247:92|224:7,2,150,12|10|8,0:1|0:0|0:0,0:0:0:0:
189,229,67713,2,0,P|116:209|43:194,2,150,12|10|8,0:1|0:0|0:1,0:0:0:0:
252,306,69084,6,0,P|354:353|457:187,1,300,12|8,0:1|0:0,0:0:0:0:
391,164,70455,2,0,P|373:52|364:6,2,150,10|10|8,0:0|0:0|0:0,0:0:0:0:
312,226,71827,6,0,P|224:208|194:194,1,100,10|8,0:0|0:0,0:0:0:0:
164,117,72513,2,0,P|114:123|67:138,1,100,0|8,0:0|0:0,0:0:0:0:
62,238,73198,2,0,B|90:297|88:354|88:354|133:335|208:344,1,200,10|0,0:0|0:0,0:0:0:0:
265,355,74227,1,8,0:0:0:0:
294,258,74570,6,0,P|339:280|364:322,1,100,12|8,0:1|0:1,0:0:0:0:
428,245,75255,2,0,P|449:200|491:175,1,100,8|8,0:1|0:1,0:0:0:0:
406,120,75941,2,0,P|361:98|336:56,1,100,12|8,0:1|0:1,0:0:0:0:
275,137,76627,2,0,P|253:181|211:206,1,100,8|8,0:1|0:1,0:0:0:0:
112,186,77313,6,0,L|128:284,1,100,12|8,0:1|0:1,0:0:0:0:
212,339,77998,2,0,L|310:322,1,100,8|8,0:1|0:1,0:0:0:0:
378,248,78684,1,10,0:0:0:0:
162,76,80055,6,0,L|152:214,1,100,12|8,0:1|0:0,0:0:0:0:
170,274,80741,2,0,P|68:229|56:166,2,150,10|2|8,0:0|0:0|0:0,0:0:0:0:
257,224,82113,2,0,P|265:284|278:359,1,100,8|8,0:3|0:0,0:0:0:0:
371,330,82798,5,12,0:1:0:0:
447,265,83141,2,0,B|448:217|431:191|431:191|451:159|451:159|432:122|440:90,1,150,8|2,0:0|0:0,0:0:0:0:
366,57,83998,2,0,P|303:37|206:45,1,150,2|10,0:0|0:0,0:0:0:0:
134,93,84855,2,0,P|127:142|132:191,1,100,8|10,0:3|0:0,0:0:0:0:
203,263,85541,5,12,0:1:0:0:
285,206,85884,2,0,L|413:214,2,100,8|10|8,0:0|0:0|0:0,0:0:0:0:
203,263,86913,2,0,P|81:254|54:153,1,200,10|8,0:0|0:3,0:0:0:0:
100,107,87941,1,8,0:0:0:0:
185,55,88284,2,0,B|280:35|280:35|319:141,2,200,12|12|10,0:1|0:1|0:0,0:0:0:0:
349,301,91027,6,0,P|360:254|359:183,1,100,12|8,0:1|0:0,0:0:0:0:
300,122,91713,2,0,B|335:70|368:62|368:62|416:68|448:80,2,150,10|2|8,0:0|0:0|0:0,0:0:0:0:
207,162,93084,2,0,P|146:129|99:120,1,100,8|8,0:3|0:0,0:0:0:0:
49,200,93770,5,12,0:1:0:0:
98,286,94113,2,0,B|142:272|174:282|174:282|184:268|184:268|219:284|270:272,1,150,8|2,0:0|0:0,0:0:0:0:
328,319,94970,2,0,P|454:310|484:273,1,150,2|10,0:0|0:0,0:0:0:0:
487,201,95827,2,0,L|461:82,1,100,8|8,0:3|0:0,0:0:0:0:
383,46,96513,5,12,0:1:0:0:
295,94,96855,2,0,P|242:80|182:72,2,100,8|10|8,0:0|0:0|0:0,0:0:0:0:
358,171,97884,2,0,P|346:244|227:261,1,200,12|8,0:1|0:3,0:0:0:0:
149,217,98913,1,8,0:0:0:0:
75,148,99255,6,0,L|100:51,1,100,12|8,0:1|0:1,0:0:0:0:
200,51,99941,2,0,L|225:147,1,100,12|8,0:1|0:1,0:0:0:0:
149,217,100627,1,10,0:0:0:0:
264,87,101998,6,0,L|132:104,1,100,12|8,0:1|0:0,0:0:0:0:
78,51,102684,2,0,P|69:103|89:168,1,100,10|8,0:0|0:0,0:0:0:0:
163,205,103370,2,0,L|392:178,1,200,10|8,0:0|0:3,0:0:0:0:
447,235,104398,1,8,0:0:0:0:
406,327,104741,6,0,P|351:305|273:294,1,100,12|8,0:1|0:0,0:0:0:0:
213,315,105427,2,0,P|167:335|119:346,1,100,10|8,0:0|0:0,0:0:0:0:
32,295,106113,2,0,P|56:196|65:72,1,200,10|8,0:0|0:3,0:0:0:0:
136,28,107141,1,8,0:0:0:0:
225,75,107484,6,0,P|279:64|351:31,2,100,12|8|10,0:1|0:0|0:0,0:0:0:0:
143,132,108513,1,8,0:0:0:0:
46,108,108855,2,0,P|56:186|187:223,1,200,10|8,0:0|0:3,0:0:0:0:
238,173,109884,1,8,0:0:0:0:
300,252,110227,6,0,P|281:315|268:371,1,100,12|8,0:1|0:1,0:0:0:0:
373,349,110913,2,0,P|449:290|436:204,1,150,8|12,0:1|0:1,0:0:0:0:
119,111,112970,6,0,P|205:89|299:140,1,200,12|10,0:0|0:0,0:0:0:0:
322,237,113998,1,0,0:0:0:0:
410,190,114341,2,0,P|423:116|446:34,2,150,10|8|0,0:0|0:0|0:0,0:0:0:0:
421,289,115713,6,0,P|323:275|209:262,1,200,10|10,0:0|0:0,0:0:0:0:
151,333,116741,1,0,0:0:0:0:
76,265,117084,2,0,P|61:189|31:83,2,150,10|8|0,0:0|0:0|0:0,0:0:0:0:
151,333,118455,6,0,B|209:314|257:342|257:342|278:274|348:262,1,200,10|10,0:0|0:0,0:0:0:0:
410,290,119484,1,0,0:0:0:0:
467,208,119827,2,0,P|457:127|447:52,2,150,10|8|0,0:0|0:0|0:0,0:0:0:0:
256,192,121198,12,10,123598,0:0:0:0:
