osu file format v14

[General]
AudioFilename: audio.mp3
AudioLeadIn: 0
PreviewTime: 80114
Countdown: 0
SampleSet: Soft
StackLeniency: 0.7
Mode: 2
LetterboxInBreaks: 0
WidescreenStoryboard: 0

[Editor]
Bookmarks: 60743
DistanceSpacing: 1
BeatDivisor: 8
GridSize: 8
TimelineZoom: 1.699999

[Metadata]
Title:Shinsaku no Shiawase wa Kochira!
TitleUnicode:新作のしあわせはこちら!
Artist:Chino(CV.Minase Inori)
ArtistUnicode:チノ(CV.水瀬いのり)
Creator:Sanyi
Version:Usagidose
Source:ご注文はうさぎですか??
Tags:gochuumon wa usagi desu ka is the order a rabbit gochiusa ごちうさ cute kawaii Vincs
BeatmapID:1275043
BeatmapSetID:579869

[Difficulty]
HPDrainRate:7
CircleSize:4.4
OverallDifficulty:9.4
ApproachRate:9.4
SliderMultiplier:2
SliderTickRate:2

[Events]
//Background and Video events
0,0,"bg.jpg",0,0
//Break Periods
//Storyboard Layer 0 (Background)
//Storyboard Layer 1 (Fail)
//Storyboard Layer 2 (Pass)
//Storyboard Layer 3 (Foreground)
//Storyboard Sound Samples

[TimingPoints]
572,342.857142857143,4,2,2,30,1,0
1257,-100,4,2,2,50,0,0
1943,-100,4,2,0,30,0,0
13600,-100,4,2,2,50,0,0
14286,-100,4,2,0,40,0,0
15657,-100,4,2,1,40,0,0
16343,-100,4,2,2,70,0,0
17029,-100,4,2,0,40,0,0
18400,-100,4,2,1,40,0,0
19086,-100,4,2,2,70,0,0
19772,-100,4,2,0,40,0,0
21143,-100,4,2,1,40,0,0
21829,-100,4,2,2,70,0,0
22514,-100,4,2,0,40,0,0
23886,-100,4,2,1,40,0,0
24572,-100,4,2,2,50,0,0
25257,-100,4,2,0,40,0,0
26629,-100,4,2,1,40,0,0
27314,-100,4,2,2,70,0,0
28000,-100,4,2,0,40,0,0
29371,-100,4,2,1,40,0,0
30057,-100,4,2,2,70,0,0
30743,-100,4,2,0,40,0,0
32114,-100,4,2,1,40,0,0
32800,-100,4,2,2,70,0,0
33486,-100,4,2,0,40,0,0
38972,-100,4,2,1,40,0,0
39486,-100,4,2,2,70,0,0
40857,-100,4,2,0,40,0,0
41029,-100,4,2,2,70,0,0
41714,-100,4,2,0,40,0,0
46514,-100,4,2,2,70,0,0
47200,-100,4,2,0,40,0,0
49943,-100,4,2,1,40,0,0
50457,-100,4,2,2,70,0,0
51829,-100,4,2,0,40,0,0
52000,-100,4,2,2,70,0,0
52686,-100,4,2,0,40,0,0
55429,-100,4,2,2,70,0,0
55772,-100,4,2,0,40,0,0
56457,-100,4,2,2,70,0,0
56629,-100,4,2,0,40,0,0
62286,-100,4,2,2,70,0,0
63657,-100,4,2,0,40,0,0
79429,-100,4,2,2,70,0,0
80114,-100,4,2,0,50,0,1
84400,-100,4,2,2,80,0,1
85600,-100,4,2,0,50,0,1
89714,-66.6666666666667,4,2,2,80,0,1
91086,-100,4,2,0,50,0,1
95372,-100,4,2,2,80,0,1
96572,-100,4,2,0,50,0,1
100686,-100,4,2,0,40,0,0
101543,-100,4,2,2,70,0,0
102057,-100,4,2,0,50,0,1
104114,-100,4,2,2,80,0,1
104800,-100,4,2,0,50,0,1
106857,-100,4,2,2,80,0,1
107543,-100,4,2,0,50,0,1
109600,-100,4,2,2,80,0,1
110286,-100,4,2,0,50,0,1
113029,-100,4,2,0,30,0,0

[Colours]
Combo1 : 255,255,0
Combo2 : 255,128,0
Combo3 : 0,128,0
Combo4 : 255,0,128

[HitObjects]
200,304,572,5,0,0:0:0:0:
376,304,914,1,0,0:0:0:0:
200,224,1257,1,8,0:3:0:0:
160,184,1343,1,8,0:3:0:0:
144,128,1429,1,8,0:3:0:0:
192,88,1514,1,8,0:3:0:0:
432,104,1600,1,10,0:2:0:0:
232,320,1943,6,0,L|432:320,1,200,8|2,0:2|0:0,0:0:0:0:
152,192,2629,1,8,0:3:0:0:
232,192,2800,1,0,0:0:0:0:
136,192,2972,1,2,0:0:0:0:
296,192,3143,1,0,0:0:0:0:
40,192,3314,5,8,0:2:0:0:
176,96,3657,2,0,L|72:96,2,100,2|0|8,0:0|0:0|0:3,0:0:0:0:
336,192,4172,1,0,0:0:0:0:
176,192,4343,1,2,0:0:0:0:
336,192,4514,1,0,0:0:0:0:
88,336,4686,6,0,P|48:288|48:248,1,100,8|0,0:2|0:0,0:0:0:0:
208,344,5029,2,0,P|248:296|248:256,1,100,2|0,0:0|0:0,0:0:0:0:
408,160,5372,1,8,0:3:0:0:
248,176,5543,2,0,P|208:128|208:88,1,100,0|2,0:0|0:0,0:0:0:0:
368,88,5886,1,0,0:0:0:0:
112,176,6057,6,0,L|212:176,1,100,8|0,0:2|0:0,0:0:0:0:
48,96,6400,2,0,L|148:96,1,100,2|0,0:0|0:0,0:0:0:0:
312,176,6743,2,0,P|352:128|352:88,1,100,8|0,0:3|0:0,0:0:0:0:
192,184,7086,2,0,P|152:136|152:96,1,100,2|0,0:0|0:0,0:0:0:0:
408,312,7429,6,0,P|448:264|448:224,1,100,8|0,0:2|0:0,0:0:0:0:
288,152,7772,1,2,0:0:0:0:
448,152,7943,1,0,0:0:0:0:
192,248,8114,2,0,L|292:248,1,100,8|0,0:2|0:0,0:0:0:0:
448,168,8457,2,0,P|488:120|488:80,1,100,2|0,0:0|0:0,0:0:0:0:
232,192,8800,6,0,L|332:192,1,100,8|0,0:2|0:0,0:0:0:0:
176,96,9143,2,0,L|72:96,1,100,2|0,0:0|0:0,0:0:0:0:
328,256,9486,2,0,L|428:256,1,100,8|0,0:2|0:0,0:0:0:0:
272,176,9829,2,0,L|172:176,1,100,2|0,0:0|0:0,0:0:0:0:
328,96,10172,5,0,0:0:0:0:
176,96,10343,1,0,0:0:0:0:
440,40,10514,1,0,0:0:0:0:
288,40,10686,1,0,0:0:0:0:
136,40,10857,1,0,0:0:0:0:
288,40,11029,1,0,0:0:0:0:
24,168,11200,1,0,0:0:0:0:
176,112,11372,2,0,L|232:112,1,50
72,112,11543,1,0,0:0:0:0:
144,184,13600,5,8,0:3:0:0:
120,224,13686,1,8,0:3:0:0:
360,184,13772,1,8,0:3:0:0:
384,224,13857,1,8,0:3:0:0:
104,104,13943,1,10,0:2:0:0:
304,104,14286,6,0,L|376:32,1,100,8|0,0:2|0:0,0:0:0:0:
120,104,14629,2,0,L|48:32,1,100,2|0,0:0|0:0,0:0:0:0:
200,264,14972,2,0,L|128:192,1,100,8|0,0:0|0:0,0:0:0:0:
384,112,15314,2,0,L|456:40,1,100,2|0,0:0|0:0,0:0:0:0:
200,192,15657,6,0,L|96:192,2,100,8|0|2,0:2|0:0|0:0,0:0:0:0:
352,192,16172,1,0,0:0:0:0:
104,128,16343,1,8,0:3:0:0:
72,96,16429,1,0,0:2:0:0:
328,96,16514,1,8,0:3:0:0:
80,200,16686,1,8,0:3:0:0:
240,160,16857,1,8,0:3:0:0:
272,128,16943,1,0,0:0:0:0:
120,32,17029,6,0,B|176:32|176:32|232:32,1,100,8|0,0:0|0:0,0:0:0:0:
496,240,17372,2,0,L|426:310,1,100,2|0,0:0|0:0,0:0:0:0:
272,280,17714,2,0,L|200:208,1,100,8|0,0:0|0:0,0:0:0:0:
480,128,18057,2,0,L|408:56,1,100,2|0,0:0|0:0,0:0:0:0:
160,64,18400,6,0,L|56:64,2,100,8|0|2,0:0|0:0|0:0,0:0:0:0:
312,192,18914,1,0,0:0:0:0:
64,184,19086,1,0,0:0:0:0:
32,144,19172,1,0,0:0:0:0:
288,120,19257,1,0,0:0:0:0:
40,72,19429,1,0,0:0:0:0:
72,40,19514,1,0,0:0:0:0:
224,80,19600,1,0,0:0:0:0:
256,40,19686,1,0,0:0:0:0:
104,200,19772,6,0,B|160:200|160:200|208:200,1,100,8|0,0:0|0:0,0:0:0:0:
456,272,20114,2,0,L|352:240,1,100,2|0,0:0|0:0,0:0:0:0:
208,240,20457,2,0,L|280:168,1,100,8|0,0:0|0:0,0:0:0:0:
16,96,20800,2,0,L|86:166,1,100,2|0,0:0|0:0,0:0:0:0:
336,128,21143,6,0,L|440:128,2,100,8|0|2,0:0|0:0|0:0,0:0:0:0:
184,208,21657,1,0,0:0:0:0:
432,120,21829,1,8,0:3:0:0:
464,88,21914,1,0,0:2:0:0:
208,88,22000,1,8,0:3:0:0:
456,192,22172,1,8,0:3:0:0:
296,152,22343,1,8,0:3:0:0:
264,120,22429,1,0,0:0:0:0:
416,56,22514,6,0,B|360:56|360:56|304:56,1,100,8|0,0:0|0:0,0:0:0:0:
40,112,22857,2,0,L|112:40,1,100,2|0,0:0|0:0,0:0:0:0:
264,296,23200,2,0,L|160:296,1,100,8|0,0:0|0:0,0:0:0:0:
424,72,23543,2,0,L|495:142,1,100,2|0,0:0|0:0,0:0:0:0:
248,64,23886,6,0,L|148:64,2,100,8|0|2,0:0|0:0|0:0,0:0:0:0:
88,136,24400,1,0,0:0:0:0:
336,152,24572,1,8,0:3:0:0:
368,120,24657,1,0,0:0:0:0:
336,80,24743,1,2,0:0:0:0:
88,296,24914,1,8,0:3:0:0:
56,264,25000,1,0,0:0:0:0:
88,224,25086,1,2,0:0:0:0:
336,288,25257,6,0,B|336:232|336:232|288:232,1,100,8|0,0:0|0:0,0:0:0:0:
24,128,25600,2,0,L|96:56,1,100,2|0,0:0|0:0,0:0:0:0:
248,256,25943,2,0,L|320:184,1,100,8|0,0:0|0:0,0:0:0:0:
48,128,26286,2,0,L|120:56,1,100,2|0,0:0|0:0,0:0:0:0:
368,192,26629,6,0,L|472:192,2,100,8|0|2,0:0|0:0|0:0,0:0:0:0:
216,192,27143,1,0,0:0:0:0:
456,120,27314,1,8,0:3:0:0:
488,88,27400,1,0,0:2:0:0:
232,88,27486,1,8,0:3:0:0:
480,192,27657,1,8,0:3:0:0:
320,152,27829,1,8,0:3:0:0:
288,120,27914,1,0,0:0:0:0:
440,40,28000,6,0,B|384:40|384:40|328:40,1,100,8|0,0:0|0:0,0:0:0:0:
64,56,28343,2,0,L|134:126,1,100,2|0,0:0|0:0,0:0:0:0:
288,280,28686,2,0,L|184:280,1,100,8|0,0:0|0:0,0:0:0:0:
464,128,29029,2,0,L|392:56,1,100,2|0,0:0|0:0,0:0:0:0:
144,64,29372,6,0,L|40:64,2,100,8|0|2,0:0|0:0|0:0,0:0:0:0:
296,192,29886,1,0,0:0:0:0:
48,184,30057,1,0,0:0:0:0:
16,144,30143,1,0,0:0:0:0:
272,120,30229,1,0,0:0:0:0:
24,72,30400,1,0,0:0:0:0:
56,40,30486,1,0,0:0:0:0:
208,80,30572,1,0,0:0:0:0:
240,40,30657,1,0,0:0:0:0:
88,288,30743,6,0,B|144:288|144:288|192:288,1,100,8|0,0:0|0:0,0:0:0:0:
440,280,31086,2,0,L|368:208,1,100,2|0,0:0|0:0,0:0:0:0:
216,240,31429,2,0,L|288:168,1,100,8|0,0:0|0:0,0:0:0:0:
16,96,31772,2,0,L|86:166,1,100,2|0,0:0|0:0,0:0:0:0:
336,128,32114,6,0,L|448:128,2,100,8|0|2,0:0|0:0|0:0,0:0:0:0:
184,208,32629,1,0,0:0:0:0:
432,120,32800,1,8,0:3:0:0:
464,88,32886,1,0,0:2:0:0:
208,88,32972,1,8,0:3:0:0:
456,192,33143,1,8,0:3:0:0:
296,152,33314,1,8,0:3:0:0:
264,120,33400,1,0,0:0:0:0:
352,328,33486,5,0,0:0:0:0:
504,328,33657,1,0,0:0:0:0:
248,256,33829,1,0,0:0:0:0:
400,256,34000,1,0,0:0:0:0:
144,328,34172,1,0,0:0:0:0:
296,328,34343,1,0,0:0:0:0:
40,328,34514,1,0,0:0:0:0:
296,80,34686,6,0,P|408:104|400:352,1,400
120,48,35714,1,8,0:0:0:0:
448,48,35886,1,8,0:0:0:0:
296,48,36057,1,0,0:0:0:0:
144,360,36229,6,0,L|248:360,1,100,8|0,0:0|0:0,0:0:0:0:
496,312,36572,1,0,0:0:0:0:
392,256,36743,1,0,0:0:0:0:
240,160,36914,2,0,L|128:160,1,100
240,88,37257,1,0,0:0:0:0:
488,88,37429,6,0,P|432:88|384:88,2,100
336,240,37943,2,0,L|248:168,1,100
104,216,38286,1,0,0:0:0:0:
184,152,38457,1,0,0:0:0:0:
336,128,38629,2,0,L|424:56,1,100
64,64,38972,6,0,L|164:64,2,100,8|0|2,0:0|0:0|0:0,0:0:0:0:
416,296,39486,2,0,L|440:256,1,25,8|0,0:3|0:0,0:0:0:0:
168,296,39657,2,0,L|144:256,1,25,8|0,0:3|0:0,0:0:0:0:
416,296,39829,2,0,L|440:256,1,25,8|0,0:3|0:0,0:0:0:0:
168,296,40000,2,0,L|144:256,1,25,8|0,0:3|0:0,0:0:0:0:
416,296,40172,2,0,L|464:208,1,100,2|0,0:1|0:0,0:0:0:0:
72,288,40514,2,0,L|24:200,1,100,2|0,0:1|0:0,0:0:0:0:
424,152,40857,1,8,0:0:0:0:
272,80,41029,1,8,0:3:0:0:
232,80,41114,1,8,0:3:0:0:
272,80,41200,1,8,0:3:0:0:
64,79,41372,2,0,P|70:128|104:164,1,100,8|0,0:3|0:0,0:0:0:0:
368,360,41714,6,0,L|264:360,1,100,8|0,0:0|0:0,0:0:0:0:
112,368,42057,1,0,0:0:0:0:
192,296,42229,1,0,0:0:0:0:
440,200,42400,2,0,L|328:200,1,100
440,144,42743,1,0,0:0:0:0:
184,80,42914,2,0,L|288:80,2,100
336,240,43429,2,0,L|424:168,1,100
256,176,43772,1,0,0:0:0:0:
336,112,43943,1,0,0:0:0:0:
184,128,44114,2,0,L|96:56,1,100
440,152,44457,5,8,0:0:0:0:
288,152,44629,2,0,L|261:111,1,50
416,288,44800,1,8,0:0:0:0:
264,288,44972,2,0,L|237:247,1,50
392,48,45143,2,0,L|272:48,2,100,8|8|8,0:0|0:0|0:0,0:0:0:0:
136,224,45657,1,8,0:0:0:0:
328,152,46000,5,2,0:0:0:0:
176,152,46172,1,2,0:0:0:0:
328,152,46343,1,2,0:0:0:0:
176,80,46514,2,0,L|256:16,1,100,2|0,0:1|0:0,0:0:0:0:
408,80,46857,2,0,L|328:16,1,100,2|0,0:1|0:0,0:0:0:0:
64,352,47200,6,0,L|168:352,1,100,8|0,0:0|0:0,0:0:0:0:
320,360,47543,1,0,0:0:0:0:
240,288,47714,1,0,0:0:0:0:
488,184,47886,2,0,L|384:184,1,100
288,184,48229,1,0,0:0:0:0:
32,56,48400,6,0,L|136:56,2,100
184,232,48914,2,0,L|272:160,1,100
104,128,49257,1,0,0:0:0:0:
24,48,49429,1,0,0:0:0:0:
176,104,49600,2,0,L|88:32,1,100
368,64,49943,6,0,L|268:64,2,100,8|0|2,0:0|0:0|0:0,0:0:0:0:
72,296,50457,2,0,L|48:256,1,25,8|0,0:3|0:0,0:0:0:0:
320,296,50629,2,0,L|344:256,1,25,8|0,0:3|0:0,0:0:0:0:
72,296,50800,2,0,L|48:256,1,25,8|0,0:3|0:0,0:0:0:0:
320,296,50972,2,0,L|344:256,1,25,8|0,0:3|0:0,0:0:0:0:
72,296,51143,2,0,L|24:208,1,100,2|0,0:1|0:0,0:0:0:0:
392,288,51486,2,0,L|440:200,1,100,2|0,0:1|0:0,0:0:0:0:
48,152,51829,1,8,0:0:0:0:
200,80,52000,1,8,0:3:0:0:
240,80,52086,1,8,0:3:0:0:
200,80,52172,1,8,0:3:0:0:
408,79,52343,2,0,P|402:128|368:164,1,100,8|0,0:3|0:0,0:0:0:0:
104,352,52686,6,0,L|208:352,1,100,8|0,0:0|0:0,0:0:0:0:
360,360,53029,1,0,0:0:0:0:
280,288,53200,1,0,0:0:0:0:
24,144,53372,2,0,L|128:144,1,100
24,80,53714,1,0,0:0:0:0:
288,72,53886,6,0,L|184:72,2,100
136,232,54400,2,0,L|48:160,1,100
216,320,54743,1,0,0:0:0:0:
296,248,54914,1,0,0:0:0:0:
140,153,55086,2,0,L|52:81,1,100
416,232,55429,1,0,0:0:0:0:
442,189,55514,1,0,0:0:0:0:
453,140,55600,1,0,0:0:0:0:
449,90,55686,1,0,0:0:0:0:
160,224,55772,1,8,0:0:0:0:
432,224,56114,1,8,0:0:0:0:
184,272,56286,2,0,B|128:272|128:272|176:272,1,100,0|8,0:3|0:3,0:3:0:0:
328,200,56629,6,0,P|408:136|424:64,1,150,8|0,0:0|0:0,0:0:0:0:
184,200,56972,2,0,P|104:136|88:64,1,150,8|0,0:0|0:0,0:0:0:0:
328,200,57314,2,0,B|424:160|336:96|200:72|96:64|56:8,1,400,8|0,0:0|0:0,0:0:0:0:
304,296,58172,6,0,P|384:224|400:136,1,200,8|0,0:0|0:0,0:0:0:0:
144,136,58686,1,8,0:0:0:0:
392,296,58857,2,0,P|472:224|488:136,1,200,8|0,0:0|0:0,0:0:0:0:
336,136,59372,1,8,0:0:0:0:
184,296,59543,6,0,P|104:224|88:136,1,200,8|0,0:0|0:0,0:0:0:0:
352,136,60057,1,8,0:0:0:0:
104,296,60229,2,0,P|24:224|8:136,1,200,8|0,0:0|0:0,0:0:0:0:
472,136,60914,6,0,L|360:136,1,100,8|0,0:0|0:0,0:0:0:0:
120,136,61257,1,8,0:0:0:0:
376,64,61429,2,0,B|448:64|448:64|416:64,1,100
168,72,61772,1,0,0:0:0:0:
416,248,61943,2,0,L|312:248,1,100
160,248,62286,1,0,0:0:0:0:
408,72,62457,5,8,0:0:0:0:
152,160,62629,1,8,0:3:0:0:
408,160,62800,1,8,0:3:0:0:
152,80,62972,2,0,L|40:80,1,100,8|8,0:3|0:3,0:0:0:0:
344,160,63314,1,8,0:3:0:0:
40,312,63657,5,8,0:0:0:0:
320,312,64000,2,0,L|216:312,1,100,8|0,0:0|0:0,0:0:0:0:
368,192,64343,2,0,L|472:192,1,100,8|0,0:0|0:0,0:0:0:0:
192,160,64686,1,8,0:0:0:0:
496,88,65029,6,0,L|396:88,2,100,8|0|0,0:0|0:0|0:0,0:0:0:0:
224,232,65543,2,0,L|120:232,1,100,8|0,0:0|0:0,0:0:0:0:
280,136,65886,1,2,0:0:0:0:
24,136,66057,1,2,0:0:0:0:
112,136,66229,1,0,0:0:0:0:
392,272,66400,6,0,B|304:208|304:208|392:272,1,200
120,280,66914,1,8,0:0:0:0:
416,152,67257,2,0,L|304:152,2,100,8|0|0,0:0|0:0|0:0,0:0:0:0:
120,272,67772,6,0,B|208:208|208:208|120:272,1,200
392,240,68286,2,0,L|496:240,1,100,8|0,0:0|0:0,0:0:0:0:
336,152,68629,1,2,0:0:0:0:
224,152,68800,1,2,0:0:0:0:
112,152,68972,1,2,0:0:0:0:
360,64,69143,5,8,0:0:0:0:
64,128,69486,2,0,L|144:48,2,100
216,248,70000,1,0,0:0:0:0:
480,248,70172,1,0,0:0:0:0:
160,248,70514,1,0,0:0:0:0:
312,176,70686,2,0,L|432:176,1,100
160,176,71029,1,0,0:0:0:0:
312,112,71200,2,0,L|232:32,1,100
496,96,71543,2,0,L|416:16,1,100
168,176,71886,6,0,L|368:176,1,200
112,104,72400,1,0,0:0:0:0:
264,40,72572,2,0,L|160:40,1,100
416,40,72914,1,0,0:0:0:0:
96,192,73257,2,0,L|200:192,1,100
448,192,73600,2,0,L|336:192,1,100
192,112,73943,2,0,L|304:112,1,100
40,112,74286,1,0,0:0:0:0:
344,80,74629,5,8,0:0:0:0:
40,80,74972,1,8,0:0:0:0:
344,80,75314,1,8,0:0:0:0:
40,80,75657,2,0,L|160:80,1,100,8|0,0:0|0:0,0:0:0:0:
392,232,76000,1,8,0:0:0:0:
88,232,76343,1,8,0:0:0:0:
392,232,76686,1,8,0:0:0:0:
88,232,77029,2,0,B|48:184|48:184|80:224,1,100
336,80,77372,5,8,0:0:0:0:
488,80,77543,1,8,0:0:0:0:
232,40,77714,1,8,0:0:0:0:
384,40,77886,1,8,0:0:0:0:
128,80,78057,1,8,0:0:0:0:
280,80,78229,1,8,0:0:0:0:
24,40,78400,1,8,0:0:0:0:
176,40,78572,1,8,0:0:0:0:
496,144,78743,2,0,P|448:232|368:288,1,200,8|0,0:0|0:0,0:0:0:0:
216,280,79429,5,8,0:3:0:0:
193,271,79472,1,8,0:3:0:0:
178,252,79514,1,8,0:3:0:0:
175,227,79557,1,8,0:3:0:0:
186,205,79600,1,8,0:3:0:0:
207,192,79643,1,8,0:3:0:0:
231,191,79686,1,8,0:3:0:0:
48,128,79772,1,10,0:0:0:0:
256,48,80114,6,0,L|152:48,1,100,8|0,0:0|0:0,0:0:0:0:
312,304,80457,2,0,L|432:304,1,100
160,256,80800,1,0,0:0:0:0:
260,256,80972,1,0,0:0:0:0:
416,184,81143,2,0,L|304:184,1,100
64,88,81486,5,0,0:0:0:0:
164,88,81657,1,0,0:0:0:0:
320,280,81829,2,0,B|392:280|392:280|344:280,1,100
112,200,82172,1,8,0:0:0:0:
162,200,82257,1,0,0:3:0:0:
212,200,82343,1,0,0:3:0:0:
368,144,82514,2,0,L|448:64,1,100,2|0,0:0|0:0,0:0:0:0:
184,144,82857,6,0,P|96:96|80:48,1,150,8|0,0:0|0:0,0:0:0:0:
296,144,83200,2,0,P|384:96|400:48,1,150,8|0,0:0|0:0,0:0:0:0:
240,256,83543,2,0,L|184:256,1,50,8|0,0:0|0:0,0:0:0:0:
352,144,83714,2,0,P|440:96|456:48,1,150,8|0,0:0|0:0,0:0:0:0:
240,144,84057,2,0,P|152:96|136:48,1,150,8|0,0:0|0:0,0:0:0:0:
376,56,84400,5,8,0:3:0:0:
120,160,84572,1,8,0:3:0:0:
416,160,84743,1,8,0:3:0:0:
120,80,84914,1,0,0:0:0:0:
70,80,84999,1,0,0:0:0:0:
20,80,85085,1,0,0:0:0:0:
328,160,85257,1,8,0:3:0:0:
48,168,85600,6,0,L|148:168,1,100,8|0,0:0|0:0,0:0:0:0:
300,192,85943,1,0,0:0:0:0:
200,192,86114,1,0,0:0:0:0:
428,64,86286,2,0,L|324:64,1,100,8|0,0:0|0:0,0:0:0:0:
172,64,86629,1,0,0:0:0:0:
272,64,86800,1,0,0:0:0:0:
24,160,86972,6,0,L|128:160,1,100,8|0,0:0|0:0,0:0:0:0:
280,264,87314,2,0,L|400:264,1,100
122,64,87657,1,0,0:0:0:0:
172,64,87743,1,0,0:0:0:0:
222,64,87829,1,0,0:0:0:0:
376,176,88000,2,0,B|440:176|440:176|400:176,1,100
88,320,88343,6,0,P|32:280|32:248,1,100,8|0,0:0|0:0,0:0:0:0:
280,208,88686,2,0,L|176:208,1,100,2|0,0:0|0:0,0:0:0:0:
432,320,89029,2,0,P|488:280|488:248,1,100,8|0,0:0|0:0,0:0:0:0:
240,320,89372,1,2,0:0:0:0:
360,320,89543,1,0,0:0:0:0:
192,144,89714,5,0,0:0:0:0:
122,141,89799,1,0,0:0:0:0:
96,75,89885,1,0,0:0:0:0:
146,25,89971,1,0,0:0:0:0:
376,144,90057,1,0,0:0:0:0:
447,141,90142,1,0,0:0:0:0:
473,75,90228,1,0,0:0:0:0:
423,25,90314,1,0,0:0:0:0:
192,144,90400,1,0,0:0:0:0:
122,141,90485,1,0,0:0:0:0:
96,75,90571,1,0,0:0:0:0:
146,25,90657,1,0,0:0:0:0:
464,216,90743,1,0,0:0:0:0:
264,48,91086,6,0,L|160:48,1,100,8|0,0:0|0:0,0:0:0:0:
320,296,91429,2,0,L|424:296,1,100,2|0,0:0|0:0,0:0:0:0:
168,216,91772,1,0,0:0:0:0:
268,216,91943,1,0,0:0:0:0:
424,120,92114,1,0,0:0:0:0:
324,120,92286,1,0,0:0:0:0:
72,64,92457,5,0,0:0:0:0:
172,64,92629,1,0,0:0:0:0:
16,304,92800,2,0,L|128:304,1,100,2|0,0:0|0:0,0:0:0:0:
368,216,93143,1,8,0:3:0:0:
318,216,93229,1,0,0:3:0:0:
268,216,93314,1,0,0:3:0:0:
424,144,93486,2,0,B|480:144|480:144|416:144,1,100
184,144,93829,6,0,P|96:96|80:48,1,150,8|0,0:0|0:0,0:0:0:0:
296,144,94172,2,0,P|384:96|400:48,1,150,8|0,0:0|0:0,0:0:0:0:
240,256,94514,2,0,L|184:256,1,50,8|0,0:0|0:0,0:0:0:0:
352,144,94686,2,0,P|440:96|456:48,1,150,8|0,0:0|0:0,0:0:0:0:
240,144,95029,2,0,P|152:96|136:48,1,150,8|0,0:0|0:0,0:0:0:0:
376,56,95372,5,8,0:3:0:0:
120,160,95543,1,8,0:3:0:0:
416,160,95714,1,8,0:3:0:0:
120,80,95886,1,0,0:0:0:0:
70,80,95971,1,0,0:0:0:0:
20,80,96057,1,0,0:0:0:0:
328,160,96229,1,8,0:3:0:0:
48,160,96572,6,0,L|160:160,1,100,8|0,0:0|0:0,0:0:0:0:
304,232,96914,1,0,0:0:0:0:
204,232,97085,1,0,0:0:0:0:
464,64,97257,2,0,L|364:64,1,100,8|0,0:0|0:0,0:0:0:0:
208,152,97600,1,0,0:0:0:0:
308,152,97771,1,0,0:0:0:0:
56,88,97943,6,0,L|160:88,1,100,8|0,0:0|0:0,0:0:0:0:
296,40,98286,2,0,L|192:40,1,100,8|0,0:0|0:0,0:0:0:0:
448,104,98629,1,8,0:0:0:0:
398,104,98714,1,0,0:0:0:0:
348,104,98800,1,0,0:0:0:0:
192,176,98972,2,0,L|92:176,1,100,8|0,0:0|0:0,0:0:0:0:
336,80,99314,5,8,0:0:0:0:
488,80,99485,1,8,0:0:0:0:
232,40,99656,1,8,0:0:0:0:
384,40,99828,1,8,0:0:0:0:
128,80,99999,1,8,0:0:0:0:
280,80,100171,1,8,0:0:0:0:
24,40,100342,1,8,0:0:0:0:
176,40,100514,1,8,0:0:0:0:
448,40,100686,1,0,0:0:0:0:
384,272,101543,2,0,L|416:232,1,50,8|8,0:3|0:3,0:0:0:0:
112,272,101714,1,10,0:2:0:0:
384,128,102057,6,0,L|496:128,1,100,8|0,0:0|0:0,0:0:0:0:
208,128,102400,2,0,L|96:128,1,100,8|0,0:0|0:0,0:0:0:0:
384,128,102743,2,0,L|496:128,1,100,8|0,0:0|0:0,0:0:0:0:
208,48,103086,2,0,L|320:48,1,100,8|0,0:0|0:0,0:0:0:0:
136,192,103429,6,0,L|236:192,2,100,8|0|8,0:0|0:0|0:0,0:0:0:0:
288,120,103943,1,0,0:0:0:0:
440,56,104114,1,0,0:0:0:0:
184,56,104286,1,0,0:0:0:0:
336,248,104457,1,0,0:0:0:0:
80,312,104629,1,0,0:0:0:0:
168,312,104714,1,0,0:0:0:0:
376,152,104800,6,0,L|488:152,1,100,8|0,0:0|0:0,0:0:0:0:
208,240,105143,2,0,L|108:240,1,100,8|0,0:0|0:0,0:0:0:0:
384,88,105486,2,0,L|284:88,1,100,8|0,0:0|0:0,0:0:0:0:
16,208,105829,2,0,B|68:208|68:208|116:208,1,100,8|0,0:0|0:0,0:0:0:0:
272,176,106172,6,0,L|172:176,2,100,8|0|8,0:0|0:0|0:0,0:0:0:0:
128,80,106686,1,0,0:0:0:0:
288,80,106857,1,0,0:0:0:0:
32,80,107029,1,0,0:0:0:0:
304,240,107200,1,0,0:0:0:0:
224,240,107285,1,0,0:0:0:0:
40,304,107372,1,0,0:0:0:0:
120,304,107457,1,0,0:0:0:0:
328,152,107543,6,0,L|440:152,1,100,8|0,0:0|0:0,0:0:0:0:
152,240,107886,2,0,L|52:240,1,100,8|0,0:0|0:0,0:0:0:0:
328,88,108229,2,0,L|432:88,1,100,8|0,0:0|0:0,0:0:0:0:
152,144,108572,2,0,B|204:144|204:144|252:144,1,100,8|0,0:0|0:0,0:0:0:0:
96,272,108914,6,0,L|196:272,2,100,8|0|8,0:0|0:0|0:0,0:0:0:0:
256,128,109429,1,0,0:0:0:0:
416,56,109600,1,0,0:0:0:0:
160,56,109772,1,0,0:0:0:0:
320,296,109943,1,0,0:0:0:0:
64,296,110114,1,0,0:0:0:0:
144,296,110199,1,0,0:0:0:0:
344,80,110286,5,8,0:0:0:0:
496,80,110457,1,8,0:0:0:0:
240,40,110628,1,8,0:0:0:0:
392,40,110800,1,8,0:0:0:0:
136,80,110971,1,8,0:0:0:0:
288,80,111143,1,8,0:0:0:0:
32,40,111314,1,8,0:0:0:0:
184,40,111486,1,8,0:0:0:0:
256,192,111657,12,0,112857,0:0:0:0:
400,216,113029,6,0,P|448:128|400:48,1,200,8|0,0:0|0:0,0:0:0:0:
256,48,113543,1,0,0:0:0:0:
112,216,113714,2,0,P|64:128|112:48,1,200,8|0,0:0|0:0,0:0:0:0:
352,288,114400,6,0,L|456:288,2,100,8|0|0,0:0|0:0|0:0,0:0:0:0:
208,288,114914,1,0,0:0:0:0:
464,224,115086,1,8,0:0:0:0:
264,224,115429,1,0,0:0:0:0:
112,216,115772,6,8,P|64:128|112:48,1,200,8|0,0:0|0:0,0:0:0:0:
256,48,116286,1,0,0:0:0:0:
400,216,116457,2,8,P|448:128|400:48,1,200,8|0,0:0|0:0,0:0:0:0:
160,288,117143,6,0,L|56:288,2,100,8|0|0,0:0|0:0|0:0,0:0:0:0:
304,288,117657,1,0,0:0:0:0:
48,224,117829,1,8,0:0:0:0:
248,224,118172,1,0,0:0:0:0:
96,160,118514,6,0,L|296:160,1,200
440,48,119029,1,0,0:0:0:0:
296,56,119200,2,0,L|96:56,1,200
352,288,119886,6,0,L|456:288,2,100,8|0|0,0:0|0:0|0:0,0:0:0:0:
208,288,120400,1,0,0:0:0:0:
464,224,120572,1,8,0:0:0:0:
264,224,120914,1,0,0:0:0:0:
112,216,121257,6,0,P|64:128|112:48,1,200,8|0,0:0|0:0,0:0:0:0:
256,48,121772,1,0,0:0:0:0:
400,216,121943,2,0,P|448:128|400:48,1,200,8|0,0:0|0:0,0:0:0:0:
112,216,122629,6,0,P|64:128|112:48,1,200,8|0,0:0|0:0,0:0:0:0:
400,216,123143,2,0,P|448:128|400:48,1,200,8|0,0:0|0:0,0:0:0:0:
112,288,123657,1,8,0:0:0:0:
256,192,123829,12,0,126743,0:0:0:0:
