osu file format v14

[General]
AudioFilename: audio.mp3
AudioLeadIn: 0
PreviewTime: 80114
Countdown: 0
SampleSet: Soft
StackLeniency: 0.7
Mode: 0
LetterboxInBreaks: 0
WidescreenStoryboard: 0

[Editor]
DistanceSpacing: 1.8
BeatDivisor: 4
GridSize: 4
TimelineZoom: 2.899999

[Metadata]
Title:Shinsaku no Shiawase wa Kochira!
TitleUnicode:新作のしあわせはこちら!
Artist:Chino(CV.Minase Inori)
ArtistUnicode:チノ(CV.水瀬いのり)
Creator:Lami
Version:Happy~!
Source:ご注文はうさぎですか??
Tags:gochuumon wa usagi desu ka is the order a rabbit gochiusa ごちうさ intoon [c_u_r_i] curi momochikun doyak sekaii sekai-nyan karia cup of kafuu
BeatmapID:953586
BeatmapSetID:443751

[Difficulty]
HPDrainRate:6.5
CircleSize:4
OverallDifficulty:8.5
ApproachRate:9.2
SliderMultiplier:1.9
SliderTickRate:2

[Events]
//Background and Video events
0,0,"bg.jpg",0,0
//Break Periods
//Storyboard Layer 0 (Background)
//Storyboard Layer 1 (Fail)
//Storyboard Layer 2 (Pass)
//Storyboard Layer 3 (Foreground)
//Storyboard Sound Samples

[TimingPoints]
572,342.857142857143,4,2,1,15,1,0
572,-125,4,2,1,15,0,0
1257,-125,4,2,1,30,0,0
1943,-125,4,2,1,45,0,0
10172,-125,4,2,1,50,0,0
12057,-74.0740740740741,4,2,1,45,0,0
13943,-76.9230769230769,4,2,1,60,0,0
14286,-90.9090909090909,4,2,1,70,0,1
23886,-90.9090909090909,4,2,1,50,0,0
25257,-90.9090909090909,4,2,1,70,0,1
34857,-166.666666666667,4,2,1,50,0,1
35714,-166.666666666667,4,2,1,60,0,1
36229,-100,4,2,1,60,0,0
45657,-125,4,2,1,50,0,0
47200,-100,4,2,1,60,0,0
58000,-133.333333333333,4,2,1,50,0,0
74629,-111.111111111111,4,2,1,55,0,0
77372,-111.111111111111,4,2,1,60,0,0
79429,-125,4,2,1,60,0,0
79772,-76.9230769230769,4,2,1,60,0,0
80114,-90.9090909090909,4,2,1,70,0,1
89714,-90.9090909090909,4,2,1,55,0,0
90743,-90.9090909090909,4,2,1,65,0,0
91086,-90.9090909090909,4,2,1,70,0,1
100686,-90.9090909090909,4,2,1,60,0,0
102057,-83.3333333333333,4,2,1,75,0,1
111657,-166.666666666667,4,2,1,50,0,1
113029,-125,4,2,1,50,0,0
124000,-125,4,2,1,40,0,0
124686,-125,4,2,1,35,0,0
125372,-125,4,2,1,30,0,0
126057,-125,4,2,1,25,0,0
126657,-125,4,2,1,20,0,0

[Colours]
Combo1 : 250,225,220
Combo2 : 167,167,228
Combo3 : 254,173,230
Combo4 : 120,102,183

[HitObjects]
136,120,572,5,0,3:0:0:0:
136,120,914,1,0,3:0:0:0:
236,368,1257,1,8,0:1:0:0:
194,346,1343,1,0,3:0:0:0:
168,306,1429,1,0,3:0:0:0:
166,259,1514,1,0,3:0:0:0:
191,222,1600,1,8,0:1:0:0:
191,222,1943,6,0,L|284:203,1,76,8|0,0:0|0:0,0:0:0:0:
212,120,2286,2,0,L|305:101,1,76,2|0,0:0|0:0,0:0:0:0:
396,84,2629,1,0,0:0:0:0:
396,84,2800,1,0,0:0:0:0:
460,236,2972,1,2,0:0:0:0:
484,136,3143,1,0,0:0:0:0:
356,232,3314,5,8,0:0:0:0:
308,136,3486,2,0,P|294:85|299:54,1,76,0|2,0:0|0:0,0:0:0:0:
356,232,3829,2,0,L|195:257,1,152,0|0,0:0|0:0,0:0:0:0:
80,128,4343,1,2,0:0:0:0:
108,228,4514,1,0,0:0:0:0:
168,72,4686,6,0,L|248:56,1,76,8|0,0:0|0:0,0:0:0:0:
272,196,5029,2,0,P|220:184|192:160,1,76,2|0,0:0|0:0,0:0:0:0:
344,60,5372,1,0,0:0:0:0:
378,159,5543,2,0,L|346:263,1,76,0|2,0:0|0:0,0:0:0:0:
284,308,5886,1,0,0:0:0:0:
202,171,6057,5,8,0:0:0:0:
76,252,6229,1,0,0:0:0:0:
236,196,6400,1,2,0:0:0:0:
80,128,6572,1,0,0:0:0:0:
180,284,6743,2,0,P|251:300|325:248,1,152,0|2,0:0|0:0,0:0:0:0:
144,108,7429,6,0,L|116:188,1,76,8|0,0:0|0:0,0:0:0:0:
181,285,7772,1,2,0:0:0:0:
236,196,7943,1,0,0:0:0:0:
88,272,8114,2,0,P|36:280|4:268,1,76,8|0,0:0|0:0,0:0:0:0:
0,132,8457,1,2,0:0:0:0:
140,192,8629,1,0,0:0:0:0:
204,48,8800,6,0,P|256:32|344:92,1,152,8|2,0:0|0:0,0:0:0:0:
312,228,9314,1,0,0:0:0:0:
213,123,9486,2,0,L|201:23,1,76,8|0,0:0|0:0,0:0:0:0:
336,77,9829,1,2,0:0:0:0:
224,208,10000,1,0,0:0:0:0:
276,12,10172,5,8,0:0:0:0:
436,244,10343,1,8,0:0:0:0:
140,172,10514,1,2,0:0:0:0:
456,32,10686,1,8,0:0:0:0:
228,296,10857,5,8,0:0:0:0:
176,0,11029,1,8,0:0:0:0:
496,144,11200,1,2,0:0:0:0:
116,216,11372,1,8,0:0:0:0:
440,8,11543,5,10,0:0:0:0:
197,243,12057,5,0,0:0:0:0:
403,185,12229,1,0,0:0:0:0:
327,318,12400,1,0,0:0:0:0:
217,128,12572,2,0,B|225:68|302:68|328:103|329:164|291:175|279:188|279:188|297:243,1,256.50000097847,2|0,0:0|0:0,0:0:0:0:
327,318,13600,6,0,B|328:312|331:327|376:336,5,42.7500001630783
327,318,13943,6,0,P|320:240|256:288,1,185.249991519928,4|0,0:3|0:0,0:0:0:0:
244,304,14286,6,0,P|191:304|144:272,1,104.500003189087,12|0,0:0|0:0,0:0:0:0:
124,60,14629,2,0,P|177:60|224:92,1,104.500003189087,8|0,0:1|0:0,0:0:0:0:
339,330,14972,2,0,P|286:330|239:298,1,104.500003189087,8|0,0:0|0:0,0:0:0:0:
219,86,15314,2,0,P|272:86|319:118,1,104.500003189087,8|0,0:1|0:0,0:0:0:0:
148,277,15657,5,8,0:0:0:0:
124,60,15829,1,0,0:0:0:0:
308,256,16000,1,8,0:1:0:0:
56,156,16172,1,0,0:0:0:0:
232,8,16343,1,8,0:0:0:0:
232,8,16429,1,8,0:1:0:0:
232,8,16514,1,0,3:0:0:0:
180,256,16686,1,8,0:1:0:0:
124,60,16857,1,0,3:0:0:0:
124,60,16943,1,8,0:1:0:0:
124,60,17029,6,0,L|12:40,1,104.500003189087,12|0,0:0|0:0,0:0:0:0:
180,256,17372,2,0,P|228:260|284:232,1,104.500003189087,8|0,0:1|0:0,0:0:0:0:
56,156,17714,2,0,L|15:300,1,104.500003189087,8|0,0:0|0:0,0:0:0:0:
236,124,18057,2,0,P|236:72|208:24,1,104.500003189087,8|0,0:1|0:0,0:0:0:0:
56,156,18400,5,8,0:0:0:0:
180,360,18572,1,0,0:0:0:0:
236,124,18743,1,8,0:1:0:0:
100,300,18914,1,0,0:0:0:0:
144,104,19086,1,8,0:0:0:0:
144,104,19172,1,8,0:1:0:0:
144,104,19257,1,0,3:0:0:0:
284,316,19429,1,8,0:1:0:0:
328,326,19514,1,0,3:0:0:0:
372,318,19600,1,0,3:0:0:0:
409,291,19686,1,8,0:1:0:0:
431,252,19772,6,0,L|404:148,1,104.500003189087,12|0,0:0|0:0,0:0:0:0:
192,16,20114,2,0,P|168:64|168:116,1,104.500003189087,8|0,0:1|0:0,0:0:0:0:
404,151,20457,2,0,L|288:111,1,104.500003189087,8|0,0:0|0:0,0:0:0:0:
144,248,20800,2,0,P|195:247|241:223,1,104.500003189087,8|0,0:1|0:0,0:0:0:0:
88,28,21143,5,8,0:0:0:0:
52,264,21314,1,0,0:0:0:0:
240,80,21486,1,8,0:1:0:0:
276,316,21657,1,0,0:0:0:0:
56,140,21829,1,8,0:0:0:0:
56,140,21914,1,8,0:1:0:0:
56,140,22000,1,0,3:0:0:0:
164,344,22172,1,8,0:1:0:0:
276,172,22343,1,0,3:0:0:0:
276,172,22429,1,8,0:1:0:0:
276,172,22514,6,0,L|392:156,1,104.500003189087,12|0,0:0|0:0,0:0:0:0:
261,365,22857,2,0,P|204:365|160:340,1,104.500003189087,8|0,0:1|0:0,0:0:0:0:
56,140,23200,2,0,L|20:252,1,104.500003189087,8|0,0:0|0:0,0:0:0:0:
184,100,23543,2,0,P|152:52|100:24,1,104.500003189087,8|0,0:1|0:0,0:0:0:0:
116,256,23886,5,12,0:0:0:0:
316,104,24057,1,0,0:0:0:0:
276,316,24229,1,8,0:1:0:0:
184,100,24400,1,0,0:0:0:0:
408,216,24572,1,8,0:0:0:0:
408,216,24657,1,8,0:1:0:0:
408,216,24743,1,0,3:0:0:0:
256,20,24914,1,8,0:1:0:0:
256,20,25000,1,0,3:0:0:0:
256,20,25086,1,0,3:0:0:0:
208,222,25257,6,0,P|165:250|114:254,1,104.500003189087,12|0,0:0|0:0,0:0:0:0:
256,20,25600,2,0,P|308:35|344:76,1,104.500003189087,8|0,0:1|0:0,0:0:0:0:
129,134,25943,2,0,L|86:27,1,104.500003189087,8|0,0:0|0:0,0:0:0:0:
4,244,26286,2,0,P|8:295|48:343,1,104.500003189087,8|0,0:1|0:0,0:0:0:0:
240,148,26629,5,8,0:0:0:0:
156,368,26800,1,0,0:0:0:0:
28,152,26972,1,8,0:1:0:0:
120,360,27143,1,0,0:0:0:0:
136,128,27314,1,8,0:0:0:0:
136,128,27400,1,8,0:1:0:0:
136,128,27486,1,0,3:0:0:0:
328,272,27657,1,8,0:1:0:0:
288,88,27829,1,0,3:0:0:0:
288,88,27914,1,8,0:1:0:0:
288,88,28000,6,0,L|184:48,1,104.500003189087,12|0,0:0|0:0,0:0:0:0:
48,240,28343,2,0,L|145:277,1,104.500003189087,8|0,0:1|0:0,0:0:0:0:
304,192,28686,2,0,L|200:152,1,104.500003189087,8|0,0:0|0:0,0:0:0:0:
64,344,29029,2,0,L|161:381,1,104.500003189087,8|0,0:1|0:0,0:0:0:0:
392,232,29372,5,8,0:0:0:0:
145,277,29543,1,0,0:0:0:0:
360,356,29714,1,8,0:1:0:0:
336,104,29886,1,0,0:0:0:0:
240,244,30057,1,8,0:0:0:0:
236,268,30143,1,8,0:1:0:0:
232,292,30229,1,0,3:0:0:0:
416,144,30400,1,8,0:1:0:0:
426,100,30486,1,0,3:0:0:0:
414,56,30572,1,0,3:0:0:0:
381,25,30657,1,8,0:1:0:0:
337,15,30743,6,0,L|216:28,1,104.500003189087,12|0,0:0|0:0,0:0:0:0:
372,240,31086,2,0,L|493:227,1,104.500003189087,8|0,0:1|0:0,0:0:0:0:
232,128,31429,2,0,L|110:140,1,104.500003189087,8|0,0:0|0:0,0:0:0:0:
266,352,31772,2,0,L|387:339,1,104.500003189087,8|0,0:1|0:0,0:0:0:0:
336,104,32114,5,8,0:0:0:0:
156,264,32286,1,0,0:0:0:0:
233,26,32457,1,8,0:1:0:0:
288,236,32629,1,0,0:0:0:0:
56,88,32800,1,8,0:0:0:0:
56,88,32886,1,8,0:1:0:0:
56,88,32972,1,0,3:0:0:0:
72,308,33143,1,8,0:1:0:0:
296,124,33314,1,0,3:0:0:0:
296,124,33400,1,8,0:1:0:0:
296,124,33486,5,12,0:0:0:0:
40,216,33657,1,8,0:0:0:0:
308,348,33829,1,8,0:1:0:0:
188,72,34000,1,8,0:0:0:0:
164,376,34172,5,8,0:0:0:0:
400,184,34343,1,8,0:0:0:0:
89,104,34514,1,8,0:1:0:0:
308,348,34686,1,12,0:0:0:0:
208,112,34857,6,0,P|79:113|83:241,1,284.999991302491,2|8,0:0|0:0,0:0:0:0:
252,264,35886,1,8,0:1:0:0:
48,364,36057,1,8,0:0:0:0:
144,192,36229,6,0,L|248:180,1,95,12|0,0:0|0:0,0:0:0:0:
376,356,36572,2,0,P|320:356|272:332,1,95,8|0,0:1|0:0,0:0:0:0:
360,160,36914,1,8,0:0:0:0:
496,304,37086,1,0,0:0:0:0:
476,80,37257,1,8,0:1:0:0:
332,252,37429,6,0,P|237:259|163:199,1,190
364,12,37943,1,8,0:1:0:0:
448,220,38114,1,0,0:0:0:0:
276,136,38286,2,0,L|264:28,1,95,8|0,0:0|0:0,0:0:0:0:
448,80,38629,1,8,0:1:0:0:
332,252,38800,1,0,0:0:0:0:
184,64,38972,6,0,P|94:52|44:127,1,190,8|10,0:0|0:1,0:0:0:0:
192,316,39486,1,0,0:0:0:0:
320,152,39657,1,10,0:0:0:0:
160,312,39829,1,0,0:0:0:0:
400,336,40000,1,10,0:1:0:0:
140,204,40172,5,2,0:0:0:0:
132,176,40514,1,2,0:0:0:0:
124,148,40857,2,0,L|144:56,1,95,2|8,0:0|0:0,0:0:0:0:
144,55,41114,1,0,3:0:0:0:
144,55,41200,1,8,0:1:0:0:
244,228,41372,1,8,0:1:0:0:
76,296,41543,1,0,3:0:0:0:
216,140,41714,6,0,P|259:121|317:133,1,95,12|0,0:0|0:0,0:0:0:0:
452,276,42057,1,8,0:1:0:0:
408,88,42229,1,0,0:0:0:0:
272,208,42400,2,0,B|256:312,1,95,8|0,0:0|0:0,0:0:0:0:
124,148,42743,1,8,0:1:0:0:
257,301,42914,6,0,P|341:288|368:192,1,190
151,57,43429,2,0,B|123:149,1,95,8|0,0:1|0:0,0:0:0:0:
168,328,43772,1,8,0:0:0:0:
248,164,43943,1,0,0:0:0:0:
44,232,44114,1,8,0:1:0:0:
148,356,44286,1,0,0:0:0:0:
304,248,44457,6,0,P|319:289|312:344,1,95,8|0,0:0|3:0,0:0:0:0:
313,338,44714,1,0,3:0:0:0:
313,338,44800,1,8,0:1:0:0:
136,168,44972,2,0,L|72:140,2,47.5,0|8|8,3:0|0:1|0:0,0:0:0:0:
276,64,45314,1,0,3:0:0:0:
276,64,45400,1,0,3:0:0:0:
276,64,45486,1,8,0:1:0:0:
184,256,45657,6,8,P|95:259|40:204,1,152,12|0,0:0|0:0,0:0:0:0:
80,40,46172,5,0,0:0:0:0:
84,56,46343,1,0,0:0:0:0:
88,72,46514,1,2,0:0:0:0:
92,88,46686,1,0,0:0:0:0:
96,104,46857,1,2,0:0:0:0:
100,120,47029,1,0,0:0:0:0:
104,136,47200,6,0,B|80:252,1,95,12|0,0:0|0:0,0:0:0:0:
208,376,47543,1,8,0:1:0:0:
288,196,47714,1,0,0:0:0:0:
91,318,47886,2,0,P|74:262|91:218,1,95,8|0,0:0|0:0,0:0:0:0:
244,104,48229,1,8,0:1:0:0:
308,308,48400,6,0,P|412:322|476:260,1,190,0|0,0:0|0:0,0:0:0:0:
340,88,48914,1,8,0:1:0:0:
180,196,49086,1,0,0:0:0:0:
308,308,49257,1,8,0:0:0:0:
308,308,49343,1,0,3:0:0:0:
308,308,49429,2,0,L|272:188,1,95,8|8,0:1|0:1,0:0:0:0:
192,72,49772,1,0,3:0:0:0:
152,272,49943,6,0,P|68:276|0:196,1,190,8|10,0:0|0:1,0:0:0:0:
112,24,50457,1,0,0:0:0:0:
280,217,50629,1,10,0:0:0:0:
80,128,50800,1,0,0:0:0:0:
304,16,50972,1,10,0:1:0:0:
376,268,51143,5,2,0:0:0:0:
384,296,51486,1,2,0:0:0:0:
392,324,51829,2,0,P|436:328|484:304,1,95,2|8,0:0|0:0,0:0:0:0:
480,306,52086,1,0,3:0:0:0:
480,306,52172,1,8,0:1:0:0:
384,144,52343,1,8,0:1:0:0:
280,312,52514,1,0,3:0:0:0:
216,172,52686,6,0,L|116:152,1,95,12|0,0:0|0:0,0:0:0:0:
44,352,53029,2,0,P|92:352|140:316,1,95,8|0,0:1|0:0,0:0:0:0:
12,160,53372,1,8,0:0:0:0:
130,327,53543,1,0,0:0:0:0:
180,108,53714,1,8,0:1:0:0:
60,258,53886,6,0,L|42:358,1,95,0|8,0:0|0:0,0:0:0:0:
248,256,54229,1,0,0:0:0:0:
100,148,54400,2,0,P|91:102|122:38,1,95,8|0,0:1|0:0,0:0:0:0:
312,184,54743,1,8,0:0:0:0:
312,184,54829,1,0,3:0:0:0:
312,184,54914,1,8,0:1:0:0:
132,332,55086,1,8,0:1:0:0:
204,144,55257,1,0,3:0:0:0:
360,280,55429,5,8,0:0:0:0:
396,250,55514,1,0,3:0:0:0:
416,207,55600,1,0,3:0:0:0:
416,160,55686,1,0,3:0:0:0:
396,117,55772,2,0,L|308:72,1,95,4|0,0:1|0:0,0:0:0:0:
184,248,56114,2,0,P|227:249|270:224,1,95,8|0,0:0|3:0,0:0:0:0:
270,223,56372,1,0,3:0:0:0:
270,223,56457,1,8,0:1:0:0:
108,36,56629,5,10,0:0:0:0:
416,207,56972,1,10,0:0:0:0:
80,348,57314,1,10,0:0:0:0:
152,144,58000,5,0,0:0:0:0:
152,144,58172,2,0,B|256:128|256:128|312:156,1,142.500005435944,12|8,0:0|0:1,0:0:0:0:
340,240,58686,1,8,0:0:0:0:
300,340,58857,2,0,P|270:359|235:363,1,71.2500027179719,0|8,0:0|0:0,0:0:0:0:
174,243,59200,2,0,P|209:248|239:267,1,71.2500027179719,8|0,0:1|0:0,0:0:0:0:
96,336,59543,6,0,L|72:184,1,142.500005435944,8|8,0:0|0:1,0:0:0:0:
116,96,60057,1,8,0:0:0:0:
200,164,60229,2,0,P|244:164|288:144,1,71.2500027179719,0|8,0:0|0:0,0:0:0:0:
292,52,60572,2,0,P|248:52|204:72,1,71.2500027179719,8|0,0:1|0:0,0:0:0:0:
380,200,60914,6,0,P|432:164|432:88,1,142.500005435944,8|8,0:0|0:1,0:0:0:0:
292,52,61429,1,8,0:0:0:0:
269,155,61600,2,0,L|284:252,1,71.2500027179719,0|8,0:0|0:0,0:0:0:0:
160,296,61943,2,0,P|162:260|180:230,1,71.2500027179719,8|0,0:1|0:0,0:0:0:0:
364,304,62286,1,8,0:0:0:0:
256,376,62457,5,8,0:0:0:0:
160,296,62629,1,10,0:1:0:0:
264,344,62800,1,8,0:0:0:0:
376,264,62972,1,2,0:0:0:0:
272,312,63143,1,8,0:0:0:0:
292,212,63314,2,0,P|288:176|264:136,1,71.2500027179719,10|0,0:1|0:0,0:0:0:0:
69,244,63657,6,0,P|137:252|191:208,1,142.500005435944,12|8,0:0|0:1,0:0:0:0:
117,86,64171,1,8,0:0:0:0:
117,86,64343,2,8,P|109:121|110:157,1,71.2500027179719,0|8,0:0|0:0,0:0:0:0:
220,64,64686,2,0,P|206:31|185:2,1,71.2500027179719,8|0,0:1|0:0,0:0:0:0:
272,145,65029,5,8,0:0:0:0:
356,80,65200,2,0,L|440:72,1,71.2500027179719,0|8,0:0|0:1,0:0:0:0:
492,216,65543,2,0,P|436:228|360:164,1,142.500005435944,8|8,0:0|0:0,0:0:0:0:
356,80,66057,1,8,0:1:0:0:
272,145,66229,1,0,0:0:0:0:
208,20,66400,5,12,0:0:0:0:
208,20,66572,2,0,L|104:32,1,71.2500027179719,0|8,0:0|0:1,0:0:0:0:
28,140,66914,2,0,L|191:121,1,142.500005435944,8|8,0:0|0:0,0:0:0:0:
232,208,67429,1,8,0:1:0:0:
144,268,67600,1,0,0:0:0:0:
264,108,67772,5,12,0:0:0:0:
264,108,67943,2,0,P|296:92|344:96,1,71.2500027179719,0|8,0:0|0:1,0:0:0:0:
451,217,68286,2,0,B|356:228|356:228|316:204,1,142.500005435944,8|8,0:0|0:0,0:0:0:0:
268,300,68800,1,8,3:0:0:0:
352,368,68972,1,0,3:0:0:0:
315,203,69143,6,0,L|244:192,1,71.2500027179719,12|0,0:0|0:0,0:0:0:0:
160,264,69486,1,8,0:1:0:0:
160,264,69657,1,8,0:0:0:0:
60,219,69829,2,0,P|31:192|20:157,1,71.2500027179719,0|8,0:0|0:0,0:0:0:0:
126,135,70172,2,0,P|117:96|129:62,1,71.2500027179719,8|0,0:1|0:0,0:0:0:0:
256,16,70514,5,8,0:0:0:0:
256,16,70686,2,0,L|344:28,1,71.2500027179719,0|8,0:0|0:1,0:0:0:0:
376,128,71029,2,0,B|360:171|360:171|370:211|370:211|352:263,1,142.500005435944,8|8,0:0|0:0,0:0:0:0:
312,368,71543,1,8,0:1:0:0:
252,256,71714,1,0,0:0:0:0:
420,348,71886,6,0,L|500:332,1,71.2500027179719,8|0,0:0|0:0,0:0:0:0:
352,263,72229,2,0,L|432:247,1,71.2500027179719,8|8,0:1|0:0,0:0:0:0:
344,160,72572,2,0,L|264:144,1,71.2500027179719,0|8,0:0|0:0,0:0:0:0:
412,75,72914,2,0,L|332:59,1,71.2500027179719,8|0,0:1|0:0,0:0:0:0:
180,128,73257,5,8,0:0:0:0:
180,128,73429,2,0,P|128:136|56:68,1,142.500005435944,8|8,0:0|0:0,0:0:0:0:
184,20,73943,1,0,0:0:0:0:
284,76,74114,1,8,0:0:0:0:
200,224,74286,1,8,0:1:0:0:
200,224,74629,6,0,L|212:320,1,85.4999973907472,12|0,0:0|0:0,0:0:0:0:
404,352,74972,2,0,L|392:256,1,85.4999973907472,8|8,0:0|0:1,0:0:0:0:
225,113,75314,2,0,P|165:115|128:140,1,85.4999973907472,8|0,0:0|0:0,0:0:0:0:
368,180,75657,2,0,P|398:146|405:89,1,85.4999973907472,8|0,0:0|0:0,0:0:0:0:
192,20,76000,5,12,0:0:0:0:
316,104,76172,1,0,0:0:0:0:
168,260,76343,1,8,0:0:0:0:
225,113,76514,1,8,0:1:0:0:
292,304,76686,2,0,P|340:316|392:308,1,85.4999973907472,8|0,0:0|0:0,0:0:0:0:
400,112,77029,2,0,P|352:100|300:108,1,85.4999973907472,8|0,0:0|0:0,0:0:0:0:
184,360,77372,5,12,0:0:0:0:
460,200,77543,1,8,0:0:0:0:
192,20,77714,1,10,0:0:0:0:
375,312,77886,1,8,0:0:0:0:
404,20,78057,5,10,0:0:0:0:
104,160,78229,1,8,0:0:0:0:
384,336,78400,1,10,0:0:0:0:
288,12,78572,1,8,0:0:0:0:
44,316,78743,5,10,0:0:0:0:
44,316,79429,2,0,L|24:320,7,19
64,272,79772,6,0,B|104:296|145:278|145:278|184:226|232:245,1,185.249991519928,4|0,0:3|0:0,0:0:0:0:
237,281,80114,6,0,P|293:277|332:252,1,104.500003189087,12|0,0:0|0:0,0:0:0:0:
176,60,80457,2,0,P|120:64|81:89,1,104.500003189087,8|0,0:1|0:0,0:0:0:0:
140,312,80800,1,8,0:0:0:0:
300,144,80972,1,0,0:0:0:0:
80,89,81143,1,8,0:1:0:0:
237,281,81314,1,0,3:0:0:0:
237,281,81400,1,0,3:0:0:0:
237,281,81486,6,0,L|255:383,1,104.500003189087,8|0,0:0|0:0,0:0:0:0:
392,224,81829,1,8,0:1:0:0:
176,160,82000,1,0,0:0:0:0:
356,336,82172,1,8,0:0:0:0:
356,336,82257,1,8,0:1:0:0:
356,336,82343,1,0,3:0:0:0:
274,183,82514,2,0,P|269:131|281:80,1,104.500003189087,8|0,0:1|0:0,0:0:0:0:
456,312,82857,6,0,L|352:336,1,104.500003189087,12|0,0:0|0:0,0:0:0:0:
175,160,83200,2,0,P|227:160|274:184,1,104.500003189087,8|0,0:1|0:0,0:0:0:0:
227,380,83543,1,8,0:0:0:0:
391,224,83714,2,0,L|403:108,1,104.500003189087,0|8,0:0|0:1,0:0:0:0:
235,8,84057,1,0,0:0:0:0:
103,200,84229,6,0,P|44:196|-1:168,1,104.500003189087,8|2,0:0|0:0,0:0:0:0:
247,100,84572,1,10,0:1:0:0:
123,312,84743,1,2,0:0:0:0:
79,88,84914,1,10,0:0:0:0:
79,88,85000,1,8,0:1:0:0:
79,88,85086,1,2,3:2:0:0:
255,260,85257,2,0,L|367:272,1,104.500003189087,10|0,0:1|0:0,0:0:0:0:
249,42,85600,6,0,P|166:16|78:89,1,209.000006378174,12|8,0:0|0:1,0:0:0:0:
196,300,86114,1,0,0:0:0:0:
320,148,86286,2,0,L|344:40,1,104.500003189087,8|0,0:0|0:0,0:0:0:0:
177,120,86629,1,8,0:1:0:0:
336,272,86800,1,0,3:0:0:0:
336,272,86886,1,0,3:0:0:0:
336,272,86972,6,0,P|334:325|312:372,1,104.500003189087,8|0,0:0|0:0,0:0:0:0:
116,216,87314,1,8,0:1:0:0:
250,41,87486,1,0,0:0:0:0:
228,280,87657,1,8,0:0:0:0:
228,280,87743,1,8,0:1:0:0:
228,280,87829,1,0,3:0:0:0:
104,88,88000,2,0,P|72:72|0:72,1,104.500003189087,8|0,0:1|0:0,0:0:0:0:
207,156,88343,6,0,P|279:161|370:64,1,209.000006378174,12|8,0:0|0:1,0:0:0:0:
160,12,88857,1,0,0:0:0:0:
96,232,89029,1,12,0:0:0:0:
184,28,89200,1,0,0:0:0:0:
300,216,89372,2,0,L|420:224,1,104.500003189087,8|0,0:1|0:0,0:0:0:0:
280,24,89714,6,0,L|264:80,3,52.2500015945435,8|8|8|8,0:1|0:1|0:1|0:1,0:0:0:0:
192,136,90057,2,0,L|176:192,3,52.2500015945435,8|8|8|8,0:3|0:3|0:3|0:3,0:0:0:0:
212,276,90400,5,8,0:0:0:0:
255,298,90486,1,8,0:0:0:0:
303,304,90572,1,8,0:0:0:0:
351,294,90657,1,8,0:0:0:0:
392,268,90743,1,4,3:0:0:0:
422,230,90829,1,0,3:1:0:0:
438,184,90914,1,0,3:1:0:0:
437,135,91000,1,0,3:1:0:0:
420,89,91086,6,0,L|312:48,1,104.500003189087,12|0,0:0|0:0,0:0:0:0:
132,204,91429,2,0,P|184:208|238:187,1,104.500003189087,8|0,0:1|0:0,0:0:0:0:
88,16,91772,1,8,0:0:0:0:
36,244,91943,1,0,0:0:0:0:
56,28,92114,1,8,0:1:0:0:
232,190,92286,1,0,3:0:0:0:
232,190,92372,1,0,3:0:0:0:
232,190,92457,6,0,L|360:208,1,104.500003189087,8|0,0:0|0:0,0:0:0:0:
468,360,92800,1,8,0:1:0:0:
440,136,92972,1,0,0:0:0:0:
264,324,93143,1,8,0:0:0:0:
264,324,93229,1,8,0:1:0:0:
264,324,93314,1,0,3:0:0:0:
436,236,93486,2,0,P|453:184|437:132,1,104.500003189087,8|0,0:1|0:0,0:0:0:0:
228,12,93829,6,0,L|256:116,1,104.500003189087,12|0,0:0|0:0,0:0:0:0:
104,284,94172,2,0,P|155:284|202:260,1,104.500003189087,8|0,0:1|0:0,0:0:0:0:
88,84,94515,1,8,0:0:0:0:
12,264,94686,2,0,L|1:367,1,104.500003189087,0|8,0:0|0:1,0:0:0:0:
128,172,95029,1,0,0:0:0:0:
264,328,95201,6,0,P|319:326|368:296,1,104.500003189087,8|2,0:0|0:0,0:0:0:0:
255,112,95544,1,10,0:1:0:0:
104,284,95715,1,2,0:0:0:0:
60,64,95886,1,10,0:0:0:0:
60,64,95972,1,8,0:1:0:0:
60,64,96058,1,2,3:2:0:0:
192,260,96229,2,0,L|180:363,1,104.500003189087,10|0,0:1|0:0,0:0:0:0:
424,167,96572,6,0,P|353:96|253:111,1,209.000006378174,12|8,0:0|0:1,0:0:0:0:
288,336,97086,1,0,0:0:0:0:
168,164,97257,2,0,P|152:106|176:52,1,104.500003189087,8|0,0:0|0:0,0:0:0:0:
315,212,97600,1,8,0:1:0:0:
132,324,97772,1,0,0:0:0:0:
253,110,97944,6,0,L|360:93,1,104.500003189087,12|0,0:0|0:0,0:0:0:0:
512,244,98286,1,8,0:1:0:0:
448,36,98457,1,0,0:0:0:0:
315,212,98629,1,8,0:0:0:0:
315,212,98714,1,8,0:1:0:0:
315,212,98800,1,0,3:0:0:0:
180,56,98972,2,0,P|128:37|72:44,1,104.500003189087,8|0,0:1|0:0,0:0:0:0:
132,324,99314,5,12,0:0:0:0:
392,132,99485,1,8,0:0:0:0:
79,41,99656,1,8,0:1:0:0:
292,324,99828,1,8,0:0:0:0:
276,8,99999,5,12,0:0:0:0:
48,272,100171,1,8,0:0:0:0:
404,180,100342,1,8,0:1:0:0:
56,64,100514,1,8,0:0:0:0:
304,360,100685,5,10,0:0:0:0:
200,152,101200,5,0,0:0:0:0:
188,140,101372,1,2,0:0:0:0:
176,128,101543,1,8,0:0:0:0:
168,116,101714,2,0,P|132:80|216:60,1,156.750004783631,4|0,0:3|0:0,0:0:0:0:
256,96,102057,6,0,L|384:104,1,113.999996520996,12|0,0:0|0:0,0:0:0:0:
232,340,102400,2,0,P|164:332|120:296,1,113.999996520996,8|0,0:1|0:0,0:0:0:0:
392,268,102743,2,0,L|408:384,1,113.999996520996,8|0,0:0|0:0,0:0:0:0:
176,152,103086,2,0,P|160:98|172:36,1,113.999996520996,8|0,0:1|0:0,0:0:0:0:
444,184,103429,5,8,0:0:0:0:
232,340,103600,1,0,0:0:0:0:
256,96,103772,1,8,0:1:0:0:
440,316,103943,1,0,0:0:0:0:
176,152,104114,1,8,0:0:0:0:
368,24,104286,1,8,0:1:0:0:
268,232,104457,1,8,0:0:0:0:
136,64,104629,1,8,0:1:0:0:
136,64,104714,1,0,3:0:0:0:
136,64,104800,6,0,P|72:76|28:116,1,113.999996520996,12|0,0:0|0:0,0:0:0:0:
268,232,105143,2,0,P|309:181|317:122,1,113.999996520996,8|0,0:1|0:0,0:0:0:0:
88,264,105486,2,0,L|60:392,1,113.999996520996,8|0,0:0|0:0,0:0:0:0:
212,140,105829,2,0,L|240:12,1,113.999996520996,8|0,0:1|0:0,0:0:0:0:
488,160,106172,5,8,0:0:0:0:
228,272,106343,1,0,0:0:0:0:
340,52,106514,1,8,0:1:0:0:
448,312,106686,1,0,0:0:0:0:
212,140,106857,1,8,0:0:0:0:
148,360,107029,1,8,0:1:0:0:
316,188,107200,1,8,0:0:0:0:
327,139,107286,1,0,3:0:0:0:
316,91,107372,1,8,0:1:0:0:
286,52,107457,1,0,3:0:0:0:
242,29,107543,6,0,L|116:56,1,113.999996520996,12|0,0:0|0:0,0:0:0:0:
300,236,107886,2,0,L|426:209,1,113.999996520996,8|0,0:1|0:0,0:0:0:0:
144,148,108229,2,0,L|17:174,1,113.999996520996,8|0,0:0|0:0,0:0:0:0:
201,354,108572,2,0,L|327:327,1,113.999996520996,8|0,0:1|0:0,0:0:0:0:
236,116,108914,5,8,0:0:0:0:
80,336,109086,1,0,0:0:0:0:
80,100,109257,1,8,0:1:0:0:
300,236,109429,1,0,0:0:0:0:
4,208,109600,1,8,0:0:0:0:
124,8,109772,1,8,0:1:0:0:
208,204,109943,1,8,0:0:0:0:
336,40,110114,1,8,0:1:0:0:
336,40,110200,1,0,3:0:0:0:
336,40,110286,5,12,0:0:0:0:
92,244,110457,1,8,0:0:0:0:
448,336,110629,1,8,0:1:0:0:
224,24,110800,1,8,0:0:0:0:
192,364,110972,5,8,0:0:0:0:
464,120,111143,1,8,0:1:0:0:
124,8,111314,1,8,0:0:0:0:
328,328,111486,1,12,0:1:0:0:
200,125,111657,6,0,P|75:194|194:274,1,341.999989562989,2|2,0:0|0:0,0:0:0:0:
194,274,113029,6,0,L|156:204,1,76,12|0,0:0|0:0,0:0:0:0:
252,184,113372,2,0,L|240:105,1,76,2|8,0:0|0:0,0:0:0:0:
338,120,113714,2,0,L|353:41,1,76,8|0,0:0|0:0,0:0:0:0:
440,89,114057,2,0,L|481:21,1,76,2|0,0:0|0:0,0:0:0:0:
428,208,114400,5,8,0:0:0:0:
338,120,114572,1,0,0:0:0:0:
400,236,114743,1,2,0:0:0:0:
368,96,114914,1,8,0:0:0:0:
300,252,115086,2,0,P|234:278|156:260,1,152,8|2,0:0|0:0,0:0:0:0:
120,36,115772,6,0,P|116:60|88:108,1,76,8|0,0:0|0:0,0:0:0:0:
204,76,116114,2,0,P|218:95|232:149,1,76,2|8,0:0|0:0,0:0:0:0:
104,192,116457,2,0,P|84:206|30:220,1,76,8|0,0:0|0:0,0:0:0:0:
192,240,116800,2,0,P|201:262|240:302,1,76,2|0,0:0|0:0,0:0:0:0:
384,248,117143,5,8,0:0:0:0:
316,360,117314,1,0,0:0:0:0:
348,236,117486,1,2,0:0:0:0:
432,340,117657,1,8,0:0:0:0:
452,200,117829,2,0,L|472:48,1,152,8|2,0:0|0:0,0:0:0:0:
308,32,118514,6,0,L|232:64,1,76,12|0,0:0|0:0,0:0:0:0:
140,116,118857,2,0,L|216:148,1,76,2|8,0:0|0:0,0:0:0:0:
308,196,119200,2,0,L|232:228,1,76,8|0,0:0|0:0,0:0:0:0:
140,280,119543,2,0,L|216:312,1,76,2|0,0:0|0:0,0:0:0:0:
336,360,119886,5,8,0:0:0:0:
336,360,120057,1,0,0:0:0:0:
392,228,120229,1,2,0:0:0:0:
432,328,120400,1,8,0:0:0:0:
308,196,120572,2,0,P|240:176|172:228,1,152,8|2,0:0|0:0,0:0:0:0:
56,48,121257,6,0,L|140:64,1,76,8|0,0:0|0:0,0:0:0:0:
256,212,121600,2,0,L|181:197,1,76,2|8,0:0|0:0,0:0:0:0:
86,234,121943,2,0,L|72:160,1,76,8|0,0:0|0:0,0:0:0:0:
244,28,122286,2,0,L|229:102,1,76,2|0,0:0|0:0,0:0:0:0:
320,264,122629,5,12,0:0:0:0:
372,124,122800,1,0,0:0:0:0:
172,272,122972,1,2,0:0:0:0:
396,376,123143,1,12,0:0:0:0:
229,102,123657,5,12,0:0:0:0:
256,192,123743,12,0,126657,0:0:0:0:
