osu file format v14

[General]
AudioFilename: audio.mp3
AudioLeadIn: 0
PreviewTime: 65301
Countdown: 0
SampleSet: Soft
StackLeniency: 0.7
Mode: 0
LetterboxInBreaks: 0
WidescreenStoryboard: 1

[Editor]
Bookmarks: 13393,27107,49050,54536
DistanceSpacing: 1.1
BeatDivisor: 4
GridSize: 4
TimelineZoom: 1.62

[Metadata]
Title:Okashi na Yume o Ohitotsu Douzo
TitleUnicode:お菓子な夢をおひとつどうぞ♪
Artist:Chino(CV.Minase Inori)
ArtistUnicode:チノ(CV.水瀬いのり)
Creator:My Angel Rize
Version:Normal
Source:ご注文はうさぎですか??
Tags:gochuumon wa usagi desu ka is the order a rabbit gochiusa ごちうさ [_lost_]
BeatmapID:1324222
BeatmapSetID:627650

[Difficulty]
HPDrainRate:4
CircleSize:3
OverallDifficulty:4
ApproachRate:5
SliderMultiplier:1.1
SliderTickRate:1

[Events]
//Background and Video events
0,0,"59.jpg",0,0
//Break Periods
//Storyboard Layer 0 (Background)
//Storyboard Layer 1 (Fail)
//Storyboard Layer 2 (Pass)
//Storyboard Layer 3 (Foreground)
//Storyboard Sound Samples

[TimingPoints]
2422,342.857142857143,4,2,2,55,1,0
13393,-100,4,2,3,70,0,0
13479,-100,4,2,2,70,0,0
49050,-100,4,2,3,70,0,0
54536,-100,4,2,3,70,0,0
54622,-100,4,2,2,70,0,0
55907,-100,4,2,3,70,0,0
55993,-100,4,2,2,70,0,0
57279,-100,4,2,3,70,0,0
57364,-100,4,2,2,70,0,0
58650,-100,4,2,3,70,0,0
58736,-100,4,2,2,70,0,0
60022,-100,4,2,3,70,0,0
60107,-100,4,2,2,70,0,0
60707,-100,4,2,3,70,0,0
60793,-100,4,2,2,70,0,0
61393,-100,4,2,3,70,0,0
61479,-100,4,2,2,70,0,0
62764,-100,4,2,3,70,0,0
62850,-100,4,2,2,70,0,0
65507,-100,4,2,3,78,0,1
65593,-100,4,2,2,78,0,1
76136,-100,4,2,2,78,0,0
76479,-100,4,2,3,78,0,1
76564,-100,4,2,2,78,0,1
87450,-100,4,2,2,70,0,0

[Colours]
Combo1 : 72,72,255
Combo2 : 182,255,108
Combo3 : 255,83,83
Combo4 : 255,188,121
Combo5 : 255,100,177

[HitObjects]
72,60,2421,5,0,0:0:0:0:
44,240,2936,2,0,L|40:312,1,55,0|0,0:0|0:0,0:0:0:0:
152,152,3622,2,0,L|268:164,2,110,0|0|0,0:0|0:0|0:0,0:0:0:0:
436,44,5164,5,0,0:0:0:0:
468,224,5679,2,0,P|472:176|468:156,1,55,0|0,0:0|0:0,0:0:0:0:
292,204,6364,2,0,P|284:276|288:332,2,110,0|0|0,0:0|0:0|0:0,0:0:0:0:
12,324,7907,5,0,0:0:0:0:
184,264,8422,2,0,L|260:268,1,55,0|0,0:0|0:0,0:0:0:0:
412,208,9107,2,0,L|417:321,2,110,0|0|0,0:0|0:0|0:0,0:0:0:0:
152,52,10650,6,0,P|140:152|140:168,1,110,0|8,0:0|3:0,0:0:0:0:
256,120,11336,2,0,L|332:116,1,55,0|0,0:0|0:0,0:0:0:0:
428,148,11850,1,4,0:0:0:0:
216,328,13393,6,0,P|208:236|212:204,1,110,4|8,0:0|0:0,0:0:0:0:
120,140,14079,1,0,0:0:0:0:
104,260,14422,1,8,0:0:0:0:
24,172,14764,2,0,P|36:100|68:52,1,110,0|8,0:0|0:0,0:0:0:0:
172,44,15450,2,0,L|252:36,1,55,0|2,0:0|0:0,0:0:0:0:
284,60,15793,2,0,L|364:52,1,55,10|2,0:0|0:0,0:0:0:0:
388,88,16136,6,0,P|380:196|380:216,1,110,4|8,0:0|0:0,0:0:0:0:
480,132,16822,1,0,0:0:0:0:
480,252,17164,1,8,0:0:0:0:
392,336,17507,2,0,P|320:332|260:336,1,110,0|8,0:0|0:0,0:0:0:0:
176,276,18193,2,0,L|116:280,1,55,0|2,0:0|0:0,0:0:0:0:
120,340,18536,2,0,L|60:344,1,55,10|2,0:0|0:0,0:0:0:0:
32,292,18879,6,0,P|28:232|36:176,2,110,4|8|0,0:0|0:0|0:0,0:0:0:0:
136,232,19907,1,8,0:0:0:0:
196,336,20250,2,0,L|312:328,1,110,0|8,0:0|0:0,0:0:0:0:
428,344,20936,2,0,P|432:292|432:272,1,55,0|2,0:0|0:0,0:0:0:0:
416,232,21279,2,0,P|412:184|416:168,1,55,10|2,0:0|0:0,0:0:0:0:
432,120,21622,6,0,L|420:8,2,110,4|8|0,0:0|0:0|0:0,0:0:0:0:
328,180,22650,1,8,0:0:0:0:
280,68,22993,2,0,P|216:148|432:248,1,440,4|0,0:0|0:0,0:0:0:0:
492,144,24707,5,8,0:0:0:0:
372,160,25050,1,8,0:0:0:0:
144,76,25736,2,0,L|80:88,1,55,8|8,0:0|0:0,0:0:0:0:
68,144,26079,2,0,L|132:156,1,55,8|8,0:0|0:0,0:0:0:0:
384,324,27107,6,0,P|388:216|388:196,1,110,4|8,0:0|0:0,0:0:0:0:
344,100,27793,1,0,0:0:0:0:
252,20,28136,2,0,L|184:24,1,55,8|0,0:0|0:0,0:0:0:0:
144,52,28479,2,0,P|148:164|144:180,2,110,0|8|0,0:0|0:0|0:0,0:0:0:0:
28,92,29507,2,0,P|12:172|16:208,1,110,8|0,0:0|0:0,0:0:0:0:
104,280,30193,5,8,0:0:0:0:
196,204,30536,2,0,L|208:328,1,110,0|8,0:0|0:0,0:0:0:0:
172,364,31050,2,0,P|116:368|60:356,2,110,2|2|2,0:0|0:0|0:0,0:0:0:0:
276,300,32079,2,0,L|336:296,1,55,0|8,0:0|0:0,0:0:0:0:
388,320,32422,1,0,0:0:0:0:
444,340,32593,6,0,L|452:212,1,110,4|8,0:0|0:0,0:0:0:0:
396,120,33279,2,0,P|372:164|356:172,1,55,0|0,0:0|0:0,0:0:0:0:
312,184,33622,1,8,0:0:0:0:
260,148,33793,2,0,L|84:132,1,165,0|8,0:0|0:0,0:0:0:0:
40,108,34479,2,0,P|132:96|200:50,1,165,0|8,0:0|0:0,0:0:0:0:
172,176,35336,5,0,0:0:0:0:
80,256,35679,2,0,P|64:324|68:368,1,110,8|0,0:0|0:0,0:0:0:0:
168,296,36364,2,0,L|236:288,1,55,8|2,0:0|0:0,0:0:0:0:
340,256,36879,1,2,0:0:0:0:
316,376,37222,1,2,0:0:0:0:
448,40,38079,6,0,L|460:164,1,110,4|8,0:0|0:0,0:0:0:0:
424,264,38764,1,0,0:0:0:0:
340,176,39107,2,0,L|280:168,1,55,8|0,0:0|0:0,0:0:0:0:
228,156,39450,2,0,L|216:276,2,110,0|8|0,0:0|0:0|0:0,0:0:0:0:
140,72,40479,2,0,P|96:128|76:180,1,110,8|0,0:0|0:0,0:0:0:0:
24,268,41164,5,8,0:0:0:0:
116,348,41507,2,0,L|236:344,1,110,0|8,0:0|0:0,0:0:0:0:
276,312,42022,2,0,P|212:340|180:376,2,110,2|2|0,0:0|0:0|0:0,0:0:0:0:
332,204,43050,2,0,P|376:192|392:192,1,55,0|8,0:0|0:0,0:0:0:0:
436,156,43393,1,0,0:0:0:0:
488,184,43564,6,0,L|492:312,1,110,4|8,0:0|0:0,0:0:0:0:
384,352,44250,2,0,P|380:324|380:296,1,55,0|0,0:0|0:0,0:0:0:0:
368,236,44593,1,8,0:0:0:0:
368,176,44764,2,0,P|364:52|376:8,1,165,0|8,0:0|0:0,0:0:0:0:
320,40,45450,2,0,P|300:124|252:200,1,165,0|8,0:0|0:0,0:0:0:0:
208,224,46136,1,0,0:0:0:0:
180,168,46307,6,0,P|124:132|60:112,1,110,0|8,0:0|0:0,0:0:0:0:
36,76,46822,2,0,L|20:200,1,110,0|0,0:0|0:0,0:0:0:0:
28,244,47336,2,0,L|20:312,1,55,8|4,0:0|0:0,0:0:0:0:
424,68,49050,6,0,P|324:76|308:80,1,110,4|0,0:0|0:0,0:0:0:0:
264,188,49736,2,0,L|140:200,1,110,8|0,0:0|0:0,0:0:0:0:
48,140,50422,2,0,P|36:192|32:260,1,110,0|0,0:0|0:0,0:0:0:0:
124,328,51107,2,0,L|233:317,1,110,8|0,0:0|0:0,0:0:0:0:
352,304,51793,6,0,P|360:232|492:204,2,220,0|8|2,0:0|0:0|0:0,0:0:0:0:
242,262,53507,2,0,L|230:338,1,55,2|2,0:0|0:0,0:0:0:0:
200,136,54193,1,0,0:0:0:0:
100,204,54536,6,0,P|88:124|100:88,1,110,4|8,0:0|0:0,0:0:0:0:
188,20,55222,2,0,L|212:128,1,110,0|8,0:0|0:0,0:0:0:0:
312,60,55907,2,0,P|392:48|428:60,1,110,4|8,0:0|0:0,0:0:0:0:
496,148,56593,2,0,L|388:172,1,110,2|8,0:0|0:0,0:0:0:0:
268,156,57279,6,0,P|244:252|272:368,1,220,4|2,0:0|0:0,0:0:0:0:
112,188,58650,2,0,P|65:128|170:107,2,220,4|2|4,0:0|0:0|0:0,0:0:0:0:
92,308,60364,6,0,L|200:284,1,110,8|0,0:0|0:0,0:0:0:0:
320,260,61050,2,0,L|428:236,1,110,8|4,0:0|0:0,0:0:0:0:
404,116,61736,2,0,L|296:140,1,110,8|0,0:0|0:0,0:0:0:0:
180,164,62422,1,8,0:0:0:0:
84,88,62764,5,4,0:0:0:0:
84,88,62936,2,0,L|68:208,1,110,2|2,0:0|0:0,0:0:0:0:
192,208,63622,2,0,L|208:88,1,110,2|2,0:0|0:0,0:0:0:0:
328,108,64307,2,0,L|317:186,2,55,2|2|2,0:0|0:0|0:0,0:0:0:0:
48,340,65507,6,0,P|40:238|44:208,1,110,4|8,0:0|0:0,0:0:0:0:
96,124,66193,1,0,0:0:0:0:
172,216,66536,1,8,0:0:0:0:
228,240,66707,2,0,L|352:236,1,110,0|0,0:0|0:0,0:0:0:0:
400,228,67222,2,0,P|404:284|412:304,1,55,8|0,0:0|0:0,0:0:0:0:
452,244,67564,2,0,P|456:140|448:112,1,110,0|8,0:0|0:0,0:0:0:0:
420,84,68079,2,0,P|356:156|336:164,1,110,0|0,0:0|0:0,0:0:0:0:
288,140,68593,6,0,P|304:92|312:76,2,55,8|0|0,0:0|0:0|0:0,0:0:0:0:
188,72,69279,1,8,0:0:0:0:
88,140,69622,2,0,L|72:196,1,55,2|2,0:0|0:0,0:0:0:0:
68,252,69964,2,0,L|68:316,1,55,14|0,0:0|0:0,0:0:0:0:
124,284,70307,2,0,P|212:280|248:296,1,110,0|8,0:0|0:0,0:0:0:0:
340,232,70993,6,0,L|332:356,1,110,4|8,0:0|0:0,0:0:0:0:
388,316,71507,2,0,P|400:276|416:256,1,55,0|0,0:0|0:0,0:0:0:0:
440,148,72022,1,8,0:0:0:0:
388,116,72193,2,0,P|376:56|376:0,1,110,0|0,0:0|0:0,0:0:0:0:
316,12,72707,1,8,0:0:0:0:
224,92,73050,2,0,P|120:96|96:104,1,110,0|8,0:0|0:0,0:0:0:0:
68,220,73736,6,0,L|200:212,1,110,12|8,0:0|0:0,0:0:0:0:
220,100,74422,2,0,L|352:92,1,110,12|8,0:0|0:0,0:0:0:0:
468,212,75279,6,0,L|476:276,2,55,2|2|2,0:0|0:0|0:0,0:0:0:0:
408,216,75793,2,0,L|416:280,2,55,2|2|4,0:0|0:0|0:0,0:0:0:0:
332,312,76479,6,0,P|240:332|204:336,1,110,4|8,0:0|0:0,0:0:0:0:
104,312,77164,1,0,0:0:0:0:
48,204,77507,1,8,0:0:0:0:
20,148,77679,2,0,L|16:16,1,110,0|0,0:0|0:0,0:0:0:0:
72,60,78193,2,0,P|80:104|92:136,1,55,8|0,0:0|0:0,0:0:0:0:
124,156,78536,2,0,L|252:136,1,110,0|8,0:0|0:0,0:0:0:0:
272,92,79050,2,0,P|332:96|392:84,1,110,0|0,0:0|0:0,0:0:0:0:
424,48,79564,6,0,P|432:96|432:128,2,55,8|0|0,0:0|0:0|0:0,0:0:0:0:
484,156,80250,1,8,0:0:0:0:
472,276,80593,2,0,P|432:280|408:280,1,55,2|2,0:0|0:0,0:0:0:0:
360,300,80936,2,0,L|288:304,1,55,14|2,0:0|0:0,0:0:0:0:
256,268,81279,2,0,P|252:328|256:384,1,110,0|8,0:0|0:0,0:0:0:0:
140,344,81964,6,0,L|128:216,1,110,4|8,0:0|0:0,0:0:0:0:
72,256,82479,2,0,P|60:296|44:328,1,55,0|0,0:0|0:0,0:0:0:0:
16,192,82993,1,8,0:0:0:0:
32,132,83164,2,0,L|24:16,2,110,2|2|2,0:0|0:0|0:0,0:0:0:0:
92,140,84022,1,2,0:0:0:0:
312,40,84707,6,0,L|328:160,1,110,12|8,0:0|0:0,0:0:0:0:
408,60,85393,2,0,L|424:180,1,110,12|8,0:0|0:0,0:0:0:0:
456,220,85907,1,12,0:0:0:0:
168,148,86764,6,0,P|108:184|100:116,1,165,0|2,0:0|0:0,0:0:0:0:
44,88,87450,5,4,0:0:0:0:
20,268,87964,2,0,L|12:208,1,55,0|0,0:0|0:0,0:0:0:0:
188,260,88650,2,0,L|173:149,2,110,0|0|0,0:0|0:0|0:0,0:0:0:0:
480,336,90193,5,0,0:0:0:0:
420,164,90707,2,0,P|368:168|344:172,1,55,0|0,0:0|0:0,0:0:0:0:
448,4,91393,2,0,L|320:20,2,110,0|0|0,0:0|0:0|0:0,0:0:0:0:
168,120,92936,5,4,0:0:0:0:
64,268,93450,2,0,P|64:320|72:344,1,55,0|0,0:0|0:0,0:0:0:0:
244,292,94136,2,0,P|292:252|320:196,2,110,0|0|0,0:0|0:0|0:0,0:0:0:0:
48,60,95679,6,0,L|40:192,2,110,0|8|0,0:0|3:0|0:0,0:0:0:0:
96,100,96536,2,0,P|100:144|116:208,1,110,0|0,0:0|3:0,0:0:0:0:
