osu file format v14

[General]
AudioFilename: audio.mp3
AudioLeadIn: 0
PreviewTime: 57553
Countdown: 0
SampleSet: Soft
StackLeniency: 0.2
Mode: 0
LetterboxInBreaks: 0
WidescreenStoryboard: 1

[Editor]
DistanceSpacing: 1.7
BeatDivisor: 4
GridSize: 4
TimelineZoom: 2.2

[Metadata]
Title:Mirai Puzzle
TitleUnicode:未来パズル
Artist:Chino(CV.Minase Inori)
ArtistUnicode:チノ(CV.水瀬いのり)
Creator:sukiNathan
Version:Cup of Chino
Source:ご注文はうさぎですか??
Tags:gochiusa gochuumon wa usagi desuka? is the order a rabbit? rabbit minase inori kafuu キャラクターソングアルバム チノ
BeatmapID:949071
BeatmapSetID:441187

[Difficulty]
HPDrainRate:5
CircleSize:4
OverallDifficulty:8
ApproachRate:9
SliderMultiplier:1.8
SliderTickRate:1

[Events]
//Background and Video events
0,0,"menu-background.jpg",0,0
//Break Periods
2,174753,181978
//Storyboard Layer 0 (Background)
//Storyboard Layer 1 (Fail)
//Storyboard Layer 2 (Pass)
//Storyboard Layer 3 (Foreground)
//Storyboard Sound Samples

[TimingPoints]
553,375,4,2,1,70,1,0
3178,-83.3333333333333,4,2,1,70,0,0
3553,-100,4,2,1,70,0,0
8803,-80,4,2,1,70,0,0
10678,-100,4,2,1,70,0,0
11053,-80,4,2,1,70,0,0
12178,-100,4,2,1,70,0,0
12553,-80,4,2,1,70,0,0
14053,-100,4,2,1,70,0,0
27553,-80,4,2,1,70,0,0
27928,-100,4,2,1,70,0,0
42553,-80,4,2,1,70,0,0
48553,-100,4,2,1,70,0,0
50053,-86.9565217391304,4,2,1,70,0,0
50803,-76.9230769230769,4,2,1,70,0,0
51553,-83.3333333333333,4,2,1,70,0,0
52303,-111.111111111111,4,2,1,70,0,0
53053,-83.3333333333333,4,2,1,70,0,0
53803,-111.111111111111,4,2,1,70,0,0
54553,-100,4,2,1,70,0,0
56803,-80,4,2,1,70,0,0
57553,-90.9090909090909,4,2,1,70,0,1
66553,-66.6666666666667,4,2,1,70,0,1
68053,-166.666666666667,4,2,1,70,0,0
68428,-125,4,2,1,70,0,0
68803,-100,4,2,1,70,0,0
69178,-83.3333333333333,4,2,1,70,0,0
69278,-80,4,2,1,70,0,0
69553,-90.9090909090909,4,2,1,70,0,1
75553,-80,4,2,1,70,0,0
76678,-100,4,2,1,70,0,0
77053,-80,4,2,1,70,0,0
78178,-100,4,2,1,70,0,0
78553,-80,4,2,1,70,0,1
80053,-100,4,2,1,70,0,1
81178,-166.666666666667,4,2,1,70,0,0
81553,-100,4,2,1,70,0,0
86803,-80,4,2,1,70,0,0
88678,-100,4,2,1,70,0,0
89053,-80,4,2,1,70,0,0
90178,-100,4,2,1,70,0,0
90553,-80,4,2,1,70,0,0
92053,-166.666666666667,4,2,1,70,0,0
92428,-125,4,2,1,70,0,0
92803,-100,4,2,1,70,0,0
92990,-90.9090909090909,4,2,1,70,0,0
93178,-83.3333333333333,4,2,1,70,0,0
93365,-76.9230769230769,4,2,1,70,0,0
93553,-100,4,2,1,70,0,0
103865,-133.333333333333,4,2,1,70,0,0
104428,-100,4,2,0,70,0,0
104803,-100,4,2,1,70,0,0
120553,-80,4,2,1,70,0,0
126553,-100,4,2,1,70,0,0
128053,-86.9565217391304,4,2,1,70,0,0
128803,-76.9230769230769,4,2,1,70,0,0
129553,-83.3333333333333,4,2,1,70,0,0
130303,-111.111111111111,4,2,1,70,0,0
131053,-83.3333333333333,4,2,1,70,0,0
131803,-111.111111111111,4,2,1,70,0,0
132553,-100,4,2,1,70,0,0
134803,-80,4,2,1,70,0,0
135553,-90.9090909090909,4,2,1,70,0,1
144553,-66.6666666666667,4,2,1,70,0,1
146053,-166.666666666667,4,2,1,70,0,0
146428,-125,4,2,1,70,0,0
146803,-100,4,2,1,70,0,0
147178,-83.3333333333333,4,2,1,70,0,0
147553,-90.9090909090909,4,2,1,70,0,1
153553,-80,4,2,1,70,0,0
154678,-100,4,2,1,70,0,0
155053,-80,4,2,1,70,0,0
156178,-100,4,2,1,70,0,0
156553,-80,4,2,1,70,0,0
158053,-100,4,2,1,70,0,0
168553,-100,4,2,1,50,0,0
169303,-100,4,2,1,60,0,0
170053,-100,4,2,1,70,0,0
171928,-100,4,2,0,50,0,0
172303,-100,4,2,0,60,0,0
172678,-100,4,2,0,70,0,0
173053,-100,4,2,1,50,0,0
185053,-86.9565217391304,4,2,1,70,0,0
185803,-76.9230769230769,4,2,1,70,0,0
186553,-83.3333333333333,4,2,1,70,0,0
187303,-111.111111111111,4,2,1,70,0,0
188053,-83.3333333333333,4,2,1,70,0,0
188803,-111.111111111111,4,2,1,70,0,0
189553,-100,4,2,1,70,0,0
191803,-80,4,2,1,70,0,0
192553,-100,4,2,1,70,0,0
194053,-111.111111111111,4,2,2,70,0,0
202490,-66.6666666666667,4,2,2,70,0,0
203053,-66.6666666666667,4,2,1,70,0,1
205303,-66.6666666666667,4,2,1,70,0,1
205678,-66.6666666666667,4,2,1,70,0,0
206053,-90.9090909090909,4,2,1,70,0,1
212053,-80,4,2,1,70,0,0
213178,-100,4,2,1,70,0,0
213553,-80,4,2,1,70,0,0
214678,-100,4,2,1,70,0,0
215053,-80,4,2,1,70,0,0
216553,-100,4,2,1,70,0,0
217678,-166.666666666667,4,2,1,70,0,0
218053,-100,4,2,1,70,0,0
223303,-80,4,2,1,70,0,0
224053,-80,4,2,1,70,0,0
225178,-100,4,2,1,70,0,0
225553,-80,4,2,1,70,0,0
226678,-100,4,2,1,70,0,0
227053,-80,4,2,1,70,0,0
228553,-100,4,2,1,70,0,0

[Colours]
Combo1 : 137,200,245
Combo2 : 20,97,239
Combo3 : 192,36,225
Combo4 : 225,17,111

[HitObjects]
151,334,553,6,0,P|160:278|189:246,1,90,8|0,0:0|3:0,0:0:0:0:
432,224,928,2,0,P|379:244|336:235,1,90,8|0,0:0|3:0,0:0:0:0:
196,35,1303,2,0,P|239:70|253:111,1,90,8|0,0:0|3:0,0:0:0:0:
260,196,1584,1,8,0:0:0:0:
260,196,1678,1,8,0:0:0:0:
323,15,1865,1,0,3:0:0:0:
110,106,2053,6,0,P|87:103|65:98,3,45,10|0|0|0,0:0|0:0|3:0|0:0,0:0:0:0:
260,196,2428,2,0,P|282:191|304:189,3,45,2|0|0|0,0:0|0:0|3:0|0:0,0:0:0:0:
200,260,2803,5,2,0:0:0:0:
173,223,2896,1,0,0:0:0:0:
174,177,2990,1,0,3:0:0:0:
194,136,3084,1,0,0:0:0:0:
216,96,3178,2,0,L|210:20,1,53.9999983520508,10|0,0:0|0:0,0:0:0:0:
386,93,3365,1,0,3:0:0:0:
392,150,3459,1,0,3:0:0:0:
398,203,3553,6,0,L|389:310,1,90,6|0,3:1|0:0,0:0:0:0:
121,290,3928,2,0,P|169:260|255:280,1,135,10|0,0:1|0:0,0:0:0:0:
311,319,4303,1,2,3:1:0:0:
225,180,4490,1,2,0:1:0:0:
425,201,4678,2,0,L|433:101,1,90,10|2,0:1|0:1,0:0:0:0:
330,365,5053,5,2,3:1:0:0:
323,276,5240,2,0,L|330:365,1,90,2|8,0:1|0:0,0:0:0:0:
217,108,5615,2,0,L|209:197,1,90,2|0,0:1|3:0,0:0:0:0:
109,372,5990,2,0,L|101:282,2,90,2|10|2,0:1|0:1|0:1,0:0:0:0:
172,207,6553,6,0,B|62:193|134:285|-32:261,1,180,2|8,3:1|0:0,0:0:0:0:
146,96,7115,1,2,0:1:0:0:
90,65,7209,1,0,0:0:0:0:
33,92,7303,2,0,P|19:130|41:210,1,90,2|0,3:1|0:0,0:0:0:0:
275,352,7678,2,0,L|282:244,1,90,8|0,0:0|0:0,0:0:0:0:
132,32,8053,6,0,B|180:61|180:61|171:213,1,180,2|8,3:1|0:0,0:0:0:0:
6,341,8615,1,2,0:1:0:0:
75,320,8709,1,0,0:0:0:0:
136,358,8803,2,0,B|183:364|232:330|232:330|242:372|285:385,1,168.75,2|0,3:1|0:0,0:0:0:0:
315,303,9178,2,0,L|394:306,2,56.25,8|8|0,3:2|0:0|3:0,0:0:0:0:
156,143,9553,6,0,B|130:189|130:189|151:265,1,112.5,14|0,0:0|0:0,0:0:0:0:
229,289,9834,1,8,0:0:0:0:
154,340,9928,1,8,0:0:0:0:
278,146,10115,1,8,0:0:0:0:
18,155,10303,1,8,0:0:0:0:
27,134,10678,2,0,L|32:82,1,45,2|0,3:2|0:0,0:0:0:0:
199,48,10865,5,0,0:0:0:0:
199,48,10959,1,0,0:0:0:0:
199,48,11053,2,0,B|225:94|225:94|204:170,1,112.5,10|0,0:0|0:0,0:0:0:0:
130,196,11334,1,8,0:0:0:0:
123,106,11428,1,8,0:0:0:0:
328,207,11615,1,8,0:0:0:0:
87,329,11803,1,8,0:0:0:0:
75,312,12178,2,0,L|144:302,1,45,2|0,3:2|0:0,0:0:0:0:
259,346,12365,5,0,3:0:0:0:
259,346,12459,1,0,0:0:0:0:
259,346,12553,2,0,B|199:356|199:356|218:231,1,168.75,6|0,3:2|0:0,3:0:0:0:
298,181,12928,5,8,0:0:0:0:
253,215,13021,1,8,0:0:0:0:
196,214,13115,1,8,0:0:0:0:
149,182,13209,1,8,0:0:0:0:
130,126,13303,6,0,P|205:80|221:150,1,168.75,6|0,3:2|0:0,0:0:0:0:
60,172,13678,6,8,P|49:147|47:119,1,56.25
189,229,13865,2,8,P|186:256|175:282,1,56.25
64,351,14053,6,0,L|48:239,1,90,6|0,3:2|0:0,0:0:0:0:
283,71,14428,2,0,B|307:107|307:107|289:202,1,135,6|0,3:2|0:0,0:0:0:0:
179,141,14803,6,0,L|223:132,1,45,10|8,0:0|0:0,0:0:0:0:
397,46,14990,2,0,L|352:37,1,45,2|8,3:2|0:0,0:0:0:0:
192,12,15178,6,0,L|200:56,1,45,10|0,0:0|3:0,0:0:0:0:
379,149,15365,2,0,L|370:193,1,45,2|0,3:2|3:0,0:0:0:0:
143,290,15553,6,0,B|175:293|211:286|211:286|249:314|249:314|285:306|313:310,1,180,4|8,3:2|0:0,0:0:0:0:
183,375,16115,1,0,0:0:0:0:
276,224,16303,1,0,3:0:0:0:
120,208,16490,1,0,0:0:0:0:
296,235,16678,1,8,0:0:0:0:
96,211,16865,6,0,P|51:205|8:218,1,90,2|0,0:0|3:0,0:0:0:0:
229,121,17240,1,0,0:0:0:0:
197,342,17428,1,8,0:0:0:0:
0,200,17615,1,0,0:0:0:0:
195,233,17803,2,0,P|239:238|282:225,1,90,0|0,3:0|0:0,0:0:0:0:
32,66,18178,2,0,P|19:108|24:153,1,90,8|0,0:0|0:0,0:0:0:0:
102,297,18553,6,0,L|110:100,1,180,2|8,3:2|0:0,0:0:0:0:
4,258,19115,1,0,0:0:0:0:
208,212,19303,2,0,L|310:211,1,90,0|0,3:0|0:0,0:0:0:0:
6,236,19678,2,0,L|10:136,1,90,8|0,0:0|0:0,0:0:0:0:
259,75,20053,6,0,P|295:116|260:229,1,180,2|8,3:2|0:0,0:0:0:0:
367,59,20615,1,0,0:0:0:0:
212,151,20803,2,0,L|112:155,1,90,2|0,3:2|0:0,0:0:0:0:
274,54,21178,1,10,0:0:0:0:
291,242,21365,1,8,0:0:0:0:
105,153,21553,6,0,P|64:172|28:198,1,90,6|0,3:2|0:0,0:0:0:0:
289,78,21928,2,0,P|337:109|390:127,1,90,8|0,0:0|0:0,0:0:0:0:
202,0,22303,2,0,L|190:115,1,90,0|0,3:0|0:0,0:0:0:0:
292,307,22678,2,0,L|280:192,1,90,8|0,0:0|0:0,0:0:0:0:
30,175,23053,6,0,P|70:225|149:233,1,135,2|0,3:2|0:0,0:0:0:0:
174,211,23428,1,8,0:0:0:0:
374,340,23615,2,0,P|331:328|286:331,1,90,0|0,0:0|3:0,0:0:0:0:
47,343,23990,1,0,0:0:0:0:
172,177,24178,2,0,L|168:87,1,90,8|0,0:0|0:0,0:0:0:0:
124,288,24553,6,0,B|26:294|26:294|51:321,1,135,6|0,3:2|0:0,0:0:0:0:
174,201,24928,2,0,L|300:195,1,90,8|0,0:0|0:0,0:0:0:0:
134,115,25303,1,0,3:0:0:0:
142,292,25490,1,0,3:0:0:0:
340,197,25678,1,8,0:0:0:0:
73,206,25865,5,6,3:2:0:0:
50,207,26240,1,0,3:0:0:0:
222,219,26428,5,10,0:0:0:0:
117,340,26615,1,2,0:0:0:0:
143,162,26803,2,0,P|155:114|146:66,1,90,10|2,0:0|3:2,0:0:0:0:
61,50,27084,1,0,3:0:0:0:
61,50,27178,2,0,P|58:72|61:95,1,45,10|0,0:0|0:0,0:0:0:0:
247,104,27365,2,0,P|249:126|247:148,1,45,2|0,3:2|0:2,3:2:0:0:
182,306,27553,6,0,B|227:284|270:295|270:295|289:329|337:332,1,168.75,6|0,3:2|0:0,0:0:0:0:
342,250,27928,1,8,0:0:0:0:
228,381,28115,1,0,0:0:0:0:
175,214,28303,1,0,3:0:0:0:
365,240,28490,1,0,0:0:0:0:
202,382,28678,1,8,0:0:0:0:
398,341,28865,6,0,P|355:355|310:358,1,90,2|0,0:0|3:0,0:0:0:0:
162,192,29240,1,0,0:0:0:0:
87,372,29428,2,0,P|72:329|69:284,1,90,10|0,0:0|0:0,0:0:0:0:
287,190,29803,1,2,3:2:0:0:
114,53,29990,1,0,0:0:0:0:
287,190,30178,1,10,0:0:0:0:
114,53,30365,1,0,0:0:0:0:
354,107,30553,6,0,P|281:84|184:162,1,180,2|8,3:2|0:0,0:0:0:0:
287,190,31115,1,0,0:0:0:0:
63,207,31303,2,0,P|103:226|147:235,1,90,2|0,3:2|0:0,0:0:0:0:
396,267,31678,1,10,0:0:0:0:
396,267,31771,1,0,0:0:0:0:
396,267,31865,1,2,0:0:0:0:
306,50,32053,6,0,B|274:104|274:104|293:251,1,180,2|8,3:2|0:0,0:0:0:0:
169,185,32615,1,0,0:0:0:0:
356,320,32803,2,0,L|242:307,1,90,0|0,3:0|0:0,0:0:0:0:
97,325,33178,1,8,0:0:0:0:
187,164,33365,1,8,0:0:0:0:
191,371,33553,6,0,P|178:327|179:283,1,90,6|0,3:2|0:0,0:0:0:0:
426,265,33928,2,0,P|394:297|355:319,1,90,8|0,0:0|0:0,0:0:0:0:
219,110,34303,2,0,P|262:120|301:143,1,90,0|0,3:0|0:0,0:0:0:0:
187,291,34678,1,10,0:0:0:0:
187,291,34771,1,0,0:0:0:0:
187,291,34865,1,2,0:0:0:0:
109,186,35053,6,0,P|85:127|117:40,1,135,2|0,3:2|0:0,0:0:0:0:
128,24,35428,1,8,0:0:0:0:
284,138,35615,2,0,P|232:119|168:124,1,90,2|0,0:0|3:0,0:0:0:0:
315,242,35990,1,8,0:0:0:0:
362,70,36178,1,8,0:0:0:0:
186,116,36365,5,8,0:0:0:0:
186,116,36459,1,8,0:0:0:0:
186,116,36553,1,10,0:0:0:0:
428,164,36740,1,8,0:0:0:0:
355,160,36834,1,8,0:0:0:0:
283,153,36928,1,10,0:0:0:0:
428,164,37303,5,10,0:0:0:0:
164,245,37490,1,8,0:0:0:0:
237,241,37584,1,8,0:0:0:0:
309,234,37678,1,10,0:0:0:0:
164,245,38053,5,2,3:2:0:0:
51,96,38240,1,0,0:0:0:0:
60,167,38334,1,0,0:0:0:0:
73,237,38428,2,0,L|87:351,1,90,2|0,3:2|0:0,0:0:0:0:
273,188,38803,2,0,L|282:119,1,45,10|8,0:0|0:0,0:0:0:0:
164,245,38990,2,0,L|169:289,1,45,2|0,3:2|0:0,0:0:0:0:
356,205,39178,2,0,L|367:115,1,90,10|8,0:0|0:0,0:0:0:0:
342,48,39459,1,8,0:0:0:0:
413,55,39553,5,10,0:0:0:0:
249,143,39740,1,8,0:0:0:0:
484,168,39928,1,8,0:0:0:0:
484,168,40678,1,10,0:0:0:0:
484,168,40771,1,8,0:0:0:0:
484,168,40865,1,0,3:0:0:0:
298,20,41053,5,10,0:0:0:0:
468,41,41240,1,8,0:0:0:0:
249,143,41428,1,8,0:0:0:0:
249,143,42178,1,10,0:0:0:0:
249,143,42271,1,8,0:0:0:0:
249,143,42365,1,0,3:0:0:0:
169,309,42553,6,0,B|190:255|180:194|180:194|197:217|225:220,1,168.75,6|0,3:2|0:0,0:0:0:0:
92,200,42928,5,8,0:0:0:0:
102,144,43021,1,8,0:0:0:0:
147,110,43115,1,8,0:0:0:0:
203,110,43209,1,8,0:0:0:0:
249,143,43303,6,0,B|296:130|320:81|320:81|362:89|385:144,1,168.75,6|0,3:2|0:0,0:0:0:0:
315,209,43678,5,8,0:0:0:0:
277,250,43771,1,8,0:0:0:0:
291,304,43865,1,8,0:0:0:0:
344,321,43959,1,8,0:0:0:0:
332,264,44053,6,0,B|237:247|294:334|154:311,1,168.75,6|0,3:2|0:0,0:0:0:0:
2,346,44428,2,0,B|57:358|100:308|100:308|97:340|117:362,1,168.75,6|0,3:2|0:0,0:0:0:0:
180,314,44803,6,0,P|182:282|168:255,1,56.25,6|0,3:2|0:0,0:0:0:0:
38,180,44990,2,0,P|36:148|50:121,1,56.25,2|0,0:0|0:0,0:0:0:0:
164,34,45178,1,8,0:0:0:0:
164,34,45271,1,8,0:0:0:0:
164,34,45365,1,0,3:0:0:0:
151,243,45553,5,10,0:0:0:0:
279,207,45740,1,8,0:0:0:0:
23,200,45928,1,8,0:0:0:0:
23,200,46678,1,10,0:0:0:0:
23,200,46771,1,8,0:0:0:0:
23,200,46865,1,0,3:0:0:0:
209,121,47053,5,10,0:0:0:0:
82,85,47240,1,8,0:0:0:0:
206,250,47428,1,8,0:0:0:0:
206,250,48178,1,10,0:0:0:0:
206,250,48271,1,8,0:0:0:0:
206,250,48365,1,0,3:0:0:0:
281,145,48553,6,0,B|224:115|224:115|152:132,2,135,6|0|0,3:2|3:0|3:0,0:0:0:0:
365,68,49303,5,6,3:2:0:0:
451,308,49584,1,0,3:0:0:0:
206,250,49865,1,0,3:0:0:0:
339,182,50053,6,0,P|358:240|341:288,1,103.500001974106,6|0,3:2|0:0,0:0:0:0:
251,143,50334,2,0,P|291:97|341:88,1,103.500001974106,0|0,3:0|0:0,0:0:0:0:
262,235,50615,2,0,P|216:234|189:223,1,51.7500009870529,0|0,3:0|0:0,0:0:0:0:
10,219,50803,6,0,B|70:201|70:201|150:222,1,116.999994644165,6|0,3:2|0:0,0:0:0:0:
304,300,51084,2,0,B|244:318|244:318|164:297,1,116.999994644165,0|0,3:0|0:0,0:0:0:0:
228,114,51365,2,0,L|215:198,1,58.4999973220826,0|0,3:0|0:0,0:0:0:0:
90,371,51553,6,0,L|69:258,1,107.999996704102,14|0,0:0|3:0,0:0:0:0:
251,91,51928,2,0,L|231:197,1,107.999996704102,8|0,0:0|3:0,0:0:0:0:
70,264,52303,6,0,L|48:159,1,80.9999975280763,8|0,0:0|3:0,0:0:0:0:
231,197,52678,2,0,L|214:276,1,80.9999975280763,8|0,0:0|3:0,0:0:0:0:
439,22,53053,6,0,L|469:149,1,107.999996704102,14|0,0:2|3:0,0:0:0:0:
214,276,53428,2,0,L|238:170,1,107.999996704102,8|0,0:0|3:0,0:0:0:0:
463,127,53803,6,0,L|447:206,1,80.9999975280763,8|0,0:0|3:0,0:0:0:0:
237,170,54178,2,0,L|220:90,1,80.9999975280763,8|0,0:0|3:0,0:0:0:0:
449,29,54553,5,14,0:0:0:0:
359,234,54740,1,0,3:0:0:0:
210,64,54928,1,8,0:0:0:0:
363,257,55115,1,0,3:0:0:0:
330,29,55303,2,0,L|346:153,1,90,8|0,0:0|3:0,0:0:0:0:
388,182,55584,1,8,0:0:0:0:
316,192,55678,1,8,0:0:0:0:
470,63,55865,1,0,3:0:0:0:
209,105,56053,5,14,0:0:0:0:
209,105,56803,6,0,B|219:225|219:225|165:188,1,168.75,6|0,3:2|0:0,0:0:0:0:
131,62,57178,5,8,0:0:0:0:
170,22,57271,1,8,0:0:0:0:
225,14,57365,1,8,0:0:0:0:
272,45,57459,1,8,0:0:0:0:
294,89,57553,6,0,L|303:201,1,99.0000030212403,6|0,3:2|0:0,0:0:0:0:
56,190,57928,2,0,B|108:167|108:167|214:178,1,148.50000453186,8|0,0:0|0:0,0:0:0:0:
106,286,58303,2,0,L|7:278,1,99.0000030212403,0|0,3:0|0:0,0:0:0:0:
145,381,58678,1,8,0:0:0:0:
302,261,58865,1,0,0:0:0:0:
137,197,59053,6,0,P|138:126|151:102,1,99.0000030212403,2|0,3:2|0:0,0:0:0:0:
408,135,59428,2,0,P|346:169|247:165,1,148.50000453186,8|0,0:0|0:0,0:0:0:0:
231,107,59803,1,2,3:2:0:0:
352,250,59990,1,0,0:0:0:0:
401,64,60178,1,8,0:0:0:0:
209,107,60365,1,0,0:0:0:0:
352,275,60553,6,0,B|257:254|271:364|128:316,1,198.000006042481,2|8,3:2|0:0,0:0:0:0:
334,366,61115,1,0,0:0:0:0:
194,234,61303,2,0,L|187:73,1,148.50000453186,2|0,3:2|0:0,0:0:0:0:
323,210,61678,2,0,L|317:308,1,99.0000030212403,8|0,0:0|0:0,0:0:0:0:
65,280,62053,5,2,3:2:0:0:
46,266,62428,1,8,0:0:0:0:
156,366,62615,1,0,0:0:0:0:
249,185,62803,2,0,P|258:244|242:304,1,99.0000030212403,2|0,3:2|0:0,0:0:0:0:
122,105,63178,1,8,0:0:0:0:
356,89,63365,1,8,0:0:0:0:
245,306,63553,5,6,3:2:0:0:
311,194,63740,1,0,0:0:0:0:
377,296,63928,1,8,0:0:0:0:
233,326,64115,1,0,0:0:0:0:
450,182,64303,5,2,3:2:0:0:
287,180,64490,1,0,0:0:0:0:
381,322,64678,1,8,0:0:0:0:
473,168,64865,1,0,0:0:0:0:
222,27,65053,5,2,3:2:0:0:
284,203,65240,1,0,0:0:0:0:
412,64,65428,1,8,0:0:0:0:
197,29,65615,1,0,0:0:0:0:
430,202,65803,5,2,3:2:0:0:
110,309,66178,1,10,0:0:0:0:
110,309,66365,1,0,3:0:0:0:
110,309,66553,6,0,B|64:282|64:282|76:189|76:189|132:171,1,202.500007724762,14|0,0:0|0:0,0:0:0:0:
322,143,66928,2,0,B|282:183|222:178|222:178|219:227|177:255,1,202.500007724762,14|0,0:0|0:0,0:0:0:0:
207,7,67303,2,0,P|267:21|191:73,1,202.500007724762,14|0,0:0|0:0,0:0:0:0:
41,108,67678,2,0,B|171:108|95:184|245:178,1,202.500007724762,14|0,0:0|0:0,0:0:0:0:
222,178,68053,6,0,L|217:97,1,80.9999975280763,10|0,0:0|0:0,0:0:0:0:
252,25,68428,6,0,L|259:132,1,108,10|0,0:0|0:0,0:0:0:0:
375,232,68803,6,0,L|367:97,1,135,10|0,0:0|0:0,0:0:0:0:
141,21,69178,6,0,L|151:183,1,161.999995056153,10|0,0:0|0:0,0:0:0:0:
286,123,69553,6,0,B|243:172|243:172|249:289,1,148.50000453186,6|0,3:2|0:0,0:0:0:0:
196,83,69928,2,0,L|82:80,1,99.0000030212403,8|0,0:0|0:0,0:0:0:0:
335,205,70303,2,0,L|449:202,1,99.0000030212403,0|0,3:0|0:0,0:0:0:0:
363,33,70678,1,10,0:0:0:0:
98,64,70865,1,0,0:0:0:0:
254,264,71053,6,0,P|236:207|259:150,1,99.0000030212403,2|0,3:2|0:0,0:0:0:0:
436,82,71428,2,0,P|370:122|300:97,1,148.50000453186,8|0,0:0|0:0,0:0:0:0:
218,82,71803,1,0,3:0:0:0:
351,202,71990,1,0,0:0:0:0:
369,32,72178,1,10,0:0:0:0:
369,32,72271,1,0,0:0:0:0:
369,32,72365,1,2,0:0:0:0:
350,223,72553,6,0,B|281:228|281:228|239:262|239:262|150:270,2,198.000006042481,0|8|0,3:0|0:0|3:0,0:0:0:0:
85,122,73490,1,0,0:0:0:0:
255,26,73678,2,0,L|242:124,1,99.0000030212403,10|0,0:0|0:0,0:0:0:0:
91,330,74053,6,0,P|53:278|127:148,1,198.000006042481,2|8,3:2|0:0,0:0:0:0:
151,248,74615,1,0,0:0:0:0:
39,73,74803,2,0,P|138:71|154:83,1,99.0000030212403,0|0,3:0|0:0,0:0:0:0:
302,154,75178,1,10,0:0:0:0:
302,154,75271,1,8,0:0:0:0:
302,154,75365,1,2,3:2:0:0:
153,284,75553,6,0,B|129:230|129:230|163:165,1,112.5,14|0,0:0|0:0,0:0:0:0:
220,121,75834,1,8,0:0:0:0:
132,98,75928,1,8,0:0:0:0:
260,270,76115,1,8,0:0:0:0:
18,223,76303,1,8,0:0:0:0:
38,231,76678,2,0,L|112:235,1,45,2|0,3:2|0:0,0:0:0:0:
248,247,76865,5,0,0:0:0:0:
248,247,76959,1,0,0:0:0:0:
248,247,77053,2,0,B|272:289|272:289|241:355,1,112.5,14|0,0:0|0:0,0:0:0:0:
160,380,77334,1,8,0:0:0:0:
167,290,77428,1,8,0:0:0:0:
324,384,77615,1,8,0:0:0:0:
22,369,77803,1,8,0:0:0:0:
42,361,78178,2,0,L|46:310,1,45,2|0,3:2|0:0,0:0:0:0:
208,251,78365,5,0,3:0:0:0:
208,251,78459,1,0,0:0:0:0:
208,251,78553,2,0,B|90:241|90:241|114:256|125:294,1,168.75,6|0,3:2|0:0,0:0:0:0:
46,317,78928,5,8,0:0:0:0:
10,274,79021,1,8,0:0:0:0:
8,219,79115,1,8,0:0:0:0:
41,174,79209,1,8,0:0:0:0:
95,160,79303,6,0,L|184:168,1,56.25,6|0,3:2|0:0,0:0:0:0:
264,245,79490,2,0,L|175:253,1,56.25,2|0,0:0|0:0,0:0:0:0:
43,56,79678,5,8,0:0:0:0:
99,60,79771,1,8,0:0:0:0:
155,65,79865,1,8,0:0:0:0:
211,69,79959,1,8,0:0:0:0:
264,73,80053,6,0,B|267:108|252:131|252:131|265:153|265:153|252:172|259:200,1,135,6|0,3:2|0:0,0:0:0:0:
101,297,80428,2,0,B|125:278|161:267|161:267|195:277|221:296,1,135,6|0,3:2|0:0,0:0:0:0:
321,277,80803,1,6,3:2:0:0:
14,180,81178,6,0,B|54:169|54:169|109:204,1,80.9999975280763,2|0,3:1|0:0,0:0:0:0:
166,251,81553,6,0,L|177:158,1,90,6|0,3:1|0:0,0:0:0:0:
364,284,81928,2,0,B|298:267|298:267|220:312,1,135,10|0,0:1|0:0,0:0:0:0:
164,337,82303,1,2,3:1:0:0:
287,180,82490,1,2,0:1:0:0:
313,357,82678,1,10,0:1:0:0:
458,298,82865,1,2,0:1:0:0:
196,242,83053,5,2,3:1:0:0:
398,211,83240,2,0,P|443:210|507:197,1,90,2|8,0:1|0:0,0:0:0:0:
265,73,83615,2,0,P|241:31|198:-14,1,90,2|0,0:1|3:0,0:0:0:0:
209,252,83990,2,0,P|181:292|166:353,2,90,2|10|2,0:1|0:1|0:1,0:0:0:0:
340,166,84553,6,0,B|292:153|292:153|256:168|256:168|220:153|220:153|170:167,1,180,2|8,3:1|0:0,0:0:0:0:
412,230,85115,1,2,0:1:0:0:
436,171,85209,1,0,0:0:0:0:
411,112,85303,2,0,P|397:68|415:16,1,90,2|0,3:1|0:0,0:0:0:0:
367,254,85678,2,0,L|247:268,1,90,8|0,0:0|0:0,0:0:0:0:
11,154,86053,6,0,B|74:146|74:146|121:176|121:176|205:166,1,180,2|8,3:1|0:0,0:0:0:0:
379,32,86615,1,2,0:1:0:0:
307,41,86709,1,0,0:0:0:0:
236,55,86803,2,0,B|117:69|117:69|165:99,1,168.75,2|0,3:1|0:0,0:0:0:0:
274,165,87178,2,0,L|340:174,2,56.25,8|8|0,0:0|0:0|3:0,0:0:0:0:
95,143,87553,6,0,B|83:199|83:199|116:250,1,112.5,14|0,0:0|0:0,0:0:0:0:
201,262,87834,1,8,0:0:0:0:
142,331,87928,1,8,0:0:0:0:
262,187,88115,1,8,0:0:0:0:
0,206,88303,1,8,0:0:0:0:
22,199,88678,2,0,L|85:193,1,45,2|0,3:2|0:0,0:0:0:0:
265,70,88865,5,0,0:0:0:0:
265,70,88959,1,0,0:0:0:0:
265,70,89053,2,0,B|277:126|277:126|244:177,1,112.5,10|0,0:0|0:0,0:0:0:0:
160,197,89334,1,8,0:0:0:0:
177,108,89428,1,8,0:0:0:0:
346,263,89615,1,8,0:0:0:0:
118,321,89803,1,8,0:0:0:0:
137,335,90178,6,0,L|200:341,1,45,2|0,3:2|0:0,0:0:0:0:
274,275,90365,5,0,3:0:0:0:
274,275,90459,1,0,0:0:0:0:
274,275,90553,2,0,P|230:319|307:371,1,168.75,6|0,3:2|0:0,0:0:0:0:
351,241,90928,5,8,0:0:0:0:
316,197,91021,1,8,0:0:0:0:
260,185,91115,1,8,0:0:0:0:
209,210,91209,1,8,0:0:0:0:
181,259,91303,6,0,B|135:272|90:247|90:247|70:281|27:284,1,168.75,6|0,3:2|0:0,0:0:0:0:
8,187,91678,5,8,0:0:0:0:
45,146,91771,1,8,0:0:0:0:
100,137,91865,1,8,0:0:0:0:
147,167,91959,1,8,0:0:0:0:
166,219,92053,6,0,P|149:257|163:310,1,80.9999975280763,6|0,3:2|0:0,0:0:0:0:
182,124,92428,6,0,P|126:128|77:187,1,108,6|0,3:2|0:0,0:0:0:0:
246,57,92803,6,0,P|201:33|172:35,1,45,14|0,0:0|0:0,0:0:0:0:
207,217,92990,6,0,P|250:190|263:164,1,49.5000015106202,10|0,0:0|0:0,0:0:0:0:
85,107,93178,6,0,P|86:157|98:184,1,53.9999983520508,10|0,0:0|0:0,0:0:0:0:
373,119,93365,6,0,P|350:115|314:123,1,58.4999973220826,10|0,0:0|0:0,0:0:0:0:
169,303,93553,6,0,B|214:324|254:297|254:297|278:340|328:340,1,180,6|0,3:2|0:0,0:0:0:0:
207,217,94115,1,0,3:0:0:0:
335,253,94303,1,8,0:0:0:0:
207,217,94490,1,0,0:0:0:0:
427,154,94678,5,10,0:0:0:0:
125,317,94865,1,6,3:2:0:0:
115,336,95240,1,0,3:0:0:0:
67,233,95428,2,0,L|55:126,1,90,0|0,3:0|0:0,0:0:0:0:
144,15,95803,1,10,0:0:0:0:
35,136,95990,1,8,0:0:0:0:
202,163,96178,1,2,0:0:0:0:
15,130,96365,1,0,3:0:0:0:
228,167,96553,6,0,P|295:168|334:284,1,180,6|0,3:2|0:0,0:0:0:0:
258,247,97115,1,0,0:0:0:0:
421,222,97303,2,0,P|424:276|411:314,1,90,8|0,0:0|3:0,0:0:0:0:
187,310,97678,2,0,P|181:234|193:200,1,90,2|0,0:0|3:0,0:0:0:0:
308,145,98053,6,0,B|338:255|262:205|303:333,2,180,6|0|8,3:2|3:0|0:0,0:0:0:0:
319,5,98990,1,0,0:0:0:0:
209,81,99178,1,8,0:0:0:0:
416,87,99365,1,8,0:0:0:0:
210,100,99553,6,0,L|26:113,1,180,6|0,3:2|0:0,0:0:0:0:
41,220,100115,1,0,3:0:0:0:
41,220,100303,2,0,L|145:212,1,90,10|0,0:0|0:0,0:0:0:0:
282,140,100678,2,0,B|244:175|244:175|239:285,1,135,10|0,0:0|0:0,0:0:0:0:
286,336,101053,6,0,P|230:350|179:324,1,90,6|0,3:2|0:0,0:0:0:0:
479,342,101428,1,0,3:0:0:0:
342,218,101615,2,0,P|398:204|449:230,1,90,10|0,0:0|0:0,0:0:0:0:
387,309,101990,1,8,0:0:0:0:
369,106,102178,2,0,L|363:-9,1,90,2|0,0:0|3:0,0:0:0:0:
243,108,102553,5,14,0:0:0:0:
421,234,102740,1,0,3:0:0:0:
245,247,102928,5,8,0:0:0:0:
413,94,103115,1,0,3:0:0:0:
340,320,103303,6,0,B|333:204,1,90,8|0,0:0|3:0,0:0:0:0:
291,171,103584,1,0,3:0:0:0:
363,165,103678,1,8,0:0:0:0:
225,27,103865,6,0,P|270:-2|302:76,1,135.000005149842,6|0,3:2|0:0,0:0:0:0:
342,272,104428,1,2,0:0:0:0:
321,279,104803,5,2,3:2:0:0:
406,110,104990,1,8,0:0:0:0:
406,110,105084,1,8,0:0:0:0:
406,110,105178,1,8,0:0:0:0:
495,282,105365,1,0,3:0:0:0:
308,168,105553,6,0,L|170:181,1,135,6|0,3:2|0:0,0:0:0:0:
130,188,105928,1,8,0:0:0:0:
308,316,106115,1,0,0:0:0:0:
121,340,106303,2,0,P|74:349|12:377,1,90,10|0,0:0|3:0,0:0:0:0:
219,365,106678,1,8,0:0:0:0:
65,251,106865,6,0,P|74:204|102:142,1,90,2|8,3:2|0:0,0:0:0:0:
189,27,107240,1,0,0:0:0:0:
71,146,107428,1,8,0:0:0:0:
241,180,107615,1,0,0:0:0:0:
108,70,107803,2,0,P|66:53|21:45,1,90,10|0,0:0|3:0,0:0:0:0:
250,160,108178,2,0,P|294:151|336:135,1,90,10|0,0:0|3:0,0:0:0:0:
166,364,108553,6,0,B|128:307|128:307|142:180,1,180,14|8,0:0|0:0,0:0:0:0:
235,293,109115,1,0,0:0:0:0:
39,286,109303,2,0,L|50:188,1,90,8|0,0:0|3:0,0:0:0:0:
266,133,109678,1,10,0:0:0:0:
266,133,109771,1,0,0:0:0:0:
266,133,109865,1,2,3:2:0:0:
165,191,110053,6,0,P|140:128|201:39,1,180,10|8,0:0|0:0,0:0:0:0:
266,133,110615,1,0,0:0:0:0:
115,289,110803,2,0,L|204:292,1,90,10|0,0:0|3:0,0:0:0:0:
356,191,111178,2,0,B|328:233|328:233|332:341,1,135,10|0,0:0|0:0,0:0:0:0:
449,244,111553,6,0,P|461:204|458:157,1,90,14|0,0:0|0:0,0:0:0:0:
185,151,111928,2,0,P|213:181|255:202,1,90,8|0,0:0|0:0,0:0:0:0:
484,9,112303,2,0,B|395:-8|410:73|287:50,1,180,8|8,0:0|0:0,0:0:0:0:
466,95,112865,1,0,3:0:0:0:
260,195,113053,6,0,P|302:207|348:203,1,90,10|0,0:0|0:0,0:0:0:0:
468,127,113428,1,8,0:0:0:0:
301,21,113615,2,0,P|296:65|309:108,1,90,2|8,0:0|0:0,0:0:0:0:
448,255,113990,1,0,3:0:0:0:
264,313,114178,1,10,0:0:0:0:
264,313,114271,1,8,0:0:0:0:
264,313,114365,1,2,3:2:0:0:
407,159,114553,5,10,0:0:0:0:
348,381,114740,1,8,0:0:0:0:
343,310,114834,1,8,0:0:0:0:
338,238,114928,1,10,0:0:0:0:
348,381,115303,5,10,0:0:0:0:
174,238,115490,1,10,0:0:0:0:
169,310,115584,1,8,0:0:0:0:
164,381,115678,1,8,0:0:0:0:
174,238,116053,5,2,3:2:0:0:
102,343,116240,1,0,0:0:0:0:
164,381,116334,1,0,0:0:0:0:
232,357,116428,2,0,L|345:361,1,90,2|0,3:2|0:0,0:0:0:0:
33,250,116803,2,0,L|31:205,1,45,10|8,0:0|0:0,0:0:0:0:
259,99,116990,2,0,L|257:143,1,45,2|0,3:2|0:0,0:0:0:0:
146,276,117178,2,0,L|142:186,1,90,10|8,0:0|0:0,0:0:0:0:
176,122,117459,1,8,0:0:0:0:
103,125,117553,5,10,0:0:0:0:
262,235,117740,1,8,0:0:0:0:
23,247,117928,1,8,0:0:0:0:
30,254,118678,1,10,0:0:0:0:
30,254,118771,1,8,0:0:0:0:
30,254,118865,1,0,3:0:0:0:
234,296,119053,5,10,0:0:0:0:
165,100,119240,1,8,0:0:0:0:
126,320,119428,1,8,0:0:0:0:
126,320,120178,1,10,0:0:0:0:
126,320,120271,1,8,0:0:0:0:
126,320,120365,1,0,3:0:0:0:
288,234,120553,6,0,B|229:265|169:239|169:239|218:296,1,168.75,6|0,3:2|0:0,0:0:0:0:
332,299,120928,5,8,0:0:0:0:
365,254,121021,1,8,0:0:0:0:
360,197,121115,1,8,0:0:0:0:
316,161,121209,1,8,0:0:0:0:
260,153,121303,6,0,P|183:116|218:84,1,168.75,6|0,3:2|0:0,0:0:0:0:
329,93,121678,5,8,0:0:0:0:
357,140,121771,1,8,0:0:0:0:
350,196,121865,1,8,0:0:0:0:
308,234,121959,1,8,0:0:0:0:
252,245,122053,6,0,B|215:254|186:244|186:244|154:266|154:266|77:280,1,168.75,6|0,3:2|0:0,0:0:0:0:
86,90,122428,2,0,B|126:108|126:108|117:188|117:188|72:197,1,168.75,6|0,3:2|0:0,0:0:0:0:
5,228,122803,6,0,L|0:172,1,56.25,6|0,3:2|0:0,0:0:0:0:
209,88,122990,2,0,L|203:143,1,56.25,2|0,0:0|0:0,0:0:0:0:
351,286,123178,1,8,0:0:0:0:
351,286,123271,1,8,0:0:0:0:
351,286,123365,1,0,3:0:0:0:
201,168,123553,5,10,0:0:0:0:
355,306,123740,1,8,0:0:0:0:
423,120,123928,1,8,0:0:0:0:
423,120,124678,1,10,0:0:0:0:
423,120,124771,1,8,0:0:0:0:
423,120,124865,1,0,3:0:0:0:
193,168,125053,5,10,0:0:0:0:
286,37,125240,1,8,0:0:0:0:
338,253,125428,1,8,0:0:0:0:
338,253,126178,1,10,0:0:0:0:
338,253,126271,1,8,0:0:0:0:
338,253,126365,1,0,3:0:0:0:
145,173,126553,6,0,P|197:135|277:164,2,135,6|0|0,3:2|3:0|3:0,3:0:0:0:
2,271,127303,5,6,3:2:0:0:
57,25,127584,1,0,3:0:0:0:
217,221,127865,1,0,3:0:0:0:
92,148,128053,6,0,P|140:118|206:125,1,103.500001974106,6|0,3:2|0:0,0:0:0:0:
340,224,128334,2,0,P|297:251|246:254,1,103.500001974106,0|0,3:0|0:0,0:0:0:0:
348,80,128615,2,0,P|369:66|394:65,1,51.7500009870529,0|0,3:0|0:0,0:0:0:0:
489,292,128803,6,0,B|432:309|432:309|368:287,1,116.999994644165,6|0,3:2|0:0,0:0:0:0:
247,217,129084,2,0,B|265:271|265:271|248:328,1,116.999994644165,0|0,3:0|0:0,0:0:0:0:
91,295,129365,2,0,L|162:278,1,58.4999973220826,0|0,3:0|0:0,0:0:0:0:
316,134,129553,6,0,P|256:111|179:136,1,107.999996704102,14|0,0:0|3:0,0:0:0:0:
50,381,129928,2,0,P|103:385|152:363,1,107.999996704102,8|0,0:0|3:0,0:0:0:0:
213,116,130303,6,0,P|172:118|135:133,1,80.9999975280763,8|0,0:0|3:0,0:0:0:0:
152,363,130678,2,0,P|189:378|229:380,1,80.9999975280763,8|0,0:0|3:0,0:0:0:0:
213,116,131053,6,0,P|207:178|244:230,1,107.999996704102,14|0,0:0|3:0,0:0:0:0:
420,384,131428,2,0,P|443:336|435:283,1,107.999996704102,8|0,0:0|3:0,0:0:0:0:
228,216,131803,6,0,P|209:273|216:300,1,80.9999975280763,8|0,0:0|3:0,0:0:0:0:
435,283,132178,2,0,P|437:243|419:207,1,80.9999975280763,8|0,0:0|3:0,0:0:0:0:
208,196,132553,5,14,0:0:0:0:
428,182,132740,1,0,3:0:0:0:
253,304,132928,1,8,0:0:0:0:
243,84,133115,1,0,3:0:0:0:
447,183,133303,2,0,L|334:186,1,90,8|0,0:0|3:0,0:0:0:0:
287,153,133584,1,8,0:0:0:0:
291,229,133678,1,10,0:0:0:0:
402,83,133865,1,0,3:0:0:0:
408,284,134053,5,6,3:2:0:0:
408,284,134803,6,0,B|306:284|368:352|218:349,1,168.75,6|0,3:2|0:0,0:0:0:0:
162,382,135178,5,8,0:0:0:0:
149,327,135271,1,8,0:0:0:0:
169,275,135365,1,8,0:0:0:0:
213,243,135459,1,8,0:0:0:0:
262,239,135553,6,0,P|295:167|288:122,1,99.0000030212403,6|0,3:2|0:0,0:0:0:0:
36,157,135928,2,0,P|132:135|186:157,1,148.50000453186,10|0,0:0|0:0,0:0:0:0:
109,256,136303,2,0,P|63:273|14:268,1,99.0000030212403,2|0,3:2|0:0,0:0:0:0:
209,136,136678,1,8,0:0:0:0:
6,242,136865,1,0,0:0:0:0:
221,347,137053,6,0,L|332:339,1,99.0000030212403,2|0,3:2|0:0,0:0:0:0:
439,138,137428,2,0,B|409:184|409:184|403:294,1,148.50000453186,8|0,0:0|0:0,0:0:0:0:
471,342,137803,1,2,3:2:0:0:
319,177,137990,1,0,0:0:0:0:
508,208,138178,1,10,0:0:0:0:
321,320,138365,1,0,0:0:0:0:
427,131,138553,6,0,B|364:133|364:133|316:169|316:169|212:175,1,198.000006042481,2|8,3:2|0:0,0:0:0:0:
391,230,139115,1,0,0:0:0:0:
180,106,139303,2,0,P|149:146|206:260,1,148.50000453186,2|0,3:2|0:0,0:0:0:0:
221,353,139678,2,0,P|152:357|111:405,1,99.0000030212403,8|0,0:0|0:0,0:0:0:0:
336,168,140053,5,2,3:2:0:0:
362,164,140428,1,8,0:0:0:0:
310,64,140615,1,0,0:0:0:0:
291,257,140803,2,0,L|278:374,1,99.0000030212403,2|0,3:2|0:0,0:0:0:0:
418,172,141178,1,8,0:0:0:0:
196,148,141365,1,8,0:0:0:0:
364,292,141553,6,0,P|292:252|219:279,1,148.50000453186,6|0,3:2|0:0,0:0:0:0:
174,322,141928,1,8,0:0:0:0:
312,165,142115,1,0,0:0:0:0:
166,348,142303,6,0,P|126:276|153:203,1,148.50000453186,0|0,3:0|0:0,0:0:0:0:
196,158,142678,1,8,0:0:0:0:
35,270,142865,1,0,0:0:0:0:
231,268,143053,6,0,L|361:260,1,99.0000030212403,2|0,3:2|0:0,0:0:0:0:
164,23,143428,2,0,B|157:110|157:110|195:157,1,148.50000453186,8|0,0:0|0:0,0:0:0:0:
244,78,143803,1,2,3:2:0:0:
4,149,143990,1,0,0:0:0:0:
174,242,144178,1,10,0:0:0:0:
174,242,144271,1,8,0:0:0:0:
174,242,144365,1,2,3:2:0:0:
126,39,144553,6,0,B|96:98|108:172|108:172|138:147|173:149,1,202.500007724762,14|0,0:0|0:0,0:0:0:0:
347,192,144928,2,0,B|299:167|254:182|254:182|237:237|171:243,1,202.500007724762,14|0,0:0|0:0,0:0:0:0:
104,287,145303,2,0,P|161:242|159:358,1,202.500007724762,14|0,0:0|0:0,0:0:0:0:
32,382,145678,2,0,B|34:328|34:328|7:283|39:237|39:237|19:188,1,202.500007724762,14|0,0:0|0:0,0:0:0:0:
19,189,146053,6,0,P|68:156|90:160,1,80.9999975280763,10|0,0:0|0:0,0:0:0:0:
170,278,146428,6,0,P|117:275|74:225,1,108,10|0,0:0|0:0,0:0:0:0:
129,87,146803,6,0,P|167:140|155:205,1,135,10|0,0:0|0:0,0:0:0:0:
52,45,147178,6,0,P|118:2|192:29,1,161.999995056153,10|0,0:0|0:0,0:0:0:0:
73,145,147553,6,0,B|112:139|133:105|133:105|162:129|206:126,1,148.50000453186,6|0,3:2|0:0,0:0:0:0:
370,188,147928,2,0,P|325:208|277:200,1,99.0000030212403,8|0,0:0|0:0,0:0:0:0:
98,15,148303,2,0,P|146:8|191:28,1,99.0000030212403,0|0,3:0|0:0,0:0:0:0:
135,260,148678,1,8,0:0:0:0:
329,117,148865,1,0,0:0:0:0:
105,144,149053,6,0,L|-5:155,1,99.0000030212403,0|0,3:0|0:0,0:0:0:0:
215,51,149428,2,0,B|237:97|237:97|228:208,1,148.50000453186,8|0,0:0|0:0,0:0:0:0:
147,230,149803,1,0,3:0:0:0:
321,72,149990,1,0,0:0:0:0:
124,97,150178,1,10,0:0:0:0:
124,97,150271,1,0,0:0:0:0:
124,97,150365,1,2,0:0:0:0:
239,270,150553,6,0,B|141:243|154:335|44:308,2,198.000006042481,0|8|0,3:0|0:0|3:0,0:0:0:0:
369,183,151490,1,0,0:0:0:0:
464,356,151678,2,0,P|487:319|480:242,1,99.0000030212403,8|0,0:0|0:0,0:0:0:0:
260,76,152053,6,0,L|270:282,1,198.000006042481,0|8,3:0|0:0,0:0:0:0:
368,127,152615,1,0,0:0:0:0:
163,218,152803,2,0,L|59:209,1,99.0000030212403,0|0,3:0|0:0,0:0:0:0:
357,324,153178,1,10,0:0:0:0:
357,324,153271,1,0,0:0:0:0:
357,324,153365,1,2,3:2:0:0:
284,155,153553,6,0,B|269:208|269:208|298:275,1,112.5,14|0,0:0|0:0,0:0:0:0:
380,236,153834,1,8,0:0:0:0:
357,324,153928,1,8,0:0:0:0:
175,188,154115,1,8,0:0:0:0:
428,120,154303,1,8,0:0:0:0:
427,141,154678,2,0,L|350:138,1,45,2|0,3:2|0:0,0:0:0:0:
210,175,154865,5,0,0:0:0:0:
210,175,154959,1,0,0:0:0:0:
211,175,155053,2,0,B|196:122|196:122|225:55,1,112.5,14|0,0:0|0:0,0:0:0:0:
305,44,155334,1,8,0:0:0:0:
291,133,155428,1,8,0:0:0:0:
154,18,155615,1,8,0:0:0:0:
453,70,155803,1,8,0:0:0:0:
451,95,156178,2,0,L|448:156,1,45,2|0,3:2|0:0,0:0:0:0:
381,320,156365,5,0,3:0:0:0:
381,320,156459,1,0,0:0:0:0:
381,320,156553,2,0,B|399:259|385:202|385:202|402:223|434:228,1,168.75,6|0,3:2|0:0,0:0:0:0:
448,139,156928,5,8,0:0:0:0:
398,114,157021,1,8,0:0:0:0:
343,123,157115,1,8,0:0:0:0:
304,162,157209,1,8,0:0:0:0:
295,216,157303,6,0,P|261:224|222:223,1,56.25,6|0,3:2|0:0,0:0:0:0:
256,55,157490,2,0,P|254:83|247:110,1,56.25,2|0,0:0|0:0,0:0:0:0:
205,300,157678,5,8,0:0:0:0:
156,273,157771,1,8,0:0:0:0:
145,217,157865,1,8,0:0:0:0:
169,166,157959,1,8,0:0:0:0:
220,144,158053,6,0,B|177:149|151:128|151:128|123:127|62:149,1,135,6|0,3:2|0:0,0:0:0:0:
0,39,158428,2,0,B|43:35|69:55|69:55|99:44|129:44,1,135,6|0,3:2|0:0,0:0:0:0:
208,60,158803,5,6,3:2:0:0:
54,223,158990,1,8,0:0:0:0:
270,276,159178,1,0,3:0:0:0:
220,47,159365,1,0,0:0:0:0:
151,304,159553,5,6,3:2:0:0:
450,115,159928,2,0,B|414:111|414:111|387:126|387:126|357:120|357:120|323:135,1,135,2|0,0:1|0:0,0:0:0:0:
239,166,160303,1,8,0:0:0:0:
373,38,160490,1,2,0:1:0:0:
402,217,160678,1,10,0:1:0:0:
158,83,160865,6,0,P|223:48|300:76,1,135,6|0,3:1|0:0,0:0:0:0:
326,139,161240,1,0,3:0:0:0:
167,173,161428,2,0,P|110:174|59:193,1,90,0|2,3:0|0:1,0:0:0:0:
216,58,161803,1,8,0:0:0:0:
230,270,161990,1,10,0:1:0:0:
55,175,162178,1,2,0:1:0:0:
272,159,162365,1,2,3:1:0:0:
188,362,162553,5,2,3:2:0:0:
172,342,162928,2,0,L|164:236,1,90,2|0,0:1|3:0,0:0:0:0:
275,68,163303,2,0,B|251:125|251:125|255:197,1,135,10|0,0:1|0:0,0:0:0:0:
343,305,163678,2,0,L|253:298,1,90,2|0,0:1|3:0,0:0:0:0:
71,100,164053,6,0,P|142:108|69:161,1,180,6|0,3:1|3:0,0:0:0:0:
100,9,164615,2,0,P|162:25|174:40,1,45,2|0,0:1|0:0,0:0:0:0:
186,227,164803,2,0,P|99:261|62:257,1,90,10|0,0:1|0:0,0:0:0:0:
247,124,165178,1,8,0:0:0:0:
282,308,165365,1,8,0:0:0:0:
74,155,165553,6,0,L|85:245,1,90,6|0,3:2|0:1,0:0:0:0:
293,377,165928,2,0,L|303:287,1,90,2|2,0:1|3:1,0:0:0:0:
330,106,166303,1,10,0:1:0:0:
194,262,166490,1,2,0:1:0:0:
409,297,166678,1,10,0:1:0:0:
205,138,166865,5,6,3:1:0:0:
188,122,167240,1,0,3:0:0:0:
337,204,167428,2,0,P|397:200|450:180,1,90,0|2,3:0|0:1,0:0:0:0:
293,102,167803,1,8,0:0:0:0:
320,309,167990,1,10,0:1:0:0:
454,188,168178,1,2,0:1:0:0:
443,204,168553,6,0,B|399:220|399:220|356:215,1,90,14|0,0:1|3:0,0:0:0:0:
355,37,168928,2,0,B|371:81|371:81|366:123,1,90,10|0,0:1|3:0,0:0:0:0:
180,125,169303,2,0,B|224:109|224:109|266:113,1,90,10|0,0:1|3:0,0:0:0:0:
273,300,169678,2,0,B|257:256|257:256|261:213,1,90,10|0,0:1|3:0,0:0:0:0:
417,63,170053,5,10,0:1:0:0:
270,191,170240,1,0,3:0:0:0:
453,258,170428,1,8,0:0:0:0:
302,73,170615,1,2,3:1:0:0:
302,73,170709,1,0,0:0:0:0:
302,73,170803,1,10,0:1:0:0:
512,146,170990,1,0,3:0:0:0:
270,191,171178,1,8,0:0:0:0:
451,48,171365,1,0,3:0:0:0:
429,343,171553,5,6,3:1:0:0:
425,325,171928,2,0,P|404:298|365:277,2,60,2|2|2,0:0|0:0|0:0,0:0:0:0:
329,148,172303,2,0,P|316:179|317:223,2,60,2|2|2,0:0|0:0|0:0,0:0:0:0:
224,319,172678,2,0,P|257:314|295:291,2,60,2|2|2,0:0|0:0|0:0,0:0:0:0:
176,182,173053,6,0,P|94:184|53:241,2,135,8|0|0,0:0|3:0|3:0,0:0:0:0:
146,320,173803,2,8,L|139:258,2,60
259,168,174178,2,0,L|266:106,2,60,0|0|0,3:0|3:0|3:0,3:0:0:0:
115,38,174553,5,6,0:0:0:0:
217,108,183178,5,14,0:0:0:0:
217,108,183553,6,0,L|80:117,2,135,6|0|0,3:2|3:0|3:0,0:0:0:0:
354,15,184303,5,6,3:2:0:0:
248,245,184584,1,0,3:0:0:0:
498,231,184865,1,0,3:0:0:0:
361,146,185053,6,0,L|351:267,1,103.500001974106,6|0,3:2|0:0,0:0:0:0:
265,318,185334,2,0,L|256:214,1,103.500001974106,0|0,3:0|0:0,0:0:0:0:
163,146,185615,2,0,L|155:234,1,51.7500009870529,0|0,3:0|0:0,0:0:0:0:
41,297,185803,6,0,P|97:281|157:319,1,116.999994644165,6|0,3:2|0:0,0:0:0:0:
289,194,186084,2,0,P|232:178|173:216,1,116.999994644165,0|0,3:0|0:0,0:0:0:0:
28,146,186365,2,0,P|73:138|112:156,1,58.4999973220826,0|0,3:0|0:0,0:0:0:0:
319,203,186553,6,0,L|326:65,1,107.999996704102,14|0,0:0|3:0,0:0:0:0:
197,340,186928,2,0,L|190:202,1,107.999996704102,8|0,0:0|3:0,0:0:0:0:
324,95,187303,6,0,L|327:175,1,80.9999975280763,8|0,0:0|3:0,0:0:0:0:
191,232,187678,2,0,L|187:151,1,80.9999975280763,8|0,0:0|3:0,0:0:0:0:
442,254,188053,6,0,B|467:206|467:206|456:153,1,107.999996704102,14|0,0:0|3:0,0:0:0:0:
172,50,188428,2,0,B|161:102|161:102|186:150,1,107.999996704102,8|0,0:0|3:0,0:0:0:0:
456,153,188803,6,0,L|360:171,1,80.9999975280763,8|0,0:0|3:0,0:0:0:0:
186,150,189178,2,0,L|282:132,1,80.9999975280763,8|0,0:0|3:0,0:0:0:0:
431,249,189553,5,14,0:0:0:0:
167,153,189740,1,0,3:0:0:0:
427,20,189928,1,8,0:0:0:0:
153,157,190115,1,0,3:0:0:0:
249,22,190303,2,0,B|278:58|278:58|279:136,1,90,8|0,0:0|3:0,0:0:0:0:
235,157,190584,1,8,0:0:0:0:
201,92,190678,1,8,0:0:0:0:
335,240,190865,1,0,3:0:0:0:
111,216,191053,5,6,3:2:0:0:
111,216,191803,6,0,B|133:151|102:98|102:98|77:140,1,168.75,6|0,3:2|0:0,0:0:0:0:
110,305,192178,2,0,P|112:339|127:372,2,56.25,8|8|0,0:0|0:0|3:0,0:0:0:0:
313,268,192553,6,0,B|272:251|272:251|182:265,2,135,10|0|0,0:0|3:0|3:0,0:0:0:0:
268,355,193303,1,10,0:0:0:0:
268,355,193396,1,8,0:0:0:0:
268,355,193490,1,0,3:0:0:0:
403,202,193678,2,0,L|391:336,1,135,10|0,0:0|0:0,0:0:0:0:
380,182,194053,6,0,L|388:90,1,80.9999975280763,14|0,0:0|0:0,0:0:0:0:
308,236,194428,2,0,L|300:328,1,80.9999975280763,10|0,0:0|0:0,0:0:0:0:
240,172,194803,2,0,L|248:80,1,80.9999975280763,10|0,0:0|3:0,0:0:0:0:
161,222,195178,1,10,0:0:0:0:
161,222,195365,1,0,0:0:0:0:
329,179,195553,6,0,P|381:183|410:211,1,80.9999975280763,10|0,0:0|0:0,0:0:0:0:
216,289,195928,2,0,P|182:310|142:309,1,80.9999975280763,10|0,0:0|0:0,0:0:0:0:
141,99,196303,1,10,0:0:0:0:
141,99,196490,1,2,3:2:0:0:
21,192,196678,1,10,0:0:0:0:
21,192,196865,1,0,3:0:0:0:
216,225,197053,6,0,P|279:205|395:217,2,161.999995056153,14|10|2,0:0|0:0|0:0,0:0:0:0:
249,321,197990,1,2,3:2:0:0:
104,247,198178,2,0,P|109:206|120:168,1,80.9999975280763,10|0,0:0|3:0,0:0:0:0:
254,30,198553,5,10,0:0:0:0:
277,16,198928,1,10,0:0:0:0:
180,71,199115,1,0,0:0:0:0:
343,109,199303,2,0,P|383:103|421:92,1,80.9999975280763,10|2,0:0|3:2,0:0:0:0:
243,174,199678,2,0,P|204:162|164:157,1,80.9999975280763,10|0,0:0|3:0,0:0:0:0:
350,239,200053,5,14,0:0:0:0:
352,287,200240,1,0,0:0:0:0:
307,171,200428,5,10,0:0:0:0:
277,209,200615,1,0,0:0:0:0:
324,86,200803,5,10,0:0:0:0:
276,95,200990,1,2,3:2:0:0:
386,29,201178,5,10,0:0:0:0:
343,5,201365,1,0,3:0:0:0:
353,187,201553,5,10,0:0:0:0:
450,125,201740,1,0,0:0:0:0:
254,120,201928,1,10,0:0:0:0:
352,288,202115,1,0,0:0:0:0:
467,122,202303,1,10,0:0:0:0:
261,237,202490,1,2,3:2:0:0:
261,237,202584,1,8,0:0:0:0:
261,237,202678,2,0,L|228:235,6,33.7500012874604,10|0|0|0|0|0|0,0:0|0:0|0:0|0:0|0:0|0:0|0:0,0:0:0:0:
459,304,203053,6,0,B|391:322|344:264|344:264|336:302|296:319,1,202.500007724762,14|0,0:0|0:0,0:0:0:0:
126,249,203428,2,0,B|197:213|261:237|261:237|226:244|204:300,1,202.500007724762,14|0,0:0|0:0,0:0:0:0:
81,333,203803,2,0,B|38:321|38:321|22:216|22:216|77:171,1,202.500007724762,14|0,0:0|0:0,0:0:0:0:
195,88,204178,2,0,P|250:119|164:178,1,202.500007724762,14|0,0:0|0:0,0:0:0:0:
137,18,204553,6,0,P|183:0|224:7,1,67.5000025749208,14|0,0:0|0:0,0:0:0:0:
332,70,204740,2,0,P|350:116|343:157,1,67.5000025749208,10|0,0:0|0:0,0:0:0:0:
272,265,204928,2,0,P|226:283|185:276,1,67.5000025749208,10|0,0:0|0:0,0:0:0:0:
88,208,205115,2,0,P|70:162|77:121,1,67.5000025749208,10|0,0:0|0:0,0:0:0:0:
274,119,205303,6,0,B|194:104|226:164|119:154,1,135.000005149842,14|0,0:0|3:0,0:0:0:0:
70,63,205584,1,0,3:0:0:0:
70,63,205678,6,0,P|53:64|28:74,6,33.7500012874604,10|0|2|0|2|0|2,0:0|0:0|0:0|0:0|0:0|0:0|0:0,0:0:0:0:
183,239,206053,6,0,P|111:238|71:178,1,148.50000453186,6|0,3:2|0:0,0:0:0:0:
272,192,206428,2,0,P|284:247|261:296,1,99.0000030212403,10|0,0:0|0:0,0:0:0:0:
25,87,206803,2,0,P|80:75|129:98,1,99.0000030212403,2|0,3:2|0:0,0:0:0:0:
342,166,207178,1,8,0:0:0:0:
179,263,207365,1,0,0:0:0:0:
346,142,207553,6,0,L|356:32,1,99.0000030212403,2|0,3:2|0:0,0:0:0:0:
184,242,207928,2,0,L|167:94,1,148.50000453186,10|0,0:0|0:0,0:0:0:0:
152,13,208303,1,0,3:0:0:0:
281,146,208490,1,0,0:0:0:0:
67,182,208678,1,10,0:0:0:0:
67,182,208771,1,0,0:0:0:0:
67,182,208865,1,2,0:0:0:0:
280,169,209053,6,0,B|343:179|380:149|380:149|417:144|481:178,2,198.000006042481,2|8|0,3:2|0:0|3:0,0:0:0:0:
217,53,209990,1,0,0:0:0:0:
152,243,210178,2,0,P|131:197|139:143,1,99.0000030212403,10|0,0:0|0:0,0:0:0:0:
394,59,210553,6,0,P|433:144|418:245,1,198.000006042481,2|8,3:2|0:0,0:0:0:0:
494,40,211115,1,0,0:0:0:0:
287,166,211303,2,0,L|140:159,1,99.0000030212403,0|0,3:0|0:0,0:0:0:0:
503,281,211678,1,10,0:0:0:0:
503,281,211771,1,8,0:0:0:0:
503,281,211865,1,2,3:2:0:0:
372,86,212053,6,0,B|345:134|345:134|375:219,1,112.5,14|0,0:0|0:0,0:0:0:0:
401,270,212334,1,8,0:0:0:0:
450,194,212428,1,8,0:0:0:0:
242,164,212615,1,8,0:0:0:0:
496,117,212803,1,8,0:0:0:0:
481,92,213178,2,0,L|429:97,1,45,2|0,3:2|0:0,0:0:0:0:
274,51,213365,5,0,0:0:0:0:
274,51,213459,1,0,0:0:0:0:
274,51,213553,2,0,B|301:99|301:99|271:184,1,112.5,14|0,0:0|0:0,0:0:0:0:
211,209,213834,1,8,0:0:0:0:
201,119,213928,1,8,0:0:0:0:
352,282,214115,1,8,0:0:0:0:
94,320,214303,1,8,0:0:0:0:
84,297,214678,2,0,L|85:219,1,45,2|0,3:2|0:0,0:0:0:0:
149,88,214865,5,0,3:0:0:0:
149,88,214959,1,0,0:0:0:0:
149,88,215053,2,0,B|92:148|92:148|42:78,1,168.75,6|0,3:2|0:0,0:0:0:0:
139,6,215428,5,8,0:0:0:0:
192,19,215521,1,8,0:0:0:0:
226,62,215615,1,8,0:0:0:0:
226,117,215709,1,8,0:0:0:0:
191,160,215803,6,0,L|185:264,1,56.25,6|0,3:2|0:0,0:0:0:0:
371,215,215990,2,0,L|267:221,1,56.25,2|0,0:0|0:0,0:0:0:0:
106,317,216178,5,8,0:0:0:0:
161,323,216271,1,8,0:0:0:0:
216,330,216365,1,8,0:0:0:0:
271,337,216459,1,8,0:0:0:0:
315,342,216553,6,0,B|364:337|364:337|397:358|397:358|474:354,1,135,6|0,3:2|0:0,0:0:0:0:
471,243,216928,2,0,B|422:248|422:248|389:227|389:227|312:231,1,135,6|0,3:2|0:0,0:0:0:0:
447,139,217303,1,6,3:2:0:0:
171,88,217678,6,0,B|153:122|153:122|156:164,1,80.9999975280763,2|0,3:1|0:0,0:0:0:0:
91,263,218053,6,0,P|149:241|208:269,1,90,6|0,3:2|0:0,0:0:0:0:
408,202,218428,2,0,P|350:224|279:188,1,135,10|0,0:1|0:0,0:0:0:0:
190,133,218803,1,2,3:1:0:0:
352,130,218990,1,2,0:1:0:0:
267,317,219178,1,10,0:1:0:0:
266,53,219365,1,2,0:1:0:0:
507,218,219553,5,2,3:1:0:0:
353,253,219740,2,0,P|345:218|307:149,1,90,2|8,0:1|0:0,0:0:0:0:
121,279,220115,2,0,P|155:289|234:291,1,90,2|0,0:1|3:0,0:0:0:0:
210,55,220490,2,0,P|183:79|142:146,2,90,2|10|2,0:1|0:1|0:1,0:0:0:0:
378,157,221053,6,0,B|277:141|317:223|191:199,1,180,2|8,3:1|0:0,0:0:0:0:
13,122,221615,1,2,0:1:0:0:
75,113,221709,1,0,0:0:0:0:
137,105,221803,2,0,L|241:93,1,90,2|0,3:1|0:0,0:0:0:0:
375,279,222178,2,0,L|270:290,1,90,8|0,0:0|0:0,0:0:0:0:
265,10,222553,6,0,P|321:68|274:178,1,180,2|8,3:1|0:0,0:0:0:0:
22,231,223115,1,2,0:1:0:0:
86,199,223209,1,0,0:0:0:0:
146,244,223303,2,0,B|216:256|271:240|271:240|249:232|238:213,1,168.75,2|0,3:1|0:0,0:0:0:0:
80,288,223678,2,0,P|77:336|92:377,2,56.25,8|8|0,0:0|3:0|3:0,0:0:0:0:
152,59,224053,6,0,B|188:108|188:108|159:172,1,112.5,14|0,0:0|0:0,0:0:0:0:
91,204,224334,1,8,0:0:0:0:
169,247,224428,1,8,0:0:0:0:
19,149,224615,1,8,0:0:0:0:
312,118,224803,1,8,0:0:0:0:
312,137,225178,2,0,L|316:198,1,45,2|0,3:2|0:0,0:0:0:0:
377,276,225365,1,0,0:0:0:0:
377,276,225459,1,0,0:0:0:0:
377,276,225553,6,0,B|328:312|328:312|264:283,1,112.5,14|0,0:0|0:0,0:0:0:0:
210,234,225834,1,8,0:0:0:0:
293,198,225928,1,8,0:0:0:0:
161,311,226115,1,8,0:0:0:0:
407,357,226303,1,8,0:0:0:0:
394,338,226678,2,0,L|326:341,1,45,2|0,3:2|0:0,0:0:0:0:
246,189,226865,5,0,3:0:0:0:
246,189,226959,1,0,0:0:0:0:
246,189,227053,2,0,P|291:128|331:202,1,168.75,6|0,3:2|0:0,0:0:0:0:
263,275,227428,5,8,0:0:0:0:
207,268,227521,1,8,0:0:0:0:
166,232,227615,1,8,0:0:0:0:
151,178,227709,1,8,0:0:0:0:
169,126,227803,6,0,B|112:68|112:68|52:133,1,168.75,6|0,3:2|0:0,0:0:0:0:
166,232,228178,5,8,0:0:0:0:
221,225,228271,1,8,0:0:0:0:
262,189,228365,1,8,0:0:0:0:
277,135,228459,1,8,0:0:0:0:
265,79,228553,6,0,B|219:76|219:76|179:95|179:95|109:94,1,135,6|0,3:2|0:0,0:0:0:0:
245,174,228928,2,0,B|290:176|290:176|331:158|331:158|401:159,1,135,6|0,3:2|0:0,0:0:0:0:
356,294,229303,6,0,L|355:250,1,45,12|8,0:0|0:0,0:0:0:0:
266,34,229490,2,0,L|264:78,1,45,2|0,3:2|0:0,0:0:0:0:
153,278,229678,5,6,3:2:0:0:
