osu file format v14

[General]
AudioFilename: audio.mp3
AudioLeadIn: 0
PreviewTime: 16784
Countdown: 0
SampleSet: Normal
StackLeniency: 0.7
Mode: 0
LetterboxInBreaks: 0
WidescreenStoryboard: 1

[Editor]
Bookmarks: 20225,40784
DistanceSpacing: 1.7
BeatDivisor: 4
GridSize: 16
TimelineZoom: 1

[Metadata]
Title:Mahou Shoujo Chino
TitleUnicode:魔法少女チノ
Artist:Chino(CV.Minase Inori)
ArtistUnicode:チノ(CV.水瀬いのり)
Creator:ExNeko
Version:Sandwich's Light Insane
Source:ご注文はうさぎですか?
Tags:魔法少女 チノ gochuumon wa usagi desu ka is the order a rabbit
BeatmapID:1573543
BeatmapSetID:739900

[Difficulty]
HPDrainRate:7
CircleSize:3.6
OverallDifficulty:8
ApproachRate:8
SliderMultiplier:1.6
SliderTickRate:1

[Events]
//Background and Video events
0,0,"1807561.jpg",0,0
//Break Periods
//Storyboard Layer 0 (Background)
//Storyboard Layer 1 (Fail)
//Storyboard Layer 2 (Pass)
//Storyboard Layer 3 (Foreground)
//Storyboard Sound Samples

[TimingPoints]
20,352.941176470588,4,1,1,50,1,0
28255,-90.9090909090909,4,1,1,50,0,0
39549,-125,4,1,1,50,0,0
56755,-125,4,1,1,5,0,0
56843,-125,4,1,1,50,0,0
57108,-125,4,1,1,5,0,0
57196,-125,4,1,1,50,0,0
57461,-125,4,1,1,5,0,0
57549,-125,4,1,1,50,0,0
57814,-125,4,1,1,5,0,0
57902,-125,4,1,1,50,0,0
60637,-125,4,1,1,5,0,0
60725,-125,4,1,1,50,0,0
61078,-125,4,1,1,30,0,0
61343,-125,4,1,1,5,0,0
61431,-125,4,1,1,30,0,0
61784,-125,4,1,1,30,0,0
62137,-83.3333333333333,4,1,1,50,0,1
79078,-125,4,1,1,40,0,1
81902,-83.3333333333333,4,1,1,50,0,1
84725,-166.666666666667,4,1,1,35,0,1
86137,-100,4,1,1,50,0,0
94872,-100,4,1,1,5,0,0
94961,-100,4,1,1,50,0,0
95402,-100,4,1,1,5,0,0
95490,-100,4,1,1,50,0,0

[HitObjects]
256,192,2843,12,0,5314,0:0:0:0:
116,95,5667,6,0,P|110:148|152:262,1,160
215,154,6196,1,0,0:0:0:0:
273,273,6372,2,0,P|346:243|426:247,1,160
452,137,6902,5,0,0:0:0:0:
452,137,6990,1,0,0:0:0:0:
452,137,7078,2,0,L|469:31,1,80
304,10,7431,2,0,L|410:27,1,80
307,110,7784,2,0,L|228:122,1,80
126,16,8137,2,0,L|205:29,1,80
195,212,8490,6,0,P|200:270|222:300,1,80
286,232,8843,1,0,0:0:0:0:
285,357,9019,1,0,0:0:0:0:
375,204,9196,6,0,P|433:209|463:231,1,80
395,296,9549,1,0,0:0:0:0:
286,232,9725,1,0,0:0:0:0:
455,116,9902,6,0,L|459:25,1,80
360,37,10255,2,0,L|363:116,1,80
265,116,10608,2,0,L|268:36,1,80
170,37,10961,2,0,L|173:116,1,80
78,10,11314,6,0,B|37:21|37:21|48:89|25:160,1,160
173,116,11843,1,0,0:0:0:0:
109,219,12019,2,0,P|165:215|218:231,1,80
269,347,12372,2,0,P|263:307|268:267,1,80
361,146,12725,6,0,P|371:225|361:304,1,160
269,347,13255,1,0,0:0:0:0:
269,347,13431,2,0,P|229:341|189:346,1,80
110,258,13784,2,0,L|109:219,2,40
173,116,14137,6,0,P|217:116|269:80,1,80
298,7,14490,1,0,0:0:0:0:
352,174,14667,6,0,P|352:218|316:270,1,80
243,299,15019,1,0,0:0:0:0:
271,194,15196,1,0,0:0:0:0:
326,345,15372,1,0,0:0:0:0:
149,292,15549,1,0,0:0:0:0:
149,292,16961,6,0,P|138:235|120:207,1,80
34,161,17314,1,0,0:0:0:0:
59,279,17490,1,0,0:0:0:0:
116,115,17667,6,0,P|173:126|201:144,1,80
288,183,18019,1,0,0:0:0:0:
263,65,18195,1,0,0:0:0:0:
237,267,18372,5,0,0:0:0:0:
237,267,18549,2,0,P|284:281|348:269,1,80
438,214,18902,1,0,0:0:0:0:
380,159,19078,1,0,0:0:0:0:
425,304,19255,1,0,0:0:0:0:
511,269,19431,1,0,0:0:0:0:
432,46,19784,6,0,P|382:31|325:46,1,80
287,118,20137,1,0,0:0:0:0:
262,0,20313,1,0,0:0:0:0:
195,164,20490,2,0,L|195:251,1,80
112,285,20843,1,0,0:0:0:0:
213,350,21019,1,0,0:0:0:0:
82,172,21196,5,0,0:0:0:0:
82,172,21372,2,0,L|91:76,1,80
231,92,21725,1,0,0:0:0:0:
173,147,21901,1,0,0:0:0:0:
218,2,22078,1,0,0:0:0:0:
304,37,22254,1,0,0:0:0:0:
422,231,22608,6,0,P|370:226|259:270,1,160
191,295,23137,1,0,0:0:0:0:
191,295,23314,1,0,0:0:0:0:
194,191,23490,1,0,0:0:0:0:
270,351,23667,1,0,0:0:0:0:
270,351,24019,5,0,0:0:0:0:
270,261,24195,2,0,L|286:179,1,80
395,51,24549,1,0,0:0:0:0:
430,137,24725,1,0,0:0:0:0:
285,182,24902,1,0,0:0:0:0:
340,124,25078,1,0,0:0:0:0:
73,30,25431,6,0,P|68:82|112:193,1,160
137,261,25960,1,0,0:0:0:0:
137,261,26137,1,0,0:0:0:0:
33,258,26313,1,0,0:0:0:0:
193,182,26490,1,0,0:0:0:0:
193,182,26843,5,0,0:0:0:0:
133,256,27019,1,0,0:0:0:0:
223,94,27196,1,0,0:0:0:0:
223,94,27372,1,0,0:0:0:0:
286,186,27549,1,0,0:0:0:0:
286,186,27725,1,0,0:0:0:0:
349,94,27902,1,0,0:0:0:0:
412,186,28078,5,0,0:0:0:0:
412,186,28167,1,0,0:0:0:0:
412,186,28255,2,0,L|415:282,1,88.000002685547
303,359,28608,2,0,L|306:263,1,88.000002685547
276,133,28961,1,0,0:0:0:0:
203,211,29137,1,0,0:0:0:0:
294,41,29314,1,0,0:0:0:0:
367,119,29490,1,0,0:0:0:0:
160,125,29667,5,0,0:0:0:0:
160,125,29844,2,0,P|90:115|36:126,1,88.000002685547
110,246,30197,1,0,0:0:0:0:
203,211,30373,1,0,0:0:0:0:
15,216,30549,1,0,0:0:0:0:
45,310,30725,1,0,0:0:0:0:
337,355,31078,6,0,L|433:358,1,88.000002685547
510,246,31431,2,0,L|414:249,1,88.000002685547
284,219,31784,1,0,0:0:0:0:
362,146,31960,1,0,0:0:0:0:
192,237,32137,1,0,0:0:0:0:
270,310,32313,1,0,0:0:0:0:
270,118,32490,5,0,0:0:0:0:
270,118,32667,2,0,P|247:51|214:7,1,88.000002685547
125,133,33020,1,0,0:0:0:0:
197,201,33196,1,0,0:0:0:0:
111,35,33372,1,0,0:0:0:0:
39,103,33548,1,0,0:0:0:0:
101,340,33902,6,0,P|174:310|287:314,1,176.000005371094
438,279,34431,1,0,0:0:0:0:
438,279,34608,2,0,P|365:309|252:305,1,176.000005371094
338,121,35137,5,0,0:0:0:0:
338,121,35314,2,0,L|340:213,1,88.000002685547
231,134,35667,2,0,L|233:42,1,88.000002685547
124,121,36019,2,0,L|126:213,1,88.000002685547
17,134,36372,2,0,L|15:42,1,88.000002685547
124,121,36725,5,0,0:0:0:0:
16,235,36902,1,0,0:0:0:0:
17,134,37078,1,0,0:0:0:0:
125,248,37255,1,0,0:0:0:0:
125,248,37608,5,0,0:0:0:0:
16,235,37784,2,0,L|18:332,1,88.000002685547
206,356,38137,1,0,0:0:0:0:
206,356,38843,5,0,0:0:0:0:
206,356,39019,1,0,0:0:0:0:
271,262,39196,1,0,0:0:0:0:
271,262,39372,1,0,0:0:0:0:
409,328,39549,6,0,L|404:181,1,128
332,157,40078,1,0,0:0:0:0:
332,157,40255,2,0,P|373:173|464:130,1,128
386,93,40784,1,0,0:0:0:0:
448,29,40961,5,0,0:0:0:0:
317,35,41137,2,0,L|163:24,1,128
100,121,41667,1,0,0:0:0:0:
126,202,41843,1,0,0:0:0:0:
268,157,42020,1,0,0:0:0:0:
184,139,42196,1,0,0:0:0:0:
227,282,42372,6,0,P|279:274|353:301,1,128
396,366,42902,1,0,0:0:0:0:
396,366,43078,2,0,P|388:314|415:240,1,128
475,188,43608,1,0,0:0:0:0:
484,315,43784,5,0,0:0:0:0:
481,172,43961,2,0,L|471:28,1,128
304,8,44490,1,0,0:0:0:0:
330,89,44666,1,0,0:0:0:0:
472,44,44843,1,0,0:0:0:0:
388,26,45019,1,0,0:0:0:0:
356,170,45196,5,0,0:0:0:0:
356,170,45372,1,0,0:0:0:0:
211,87,45725,1,0,0:0:0:0:
211,87,45901,1,0,0:0:0:0:
276,279,46255,5,0,0:0:0:0:
276,279,46431,1,0,0:0:0:0:
131,196,46784,1,0,0:0:0:0:
131,196,46960,1,0,0:0:0:0:
66,287,47137,1,0,0:0:0:0:
66,287,47314,2,0,B|128:322|188:291|188:291|191:328|226:355,1,192
338,276,48019,6,0,P|307:272|276:279,1,64
378,348,48372,2,0,P|409:351|440:345,1,64
344,256,48725,2,0,P|312:252|281:258,1,64
383,327,49078,2,0,P|414:330|445:324,1,64
446,124,49431,6,0,L|366:119,1,64
349,120,49696,1,0,0:0:0:0:
349,120,49784,1,0,0:0:0:0:
419,212,49961,1,0,0:0:0:0:
379,16,50137,1,0,0:0:0:0:
309,27,50313,1,0,0:0:0:0:
240,39,50489,1,0,0:0:0:0:
170,51,50666,1,0,0:0:0:0:
143,194,50843,6,0,L|144:62,1,128
64,90,51372,1,0,0:0:0:0:
64,90,51549,2,0,L|63:217,1,128
123,275,52078,1,0,0:0:0:0:
61,339,52255,5,0,0:0:0:0:
192,333,52431,2,0,L|346:344,1,128
396,262,52961,1,0,0:0:0:0:
402,357,53137,1,0,0:0:0:0:
482,205,53314,1,0,0:0:0:0:
476,300,53490,1,0,0:0:0:0:
372,89,53667,2,0,P|320:100|244:80,1,128
183,30,54196,1,0,0:0:0:0:
183,30,54372,2,0,P|131:19|55:39,1,128
133,232,54902,1,0,0:0:0:0:
124,105,55078,5,0,0:0:0:0:
127,248,55255,2,0,L|137:392,1,128
304,282,55784,1,0,0:0:0:0:
209,288,55960,1,0,0:0:0:0:
361,368,56137,1,0,0:0:0:0:
266,362,56313,1,0,0:0:0:0:
290,171,56490,6,0,L|386:174,1,96
412,141,56843,2,0,L|316:138,1,96
342,105,57196,2,0,L|438:108,1,96
463,74,57549,2,0,L|367:71,1,96
367,71,58255,5,0,0:0:0:0:
253,44,58431,1,0,0:0:0:0:
139,86,58608,5,0,0:0:0:0:
253,59,58784,1,0,0:0:0:0:
367,101,58961,5,0,0:0:0:0:
253,74,59137,1,0,0:0:0:0:
326,227,59314,6,0,P|293:252|257:332,1,128
428,244,59843,2,0,P|422:202|371:131,1,128
361,323,60372,2,0,P|387:340|453:346,1,96
491,335,60725,5,0,0:0:0:0:
373,133,61078,2,0,L|476:132,1,96
490,97,61431,2,0,L|399:97,1,64
323,65,61784,1,0,0:0:0:0:
297,63,61872,1,0,0:0:0:0:
273,56,61960,1,0,0:0:0:0:
250,43,62048,1,0,0:0:0:0:
232,26,62137,6,0,P|143:21|105:27,1,95.9999970703126
93,182,62490,1,0,0:0:0:0:
178,106,62667,1,0,0:0:0:0:
15,142,62843,2,0,P|8:199|27:244,1,95.9999970703126
202,218,63196,1,0,0:0:0:0:
178,106,63373,1,0,0:0:0:0:
143,301,63549,6,0,P|192:321|246:310,2,95.9999970703126
178,106,64078,1,0,0:0:0:0:
202,218,64255,1,0,0:0:0:0:
333,143,64431,1,0,0:0:0:0:
309,255,64608,1,0,0:0:0:0:
268,61,64784,5,0,0:0:0:0:
268,61,64961,2,0,P|309:43|394:51,1,95.9999970703126
480,128,65314,1,0,0:0:0:0:
395,204,65491,1,0,0:0:0:0:
454,23,65667,2,0,L|454:126,1,95.9999970703126
480,280,66019,1,0,0:0:0:0:
395,204,66196,1,0,0:0:0:0:
291,313,66372,6,0,L|184:376,2,95.9999970703126
395,204,66902,1,0,0:0:0:0:
480,280,67079,1,0,0:0:0:0:
375,122,67255,1,0,0:0:0:0:
290,198,67432,1,0,0:0:0:0:
480,280,67608,5,0,0:0:0:0:
480,280,67784,2,0,P|433:288|392:313,1,95.9999970703126
290,198,68137,1,0,0:0:0:0:
291,313,68314,1,0,0:0:0:0:
101,165,68490,2,0,P|147:173|188:198,1,95.9999970703126
291,83,68843,1,0,0:0:0:0:
290,198,69020,1,0,0:0:0:0:
453,187,69196,6,0,L|484:297,2,95.9999970703126
299,13,69726,1,0,0:0:0:0:
411,37,69903,1,0,0:0:0:0:
262,168,70078,1,0,0:0:0:0:
374,144,70255,1,0,0:0:0:0:
151,102,70431,5,0,0:0:0:0:
151,102,70608,2,0,P|140:159|193:280,1,191.999994140625
373,340,71137,1,0,0:0:0:0:
373,340,71314,2,0,B|290:348|290:348|258:336|258:336|229:355|229:355|151:363,1,191.999994140625
302,260,71843,1,0,0:0:0:0:
151,102,72019,5,0,0:0:0:0:
191,278,72196,1,0,0:0:0:0:
228,130,72372,1,0,0:0:0:0:
105,262,72549,1,0,0:0:0:0:
262,233,72725,2,0,L|317:270,3,47.9999985351563
337,268,73078,1,0,0:0:0:0:
370,271,73166,1,0,0:0:0:0:
403,266,73254,1,0,0:0:0:0:
433,253,73342,1,0,0:0:0:0:
459,231,73431,6,0,P|461:167|433:109,1,95.9999970703126
295,78,73784,1,0,0:0:0:0:
362,190,73961,1,0,0:0:0:0:
407,34,74137,6,0,P|343:32|285:60,1,95.9999970703126
265,194,74490,1,0,0:0:0:0:
367,110,74667,1,0,0:0:0:0:
191,114,74843,6,0,P|159:175|160:227,2,95.9999970703126
265,194,75372,1,0,0:0:0:0:
234,320,75549,1,0,0:0:0:0:
64,192,75725,1,0,0:0:0:0:
95,318,75902,1,0,0:0:0:0:
156,201,76078,5,0,0:0:0:0:
155,200,76255,2,0,P|146:153|121:113,1,95.9999970703126
35,11,76608,1,0,0:0:0:0:
6,133,76784,1,0,0:0:0:0:
167,40,76961,2,0,L|271:50,1,95.9999970703126
380,142,77314,1,0,0:0:0:0:
351,20,77490,1,0,0:0:0:0:
314,204,77667,6,0,P|378:234|422:225,2,95.9999970703126
262,49,78196,1,0,0:0:0:0:
234,198,78372,1,0,0:0:0:0:
121,113,78549,1,0,0:0:0:0:
149,262,78725,1,0,0:0:0:0:
262,49,78902,5,0,0:0:0:0:
262,49,79079,2,0,B|305:37|305:37|400:44,1,128
507,148,79608,1,0,0:0:0:0:
507,148,79784,2,0,B|463:159|463:159|369:153,1,128
264,167,80314,5,0,0:0:0:0:
264,167,80490,2,0,P|290:227|350:263,3,128
340,260,81902,5,0,0:0:0:0:
367,356,82078,1,0,0:0:0:0:
464,189,82255,1,0,0:0:0:0:
437,285,82431,1,0,0:0:0:0:
398,112,82608,2,0,P|455:90|494:93,1,95.9999970703126
295,54,82961,2,0,P|238:32|199:35,1,95.9999970703126
256,225,83314,5,0,0:0:0:0:
229,129,83490,1,0,0:0:0:0:
132,296,83667,1,0,0:0:0:0:
159,200,83843,1,0,0:0:0:0:
232,328,84019,2,0,L|284:325,1,47.9999985351563
341,246,84196,2,0,L|393:243,1,47.9999985351563
450,164,84372,1,0,0:0:0:0:
450,164,84461,1,0,0:0:0:0:
450,164,84549,1,0,0:0:0:0:
247,41,84725,6,0,P|276:121|265:34,1,239.999992675781
127,42,85784,1,0,0:0:0:0:
122,65,85872,1,0,0:0:0:0:
122,89,85960,1,0,0:0:0:0:
126,113,86048,1,0,0:0:0:0:
135,135,86137,6,0,P|157:183|152:240,1,80
233,278,86490,2,0,P|255:230|250:173,1,80
330,133,86843,2,0,P|352:181|347:238,1,80
443,166,87196,1,0,0:0:0:0:
418,292,87372,5,0,0:0:0:0:
418,292,87461,1,0,0:0:0:0:
418,292,87549,2,0,P|370:314|313:309,1,80
255,202,87902,2,0,L|252:123,1,80
333,53,88255,2,0,L|330:133,1,80
411,202,88608,2,0,L|408:123,1,80
234,33,88961,6,0,P|193:49|167:88,1,80
252,122,89314,1,0,0:0:0:0:
150,175,89490,1,0,0:0:0:0:
255,202,89667,2,0,P|296:218|322:257,1,80
237,291,90020,1,0,0:0:0:0:
339,344,90196,1,0,0:0:0:0:
402,189,90372,6,0,L|411:273,1,80
460,96,90725,2,0,L|469:12,1,80
305,172,91078,2,0,L|314:256,1,80
363,79,91431,2,0,L|372:-5,1,80
283,26,91696,5,0,0:0:0:0:
283,26,91784,2,0,P|230:28|183:54,1,80
138,134,92137,1,0,0:0:0:0:
138,134,92314,2,0,L|135:241,1,80
162,321,92667,1,0,0:0:0:0:
232,221,92843,1,0,0:0:0:0:
283,331,93019,1,0,0:0:0:0:
337,185,93196,6,0,L|446:174,1,80
425,267,93549,1,0,0:0:0:0:
425,267,93725,1,0,0:0:0:0:
504,94,93902,2,0,L|395:83,1,80
327,45,94255,1,0,0:0:0:0:
307,43,94343,1,0,0:0:0:0:
287,42,94431,1,0,0:0:0:0:
267,41,94519,1,0,0:0:0:0:
247,39,94608,6,0,B|214:27|190:39|190:39|166:51|130:39,1,120
109,18,94961,1,0,0:0:0:0:
136,151,95137,6,0,B|172:163|196:151|196:151|220:139|252:150,1,120
276,170,95490,1,0,0:0:0:0:
354,73,95667,1,0,0:0:0:0:
353,250,95843,1,0,0:0:0:0:
247,39,96019,5,0,0:0:0:0:
256,192,96108,12,0,97079,0:0:0:0:
210,262,97431,5,0,0:0:0:0:
289,256,97608,2,0,L|210:262,1,80
272,162,97961,1,0,0:0:0:0:
352,156,98138,2,0,L|272:161,1,80
334,61,98490,1,0,0:0:0:0:
386,245,98667,1,0,0:0:0:0:
130,256,99019,6,0,L|209:261,1,80
148,161,99372,1,0,0:0:0:0:
68,155,99549,2,0,L|147:160,1,80
86,60,99901,5,0,0:0:0:0:
34,244,100078,1,0,0:0:0:0:
256,192,100167,12,0,101667,0:0:0:0:
