osu file format v14

[General]
AudioFilename: audio.mp3
AudioLeadIn: 0
PreviewTime: -1
Countdown: 0
SampleSet: None
StackLeniency: 0.7
Mode: 3
LetterboxInBreaks: 0
SpecialStyle: 0
WidescreenStoryboard: 1

[Editor]
DistanceSpacing: 0.6
BeatDivisor: 4
GridSize: 4
TimelineZoom: 2.1

[Metadata]
Title:Nina Bonita
TitleUnicode:NiƱa Bonita
Artist:Chino y Nacho
ArtistUnicode:Chino y Nacho
Creator:Mieruosu
Version:Jacks
Source:
Tags:
BeatmapID:4537585
BeatmapSetID:2153513

[Difficulty]
HPDrainRate:7
CircleSize:4
OverallDifficulty:8
ApproachRate:5
SliderMultiplier:1.4
SliderTickRate:1

[Events]
//Background and Video events
0,0,"ea7f9d3f86856e47333e9cfc12963ab5.jpg",0,0
//Break Periods
//Storyboard Layer 0 (Background)
//Storyboard Layer 1 (Fail)
//Storyboard Layer 2 (Pass)
//Storyboard Layer 3 (Foreground)
//Storyboard Layer 4 (Overlay)
//Storyboard Sound Samples

[TimingPoints]
13119,500,4,1,0,100,1,0

[HitObjects]
64,192,11868,5,0,0:0:0:0:
192,192,11869,1,0,0:0:0:0:
320,192,11994,1,0,0:0:0:0:
448,192,11994,1,0,0:0:0:0:
192,192,12119,1,0,0:0:0:0:
64,192,12119,1,0,0:0:0:0:
192,192,12244,1,0,0:0:0:0:
320,192,12369,1,0,0:0:0:0:
448,192,12369,1,0,0:0:0:0:
320,192,12494,1,0,0:0:0:0:
64,192,12494,1,0,0:0:0:0:
192,192,12619,1,0,0:0:0:0:
64,192,12619,1,0,0:0:0:0:
448,192,12619,1,0,0:0:0:0:
192,192,12744,1,0,0:0:0:0:
320,192,12869,1,0,0:0:0:0:
448,192,12869,1,0,0:0:0:0:
64,192,12869,1,0,0:0:0:0:
192,192,12994,1,0,0:0:0:0:
192,192,13118,1,0,0:0:0:0:
64,192,13118,1,0,0:0:0:0:
320,192,13118,1,0,0:0:0:0:
448,192,13118,1,0,0:0:0:0:
448,192,13244,1,0,0:0:0:0:
448,192,13369,1,0,0:0:0:0:
320,192,13494,1,0,0:0:0:0:
192,192,13494,1,0,0:0:0:0:
448,192,13619,1,0,0:0:0:0:
64,192,13619,1,0,0:0:0:0:
192,192,13619,1,0,0:0:0:0:
320,192,13619,1,0,0:0:0:0:
192,192,13744,1,0,0:0:0:0:
64,192,13869,1,0,0:0:0:0:
320,192,13869,1,0,0:0:0:0:
192,192,13994,1,0,0:0:0:0:
448,192,14119,1,0,0:0:0:0:
320,192,14119,1,0,0:0:0:0:
64,192,14119,1,0,0:0:0:0:
320,192,14244,1,0,0:0:0:0:
320,192,14369,1,0,0:0:0:0:
64,192,14494,1,0,0:0:0:0:
192,192,14494,1,0,0:0:0:0:
64,192,14619,1,0,0:0:0:0:
320,192,14619,1,0,0:0:0:0:
448,192,14619,1,0,0:0:0:0:
192,192,14619,1,0,0:0:0:0:
320,192,14744,1,0,0:0:0:0:
64,192,14869,1,0,0:0:0:0:
448,192,14869,1,0,0:0:0:0:
192,192,14994,1,0,0:0:0:0:
64,192,15119,1,0,0:0:0:0:
320,192,15119,1,0,0:0:0:0:
448,192,15119,1,0,0:0:0:0:
64,192,15244,1,0,0:0:0:0:
64,192,15369,1,0,0:0:0:0:
320,192,15494,1,0,0:0:0:0:
448,192,15494,1,0,0:0:0:0:
320,192,15619,1,0,0:0:0:0:
192,192,15619,1,0,0:0:0:0:
64,192,15619,1,0,0:0:0:0:
448,192,15619,1,0,0:0:0:0:
192,192,15744,1,0,0:0:0:0:
64,192,15869,1,0,0:0:0:0:
320,192,15869,1,0,0:0:0:0:
448,192,15994,1,0,0:0:0:0:
320,192,16119,1,0,0:0:0:0:
448,192,16119,1,0,0:0:0:0:
64,192,16119,1,0,0:0:0:0:
320,192,16244,1,0,0:0:0:0:
320,192,16369,1,0,0:0:0:0:
64,192,16494,1,0,0:0:0:0:
448,192,16494,1,0,0:0:0:0:
448,192,16619,1,0,0:0:0:0:
192,192,16619,1,0,0:0:0:0:
64,192,16619,1,0,0:0:0:0:
320,192,16619,1,0,0:0:0:0:
192,192,16744,1,0,0:0:0:0:
320,192,16869,1,0,0:0:0:0:
448,192,16869,1,0,0:0:0:0:
64,192,16994,1,0,0:0:0:0:
64,192,17119,1,0,0:0:0:0:
320,192,17119,1,0,0:0:0:0:
448,192,17119,1,0,0:0:0:0:
320,192,17244,1,0,0:0:0:0:
192,192,17369,1,0,0:0:0:0:
64,192,17494,1,0,0:0:0:0:
320,192,17494,1,0,0:0:0:0:
448,192,17619,1,0,0:0:0:0:
320,192,17619,1,0,0:0:0:0:
192,192,17619,1,0,0:0:0:0:
64,192,17619,1,0,0:0:0:0:
192,192,17744,1,0,0:0:0:0:
448,192,17869,1,0,0:0:0:0:
64,192,17869,1,0,0:0:0:0:
320,192,17994,1,0,0:0:0:0:
448,192,18119,1,0,0:0:0:0:
192,192,18119,1,0,0:0:0:0:
64,192,18119,1,0,0:0:0:0:
192,192,18244,1,0,0:0:0:0:
192,192,18369,1,0,0:0:0:0:
64,192,18494,1,0,0:0:0:0:
320,192,18494,1,0,0:0:0:0:
64,192,18619,1,0,0:0:0:0:
192,192,18619,1,0,0:0:0:0:
320,192,18619,1,0,0:0:0:0:
448,192,18619,1,0,0:0:0:0:
192,192,18744,1,0,0:0:0:0:
448,192,18869,1,0,0:0:0:0:
320,192,18869,1,0,0:0:0:0:
192,192,18994,1,0,0:0:0:0:
64,192,19119,1,0,0:0:0:0:
192,192,19119,1,0,0:0:0:0:
448,192,19119,1,0,0:0:0:0:
64,192,19244,1,0,0:0:0:0:
64,192,19369,1,0,0:0:0:0:
448,192,19494,1,0,0:0:0:0:
192,192,19494,1,0,0:0:0:0:
448,192,19619,1,0,0:0:0:0:
320,192,19619,1,0,0:0:0:0:
192,192,19619,1,0,0:0:0:0:
64,192,19619,1,0,0:0:0:0:
320,192,19744,1,0,0:0:0:0:
64,192,19869,1,0,0:0:0:0:
448,192,19869,1,0,0:0:0:0:
192,192,19994,1,0,0:0:0:0:
320,192,20119,1,0,0:0:0:0:
192,192,20119,1,0,0:0:0:0:
64,192,20119,1,0,0:0:0:0:
320,192,20244,1,0,0:0:0:0:
320,192,20369,1,0,0:0:0:0:
192,192,20494,1,0,0:0:0:0:
64,192,20494,1,0,0:0:0:0:
64,192,20619,1,0,0:0:0:0:
192,192,20619,1,0,0:0:0:0:
320,192,20619,1,0,0:0:0:0:
448,192,20619,1,0,0:0:0:0:
320,192,20744,1,0,0:0:0:0:
64,192,20869,1,0,0:0:0:0:
192,192,20869,1,0,0:0:0:0:
320,192,20994,1,0,0:0:0:0:
448,192,21119,1,0,0:0:0:0:
320,192,21119,1,0,0:0:0:0:
192,192,21119,1,0,0:0:0:0:
192,192,21244,1,0,0:0:0:0:
192,192,21369,1,0,0:0:0:0:
64,192,21494,1,0,0:0:0:0:
320,192,21494,1,0,0:0:0:0:
448,192,21619,1,0,0:0:0:0:
320,192,21619,1,0,0:0:0:0:
192,192,21619,1,0,0:0:0:0:
64,192,21619,1,0,0:0:0:0:
192,192,21744,1,0,0:0:0:0:
448,192,21869,1,0,0:0:0:0:
320,192,21869,1,0,0:0:0:0:
64,192,21994,1,0,0:0:0:0:
320,192,22119,1,0,0:0:0:0:
448,192,22119,1,0,0:0:0:0:
64,192,22119,1,0,0:0:0:0:
320,192,22244,1,0,0:0:0:0:
320,192,22369,1,0,0:0:0:0:
192,192,22494,1,0,0:0:0:0:
448,192,22494,1,0,0:0:0:0:
448,192,22619,1,0,0:0:0:0:
320,192,22619,1,0,0:0:0:0:
192,192,22619,1,0,0:0:0:0:
64,192,22619,1,0,0:0:0:0:
64,192,22744,1,0,0:0:0:0:
64,192,22869,1,0,0:0:0:0:
320,192,22869,1,0,0:0:0:0:
192,192,22994,1,0,0:0:0:0:
448,192,23119,1,0,0:0:0:0:
64,192,23119,1,0,0:0:0:0:
320,192,23119,1,0,0:0:0:0:
320,192,23244,1,0,0:0:0:0:
320,192,23369,1,0,0:0:0:0:
192,192,23494,1,0,0:0:0:0:
64,192,23494,1,0,0:0:0:0:
64,192,23619,1,0,0:0:0:0:
320,192,23619,1,0,0:0:0:0:
448,192,23619,1,0,0:0:0:0:
192,192,23619,1,0,0:0:0:0:
448,192,23744,1,0,0:0:0:0:
448,192,23869,1,0,0:0:0:0:
192,192,23869,1,0,0:0:0:0:
320,192,23994,1,0,0:0:0:0:
192,192,24119,1,0,0:0:0:0:
64,192,24119,1,0,0:0:0:0:
320,192,24119,1,0,0:0:0:0:
192,192,24244,1,0,0:0:0:0:
192,192,24369,1,0,0:0:0:0:
320,192,24494,1,0,0:0:0:0:
448,192,24494,1,0,0:0:0:0:
448,192,24619,1,0,0:0:0:0:
320,192,24619,1,0,0:0:0:0:
192,192,24619,1,0,0:0:0:0:
64,192,24619,1,0,0:0:0:0:
64,192,24744,1,0,0:0:0:0:
64,192,24869,1,0,0:0:0:0:
320,192,24869,1,0,0:0:0:0:
448,192,24994,1,0,0:0:0:0:
448,192,25119,1,0,0:0:0:0:
320,192,25119,1,0,0:0:0:0:
64,192,25119,1,0,0:0:0:0:
192,192,25244,1,0,0:0:0:0:
192,192,25369,1,0,0:0:0:0:
320,192,25494,1,0,0:0:0:0:
64,192,25494,1,0,0:0:0:0:
64,192,25619,1,0,0:0:0:0:
192,192,25619,1,0,0:0:0:0:
320,192,25619,1,0,0:0:0:0:
448,192,25619,1,0,0:0:0:0:
320,192,25744,1,0,0:0:0:0:
448,192,25869,1,0,0:0:0:0:
192,192,25869,1,0,0:0:0:0:
320,192,25994,1,0,0:0:0:0:
448,192,26119,1,0,0:0:0:0:
192,192,26119,1,0,0:0:0:0:
64,192,26119,1,0,0:0:0:0:
192,192,26244,1,0,0:0:0:0:
192,192,26369,1,0,0:0:0:0:
320,192,26494,1,0,0:0:0:0:
448,192,26494,1,0,0:0:0:0:
448,192,26619,1,0,0:0:0:0:
320,192,26619,1,0,0:0:0:0:
192,192,26619,1,0,0:0:0:0:
64,192,26619,1,0,0:0:0:0:
192,192,26744,1,0,0:0:0:0:
320,192,26869,1,0,0:0:0:0:
64,192,26869,1,0,0:0:0:0:
192,192,26994,1,0,0:0:0:0:
320,192,27119,1,0,0:0:0:0:
192,192,27119,1,0,0:0:0:0:
448,192,27119,1,0,0:0:0:0:
320,192,27244,1,0,0:0:0:0:
320,192,27369,1,0,0:0:0:0:
64,192,27494,1,0,0:0:0:0:
448,192,27494,1,0,0:0:0:0:
448,192,27619,1,0,0:0:0:0:
320,192,27619,1,0,0:0:0:0:
192,192,27619,1,0,0:0:0:0:
64,192,27619,1,0,0:0:0:0:
192,192,27744,1,0,0:0:0:0:
320,192,27869,1,0,0:0:0:0:
448,192,27869,1,0,0:0:0:0:
320,192,27994,1,0,0:0:0:0:
448,192,28119,1,0,0:0:0:0:
192,192,28119,1,0,0:0:0:0:
64,192,28119,1,0,0:0:0:0:
192,192,28244,1,0,0:0:0:0:
192,192,28369,1,0,0:0:0:0:
320,192,28494,1,0,0:0:0:0:
448,192,28494,1,0,0:0:0:0:
192,192,28556,1,0,0:0:0:0:
64,192,28556,1,0,0:0:0:0:
320,192,28619,1,0,0:0:0:0:
448,192,28619,1,0,0:0:0:0:
192,192,28744,1,0,0:0:0:0:
64,192,28744,1,0,0:0:0:0:
64,192,28869,1,0,0:0:0:0:
320,192,28869,1,0,0:0:0:0:
192,192,28994,1,0,0:0:0:0:
448,192,28994,1,0,0:0:0:0:
448,192,29119,1,0,0:0:0:0:
320,192,29119,1,0,0:0:0:0:
192,192,29119,1,0,0:0:0:0:
64,192,29119,1,0,0:0:0:0:
64,192,29244,1,0,0:0:0:0:
64,192,29369,1,0,0:0:0:0:
320,192,29494,1,0,0:0:0:0:
448,192,29494,1,0,0:0:0:0:
448,192,29619,1,0,0:0:0:0:
192,192,29619,1,0,0:0:0:0:
64,192,29619,1,0,0:0:0:0:
192,192,29744,1,0,0:0:0:0:
192,192,29869,1,0,0:0:0:0:
64,192,29994,1,0,0:0:0:0:
448,192,29994,1,0,0:0:0:0:
448,192,30119,1,0,0:0:0:0:
192,192,30119,1,0,0:0:0:0:
64,192,30119,1,0,0:0:0:0:
192,192,30244,1,0,0:0:0:0:
192,192,30369,1,0,0:0:0:0:
448,192,30494,1,0,0:0:0:0:
64,192,30494,1,0,0:0:0:0:
448,192,30619,1,0,0:0:0:0:
64,192,30619,1,0,0:0:0:0:
320,192,30619,1,0,0:0:0:0:
320,192,30744,1,0,0:0:0:0:
320,192,30869,1,0,0:0:0:0:
64,192,30869,1,0,0:0:0:0:
192,192,30994,1,0,0:0:0:0:
320,192,31119,1,0,0:0:0:0:
448,192,31119,1,0,0:0:0:0:
192,192,31119,1,0,0:0:0:0:
64,192,31119,1,0,0:0:0:0:
320,192,31244,1,0,0:0:0:0:
320,192,31369,1,0,0:0:0:0:
192,192,31494,1,0,0:0:0:0:
64,192,31494,1,0,0:0:0:0:
64,192,31619,1,0,0:0:0:0:
192,192,31619,1,0,0:0:0:0:
448,192,31619,1,0,0:0:0:0:
448,192,31744,1,0,0:0:0:0:
192,192,31869,1,0,0:0:0:0:
448,192,31869,1,0,0:0:0:0:
320,192,31994,1,0,0:0:0:0:
448,192,32119,1,0,0:0:0:0:
192,192,32119,1,0,0:0:0:0:
64,192,32119,1,0,0:0:0:0:
64,192,32244,1,0,0:0:0:0:
64,192,32369,1,0,0:0:0:0:
192,192,32494,1,0,0:0:0:0:
320,192,32494,1,0,0:0:0:0:
448,192,32619,1,0,0:0:0:0:
320,192,32619,1,0,0:0:0:0:
64,192,32619,1,0,0:0:0:0:
448,192,32744,1,0,0:0:0:0:
64,192,32869,1,0,0:0:0:0:
320,192,32869,1,0,0:0:0:0:
192,192,32994,1,0,0:0:0:0:
448,192,33119,1,0,0:0:0:0:
320,192,33119,1,0,0:0:0:0:
192,192,33119,1,0,0:0:0:0:
64,192,33119,1,0,0:0:0:0:
320,192,33244,1,0,0:0:0:0:
320,192,33369,1,0,0:0:0:0:
192,192,33494,1,0,0:0:0:0:
64,192,33494,1,0,0:0:0:0:
192,192,33619,1,0,0:0:0:0:
448,192,33619,1,0,0:0:0:0:
320,192,33619,1,0,0:0:0:0:
320,192,33744,1,0,0:0:0:0:
192,192,33869,1,0,0:0:0:0:
448,192,33869,1,0,0:0:0:0:
320,192,33994,1,0,0:0:0:0:
192,192,34119,1,0,0:0:0:0:
64,192,34119,1,0,0:0:0:0:
448,192,34119,1,0,0:0:0:0:
192,192,34244,1,0,0:0:0:0:
192,192,34369,1,0,0:0:0:0:
320,192,34494,1,0,0:0:0:0:
448,192,34494,1,0,0:0:0:0:
448,192,34619,1,0,0:0:0:0:
320,192,34619,1,0,0:0:0:0:
64,192,34619,1,0,0:0:0:0:
192,192,34744,1,0,0:0:0:0:
64,192,34869,1,0,0:0:0:0:
320,192,34869,1,0,0:0:0:0:
448,192,34994,1,0,0:0:0:0:
448,192,35119,1,0,0:0:0:0:
320,192,35119,1,0,0:0:0:0:
192,192,35119,1,0,0:0:0:0:
64,192,35119,1,0,0:0:0:0:
192,192,35244,1,0,0:0:0:0:
64,192,35369,1,0,0:0:0:0:
64,192,35494,1,0,0:0:0:0:
192,192,35494,1,0,0:0:0:0:
64,192,35619,1,0,0:0:0:0:
192,192,35619,1,0,0:0:0:0:
448,192,35619,1,0,0:0:0:0:
320,192,35744,1,0,0:0:0:0:
192,192,35869,1,0,0:0:0:0:
448,192,35869,1,0,0:0:0:0:
448,192,35994,1,0,0:0:0:0:
320,192,36119,1,0,0:0:0:0:
64,192,36119,1,0,0:0:0:0:
192,192,36119,1,0,0:0:0:0:
192,192,36244,1,0,0:0:0:0:
192,192,36369,1,0,0:0:0:0:
320,192,36494,1,0,0:0:0:0:
448,192,36494,1,0,0:0:0:0:
448,192,36619,1,0,0:0:0:0:
320,192,36619,1,0,0:0:0:0:
64,192,36619,1,0,0:0:0:0:
64,192,36744,1,0,0:0:0:0:
64,192,36869,1,0,0:0:0:0:
320,192,36994,1,0,0:0:0:0:
192,192,36994,1,0,0:0:0:0:
448,192,37119,1,0,0:0:0:0:
320,192,37119,1,0,0:0:0:0:
64,192,37119,1,0,0:0:0:0:
192,192,37119,1,0,0:0:0:0:
448,192,37244,1,0,0:0:0:0:
448,192,37369,1,0,0:0:0:0:
64,192,37494,1,0,0:0:0:0:
320,192,37494,1,0,0:0:0:0:
320,192,37619,1,0,0:0:0:0:
64,192,37619,1,0,0:0:0:0:
448,192,37619,1,0,0:0:0:0:
320,192,37744,1,0,0:0:0:0:
64,192,37869,1,0,0:0:0:0:
448,192,37869,1,0,0:0:0:0:
320,192,37994,1,0,0:0:0:0:
192,192,38119,1,0,0:0:0:0:
64,192,38119,1,0,0:0:0:0:
448,192,38119,1,0,0:0:0:0:
192,192,38244,1,0,0:0:0:0:
320,192,38369,1,0,0:0:0:0:
192,192,38494,1,0,0:0:0:0:
448,192,38494,1,0,0:0:0:0:
448,192,38619,1,0,0:0:0:0:
64,192,38619,1,0,0:0:0:0:
320,192,38619,1,0,0:0:0:0:
192,192,38744,1,0,0:0:0:0:
64,192,38869,1,0,0:0:0:0:
320,192,38869,1,0,0:0:0:0:
192,192,38994,1,0,0:0:0:0:
192,192,39119,1,0,0:0:0:0:
64,192,39119,1,0,0:0:0:0:
320,192,39119,1,0,0:0:0:0:
448,192,39119,1,0,0:0:0:0:
64,192,39244,1,0,0:0:0:0:
192,192,39369,1,0,0:0:0:0:
64,192,39494,1,0,0:0:0:0:
320,192,39494,1,0,0:0:0:0:
448,192,39619,1,0,0:0:0:0:
192,192,39619,1,0,0:0:0:0:
64,192,39619,1,0,0:0:0:0:
320,192,39744,1,0,0:0:0:0:
320,192,39869,1,0,0:0:0:0:
64,192,39869,1,0,0:0:0:0:
192,192,39994,1,0,0:0:0:0:
64,192,40119,1,0,0:0:0:0:
192,192,40119,1,0,0:0:0:0:
320,192,40119,1,0,0:0:0:0:
448,192,40119,1,0,0:0:0:0:
320,192,40244,1,0,0:0:0:0:
320,192,40369,1,0,0:0:0:0:
64,192,40494,1,0,0:0:0:0:
192,192,40494,1,0,0:0:0:0:
448,192,40619,1,0,0:0:0:0:
320,192,40619,1,0,0:0:0:0:
64,192,40619,1,0,0:0:0:0:
192,192,40744,1,0,0:0:0:0:
320,192,40869,1,0,0:0:0:0:
64,192,40869,1,0,0:0:0:0:
320,192,40994,1,0,0:0:0:0:
448,192,41119,1,0,0:0:0:0:
192,192,41119,1,0,0:0:0:0:
64,192,41119,1,0,0:0:0:0:
320,192,41119,1,0,0:0:0:0:
448,192,41244,1,0,0:0:0:0:
448,192,41369,1,0,0:0:0:0:
320,192,41494,1,0,0:0:0:0:
192,192,41494,1,0,0:0:0:0:
448,192,41619,1,0,0:0:0:0:
192,192,41619,1,0,0:0:0:0:
64,192,41619,1,0,0:0:0:0:
320,192,41744,1,0,0:0:0:0:
64,192,41869,1,0,0:0:0:0:
320,192,41869,1,0,0:0:0:0:
192,192,41994,1,0,0:0:0:0:
448,192,42119,1,0,0:0:0:0:
320,192,42119,1,0,0:0:0:0:
64,192,42119,1,0,0:0:0:0:
192,192,42244,1,0,0:0:0:0:
192,192,42369,1,0,0:0:0:0:
64,192,42494,1,0,0:0:0:0:
320,192,42494,1,0,0:0:0:0:
320,192,42619,1,0,0:0:0:0:
192,192,42619,1,0,0:0:0:0:
64,192,42619,1,0,0:0:0:0:
192,192,42744,1,0,0:0:0:0:
64,192,42869,1,0,0:0:0:0:
320,192,42869,1,0,0:0:0:0:
64,192,42994,1,0,0:0:0:0:
192,192,43119,1,0,0:0:0:0:
64,192,43119,1,0,0:0:0:0:
320,192,43119,1,0,0:0:0:0:
448,192,43119,1,0,0:0:0:0:
192,192,43244,1,0,0:0:0:0:
320,192,43369,1,0,0:0:0:0:
448,192,43494,1,0,0:0:0:0:
64,192,43494,1,0,0:0:0:0:
448,192,43619,1,0,0:0:0:0:
192,192,43619,1,0,0:0:0:0:
64,192,43619,1,0,0:0:0:0:
320,192,43744,1,0,0:0:0:0:
192,192,43869,1,0,0:0:0:0:
64,192,43869,1,0,0:0:0:0:
192,192,43994,1,0,0:0:0:0:
448,192,44119,1,0,0:0:0:0:
320,192,44119,1,0,0:0:0:0:
64,192,44119,1,0,0:0:0:0:
320,192,44244,1,0,0:0:0:0:
192,192,44369,1,0,0:0:0:0:
320,192,44494,1,0,0:0:0:0:
64,192,44494,1,0,0:0:0:0:
320,192,44619,1,0,0:0:0:0:
192,192,44619,1,0,0:0:0:0:
64,192,44619,1,0,0:0:0:0:
448,192,44619,1,0,0:0:0:0:
192,192,44744,1,0,0:0:0:0:
448,192,44869,1,0,0:0:0:0:
64,192,44869,1,0,0:0:0:0:
192,192,44994,1,0,0:0:0:0:
64,192,45119,1,0,0:0:0:0:
192,192,45119,1,0,0:0:0:0:
320,192,45119,1,0,0:0:0:0:
448,192,45119,1,0,0:0:0:0:
320,192,45244,1,0,0:0:0:0:
320,192,45369,1,0,0:0:0:0:
192,192,45494,1,0,0:0:0:0:
64,192,45494,1,0,0:0:0:0:
64,192,45619,1,0,0:0:0:0:
192,192,45619,1,0,0:0:0:0:
320,192,45619,1,0,0:0:0:0:
448,192,45619,1,0,0:0:0:0:
320,192,45744,1,0,0:0:0:0:
192,192,45869,1,0,0:0:0:0:
448,192,45869,1,0,0:0:0:0:
192,192,45994,1,0,0:0:0:0:
448,192,46119,1,0,0:0:0:0:
320,192,46119,1,0,0:0:0:0:
192,192,46119,1,0,0:0:0:0:
64,192,46119,1,0,0:0:0:0:
64,192,46244,1,0,0:0:0:0:
64,192,46369,1,0,0:0:0:0:
448,192,46494,1,0,0:0:0:0:
320,192,46494,1,0,0:0:0:0:
320,192,46619,1,0,0:0:0:0:
192,192,46619,1,0,0:0:0:0:
64,192,46619,1,0,0:0:0:0:
448,192,46619,1,0,0:0:0:0:
192,192,46744,1,0,0:0:0:0:
448,192,46869,1,0,0:0:0:0:
64,192,46869,1,0,0:0:0:0:
320,192,46994,1,0,0:0:0:0:
448,192,47119,1,0,0:0:0:0:
320,192,47119,1,0,0:0:0:0:
192,192,47119,1,0,0:0:0:0:
64,192,47119,1,0,0:0:0:0:
192,192,47244,1,0,0:0:0:0:
192,192,47369,1,0,0:0:0:0:
448,192,47494,1,0,0:0:0:0:
64,192,47494,1,0,0:0:0:0:
64,192,47619,1,0,0:0:0:0:
192,192,47619,1,0,0:0:0:0:
320,192,47619,1,0,0:0:0:0:
448,192,47619,1,0,0:0:0:0:
320,192,47744,1,0,0:0:0:0:
192,192,47869,1,0,0:0:0:0:
448,192,47869,1,0,0:0:0:0:
320,192,47994,1,0,0:0:0:0:
448,192,48119,1,0,0:0:0:0:
320,192,48119,1,0,0:0:0:0:
192,192,48119,1,0,0:0:0:0:
64,192,48119,1,0,0:0:0:0:
64,192,48244,1,0,0:0:0:0:
192,192,48369,1,0,0:0:0:0:
320,192,48494,1,0,0:0:0:0:
64,192,48494,1,0,0:0:0:0:
64,192,48619,1,0,0:0:0:0:
320,192,48619,1,0,0:0:0:0:
448,192,48619,1,0,0:0:0:0:
192,192,48619,1,0,0:0:0:0:
448,192,48744,1,0,0:0:0:0:
448,192,48869,1,0,0:0:0:0:
192,192,48869,1,0,0:0:0:0:
320,192,48994,1,0,0:0:0:0:
192,192,49119,1,0,0:0:0:0:
64,192,49119,1,0,0:0:0:0:
320,192,49119,1,0,0:0:0:0:
448,192,49119,1,0,0:0:0:0:
192,192,49244,1,0,0:0:0:0:
192,192,49369,1,0,0:0:0:0:
448,192,49494,1,0,0:0:0:0:
320,192,49494,1,0,0:0:0:0:
448,192,49619,1,0,0:0:0:0:
320,192,49619,1,0,0:0:0:0:
64,192,49619,1,0,0:0:0:0:
192,192,49619,1,0,0:0:0:0:
64,192,49744,1,0,0:0:0:0:
64,192,49869,1,0,0:0:0:0:
448,192,49869,1,0,0:0:0:0:
320,192,49994,1,0,0:0:0:0:
448,192,50119,1,0,0:0:0:0:
320,192,50119,1,0,0:0:0:0:
192,192,50119,1,0,0:0:0:0:
64,192,50119,1,0,0:0:0:0:
448,192,50244,1,0,0:0:0:0:
448,192,50369,1,0,0:0:0:0:
192,192,50494,1,0,0:0:0:0:
64,192,50494,1,0,0:0:0:0:
64,192,50619,1,0,0:0:0:0:
192,192,50619,1,0,0:0:0:0:
320,192,50619,1,0,0:0:0:0:
448,192,50619,1,0,0:0:0:0:
320,192,50744,1,0,0:0:0:0:
64,192,50869,1,0,0:0:0:0:
448,192,50869,1,0,0:0:0:0:
192,192,50994,1,0,0:0:0:0:
448,192,51119,1,0,0:0:0:0:
320,192,51119,1,0,0:0:0:0:
64,192,51119,1,0,0:0:0:0:
192,192,51119,1,0,0:0:0:0:
320,192,51244,1,0,0:0:0:0:
320,192,51369,1,0,0:0:0:0:
192,192,51494,1,0,0:0:0:0:
448,192,51494,1,0,0:0:0:0:
448,192,51619,1,0,0:0:0:0:
320,192,51619,1,0,0:0:0:0:
192,192,51619,1,0,0:0:0:0:
64,192,51619,1,0,0:0:0:0:
64,192,51744,1,0,0:0:0:0:
64,192,51869,1,0,0:0:0:0:
320,192,51869,1,0,0:0:0:0:
192,192,51994,1,0,0:0:0:0:
448,192,52119,1,0,0:0:0:0:
320,192,52119,1,0,0:0:0:0:
192,192,52119,1,0,0:0:0:0:
64,192,52119,1,0,0:0:0:0:
320,192,52244,1,0,0:0:0:0:
320,192,52369,1,0,0:0:0:0:
192,192,52369,1,0,0:0:0:0:
64,192,52494,1,0,0:0:0:0:
448,192,52494,1,0,0:0:0:0:
64,192,52619,1,0,0:0:0:0:
192,192,52619,1,0,0:0:0:0:
320,192,52619,1,0,0:0:0:0:
448,192,52619,1,0,0:0:0:0:
192,192,52744,1,0,0:0:0:0:
320,192,52744,1,0,0:0:0:0:
448,192,52869,1,0,0:0:0:0:
64,192,52869,1,0,0:0:0:0:
192,192,52994,1,0,0:0:0:0:
64,192,52994,1,0,0:0:0:0:
64,192,53119,1,0,0:0:0:0:
192,192,53119,1,0,0:0:0:0:
320,192,53119,1,0,0:0:0:0:
448,192,53119,1,0,0:0:0:0:
192,192,53244,1,0,0:0:0:0:
192,192,53369,1,0,0:0:0:0:
448,192,53494,1,0,0:0:0:0:
320,192,53494,1,0,0:0:0:0:
448,192,53619,1,0,0:0:0:0:
320,192,53619,1,0,0:0:0:0:
192,192,53619,1,0,0:0:0:0:
64,192,53619,1,0,0:0:0:0:
64,192,53744,1,0,0:0:0:0:
64,192,53869,1,0,0:0:0:0:
320,192,53869,1,0,0:0:0:0:
320,192,53994,1,0,0:0:0:0:
448,192,54119,1,0,0:0:0:0:
320,192,54119,1,0,0:0:0:0:
192,192,54119,1,0,0:0:0:0:
64,192,54119,1,0,0:0:0:0:
192,192,54244,1,0,0:0:0:0:
192,192,54369,1,0,0:0:0:0:
448,192,54494,1,0,0:0:0:0:
64,192,54494,1,0,0:0:0:0:
64,192,54619,1,0,0:0:0:0:
192,192,54619,1,0,0:0:0:0:
320,192,54619,1,0,0:0:0:0:
448,192,54619,1,0,0:0:0:0:
320,192,54744,1,0,0:0:0:0:
192,192,54869,1,0,0:0:0:0:
64,192,54869,1,0,0:0:0:0:
64,192,54994,1,0,0:0:0:0:
64,192,55119,1,0,0:0:0:0:
192,192,55119,1,0,0:0:0:0:
320,192,55119,1,0,0:0:0:0:
448,192,55119,1,0,0:0:0:0:
192,192,55244,1,0,0:0:0:0:
192,192,55369,1,0,0:0:0:0:
448,192,55494,1,0,0:0:0:0:
320,192,55494,1,0,0:0:0:0:
448,192,55619,1,0,0:0:0:0:
320,192,55619,1,0,0:0:0:0:
192,192,55619,1,0,0:0:0:0:
64,192,55619,1,0,0:0:0:0:
192,192,55744,1,0,0:0:0:0:
64,192,55869,1,0,0:0:0:0:
320,192,55869,1,0,0:0:0:0:
448,192,55994,1,0,0:0:0:0:
448,192,56119,1,0,0:0:0:0:
320,192,56119,1,0,0:0:0:0:
192,192,56119,1,0,0:0:0:0:
64,192,56119,1,0,0:0:0:0:
320,192,56244,1,0,0:0:0:0:
320,192,56369,1,0,0:0:0:0:
192,192,56369,1,0,0:0:0:0:
192,192,56494,1,0,0:0:0:0:
64,192,56494,1,0,0:0:0:0:
192,192,56619,1,0,0:0:0:0:
64,192,56619,1,0,0:0:0:0:
320,192,56619,1,0,0:0:0:0:
448,192,56619,1,0,0:0:0:0:
448,192,56744,1,0,0:0:0:0:
320,192,56744,1,0,0:0:0:0:
320,192,56869,1,0,0:0:0:0:
192,192,56869,1,0,0:0:0:0:
192,192,56994,1,0,0:0:0:0:
64,192,56994,1,0,0:0:0:0:
448,192,57119,1,0,0:0:0:0:
320,192,57119,1,0,0:0:0:0:
192,192,57119,1,0,0:0:0:0:
64,192,57119,1,0,0:0:0:0:
448,192,57244,1,0,0:0:0:0:
448,192,57369,1,0,0:0:0:0:
192,192,57494,1,0,0:0:0:0:
64,192,57494,1,0,0:0:0:0:
64,192,57619,1,0,0:0:0:0:
192,192,57619,1,0,0:0:0:0:
320,192,57619,1,0,0:0:0:0:
448,192,57619,1,0,0:0:0:0:
320,192,57744,1,0,0:0:0:0:
64,192,57869,1,0,0:0:0:0:
448,192,57869,1,0,0:0:0:0:
64,192,57994,1,0,0:0:0:0:
64,192,58119,1,0,0:0:0:0:
192,192,58119,1,0,0:0:0:0:
320,192,58119,1,0,0:0:0:0:
448,192,58119,1,0,0:0:0:0:
320,192,58244,1,0,0:0:0:0:
192,192,58369,1,0,0:0:0:0:
192,192,58494,1,0,0:0:0:0:
448,192,58494,1,0,0:0:0:0:
448,192,58619,1,0,0:0:0:0:
320,192,58619,1,0,0:0:0:0:
192,192,58619,1,0,0:0:0:0:
64,192,58619,1,0,0:0:0:0:
320,192,58744,1,0,0:0:0:0:
64,192,58869,1,0,0:0:0:0:
192,192,58869,1,0,0:0:0:0:
448,192,58994,1,0,0:0:0:0:
448,192,59119,1,0,0:0:0:0:
320,192,59119,1,0,0:0:0:0:
192,192,59119,1,0,0:0:0:0:
64,192,59119,1,0,0:0:0:0:
192,192,59244,1,0,0:0:0:0:
192,192,59369,1,0,0:0:0:0:
192,192,59494,1,0,0:0:0:0:
320,192,59494,1,0,0:0:0:0:
448,192,59619,1,0,0:0:0:0:
320,192,59619,1,0,0:0:0:0:
192,192,59619,1,0,0:0:0:0:
64,192,59619,1,0,0:0:0:0:
448,192,59744,1,0,0:0:0:0:
448,192,59869,1,0,0:0:0:0:
192,192,59869,1,0,0:0:0:0:
320,192,59994,1,0,0:0:0:0:
320,192,60119,1,0,0:0:0:0:
192,192,60119,1,0,0:0:0:0:
64,192,60119,1,0,0:0:0:0:
448,192,60119,1,0,0:0:0:0:
448,192,60244,1,0,0:0:0:0:
320,192,60369,1,0,0:0:0:0:
192,192,60494,1,0,0:0:0:0:
64,192,60494,1,0,0:0:0:0:
64,192,60619,1,0,0:0:0:0:
192,192,60619,1,0,0:0:0:0:
320,192,60619,1,0,0:0:0:0:
448,192,60619,1,0,0:0:0:0:
192,192,60744,1,0,0:0:0:0:
320,192,60869,1,0,0:0:0:0:
64,192,60869,1,0,0:0:0:0:
64,192,60994,1,0,0:0:0:0:
64,192,61119,1,0,0:0:0:0:
192,192,61119,1,0,0:0:0:0:
320,192,61119,1,0,0:0:0:0:
448,192,61119,1,0,0:0:0:0:
320,192,61244,1,0,0:0:0:0:
448,192,61244,1,0,0:0:0:0:
64,192,61369,1,0,0:0:0:0:
192,192,61494,1,0,0:0:0:0:
448,192,61494,1,0,0:0:0:0:
448,192,61619,1,0,0:0:0:0:
320,192,61619,1,0,0:0:0:0:
192,192,61619,1,0,0:0:0:0:
64,192,61619,1,0,0:0:0:0:
320,192,61744,1,0,0:0:0:0:
192,192,61869,1,0,0:0:0:0:
64,192,61869,1,0,0:0:0:0:
320,192,61994,1,0,0:0:0:0:
448,192,62119,1,0,0:0:0:0:
64,192,62119,1,0,0:0:0:0:
192,192,62119,1,0,0:0:0:0:
192,192,62244,1,0,0:0:0:0:
320,192,62244,1,0,0:0:0:0:
64,192,62369,1,0,0:0:0:0:
192,192,62494,1,0,0:0:0:0:
448,192,62494,1,0,0:0:0:0:
448,192,62619,1,0,0:0:0:0:
320,192,62619,1,0,0:0:0:0:
192,192,62619,1,0,0:0:0:0:
64,192,62619,1,0,0:0:0:0:
64,192,62744,1,0,0:0:0:0:
192,192,62869,1,0,0:0:0:0:
448,192,62869,1,0,0:0:0:0:
448,192,62994,1,0,0:0:0:0:
320,192,63119,1,0,0:0:0:0:
192,192,63119,1,0,0:0:0:0:
64,192,63119,1,0,0:0:0:0:
192,192,63244,1,0,0:0:0:0:
192,192,63369,1,0,0:0:0:0:
320,192,63494,1,0,0:0:0:0:
64,192,63494,1,0,0:0:0:0:
448,192,63619,1,0,0:0:0:0:
320,192,63619,1,0,0:0:0:0:
192,192,63619,1,0,0:0:0:0:
64,192,63619,1,0,0:0:0:0:
192,192,63744,1,0,0:0:0:0:
320,192,63869,1,0,0:0:0:0:
64,192,63869,1,0,0:0:0:0:
320,192,63994,1,0,0:0:0:0:
192,192,64119,1,0,0:0:0:0:
64,192,64119,1,0,0:0:0:0:
448,192,64119,1,0,0:0:0:0:
192,192,64244,1,0,0:0:0:0:
192,192,64369,1,0,0:0:0:0:
448,192,64494,1,0,0:0:0:0:
320,192,64494,1,0,0:0:0:0:
448,192,64619,1,0,0:0:0:0:
320,192,64619,1,0,0:0:0:0:
64,192,64619,1,0,0:0:0:0:
192,192,64619,1,0,0:0:0:0:
192,192,64744,1,0,0:0:0:0:
320,192,64869,1,0,0:0:0:0:
448,192,64869,1,0,0:0:0:0:
320,192,64994,1,0,0:0:0:0:
192,192,65119,1,0,0:0:0:0:
64,192,65119,1,0,0:0:0:0:
448,192,65119,1,0,0:0:0:0:
192,192,65244,1,0,0:0:0:0:
320,192,65369,1,0,0:0:0:0:
192,192,65494,1,0,0:0:0:0:
448,192,65494,1,0,0:0:0:0:
448,192,65619,1,0,0:0:0:0:
192,192,65619,1,0,0:0:0:0:
64,192,65619,1,0,0:0:0:0:
320,192,65619,1,0,0:0:0:0:
64,192,65744,1,0,0:0:0:0:
64,192,65869,1,0,0:0:0:0:
320,192,65869,1,0,0:0:0:0:
192,192,65994,1,0,0:0:0:0:
448,192,66119,1,0,0:0:0:0:
320,192,66119,1,0,0:0:0:0:
64,192,66119,1,0,0:0:0:0:
192,192,66244,1,0,0:0:0:0:
320,192,66369,1,0,0:0:0:0:
192,192,66494,1,0,0:0:0:0:
64,192,66494,1,0,0:0:0:0:
448,192,66619,1,0,0:0:0:0:
64,192,66619,1,0,0:0:0:0:
192,192,66619,1,0,0:0:0:0:
320,192,66619,1,0,0:0:0:0:
448,192,66744,1,0,0:0:0:0:
64,192,66869,1,0,0:0:0:0:
320,192,66869,1,0,0:0:0:0:
64,192,66994,1,0,0:0:0:0:
192,192,67119,1,0,0:0:0:0:
320,192,67119,1,0,0:0:0:0:
448,192,67119,1,0,0:0:0:0:
320,192,67244,1,0,0:0:0:0:
64,192,67369,1,0,0:0:0:0:
192,192,67494,1,0,0:0:0:0:
320,192,67494,1,0,0:0:0:0:
448,192,67619,1,0,0:0:0:0:
320,192,67619,1,0,0:0:0:0:
192,192,67619,1,0,0:0:0:0:
64,192,67619,1,0,0:0:0:0:
320,192,67744,1,0,0:0:0:0:
448,192,67869,1,0,0:0:0:0:
64,192,67869,1,0,0:0:0:0:
192,192,67994,1,0,0:0:0:0:
448,192,68119,1,0,0:0:0:0:
320,192,68119,1,0,0:0:0:0:
64,192,68119,1,0,0:0:0:0:
192,192,68244,1,0,0:0:0:0:
64,192,68244,1,0,0:0:0:0:
320,192,68369,1,0,0:0:0:0:
64,192,68494,1,0,0:0:0:0:
192,192,68494,1,0,0:0:0:0:
64,192,68619,1,0,0:0:0:0:
192,192,68619,1,0,0:0:0:0:
320,192,68619,1,0,0:0:0:0:
448,192,68619,1,0,0:0:0:0:
320,192,68744,1,0,0:0:0:0:
448,192,68744,1,0,0:0:0:0:
64,192,68869,1,0,0:0:0:0:
192,192,68869,1,0,0:0:0:0:
320,192,68994,1,0,0:0:0:0:
448,192,68994,1,0,0:0:0:0:
448,192,69119,1,0,0:0:0:0:
320,192,69119,1,0,0:0:0:0:
192,192,69119,1,0,0:0:0:0:
64,192,69119,1,0,0:0:0:0:
192,192,69244,1,0,0:0:0:0:
192,192,69369,1,0,0:0:0:0:
320,192,69494,1,0,0:0:0:0:
448,192,69494,1,0,0:0:0:0:
448,192,69619,1,0,0:0:0:0:
192,192,69619,1,0,0:0:0:0:
64,192,69619,1,0,0:0:0:0:
320,192,69619,1,0,0:0:0:0:
192,192,69744,1,0,0:0:0:0:
192,192,69869,1,0,0:0:0:0:
64,192,69869,1,0,0:0:0:0:
64,192,69994,1,0,0:0:0:0:
192,192,70119,1,0,0:0:0:0:
320,192,70119,1,0,0:0:0:0:
448,192,70119,1,0,0:0:0:0:
320,192,70244,1,0,0:0:0:0:
64,192,70369,1,0,0:0:0:0:
448,192,70494,1,0,0:0:0:0:
192,192,70494,1,0,0:0:0:0:
448,192,70619,1,0,0:0:0:0:
192,192,70619,1,0,0:0:0:0:
64,192,70619,1,0,0:0:0:0:
320,192,70744,1,0,0:0:0:0:
448,192,70869,1,0,0:0:0:0:
192,192,70869,1,0,0:0:0:0:
192,192,70994,1,0,0:0:0:0:
448,192,71119,1,0,0:0:0:0:
192,192,71119,1,0,0:0:0:0:
64,192,71119,1,0,0:0:0:0:
320,192,71244,1,0,0:0:0:0:
448,192,71369,1,0,0:0:0:0:
320,192,71494,1,0,0:0:0:0:
192,192,71494,1,0,0:0:0:0:
448,192,71619,1,0,0:0:0:0:
320,192,71619,1,0,0:0:0:0:
64,192,71619,1,0,0:0:0:0:
192,192,71619,1,0,0:0:0:0:
64,192,71744,1,0,0:0:0:0:
64,192,71869,1,0,0:0:0:0:
320,192,71869,1,0,0:0:0:0:
320,192,71994,1,0,0:0:0:0:
448,192,72119,1,0,0:0:0:0:
192,192,72119,1,0,0:0:0:0:
64,192,72119,1,0,0:0:0:0:
448,192,72244,1,0,0:0:0:0:
192,192,72369,1,0,0:0:0:0:
448,192,72494,1,0,0:0:0:0:
320,192,72494,1,0,0:0:0:0:
64,192,72619,1,0,0:0:0:0:
192,192,72619,1,0,0:0:0:0:
320,192,72619,1,0,0:0:0:0:
448,192,72619,1,0,0:0:0:0:
192,192,72744,1,0,0:0:0:0:
64,192,72869,1,0,0:0:0:0:
320,192,72869,1,0,0:0:0:0:
64,192,72994,1,0,0:0:0:0:
192,192,73119,1,0,0:0:0:0:
448,192,73119,1,0,0:0:0:0:
64,192,73119,1,0,0:0:0:0:
320,192,73244,1,0,0:0:0:0:
448,192,73369,1,0,0:0:0:0:
64,192,73494,1,0,0:0:0:0:
320,192,73494,1,0,0:0:0:0:
448,192,73619,1,0,0:0:0:0:
320,192,73619,1,0,0:0:0:0:
64,192,73619,1,0,0:0:0:0:
448,192,73744,1,0,0:0:0:0:
192,192,73869,1,0,0:0:0:0:
64,192,73869,1,0,0:0:0:0:
192,192,73994,1,0,0:0:0:0:
448,192,74119,1,0,0:0:0:0:
320,192,74119,1,0,0:0:0:0:
64,192,74119,1,0,0:0:0:0:
320,192,74244,1,0,0:0:0:0:
192,192,74369,1,0,0:0:0:0:
64,192,74494,1,0,0:0:0:0:
320,192,74494,1,0,0:0:0:0:
448,192,74619,1,0,0:0:0:0:
192,192,74619,1,0,0:0:0:0:
64,192,74619,1,0,0:0:0:0:
320,192,74619,1,0,0:0:0:0:
320,192,74744,1,0,0:0:0:0:
448,192,74869,1,0,0:0:0:0:
64,192,74869,1,0,0:0:0:0:
64,192,74994,1,0,0:0:0:0:
192,192,75119,1,0,0:0:0:0:
320,192,75119,1,0,0:0:0:0:
448,192,75119,1,0,0:0:0:0:
64,192,75244,1,0,0:0:0:0:
192,192,75244,1,0,0:0:0:0:
320,192,75369,1,0,0:0:0:0:
448,192,75369,1,0,0:0:0:0:
64,192,75494,1,0,0:0:0:0:
320,192,75494,1,0,0:0:0:0:
448,192,75619,1,0,0:0:0:0:
192,192,75619,1,0,0:0:0:0:
64,192,75619,1,0,0:0:0:0:
320,192,75744,1,0,0:0:0:0:
448,192,75744,1,0,0:0:0:0:
192,192,75869,1,0,0:0:0:0:
64,192,75869,1,0,0:0:0:0:
320,192,75869,1,0,0:0:0:0:
64,192,75994,1,0,0:0:0:0:
448,192,75994,1,0,0:0:0:0:
448,192,76119,1,0,0:0:0:0:
320,192,76119,1,0,0:0:0:0:
192,192,76119,1,0,0:0:0:0:
192,192,76244,1,0,0:0:0:0:
64,192,76369,1,0,0:0:0:0:
320,192,76369,1,0,0:0:0:0:
448,192,76369,1,0,0:0:0:0:
320,192,76494,1,0,0:0:0:0:
192,192,76494,1,0,0:0:0:0:
192,192,76619,1,0,0:0:0:0:
64,192,76619,1,0,0:0:0:0:
448,192,76619,1,0,0:0:0:0:
64,192,76744,1,0,0:0:0:0:
320,192,76869,1,0,0:0:0:0:
192,192,76869,1,0,0:0:0:0:
448,192,76869,1,0,0:0:0:0:
320,192,76994,1,0,0:0:0:0:
192,192,77119,1,0,0:0:0:0:
64,192,77119,1,0,0:0:0:0:
448,192,77119,1,0,0:0:0:0:
320,192,77119,1,0,0:0:0:0:
64,192,77244,1,0,0:0:0:0:
64,192,77369,1,0,0:0:0:0:
192,192,77494,1,0,0:0:0:0:
448,192,77494,1,0,0:0:0:0:
448,192,77619,1,0,0:0:0:0:
192,192,77619,1,0,0:0:0:0:
64,192,77619,1,0,0:0:0:0:
320,192,77619,1,0,0:0:0:0:
448,192,77744,1,0,0:0:0:0:
320,192,77869,1,0,0:0:0:0:
64,192,77869,1,0,0:0:0:0:
192,192,77994,1,0,0:0:0:0:
448,192,78119,1,0,0:0:0:0:
320,192,78119,1,0,0:0:0:0:
192,192,78119,1,0,0:0:0:0:
64,192,78119,1,0,0:0:0:0:
320,192,78244,1,0,0:0:0:0:
192,192,78369,1,0,0:0:0:0:
192,192,78494,1,0,0:0:0:0:
448,192,78494,1,0,0:0:0:0:
448,192,78619,1,0,0:0:0:0:
320,192,78619,1,0,0:0:0:0:
192,192,78619,1,0,0:0:0:0:
64,192,78619,1,0,0:0:0:0:
320,192,78744,1,0,0:0:0:0:
192,192,78869,1,0,0:0:0:0:
448,192,78869,1,0,0:0:0:0:
64,192,78994,1,0,0:0:0:0:
64,192,79119,1,0,0:0:0:0:
192,192,79119,1,0,0:0:0:0:
320,192,79119,1,0,0:0:0:0:
448,192,79119,1,0,0:0:0:0:
320,192,79244,1,0,0:0:0:0:
192,192,79369,1,0,0:0:0:0:
192,192,79494,1,0,0:0:0:0:
320,192,79494,1,0,0:0:0:0:
448,192,79619,1,0,0:0:0:0:
320,192,79619,1,0,0:0:0:0:
192,192,79619,1,0,0:0:0:0:
64,192,79619,1,0,0:0:0:0:
448,192,79744,1,0,0:0:0:0:
320,192,79869,1,0,0:0:0:0:
192,192,79869,1,0,0:0:0:0:
192,192,79994,1,0,0:0:0:0:
448,192,80119,1,0,0:0:0:0:
320,192,80119,1,0,0:0:0:0:
192,192,80119,1,0,0:0:0:0:
64,192,80119,1,0,0:0:0:0:
320,192,80244,1,0,0:0:0:0:
64,192,80369,1,0,0:0:0:0:
192,192,80369,1,0,0:0:0:0:
320,192,80494,1,0,0:0:0:0:
448,192,80494,1,0,0:0:0:0:
448,192,80619,1,0,0:0:0:0:
320,192,80619,1,0,0:0:0:0:
192,192,80619,1,0,0:0:0:0:
64,192,80619,1,0,0:0:0:0:
192,192,80744,1,0,0:0:0:0:
64,192,80869,1,0,0:0:0:0:
320,192,80869,1,0,0:0:0:0:
448,192,80994,1,0,0:0:0:0:
192,192,80994,1,0,0:0:0:0:
448,192,81119,1,0,0:0:0:0:
320,192,81119,1,0,0:0:0:0:
192,192,81119,1,0,0:0:0:0:
64,192,81119,1,0,0:0:0:0:
320,192,81244,1,0,0:0:0:0:
64,192,81369,1,0,0:0:0:0:
192,192,81494,1,0,0:0:0:0:
64,192,81494,1,0,0:0:0:0:
448,192,81619,1,0,0:0:0:0:
320,192,81619,1,0,0:0:0:0:
192,192,81619,1,0,0:0:0:0:
64,192,81619,1,0,0:0:0:0:
320,192,81744,1,0,0:0:0:0:
192,192,81869,1,0,0:0:0:0:
448,192,81869,1,0,0:0:0:0:
448,192,81994,1,0,0:0:0:0:
448,192,82119,1,0,0:0:0:0:
320,192,82119,1,0,0:0:0:0:
192,192,82119,1,0,0:0:0:0:
64,192,82119,1,0,0:0:0:0:
192,192,82244,1,0,0:0:0:0:
320,192,82369,1,0,0:0:0:0:
448,192,82494,1,0,0:0:0:0:
320,192,82494,1,0,0:0:0:0:
448,192,82619,1,0,0:0:0:0:
320,192,82619,1,0,0:0:0:0:
64,192,82619,1,0,0:0:0:0:
192,192,82619,1,0,0:0:0:0:
192,192,82744,1,0,0:0:0:0:
64,192,82869,1,0,0:0:0:0:
448,192,82869,1,0,0:0:0:0:
192,192,82994,1,0,0:0:0:0:
320,192,83119,1,0,0:0:0:0:
64,192,83119,1,0,0:0:0:0:
192,192,83119,1,0,0:0:0:0:
448,192,83119,1,0,0:0:0:0:
320,192,83244,1,0,0:0:0:0:
192,192,83369,1,0,0:0:0:0:
64,192,83494,1,0,0:0:0:0:
320,192,83494,1,0,0:0:0:0:
448,192,83619,1,0,0:0:0:0:
320,192,83619,1,0,0:0:0:0:
192,192,83619,1,0,0:0:0:0:
64,192,83619,1,0,0:0:0:0:
192,192,83744,1,0,0:0:0:0:
192,192,83869,1,0,0:0:0:0:
448,192,83869,1,0,0:0:0:0:
320,192,83994,1,0,0:0:0:0:
448,192,84119,1,0,0:0:0:0:
320,192,84119,1,0,0:0:0:0:
192,192,84119,1,0,0:0:0:0:
64,192,84119,1,0,0:0:0:0:
192,192,84244,1,0,0:0:0:0:
448,192,84244,1,0,0:0:0:0:
320,192,84369,1,0,0:0:0:0:
64,192,84369,1,0,0:0:0:0:
192,192,84494,1,0,0:0:0:0:
448,192,84494,1,0,0:0:0:0:
320,192,84494,1,0,0:0:0:0:
448,192,84619,1,0,0:0:0:0:
320,192,84619,1,0,0:0:0:0:
192,192,84619,1,0,0:0:0:0:
64,192,84619,1,0,0:0:0:0:
64,192,84744,1,0,0:0:0:0:
320,192,84744,1,0,0:0:0:0:
192,192,84869,1,0,0:0:0:0:
64,192,84869,1,0,0:0:0:0:
448,192,84994,1,0,0:0:0:0:
320,192,84994,1,0,0:0:0:0:
192,192,84994,1,0,0:0:0:0:
448,192,85119,1,0,0:0:0:0:
320,192,85119,1,0,0:0:0:0:
192,192,85119,1,0,0:0:0:0:
64,192,85119,1,0,0:0:0:0:
192,192,85244,1,0,0:0:0:0:
64,192,85369,1,0,0:0:0:0:
320,192,85494,1,0,0:0:0:0:
64,192,85494,1,0,0:0:0:0:
448,192,85619,1,0,0:0:0:0:
320,192,85619,1,0,0:0:0:0:
64,192,85619,1,0,0:0:0:0:
192,192,85619,1,0,0:0:0:0:
192,192,85744,1,0,0:0:0:0:
320,192,85869,1,0,0:0:0:0:
448,192,85869,1,0,0:0:0:0:
320,192,85994,1,0,0:0:0:0:
448,192,86119,1,0,0:0:0:0:
320,192,86119,1,0,0:0:0:0:
192,192,86119,1,0,0:0:0:0:
64,192,86119,1,0,0:0:0:0:
192,192,86244,1,0,0:0:0:0:
192,192,86369,1,0,0:0:0:0:
320,192,86494,1,0,0:0:0:0:
448,192,86494,1,0,0:0:0:0:
448,192,86619,1,0,0:0:0:0:
320,192,86619,1,0,0:0:0:0:
64,192,86619,1,0,0:0:0:0:
192,192,86619,1,0,0:0:0:0:
192,192,86744,1,0,0:0:0:0:
448,192,86869,1,0,0:0:0:0:
64,192,86869,1,0,0:0:0:0:
448,192,86994,1,0,0:0:0:0:
448,192,87119,1,0,0:0:0:0:
320,192,87119,1,0,0:0:0:0:
192,192,87119,1,0,0:0:0:0:
64,192,87119,1,0,0:0:0:0:
64,192,87244,1,0,0:0:0:0:
192,192,87369,1,0,0:0:0:0:
320,192,87494,1,0,0:0:0:0:
64,192,87494,1,0,0:0:0:0:
448,192,87619,1,0,0:0:0:0:
320,192,87619,1,0,0:0:0:0:
192,192,87619,1,0,0:0:0:0:
64,192,87619,1,0,0:0:0:0:
448,192,87744,1,0,0:0:0:0:
320,192,87869,1,0,0:0:0:0:
64,192,87869,1,0,0:0:0:0:
192,192,87994,1,0,0:0:0:0:
448,192,88119,1,0,0:0:0:0:
320,192,88119,1,0,0:0:0:0:
64,192,88119,1,0,0:0:0:0:
192,192,88119,1,0,0:0:0:0:
320,192,88244,1,0,0:0:0:0:
192,192,88369,1,0,0:0:0:0:
64,192,88494,1,0,0:0:0:0:
192,192,88494,1,0,0:0:0:0:
448,192,88619,1,0,0:0:0:0:
320,192,88619,1,0,0:0:0:0:
192,192,88619,1,0,0:0:0:0:
64,192,88619,1,0,0:0:0:0:
320,192,88744,1,0,0:0:0:0:
448,192,88869,1,0,0:0:0:0:
192,192,88869,1,0,0:0:0:0:
448,192,88994,1,0,0:0:0:0:
448,192,89119,1,0,0:0:0:0:
320,192,89119,1,0,0:0:0:0:
192,192,89119,1,0,0:0:0:0:
64,192,89119,1,0,0:0:0:0:
192,192,89244,1,0,0:0:0:0:
64,192,89369,1,0,0:0:0:0:
192,192,89494,1,0,0:0:0:0:
320,192,89494,1,0,0:0:0:0:
448,192,89619,1,0,0:0:0:0:
320,192,89619,1,0,0:0:0:0:
192,192,89619,1,0,0:0:0:0:
64,192,89619,1,0,0:0:0:0:
448,192,89744,1,0,0:0:0:0:
320,192,89869,1,0,0:0:0:0:
64,192,89869,1,0,0:0:0:0:
192,192,89994,1,0,0:0:0:0:
448,192,90119,1,0,0:0:0:0:
320,192,90119,1,0,0:0:0:0:
192,192,90119,1,0,0:0:0:0:
64,192,90119,1,0,0:0:0:0:
64,192,90244,1,0,0:0:0:0:
192,192,90369,1,0,0:0:0:0:
448,192,90494,1,0,0:0:0:0:
320,192,90494,1,0,0:0:0:0:
448,192,90619,1,0,0:0:0:0:
320,192,90619,1,0,0:0:0:0:
192,192,90619,1,0,0:0:0:0:
64,192,90619,1,0,0:0:0:0:
192,192,90744,1,0,0:0:0:0:
448,192,90869,1,0,0:0:0:0:
64,192,90869,1,0,0:0:0:0:
320,192,90994,1,0,0:0:0:0:
192,192,91119,1,0,0:0:0:0:
64,192,91119,1,0,0:0:0:0:
320,192,91119,1,0,0:0:0:0:
448,192,91119,1,0,0:0:0:0:
192,192,91244,1,0,0:0:0:0:
64,192,91369,1,0,0:0:0:0:
448,192,91369,1,0,0:0:0:0:
64,192,91494,1,0,0:0:0:0:
192,192,91494,1,0,0:0:0:0:
448,192,91619,1,0,0:0:0:0:
320,192,91619,1,0,0:0:0:0:
192,192,91619,1,0,0:0:0:0:
320,192,91744,1,0,0:0:0:0:
64,192,91744,1,0,0:0:0:0:
192,192,91869,1,0,0:0:0:0:
64,192,91869,1,0,0:0:0:0:
320,192,91994,1,0,0:0:0:0:
448,192,91994,1,0,0:0:0:0:
448,192,92119,1,0,0:0:0:0:
192,192,92119,1,0,0:0:0:0:
64,192,92119,1,0,0:0:0:0:
320,192,92244,1,0,0:0:0:0:
192,192,92244,1,0,0:0:0:0:
64,192,92369,1,0,0:0:0:0:
320,192,92369,1,0,0:0:0:0:
448,192,92494,1,0,0:0:0:0:
192,192,92494,1,0,0:0:0:0:
448,192,92619,1,0,0:0:0:0:
320,192,92619,1,0,0:0:0:0:
64,192,92619,1,0,0:0:0:0:
192,192,92744,1,0,0:0:0:0:
64,192,92744,1,0,0:0:0:0:
192,192,92869,1,0,0:0:0:0:
320,192,92869,1,0,0:0:0:0:
320,192,92994,1,0,0:0:0:0:
64,192,92994,1,0,0:0:0:0:
448,192,93119,1,0,0:0:0:0:
192,192,93119,1,0,0:0:0:0:
64,192,93119,1,0,0:0:0:0:
320,192,93119,1,0,0:0:0:0:
448,192,93244,1,0,0:0:0:0:
192,192,93244,1,0,0:0:0:0:
320,192,93369,1,0,0:0:0:0:
192,192,93494,1,0,0:0:0:0:
64,192,93494,1,0,0:0:0:0:
448,192,93619,1,0,0:0:0:0:
320,192,93619,1,0,0:0:0:0:
64,192,93619,1,0,0:0:0:0:
192,192,93744,1,0,0:0:0:0:
448,192,93869,1,0,0:0:0:0:
320,192,93869,1,0,0:0:0:0:
192,192,93994,1,0,0:0:0:0:
448,192,94119,1,0,0:0:0:0:
320,192,94119,1,0,0:0:0:0:
64,192,94119,1,0,0:0:0:0:
192,192,94119,1,0,0:0:0:0:
320,192,94244,1,0,0:0:0:0:
192,192,94369,1,0,0:0:0:0:
448,192,94369,1,0,0:0:0:0:
320,192,94494,1,0,0:0:0:0:
64,192,94494,1,0,0:0:0:0:
64,192,94619,1,0,0:0:0:0:
192,192,94619,1,0,0:0:0:0:
320,192,94619,1,0,0:0:0:0:
448,192,94619,1,0,0:0:0:0:
192,192,94744,1,0,0:0:0:0:
320,192,94869,1,0,0:0:0:0:
448,192,94869,1,0,0:0:0:0:
320,192,94994,1,0,0:0:0:0:
448,192,95119,1,0,0:0:0:0:
320,192,95119,1,0,0:0:0:0:
192,192,95119,1,0,0:0:0:0:
64,192,95119,1,0,0:0:0:0:
192,192,95244,1,0,0:0:0:0:
64,192,95244,1,0,0:0:0:0:
320,192,95369,1,0,0:0:0:0:
448,192,95494,1,0,0:0:0:0:
64,192,95494,1,0,0:0:0:0:
192,192,95619,1,0,0:0:0:0:
64,192,95619,1,0,0:0:0:0:
320,192,95619,1,0,0:0:0:0:
448,192,95619,1,0,0:0:0:0:
320,192,95744,1,0,0:0:0:0:
192,192,95869,1,0,0:0:0:0:
64,192,95869,1,0,0:0:0:0:
192,192,95994,1,0,0:0:0:0:
448,192,96119,1,0,0:0:0:0:
320,192,96119,1,0,0:0:0:0:
192,192,96119,1,0,0:0:0:0:
64,192,96119,1,0,0:0:0:0:
320,192,96244,1,0,0:0:0:0:
448,192,96369,1,0,0:0:0:0:
192,192,96369,1,0,0:0:0:0:
320,192,96494,1,0,0:0:0:0:
448,192,96494,1,0,0:0:0:0:
448,192,96619,1,0,0:0:0:0:
320,192,96619,1,0,0:0:0:0:
192,192,96619,1,0,0:0:0:0:
64,192,96619,1,0,0:0:0:0:
192,192,96744,1,0,0:0:0:0:
64,192,96869,1,0,0:0:0:0:
320,192,96869,1,0,0:0:0:0:
192,192,96994,1,0,0:0:0:0:
448,192,97119,1,0,0:0:0:0:
320,192,97119,1,0,0:0:0:0:
192,192,97119,1,0,0:0:0:0:
64,192,97119,1,0,0:0:0:0:
320,192,97244,1,0,0:0:0:0:
448,192,97244,1,0,0:0:0:0:
192,192,97369,1,0,0:0:0:0:
192,192,97494,1,0,0:0:0:0:
320,192,97494,1,0,0:0:0:0:
320,192,97619,1,0,0:0:0:0:
448,192,97619,1,0,0:0:0:0:
64,192,97619,1,0,0:0:0:0:
192,192,97744,1,0,0:0:0:0:
448,192,97869,1,0,0:0:0:0:
320,192,97869,1,0,0:0:0:0:
320,192,97994,1,0,0:0:0:0:
192,192,98119,1,0,0:0:0:0:
64,192,98119,1,0,0:0:0:0:
448,192,98119,1,0,0:0:0:0:
192,192,98244,1,0,0:0:0:0:
64,192,98369,1,0,0:0:0:0:
448,192,98369,1,0,0:0:0:0:
448,192,98494,1,0,0:0:0:0:
192,192,98494,1,0,0:0:0:0:
320,192,98619,1,0,0:0:0:0:
192,192,98619,1,0,0:0:0:0:
64,192,98619,1,0,0:0:0:0:
320,192,98744,1,0,0:0:0:0:
64,192,98869,1,0,0:0:0:0:
192,192,98869,1,0,0:0:0:0:
320,192,98994,1,0,0:0:0:0:
448,192,99119,1,0,0:0:0:0:
192,192,99119,1,0,0:0:0:0:
64,192,99119,1,0,0:0:0:0:
448,192,99244,1,0,0:0:0:0:
320,192,99244,1,0,0:0:0:0:
64,192,99369,1,0,0:0:0:0:
192,192,99494,1,0,0:0:0:0:
64,192,99494,1,0,0:0:0:0:
448,192,99619,1,0,0:0:0:0:
320,192,99619,1,0,0:0:0:0:
192,192,99619,1,0,0:0:0:0:
320,192,99744,1,0,0:0:0:0:
192,192,99869,1,0,0:0:0:0:
64,192,99869,1,0,0:0:0:0:
64,192,99994,1,0,0:0:0:0:
448,192,100119,1,0,0:0:0:0:
320,192,100119,1,0,0:0:0:0:
192,192,100119,1,0,0:0:0:0:
320,192,100244,1,0,0:0:0:0:
448,192,100369,1,0,0:0:0:0:
192,192,100369,1,0,0:0:0:0:
64,192,100494,1,0,0:0:0:0:
320,192,100494,1,0,0:0:0:0:
192,192,100619,1,0,0:0:0:0:
64,192,100619,1,0,0:0:0:0:
448,192,100619,1,0,0:0:0:0:
320,192,100744,1,0,0:0:0:0:
448,192,100869,1,0,0:0:0:0:
320,192,100869,1,0,0:0:0:0:
192,192,100994,1,0,0:0:0:0:
64,192,101119,1,0,0:0:0:0:
192,192,101119,1,0,0:0:0:0:
320,192,101119,1,0,0:0:0:0:
448,192,101119,1,0,0:0:0:0:
320,192,101244,1,0,0:0:0:0:
64,192,101244,1,0,0:0:0:0:
192,192,101369,1,0,0:0:0:0:
448,192,101494,1,0,0:0:0:0:
320,192,101494,1,0,0:0:0:0:
448,192,101619,1,0,0:0:0:0:
320,192,101619,1,0,0:0:0:0:
64,192,101619,1,0,0:0:0:0:
192,192,101619,1,0,0:0:0:0:
192,192,101744,1,0,0:0:0:0:
64,192,101869,1,0,0:0:0:0:
448,192,101869,1,0,0:0:0:0:
448,192,101994,1,0,0:0:0:0:
320,192,102119,1,0,0:0:0:0:
192,192,102119,1,0,0:0:0:0:
64,192,102119,1,0,0:0:0:0:
192,192,102244,1,0,0:0:0:0:
320,192,102369,1,0,0:0:0:0:
448,192,102369,1,0,0:0:0:0:
192,192,102494,1,0,0:0:0:0:
64,192,102494,1,0,0:0:0:0:
64,192,102619,1,0,0:0:0:0:
320,192,102619,1,0,0:0:0:0:
448,192,102619,1,0,0:0:0:0:
192,192,102619,1,0,0:0:0:0:
320,192,102744,1,0,0:0:0:0:
448,192,102869,1,0,0:0:0:0:
64,192,102869,1,0,0:0:0:0:
192,192,102994,1,0,0:0:0:0:
64,192,103119,1,0,0:0:0:0:
192,192,103119,1,0,0:0:0:0:
320,192,103119,1,0,0:0:0:0:
448,192,103119,1,0,0:0:0:0:
192,192,103244,1,0,0:0:0:0:
448,192,103244,1,0,0:0:0:0:
320,192,103369,1,0,0:0:0:0:
192,192,103494,1,0,0:0:0:0:
64,192,103494,1,0,0:0:0:0:
448,192,103619,1,0,0:0:0:0:
320,192,103619,1,0,0:0:0:0:
64,192,103619,1,0,0:0:0:0:
192,192,103619,1,0,0:0:0:0:
320,192,103744,1,0,0:0:0:0:
448,192,103869,1,0,0:0:0:0:
192,192,103869,1,0,0:0:0:0:
192,192,103994,1,0,0:0:0:0:
448,192,104119,1,0,0:0:0:0:
320,192,104119,1,0,0:0:0:0:
64,192,104119,1,0,0:0:0:0:
192,192,104119,1,0,0:0:0:0:
320,192,104244,1,0,0:0:0:0:
448,192,104369,1,0,0:0:0:0:
192,192,104369,1,0,0:0:0:0:
320,192,104494,1,0,0:0:0:0:
192,192,104494,1,0,0:0:0:0:
64,192,104619,1,0,0:0:0:0:
192,192,104619,1,0,0:0:0:0:
448,192,104619,1,0,0:0:0:0:
320,192,104619,1,0,0:0:0:0:
320,192,104744,1,0,0:0:0:0:
448,192,104869,1,0,0:0:0:0:
192,192,104869,1,0,0:0:0:0:
192,192,104994,1,0,0:0:0:0:
448,192,105119,1,0,0:0:0:0:
320,192,105119,1,0,0:0:0:0:
192,192,105119,1,0,0:0:0:0:
64,192,105119,1,0,0:0:0:0:
64,192,105244,1,0,0:0:0:0:
448,192,105244,1,0,0:0:0:0:
192,192,105369,1,0,0:0:0:0:
448,192,105494,1,0,0:0:0:0:
320,192,105494,1,0,0:0:0:0:
448,192,105619,1,0,0:0:0:0:
320,192,105619,1,0,0:0:0:0:
192,192,105619,1,0,0:0:0:0:
64,192,105619,1,0,0:0:0:0:
192,192,105744,1,0,0:0:0:0:
320,192,105869,1,0,0:0:0:0:
64,192,105869,1,0,0:0:0:0:
192,192,105994,1,0,0:0:0:0:
448,192,106119,1,0,0:0:0:0:
320,192,106119,1,0,0:0:0:0:
192,192,106119,1,0,0:0:0:0:
64,192,106119,1,0,0:0:0:0:
192,192,106244,1,0,0:0:0:0:
64,192,106369,1,0,0:0:0:0:
320,192,106369,1,0,0:0:0:0:
192,192,106494,1,0,0:0:0:0:
448,192,106494,1,0,0:0:0:0:
192,192,106619,1,0,0:0:0:0:
64,192,106619,1,0,0:0:0:0:
320,192,106619,1,0,0:0:0:0:
448,192,106619,1,0,0:0:0:0:
320,192,106744,1,0,0:0:0:0:
448,192,106869,1,0,0:0:0:0:
192,192,106869,1,0,0:0:0:0:
320,192,106994,1,0,0:0:0:0:
448,192,107119,1,0,0:0:0:0:
320,192,107119,1,0,0:0:0:0:
192,192,107119,1,0,0:0:0:0:
64,192,107119,1,0,0:0:0:0:
192,192,107244,1,0,0:0:0:0:
64,192,107244,1,0,0:0:0:0:
192,192,107369,1,0,0:0:0:0:
320,192,107494,1,0,0:0:0:0:
192,192,107494,1,0,0:0:0:0:
320,192,107619,1,0,0:0:0:0:
448,192,107619,1,0,0:0:0:0:
64,192,107619,1,0,0:0:0:0:
448,192,107744,1,0,0:0:0:0:
448,192,107869,1,0,0:0:0:0:
320,192,107869,1,0,0:0:0:0:
320,192,107994,1,0,0:0:0:0:
192,192,108119,1,0,0:0:0:0:
64,192,108119,1,0,0:0:0:0:
448,192,108119,1,0,0:0:0:0:
320,192,108244,1,0,0:0:0:0:
64,192,108369,1,0,0:0:0:0:
448,192,108369,1,0,0:0:0:0:
192,192,108369,1,0,0:0:0:0:
448,192,108494,1,0,0:0:0:0:
320,192,108494,1,0,0:0:0:0:
192,192,108619,1,0,0:0:0:0:
64,192,108619,1,0,0:0:0:0:
320,192,108619,1,0,0:0:0:0:
192,192,108744,1,0,0:0:0:0:
448,192,108744,1,0,0:0:0:0:
448,192,108869,1,0,0:0:0:0:
320,192,108869,1,0,0:0:0:0:
64,192,108869,1,0,0:0:0:0:
192,192,108994,1,0,0:0:0:0:
64,192,108994,1,0,0:0:0:0:
448,192,109119,1,0,0:0:0:0:
320,192,109119,1,0,0:0:0:0:
192,192,109119,1,0,0:0:0:0:
64,192,109119,1,0,0:0:0:0:
320,192,109244,1,0,0:0:0:0:
320,192,109369,1,0,0:0:0:0:
320,192,109494,1,0,0:0:0:0:
64,192,109494,1,0,0:0:0:0:
64,192,109619,1,0,0:0:0:0:
192,192,109619,1,0,0:0:0:0:
448,192,109619,1,0,0:0:0:0:
192,192,109744,1,0,0:0:0:0:
192,192,109869,1,0,0:0:0:0:
448,192,109869,1,0,0:0:0:0:
192,192,109994,1,0,0:0:0:0:
320,192,110119,1,0,0:0:0:0:
64,192,110119,1,0,0:0:0:0:
448,192,110119,1,0,0:0:0:0:
448,192,110244,1,0,0:0:0:0:
448,192,110369,1,0,0:0:0:0:
192,192,110494,1,0,0:0:0:0:
64,192,110494,1,0,0:0:0:0:
64,192,110619,1,0,0:0:0:0:
320,192,110619,1,0,0:0:0:0:
448,192,110619,1,0,0:0:0:0:
192,192,110744,1,0,0:0:0:0:
192,192,110869,1,0,0:0:0:0:
64,192,110869,1,0,0:0:0:0:
192,192,110994,1,0,0:0:0:0:
448,192,111119,1,0,0:0:0:0:
320,192,111119,1,0,0:0:0:0:
64,192,111119,1,0,0:0:0:0:
192,192,111244,1,0,0:0:0:0:
320,192,111244,1,0,0:0:0:0:
448,192,111369,1,0,0:0:0:0:
192,192,111369,1,0,0:0:0:0:
320,192,111494,1,0,0:0:0:0:
448,192,111494,1,0,0:0:0:0:
192,192,111619,1,0,0:0:0:0:
64,192,111619,1,0,0:0:0:0:
448,192,111619,1,0,0:0:0:0:
320,192,111744,1,0,0:0:0:0:
64,192,111744,1,0,0:0:0:0:
192,192,111869,1,0,0:0:0:0:
448,192,111869,1,0,0:0:0:0:
448,192,111994,1,0,0:0:0:0:
320,192,111994,1,0,0:0:0:0:
192,192,112119,1,0,0:0:0:0:
64,192,112119,1,0,0:0:0:0:
320,192,112119,1,0,0:0:0:0:
192,192,112244,1,0,0:0:0:0:
64,192,112244,1,0,0:0:0:0:
448,192,112369,1,0,0:0:0:0:
320,192,112369,1,0,0:0:0:0:
64,192,112494,1,0,0:0:0:0:
320,192,112494,1,0,0:0:0:0:
192,192,112619,1,0,0:0:0:0:
448,192,112619,1,0,0:0:0:0:
64,192,112619,1,0,0:0:0:0:
320,192,112744,1,0,0:0:0:0:
448,192,112744,1,0,0:0:0:0:
64,192,112869,1,0,0:0:0:0:
320,192,112869,1,0,0:0:0:0:
192,192,112994,1,0,0:0:0:0:
64,192,112994,1,0,0:0:0:0:
448,192,113119,1,0,0:0:0:0:
320,192,113119,1,0,0:0:0:0:
192,192,113119,1,0,0:0:0:0:
320,192,113244,1,0,0:0:0:0:
64,192,113244,1,0,0:0:0:0:
320,192,113369,1,0,0:0:0:0:
64,192,113494,1,0,0:0:0:0:
448,192,113494,1,0,0:0:0:0:
192,192,113619,1,0,0:0:0:0:
64,192,113619,1,0,0:0:0:0:
448,192,113619,1,0,0:0:0:0:
192,192,113744,1,0,0:0:0:0:
192,192,113869,1,0,0:0:0:0:
448,192,113869,1,0,0:0:0:0:
320,192,113994,1,0,0:0:0:0:
448,192,114119,1,0,0:0:0:0:
320,192,114119,1,0,0:0:0:0:
64,192,114119,1,0,0:0:0:0:
64,192,114244,1,0,0:0:0:0:
64,192,114369,1,0,0:0:0:0:
448,192,114369,1,0,0:0:0:0:
320,192,114494,1,0,0:0:0:0:
448,192,114619,1,0,0:0:0:0:
192,192,114619,1,0,0:0:0:0:
64,192,114619,1,0,0:0:0:0:
192,192,114744,1,0,0:0:0:0:
448,192,114869,1,0,0:0:0:0:
64,192,114869,1,0,0:0:0:0:
448,192,114994,1,0,0:0:0:0:
320,192,115119,1,0,0:0:0:0:
192,192,115119,1,0,0:0:0:0:
64,192,115119,1,0,0:0:0:0:
320,192,115244,1,0,0:0:0:0:
448,192,115244,1,0,0:0:0:0:
64,192,115369,1,0,0:0:0:0:
192,192,115369,1,0,0:0:0:0:
192,192,115494,1,0,0:0:0:0:
448,192,115494,1,0,0:0:0:0:
448,192,115619,1,0,0:0:0:0:
64,192,115619,1,0,0:0:0:0:
320,192,115619,1,0,0:0:0:0:
192,192,115744,1,0,0:0:0:0:
64,192,115744,1,0,0:0:0:0:
448,192,115869,1,0,0:0:0:0:
320,192,115869,1,0,0:0:0:0:
64,192,115994,1,0,0:0:0:0:
320,192,115994,1,0,0:0:0:0:
64,192,116119,1,0,0:0:0:0:
448,192,116119,1,0,0:0:0:0:
192,192,116119,1,0,0:0:0:0:
320,192,116244,1,0,0:0:0:0:
448,192,116244,1,0,0:0:0:0:
192,192,116369,1,0,0:0:0:0:
64,192,116369,1,0,0:0:0:0:
320,192,116494,1,0,0:0:0:0:
64,192,116494,1,0,0:0:0:0:
448,192,116619,1,0,0:0:0:0:
320,192,116619,1,0,0:0:0:0:
192,192,116619,1,0,0:0:0:0:
64,192,116744,1,0,0:0:0:0:
192,192,116744,1,0,0:0:0:0:
448,192,116869,1,0,0:0:0:0:
64,192,116869,1,0,0:0:0:0:
320,192,116994,1,0,0:0:0:0:
192,192,116994,1,0,0:0:0:0:
448,192,117119,1,0,0:0:0:0:
64,192,117119,1,0,0:0:0:0:
192,192,117119,1,0,0:0:0:0:
448,192,117244,1,0,0:0:0:0:
192,192,117244,1,0,0:0:0:0:
448,192,117369,1,0,0:0:0:0:
320,192,117494,1,0,0:0:0:0:
64,192,117494,1,0,0:0:0:0:
192,192,117619,1,0,0:0:0:0:
64,192,117619,1,0,0:0:0:0:
448,192,117619,1,0,0:0:0:0:
320,192,117744,1,0,0:0:0:0:
320,192,117869,1,0,0:0:0:0:
64,192,117869,1,0,0:0:0:0:
192,192,117994,1,0,0:0:0:0:
320,192,118119,1,0,0:0:0:0:
448,192,118119,1,0,0:0:0:0:
64,192,118119,1,0,0:0:0:0:
64,192,118244,1,0,0:0:0:0:
64,192,118369,1,0,0:0:0:0:
192,192,118494,1,0,0:0:0:0:
448,192,118494,1,0,0:0:0:0:
448,192,118619,1,0,0:0:0:0:
320,192,118619,1,0,0:0:0:0:
64,192,118619,1,0,0:0:0:0:
192,192,118744,1,0,0:0:0:0:
320,192,118869,1,0,0:0:0:0:
448,192,118869,1,0,0:0:0:0:
320,192,118994,1,0,0:0:0:0:
448,192,119119,1,0,0:0:0:0:
64,192,119119,1,0,0:0:0:0:
192,192,119119,1,0,0:0:0:0:
320,192,119244,1,0,0:0:0:0:
192,192,119244,1,0,0:0:0:0:
64,192,119369,1,0,0:0:0:0:
320,192,119494,1,0,0:0:0:0:
448,192,119494,1,0,0:0:0:0:
448,192,119619,1,0,0:0:0:0:
192,192,119619,1,0,0:0:0:0:
64,192,119619,1,0,0:0:0:0:
320,192,119744,1,0,0:0:0:0:
192,192,119869,1,0,0:0:0:0:
448,192,119869,1,0,0:0:0:0:
448,192,119994,1,0,0:0:0:0:
320,192,120119,1,0,0:0:0:0:
192,192,120119,1,0,0:0:0:0:
64,192,120119,1,0,0:0:0:0:
192,192,120244,1,0,0:0:0:0:
64,192,120369,1,0,0:0:0:0:
320,192,120494,1,0,0:0:0:0:
64,192,120494,1,0,0:0:0:0:
448,192,120619,1,0,0:0:0:0:
192,192,120619,1,0,0:0:0:0:
320,192,120619,1,0,0:0:0:0:
192,192,120744,1,0,0:0:0:0:
448,192,120869,1,0,0:0:0:0:
64,192,120869,1,0,0:0:0:0:
320,192,120994,1,0,0:0:0:0:
448,192,121119,1,0,0:0:0:0:
192,192,121119,1,0,0:0:0:0:
64,192,121119,1,0,0:0:0:0:
448,192,121244,1,0,0:0:0:0:
320,192,121244,1,0,0:0:0:0:
192,192,121369,1,0,0:0:0:0:
192,192,121494,1,0,0:0:0:0:
320,192,121494,1,0,0:0:0:0:
448,192,121619,1,0,0:0:0:0:
320,192,121619,1,0,0:0:0:0:
64,192,121619,1,0,0:0:0:0:
192,192,121744,1,0,0:0:0:0:
448,192,121869,1,0,0:0:0:0:
192,192,121869,1,0,0:0:0:0:
320,192,121994,1,0,0:0:0:0:
448,192,122119,1,0,0:0:0:0:
192,192,122119,1,0,0:0:0:0:
64,192,122119,1,0,0:0:0:0:
192,192,122244,1,0,0:0:0:0:
64,192,122369,1,0,0:0:0:0:
192,192,122494,1,0,0:0:0:0:
64,192,122494,1,0,0:0:0:0:
448,192,122619,1,0,0:0:0:0:
320,192,122619,1,0,0:0:0:0:
192,192,122619,1,0,0:0:0:0:
320,192,122744,1,0,0:0:0:0:
448,192,122869,1,0,0:0:0:0:
64,192,122869,1,0,0:0:0:0:
320,192,122994,1,0,0:0:0:0:
192,192,123119,1,0,0:0:0:0:
64,192,123119,1,0,0:0:0:0:
448,192,123119,1,0,0:0:0:0:
192,192,123244,1,0,0:0:0:0:
448,192,123244,1,0,0:0:0:0:
320,192,123369,1,0,0:0:0:0:
192,192,123494,1,0,0:0:0:0:
64,192,123494,1,0,0:0:0:0:
448,192,123619,1,0,0:0:0:0:
320,192,123619,1,0,0:0:0:0:
192,192,123619,1,0,0:0:0:0:
320,192,123744,1,0,0:0:0:0:
64,192,123869,1,0,0:0:0:0:
192,192,123869,1,0,0:0:0:0:
192,192,123994,1,0,0:0:0:0:
448,192,124119,1,0,0:0:0:0:
320,192,124119,1,0,0:0:0:0:
64,192,124119,1,0,0:0:0:0:
192,192,124244,1,0,0:0:0:0:
320,192,124369,1,0,0:0:0:0:
448,192,124494,1,0,0:0:0:0:
192,192,124494,1,0,0:0:0:0:
192,192,124619,1,0,0:0:0:0:
448,192,124619,1,0,0:0:0:0:
320,192,124619,1,0,0:0:0:0:
64,192,124744,1,0,0:0:0:0:
192,192,124869,1,0,0:0:0:0:
448,192,124869,1,0,0:0:0:0:
320,192,124994,1,0,0:0:0:0:
64,192,124994,1,0,0:0:0:0:
192,192,125119,1,0,0:0:0:0:
64,192,125119,1,0,0:0:0:0:
320,192,125119,1,0,0:0:0:0:
448,192,125119,1,0,0:0:0:0:
192,192,125244,1,0,0:0:0:0:
192,192,125369,1,0,0:0:0:0:
320,192,125494,1,0,0:0:0:0:
448,192,125494,1,0,0:0:0:0:
448,192,125619,1,0,0:0:0:0:
64,192,125619,1,0,0:0:0:0:
192,192,125619,1,0,0:0:0:0:
192,192,125744,1,0,0:0:0:0:
192,192,125869,1,0,0:0:0:0:
448,192,125869,1,0,0:0:0:0:
320,192,125994,1,0,0:0:0:0:
448,192,126119,1,0,0:0:0:0:
320,192,126119,1,0,0:0:0:0:
192,192,126119,1,0,0:0:0:0:
64,192,126119,1,0,0:0:0:0:
192,192,126244,1,0,0:0:0:0:
320,192,126369,1,0,0:0:0:0:
448,192,126494,1,0,0:0:0:0:
192,192,126494,1,0,0:0:0:0:
448,192,126619,1,0,0:0:0:0:
320,192,126619,1,0,0:0:0:0:
64,192,126619,1,0,0:0:0:0:
64,192,126744,1,0,0:0:0:0:
64,192,126869,1,0,0:0:0:0:
320,192,126869,1,0,0:0:0:0:
192,192,126994,1,0,0:0:0:0:
448,192,127119,1,0,0:0:0:0:
320,192,127119,1,0,0:0:0:0:
192,192,127119,1,0,0:0:0:0:
64,192,127119,1,0,0:0:0:0:
320,192,127244,1,0,0:0:0:0:
448,192,127244,1,0,0:0:0:0:
192,192,127369,1,0,0:0:0:0:
64,192,127494,1,0,0:0:0:0:
320,192,127494,1,0,0:0:0:0:
448,192,127619,1,0,0:0:0:0:
192,192,127619,1,0,0:0:0:0:
64,192,127619,1,0,0:0:0:0:
320,192,127744,1,0,0:0:0:0:
192,192,127744,1,0,0:0:0:0:
320,192,127869,1,0,0:0:0:0:
448,192,127869,1,0,0:0:0:0:
192,192,127994,1,0,0:0:0:0:
448,192,128119,1,0,0:0:0:0:
320,192,128119,1,0,0:0:0:0:
192,192,128119,1,0,0:0:0:0:
64,192,128119,1,0,0:0:0:0:
320,192,128244,1,0,0:0:0:0:
448,192,128244,1,0,0:0:0:0:
64,192,128369,1,0,0:0:0:0:
192,192,128369,1,0,0:0:0:0:
192,192,128494,1,0,0:0:0:0:
448,192,128494,1,0,0:0:0:0:
448,192,128619,1,0,0:0:0:0:
320,192,128619,1,0,0:0:0:0:
64,192,128619,1,0,0:0:0:0:
320,192,128744,1,0,0:0:0:0:
64,192,128744,1,0,0:0:0:0:
192,192,128869,1,0,0:0:0:0:
448,192,128869,1,0,0:0:0:0:
320,192,128994,1,0,0:0:0:0:
64,192,128994,1,0,0:0:0:0:
320,192,129119,1,0,0:0:0:0:
192,192,129119,1,0,0:0:0:0:
64,192,129119,1,0,0:0:0:0:
448,192,129119,1,0,0:0:0:0:
192,192,129244,1,0,0:0:0:0:
448,192,129244,1,0,0:0:0:0:
320,192,129369,1,0,0:0:0:0:
192,192,129494,1,0,0:0:0:0:
64,192,129494,1,0,0:0:0:0:
64,192,129619,1,0,0:0:0:0:
448,192,129619,1,0,0:0:0:0:
320,192,129619,1,0,0:0:0:0:
320,192,129744,1,0,0:0:0:0:
192,192,129869,1,0,0:0:0:0:
448,192,129869,1,0,0:0:0:0:
320,192,129994,1,0,0:0:0:0:
448,192,130119,1,0,0:0:0:0:
320,192,130119,1,0,0:0:0:0:
192,192,130119,1,0,0:0:0:0:
64,192,130119,1,0,0:0:0:0:
192,192,130244,1,0,0:0:0:0:
64,192,130369,1,0,0:0:0:0:
192,192,130494,1,0,0:0:0:0:
448,192,130494,1,0,0:0:0:0:
320,192,130619,1,0,0:0:0:0:
64,192,130619,1,0,0:0:0:0:
192,192,130619,1,0,0:0:0:0:
320,192,130744,1,0,0:0:0:0:
448,192,130869,1,0,0:0:0:0:
64,192,130869,1,0,0:0:0:0:
192,192,130994,1,0,0:0:0:0:
320,192,131119,1,0,0:0:0:0:
448,192,131119,1,0,0:0:0:0:
192,192,131119,1,0,0:0:0:0:
64,192,131119,1,0,0:0:0:0:
320,192,131244,1,0,0:0:0:0:
448,192,131244,1,0,0:0:0:0:
320,192,131369,1,0,0:0:0:0:
192,192,131494,1,0,0:0:0:0:
64,192,131494,1,0,0:0:0:0:
64,192,131619,1,0,0:0:0:0:
320,192,131619,1,0,0:0:0:0:
448,192,131619,1,0,0:0:0:0:
320,192,131744,1,0,0:0:0:0:
64,192,131869,1,0,0:0:0:0:
192,192,131869,1,0,0:0:0:0:
320,192,131994,1,0,0:0:0:0:
192,192,132119,1,0,0:0:0:0:
448,192,132119,1,0,0:0:0:0:
320,192,132119,1,0,0:0:0:0:
64,192,132119,1,0,0:0:0:0:
192,192,132244,1,0,0:0:0:0:
64,192,132369,1,0,0:0:0:0:
320,192,132369,1,0,0:0:0:0:
448,192,132494,1,0,0:0:0:0:
192,192,132619,1,0,0:0:0:0:
64,192,132619,1,0,0:0:0:0:
448,192,132619,1,0,0:0:0:0:
320,192,132744,1,0,0:0:0:0:
320,192,132869,1,0,0:0:0:0:
64,192,132869,1,0,0:0:0:0:
192,192,132994,1,0,0:0:0:0:
64,192,133119,1,0,0:0:0:0:
192,192,133119,1,0,0:0:0:0:
320,192,133119,1,0,0:0:0:0:
448,192,133119,1,0,0:0:0:0:
320,192,133244,1,0,0:0:0:0:
64,192,133244,1,0,0:0:0:0:
192,192,133369,1,0,0:0:0:0:
320,192,133494,1,0,0:0:0:0:
448,192,133494,1,0,0:0:0:0:
448,192,133619,1,0,0:0:0:0:
320,192,133619,1,0,0:0:0:0:
64,192,133619,1,0,0:0:0:0:
192,192,133744,1,0,0:0:0:0:
64,192,133869,1,0,0:0:0:0:
320,192,133869,1,0,0:0:0:0:
192,192,133994,1,0,0:0:0:0:
448,192,134119,1,0,0:0:0:0:
320,192,134119,1,0,0:0:0:0:
192,192,134119,1,0,0:0:0:0:
64,192,134119,1,0,0:0:0:0:
320,192,134244,1,0,0:0:0:0:
64,192,134369,1,0,0:0:0:0:
320,192,134494,1,0,0:0:0:0:
448,192,134494,1,0,0:0:0:0:
192,192,134619,1,0,0:0:0:0:
64,192,134619,1,0,0:0:0:0:
448,192,134619,1,0,0:0:0:0:
320,192,134744,1,0,0:0:0:0:
192,192,134869,1,0,0:0:0:0:
448,192,134869,1,0,0:0:0:0:
64,192,134994,1,0,0:0:0:0:
64,192,135119,1,0,0:0:0:0:
192,192,135119,1,0,0:0:0:0:
320,192,135119,1,0,0:0:0:0:
448,192,135119,1,0,0:0:0:0:
320,192,135244,1,0,0:0:0:0:
320,192,135369,1,0,0:0:0:0:
192,192,135494,1,0,0:0:0:0:
64,192,135494,1,0,0:0:0:0:
64,192,135619,1,0,0:0:0:0:
192,192,135619,1,0,0:0:0:0:
320,192,135619,1,0,0:0:0:0:
320,192,135744,1,0,0:0:0:0:
448,192,135869,1,0,0:0:0:0:
192,192,135869,1,0,0:0:0:0:
320,192,135994,1,0,0:0:0:0:
320,192,136119,1,0,0:0:0:0:
192,192,136119,1,0,0:0:0:0:
64,192,136119,1,0,0:0:0:0:
448,192,136119,1,0,0:0:0:0:
192,192,136244,1,0,0:0:0:0:
64,192,136369,1,0,0:0:0:0:
64,192,136494,1,0,0:0:0:0:
192,192,136494,1,0,0:0:0:0:
448,192,136619,1,0,0:0:0:0:
320,192,136619,1,0,0:0:0:0:
192,192,136619,1,0,0:0:0:0:
320,192,136744,1,0,0:0:0:0:
448,192,136869,1,0,0:0:0:0:
64,192,136869,1,0,0:0:0:0:
192,192,136994,1,0,0:0:0:0:
192,192,137119,1,0,0:0:0:0:
320,192,137119,1,0,0:0:0:0:
448,192,137119,1,0,0:0:0:0:
64,192,137119,1,0,0:0:0:0:
320,192,137244,1,0,0:0:0:0:
64,192,137369,1,0,0:0:0:0:
192,192,137494,1,0,0:0:0:0:
448,192,137494,1,0,0:0:0:0:
448,192,137619,1,0,0:0:0:0:
320,192,137619,1,0,0:0:0:0:
192,192,137619,1,0,0:0:0:0:
320,192,137744,1,0,0:0:0:0:
64,192,137869,1,0,0:0:0:0:
192,192,137869,1,0,0:0:0:0:
448,192,137994,1,0,0:0:0:0:
448,192,138119,1,0,0:0:0:0:
320,192,138119,1,0,0:0:0:0:
64,192,138119,1,0,0:0:0:0:
192,192,138119,1,0,0:0:0:0:
192,192,138244,1,0,0:0:0:0:
320,192,138369,1,0,0:0:0:0:
448,192,138369,1,0,0:0:0:0:
320,192,138494,1,0,0:0:0:0:
64,192,138619,1,0,0:0:0:0:
192,192,138619,1,0,0:0:0:0:
448,192,138619,1,0,0:0:0:0:
192,192,138744,1,0,0:0:0:0:
64,192,138869,1,0,0:0:0:0:
448,192,138869,1,0,0:0:0:0:
192,192,138994,1,0,0:0:0:0:
448,192,139119,1,0,0:0:0:0:
320,192,139119,1,0,0:0:0:0:
192,192,139119,1,0,0:0:0:0:
64,192,139119,1,0,0:0:0:0:
448,192,139244,1,0,0:0:0:0:
64,192,139244,1,0,0:0:0:0:
192,192,139369,1,0,0:0:0:0:
64,192,139494,1,0,0:0:0:0:
320,192,139494,1,0,0:0:0:0:
448,192,139619,1,0,0:0:0:0:
192,192,139619,1,0,0:0:0:0:
64,192,139619,1,0,0:0:0:0:
320,192,139744,1,0,0:0:0:0:
448,192,139869,1,0,0:0:0:0:
192,192,139869,1,0,0:0:0:0:
64,192,139994,1,0,0:0:0:0:
448,192,140119,1,0,0:0:0:0:
320,192,140119,1,0,0:0:0:0:
64,192,140119,1,0,0:0:0:0:
192,192,140119,1,0,0:0:0:0:
192,192,140244,1,0,0:0:0:0:
448,192,140244,1,0,0:0:0:0:
320,192,140369,1,0,0:0:0:0:
192,192,140494,1,0,0:0:0:0:
448,192,140619,1,0,0:0:0:0:
320,192,140619,1,0,0:0:0:0:
64,192,140619,1,0,0:0:0:0:
192,192,140619,1,0,0:0:0:0:
320,192,140744,1,0,0:0:0:0:
64,192,140869,1,0,0:0:0:0:
192,192,140994,1,0,0:0:0:0:
448,192,141119,1,0,0:0:0:0:
320,192,141119,1,0,0:0:0:0:
64,192,141119,1,0,0:0:0:0:
192,192,141244,1,0,0:0:0:0:
320,192,141369,1,0,0:0:0:0:
320,192,141494,1,0,0:0:0:0:
448,192,141619,1,0,0:0:0:0:
192,192,141619,1,0,0:0:0:0:
64,192,141619,1,0,0:0:0:0:
320,192,141744,1,0,0:0:0:0:
192,192,141869,1,0,0:0:0:0:
192,192,141994,1,0,0:0:0:0:
320,192,142119,1,0,0:0:0:0:
448,192,142119,1,0,0:0:0:0:
64,192,142119,1,0,0:0:0:0:
448,192,142244,1,0,0:0:0:0:
64,192,142369,1,0,0:0:0:0:
64,192,142494,1,0,0:0:0:0:
192,192,142619,1,0,0:0:0:0:
320,192,142619,1,0,0:0:0:0:
448,192,142619,1,0,0:0:0:0:
192,192,142744,1,0,0:0:0:0:
448,192,142869,1,0,0:0:0:0:
448,192,142994,1,0,0:0:0:0:
320,192,143119,1,0,0:0:0:0:
64,192,143119,1,0,0:0:0:0:
448,192,143119,1,0,0:0:0:0:
192,192,143244,1,0,0:0:0:0:
320,192,143369,1,0,0:0:0:0:
320,192,143494,1,0,0:0:0:0:
448,192,143619,1,0,0:0:0:0:
192,192,143619,1,0,0:0:0:0:
64,192,143619,1,0,0:0:0:0:
64,192,143744,1,0,0:0:0:0:
192,192,143869,1,0,0:0:0:0:
192,192,143994,1,0,0:0:0:0:
448,192,144119,1,0,0:0:0:0:
320,192,144119,1,0,0:0:0:0:
64,192,144119,1,0,0:0:0:0:
448,192,144244,1,0,0:0:0:0:
64,192,144369,1,0,0:0:0:0:
64,192,144494,1,0,0:0:0:0:
192,192,144619,1,0,0:0:0:0:
320,192,144619,1,0,0:0:0:0:
448,192,144619,1,0,0:0:0:0:
192,192,144744,1,0,0:0:0:0:
448,192,144869,1,0,0:0:0:0:
448,192,144994,1,0,0:0:0:0:
320,192,145119,1,0,0:0:0:0:
192,192,145119,1,0,0:0:0:0:
64,192,145119,1,0,0:0:0:0:
192,192,145244,1,0,0:0:0:0:
448,192,145244,1,0,0:0:0:0:
320,192,145369,1,0,0:0:0:0:
320,192,145494,1,0,0:0:0:0:
64,192,145494,1,0,0:0:0:0:
192,192,145619,1,0,0:0:0:0:
64,192,145619,1,0,0:0:0:0:
448,192,145619,1,0,0:0:0:0:
320,192,145744,1,0,0:0:0:0:
192,192,145869,1,0,0:0:0:0:
64,192,145869,1,0,0:0:0:0:
192,192,145994,1,0,0:0:0:0:
448,192,146119,1,0,0:0:0:0:
320,192,146119,1,0,0:0:0:0:
64,192,146119,1,0,0:0:0:0:
192,192,146244,1,0,0:0:0:0:
64,192,146244,1,0,0:0:0:0:
192,192,146369,1,0,0:0:0:0:
448,192,146494,1,0,0:0:0:0:
320,192,146494,1,0,0:0:0:0:
448,192,146619,1,0,0:0:0:0:
192,192,146619,1,0,0:0:0:0:
64,192,146619,1,0,0:0:0:0:
320,192,146744,1,0,0:0:0:0:
192,192,146869,1,0,0:0:0:0:
64,192,146869,1,0,0:0:0:0:
192,192,146994,1,0,0:0:0:0:
448,192,146994,1,0,0:0:0:0:
448,192,147119,1,0,0:0:0:0:
320,192,147119,1,0,0:0:0:0:
64,192,147119,1,0,0:0:0:0:
64,192,147244,1,0,0:0:0:0:
320,192,147244,1,0,0:0:0:0:
192,192,147369,1,0,0:0:0:0:
448,192,147494,1,0,0:0:0:0:
320,192,147494,1,0,0:0:0:0:
320,192,147619,1,0,0:0:0:0:
64,192,147619,1,0,0:0:0:0:
192,192,147619,1,0,0:0:0:0:
192,192,147744,1,0,0:0:0:0:
448,192,147869,1,0,0:0:0:0:
320,192,147869,1,0,0:0:0:0:
64,192,147994,1,0,0:0:0:0:
320,192,147994,1,0,0:0:0:0:
192,192,148119,1,0,0:0:0:0:
64,192,148119,1,0,0:0:0:0:
448,192,148119,1,0,0:0:0:0:
320,192,148244,1,0,0:0:0:0:
192,192,148369,1,0,0:0:0:0:
448,192,148369,1,0,0:0:0:0:
320,192,148494,1,0,0:0:0:0:
64,192,148494,1,0,0:0:0:0:
64,192,148619,1,0,0:0:0:0:
192,192,148619,1,0,0:0:0:0:
448,192,148619,1,0,0:0:0:0:
320,192,148744,1,0,0:0:0:0:
192,192,148869,1,0,0:0:0:0:
448,192,148869,1,0,0:0:0:0:
64,192,148994,1,0,0:0:0:0:
448,192,149119,1,0,0:0:0:0:
192,192,149119,1,0,0:0:0:0:
64,192,149119,1,0,0:0:0:0:
320,192,149244,1,0,0:0:0:0:
448,192,149369,1,0,0:0:0:0:
320,192,149369,1,0,0:0:0:0:
192,192,149494,1,0,0:0:0:0:
64,192,149494,1,0,0:0:0:0:
448,192,149619,1,0,0:0:0:0:
320,192,149619,1,0,0:0:0:0:
192,192,149619,1,0,0:0:0:0:
320,192,149744,1,0,0:0:0:0:
192,192,149869,1,0,0:0:0:0:
64,192,149869,1,0,0:0:0:0:
192,192,149994,1,0,0:0:0:0:
448,192,149994,1,0,0:0:0:0:
448,192,150119,1,0,0:0:0:0:
320,192,150119,1,0,0:0:0:0:
64,192,150119,1,0,0:0:0:0:
192,192,150244,1,0,0:0:0:0:
320,192,150369,1,0,0:0:0:0:
192,192,150369,1,0,0:0:0:0:
320,192,150494,1,0,0:0:0:0:
192,192,150619,1,0,0:0:0:0:
64,192,150619,1,0,0:0:0:0:
448,192,150619,1,0,0:0:0:0:
320,192,150744,1,0,0:0:0:0:
192,192,150869,1,0,0:0:0:0:
448,192,150869,1,0,0:0:0:0:
448,192,150994,1,0,0:0:0:0:
64,192,150994,1,0,0:0:0:0:
320,192,151119,1,0,0:0:0:0:
192,192,151119,1,0,0:0:0:0:
64,192,151119,1,0,0:0:0:0:
192,192,151244,1,0,0:0:0:0:
448,192,151369,1,0,0:0:0:0:
64,192,151369,1,0,0:0:0:0:
64,192,151494,1,0,0:0:0:0:
320,192,151494,1,0,0:0:0:0:
192,192,151619,1,0,0:0:0:0:
320,192,151619,1,0,0:0:0:0:
448,192,151619,1,0,0:0:0:0:
192,192,151744,1,0,0:0:0:0:
64,192,151869,1,0,0:0:0:0:
448,192,151869,1,0,0:0:0:0:
320,192,151869,1,0,0:0:0:0:
320,192,151994,1,0,0:0:0:0:
192,192,152119,1,0,0:0:0:0:
64,192,152119,1,0,0:0:0:0:
448,192,152119,1,0,0:0:0:0:
192,192,152244,1,0,0:0:0:0:
320,192,152369,1,0,0:0:0:0:
320,192,152494,1,0,0:0:0:0:
448,192,152619,1,0,0:0:0:0:
192,192,152619,1,0,0:0:0:0:
64,192,152619,1,0,0:0:0:0:
320,192,152744,1,0,0:0:0:0:
192,192,152869,1,0,0:0:0:0:
64,192,152869,1,0,0:0:0:0:
320,192,152994,1,0,0:0:0:0:
448,192,152994,1,0,0:0:0:0:
448,192,153119,1,0,0:0:0:0:
192,192,153119,1,0,0:0:0:0:
64,192,153119,1,0,0:0:0:0:
320,192,153244,1,0,0:0:0:0:
192,192,153369,1,0,0:0:0:0:
64,192,153369,1,0,0:0:0:0:
448,192,153494,1,0,0:0:0:0:
192,192,153494,1,0,0:0:0:0:
448,192,153619,1,0,0:0:0:0:
320,192,153619,1,0,0:0:0:0:
64,192,153619,1,0,0:0:0:0:
192,192,153744,1,0,0:0:0:0:
320,192,153869,1,0,0:0:0:0:
64,192,153869,1,0,0:0:0:0:
64,192,153994,1,0,0:0:0:0:
448,192,153994,1,0,0:0:0:0:
448,192,154119,1,0,0:0:0:0:
320,192,154119,1,0,0:0:0:0:
192,192,154119,1,0,0:0:0:0:
320,192,154244,1,0,0:0:0:0:
192,192,154369,1,0,0:0:0:0:
64,192,154369,1,0,0:0:0:0:
448,192,154494,1,0,0:0:0:0:
320,192,154494,1,0,0:0:0:0:
448,192,154619,1,0,0:0:0:0:
192,192,154619,1,0,0:0:0:0:
64,192,154619,1,0,0:0:0:0:
192,192,154744,1,0,0:0:0:0:
320,192,154869,1,0,0:0:0:0:
448,192,154869,1,0,0:0:0:0:
64,192,154994,1,0,0:0:0:0:
192,192,154994,1,0,0:0:0:0:
192,192,155119,1,0,0:0:0:0:
64,192,155119,1,0,0:0:0:0:
320,192,155119,1,0,0:0:0:0:
320,192,155244,1,0,0:0:0:0:
448,192,155369,1,0,0:0:0:0:
192,192,155369,1,0,0:0:0:0:
320,192,155494,1,0,0:0:0:0:
448,192,155494,1,0,0:0:0:0:
320,192,155619,1,0,0:0:0:0:
192,192,155619,1,0,0:0:0:0:
64,192,155619,1,0,0:0:0:0:
192,192,155744,1,0,0:0:0:0:
448,192,155869,1,0,0:0:0:0:
64,192,155869,1,0,0:0:0:0:
320,192,155994,1,0,0:0:0:0:
192,192,155994,1,0,0:0:0:0:
64,192,156119,1,0,0:0:0:0:
192,192,156119,1,0,0:0:0:0:
448,192,156119,1,0,0:0:0:0:
320,192,156244,1,0,0:0:0:0:
448,192,156244,1,0,0:0:0:0:
192,192,156369,1,0,0:0:0:0:
64,192,156369,1,0,0:0:0:0:
448,192,156431,1,0,0:0:0:0:
320,192,156431,1,0,0:0:0:0:
192,192,156494,1,0,0:0:0:0:
64,192,156494,1,0,0:0:0:0:
320,192,156619,1,0,0:0:0:0:
448,192,156619,1,0,0:0:0:0:
64,192,156619,1,0,0:0:0:0:
192,192,156744,1,0,0:0:0:0:
448,192,156869,1,0,0:0:0:0:
64,192,156869,1,0,0:0:0:0:
192,192,156994,1,0,0:0:0:0:
192,192,157119,1,0,0:0:0:0:
448,192,157119,1,0,0:0:0:0:
64,192,157119,1,0,0:0:0:0:
320,192,157244,1,0,0:0:0:0:
192,192,157369,1,0,0:0:0:0:
320,192,157494,1,0,0:0:0:0:
64,192,157494,1,0,0:0:0:0:
64,192,157619,1,0,0:0:0:0:
448,192,157619,1,0,0:0:0:0:
192,192,157619,1,0,0:0:0:0:
320,192,157619,1,0,0:0:0:0:
192,192,157744,1,0,0:0:0:0:
448,192,157869,1,0,0:0:0:0:
192,192,157869,1,0,0:0:0:0:
320,192,157994,1,0,0:0:0:0:
192,192,158119,1,0,0:0:0:0:
64,192,158119,1,0,0:0:0:0:
448,192,158119,1,0,0:0:0:0:
192,192,158244,1,0,0:0:0:0:
64,192,158369,1,0,0:0:0:0:
64,192,158494,1,0,0:0:0:0:
320,192,158494,1,0,0:0:0:0:
192,192,158619,1,0,0:0:0:0:
448,192,158619,1,0,0:0:0:0:
320,192,158619,1,0,0:0:0:0:
64,192,158619,1,0,0:0:0:0:
192,192,158744,1,0,0:0:0:0:
448,192,158869,1,0,0:0:0:0:
320,192,158869,1,0,0:0:0:0:
320,192,158994,1,0,0:0:0:0:
192,192,159119,1,0,0:0:0:0:
64,192,159119,1,0,0:0:0:0:
448,192,159119,1,0,0:0:0:0:
192,192,159244,1,0,0:0:0:0:
320,192,159369,1,0,0:0:0:0:
192,192,159494,1,0,0:0:0:0:
64,192,159494,1,0,0:0:0:0:
448,192,159619,1,0,0:0:0:0:
320,192,159619,1,0,0:0:0:0:
192,192,159619,1,0,0:0:0:0:
64,192,159619,1,0,0:0:0:0:
320,192,159744,1,0,0:0:0:0:
448,192,159869,1,0,0:0:0:0:
64,192,159869,1,0,0:0:0:0:
320,192,159994,1,0,0:0:0:0:
192,192,160119,1,0,0:0:0:0:
64,192,160119,1,0,0:0:0:0:
320,192,160119,1,0,0:0:0:0:
192,192,160244,1,0,0:0:0:0:
448,192,160369,1,0,0:0:0:0:
320,192,160494,1,0,0:0:0:0:
64,192,160494,1,0,0:0:0:0:
64,192,160619,1,0,0:0:0:0:
192,192,160619,1,0,0:0:0:0:
320,192,160619,1,0,0:0:0:0:
448,192,160619,1,0,0:0:0:0:
192,192,160744,1,0,0:0:0:0:
448,192,160869,1,0,0:0:0:0:
320,192,160869,1,0,0:0:0:0:
320,192,160994,1,0,0:0:0:0:
448,192,161119,1,0,0:0:0:0:
192,192,161119,1,0,0:0:0:0:
64,192,161119,1,0,0:0:0:0:
192,192,161244,1,0,0:0:0:0:
64,192,161369,1,0,0:0:0:0:
448,192,161494,1,0,0:0:0:0:
192,192,161494,1,0,0:0:0:0:
320,192,161619,1,0,0:0:0:0:
64,192,161619,1,0,0:0:0:0:
448,192,161619,1,0,0:0:0:0:
192,192,161619,1,0,0:0:0:0:
320,192,161744,1,0,0:0:0:0:
192,192,161869,1,0,0:0:0:0:
64,192,161869,1,0,0:0:0:0:
192,192,161994,1,0,0:0:0:0:
448,192,162119,1,0,0:0:0:0:
320,192,162119,1,0,0:0:0:0:
192,192,162119,1,0,0:0:0:0:
320,192,162244,1,0,0:0:0:0:
64,192,162369,1,0,0:0:0:0:
192,192,162494,1,0,0:0:0:0:
448,192,162494,1,0,0:0:0:0:
448,192,162619,1,0,0:0:0:0:
320,192,162619,1,0,0:0:0:0:
192,192,162619,1,0,0:0:0:0:
64,192,162619,1,0,0:0:0:0:
320,192,162744,1,0,0:0:0:0:
192,192,162869,1,0,0:0:0:0:
448,192,162869,1,0,0:0:0:0:
192,192,162994,1,0,0:0:0:0:
320,192,163119,1,0,0:0:0:0:
448,192,163119,1,0,0:0:0:0:
64,192,163119,1,0,0:0:0:0:
192,192,163244,1,0,0:0:0:0:
64,192,163369,1,0,0:0:0:0:
192,192,163494,1,0,0:0:0:0:
320,192,163494,1,0,0:0:0:0:
448,192,163619,1,0,0:0:0:0:
320,192,163619,1,0,0:0:0:0:
192,192,163619,1,0,0:0:0:0:
64,192,163619,1,0,0:0:0:0:
64,192,163744,1,0,0:0:0:0:
192,192,163869,1,0,0:0:0:0:
448,192,163869,1,0,0:0:0:0:
448,192,163994,1,0,0:0:0:0:
448,192,164119,1,0,0:0:0:0:
320,192,164119,1,0,0:0:0:0:
192,192,164119,1,0,0:0:0:0:
320,192,164244,1,0,0:0:0:0:
64,192,164369,1,0,0:0:0:0:
192,192,164494,1,0,0:0:0:0:
448,192,164494,1,0,0:0:0:0:
448,192,164619,1,0,0:0:0:0:
320,192,164619,1,0,0:0:0:0:
192,192,164619,1,0,0:0:0:0:
64,192,164619,1,0,0:0:0:0:
320,192,164744,1,0,0:0:0:0:
64,192,164869,1,0,0:0:0:0:
192,192,164869,1,0,0:0:0:0:
192,192,164994,1,0,0:0:0:0:
448,192,165119,1,0,0:0:0:0:
320,192,165119,1,0,0:0:0:0:
64,192,165119,1,0,0:0:0:0:
320,192,165244,1,0,0:0:0:0:
64,192,165369,1,0,0:0:0:0:
64,192,165494,1,0,0:0:0:0:
192,192,165494,1,0,0:0:0:0:
448,192,165619,1,0,0:0:0:0:
320,192,165619,1,0,0:0:0:0:
192,192,165619,1,0,0:0:0:0:
64,192,165619,1,0,0:0:0:0:
320,192,165744,1,0,0:0:0:0:
192,192,165869,1,0,0:0:0:0:
64,192,165869,1,0,0:0:0:0:
192,192,165994,1,0,0:0:0:0:
448,192,166119,1,0,0:0:0:0:
320,192,166119,1,0,0:0:0:0:
64,192,166119,1,0,0:0:0:0:
320,192,166244,1,0,0:0:0:0:
192,192,166369,1,0,0:0:0:0:
320,192,166494,1,0,0:0:0:0:
448,192,166494,1,0,0:0:0:0:
448,192,166619,1,0,0:0:0:0:
320,192,166619,1,0,0:0:0:0:
64,192,166619,1,0,0:0:0:0:
192,192,166619,1,0,0:0:0:0:
192,192,166744,1,0,0:0:0:0:
320,192,166869,1,0,0:0:0:0:
64,192,166869,1,0,0:0:0:0:
192,192,166994,1,0,0:0:0:0:
320,192,167119,1,0,0:0:0:0:
448,192,167119,1,0,0:0:0:0:
192,192,167119,1,0,0:0:0:0:
320,192,167244,1,0,0:0:0:0:
64,192,167369,1,0,0:0:0:0:
64,192,167494,1,0,0:0:0:0:
320,192,167494,1,0,0:0:0:0:
448,192,167619,1,0,0:0:0:0:
320,192,167619,1,0,0:0:0:0:
192,192,167619,1,0,0:0:0:0:
64,192,167619,1,0,0:0:0:0:
192,192,167744,1,0,0:0:0:0:
64,192,167869,1,0,0:0:0:0:
448,192,167869,1,0,0:0:0:0:
448,192,167994,1,0,0:0:0:0:
320,192,168119,1,0,0:0:0:0:
192,192,168119,1,0,0:0:0:0:
64,192,168119,1,0,0:0:0:0:
64,192,168244,1,0,0:0:0:0:
192,192,168369,1,0,0:0:0:0:
448,192,168494,1,0,0:0:0:0:
64,192,168494,1,0,0:0:0:0:
448,192,168619,1,0,0:0:0:0:
320,192,168619,1,0,0:0:0:0:
192,192,168619,1,0,0:0:0:0:
64,192,168619,1,0,0:0:0:0:
192,192,168744,1,0,0:0:0:0:
320,192,168869,1,0,0:0:0:0:
64,192,168869,1,0,0:0:0:0:
320,192,168994,1,0,0:0:0:0:
448,192,169119,1,0,0:0:0:0:
192,192,169119,1,0,0:0:0:0:
64,192,169119,1,0,0:0:0:0:
448,192,169244,1,0,0:0:0:0:
192,192,169369,1,0,0:0:0:0:
448,192,169494,1,0,0:0:0:0:
320,192,169494,1,0,0:0:0:0:
448,192,169619,1,0,0:0:0:0:
320,192,169619,1,0,0:0:0:0:
64,192,169619,1,0,0:0:0:0:
192,192,169619,1,0,0:0:0:0:
192,192,169744,1,0,0:0:0:0:
64,192,169869,1,0,0:0:0:0:
448,192,169869,1,0,0:0:0:0:
192,192,169994,1,0,0:0:0:0:
64,192,170119,1,0,0:0:0:0:
320,192,170119,1,0,0:0:0:0:
192,192,170119,1,0,0:0:0:0:
320,192,170244,1,0,0:0:0:0:
192,192,170369,1,0,0:0:0:0:
448,192,170494,1,0,0:0:0:0:
192,192,170494,1,0,0:0:0:0:
448,192,170619,1,0,0:0:0:0:
320,192,170619,1,0,0:0:0:0:
192,192,170619,1,0,0:0:0:0:
64,192,170619,1,0,0:0:0:0:
320,192,170744,1,0,0:0:0:0:
192,192,170869,1,0,0:0:0:0:
64,192,170869,1,0,0:0:0:0:
192,192,170994,1,0,0:0:0:0:
448,192,171119,1,0,0:0:0:0:
320,192,171119,1,0,0:0:0:0:
64,192,171119,1,0,0:0:0:0:
320,192,171244,1,0,0:0:0:0:
64,192,171369,1,0,0:0:0:0:
448,192,171369,1,0,0:0:0:0:
192,192,171494,1,0,0:0:0:0:
320,192,171494,1,0,0:0:0:0:
448,192,171619,1,0,0:0:0:0:
320,192,171619,1,0,0:0:0:0:
64,192,171619,1,0,0:0:0:0:
192,192,171619,1,0,0:0:0:0:
448,192,171744,1,0,0:0:0:0:
192,192,171869,1,0,0:0:0:0:
64,192,171869,1,0,0:0:0:0:
320,192,171994,1,0,0:0:0:0:
448,192,172119,1,0,0:0:0:0:
192,192,172119,1,0,0:0:0:0:
64,192,172119,1,0,0:0:0:0:
192,192,172244,1,0,0:0:0:0:
320,192,172369,1,0,0:0:0:0:
64,192,172369,1,0,0:0:0:0:
192,192,172494,1,0,0:0:0:0:
448,192,172494,1,0,0:0:0:0:
448,192,172619,1,0,0:0:0:0:
320,192,172619,1,0,0:0:0:0:
192,192,172619,1,0,0:0:0:0:
64,192,172619,1,0,0:0:0:0:
64,192,172744,1,0,0:0:0:0:
192,192,172869,1,0,0:0:0:0:
448,192,172869,1,0,0:0:0:0:
448,192,172994,1,0,0:0:0:0:
320,192,173119,1,0,0:0:0:0:
192,192,173119,1,0,0:0:0:0:
64,192,173119,1,0,0:0:0:0:
448,192,173119,1,0,0:0:0:0:
192,192,173244,1,0,0:0:0:0:
320,192,173369,1,0,0:0:0:0:
448,192,173494,1,0,0:0:0:0:
192,192,173494,1,0,0:0:0:0:
448,192,173619,1,0,0:0:0:0:
320,192,173619,1,0,0:0:0:0:
64,192,173619,1,0,0:0:0:0:
192,192,173619,1,0,0:0:0:0:
320,192,173744,1,0,0:0:0:0:
192,192,173869,1,0,0:0:0:0:
64,192,173869,1,0,0:0:0:0:
192,192,173994,1,0,0:0:0:0:
64,192,174119,1,0,0:0:0:0:
192,192,174119,1,0,0:0:0:0:
320,192,174119,1,0,0:0:0:0:
448,192,174119,1,0,0:0:0:0:
320,192,174244,1,0,0:0:0:0:
64,192,174369,1,0,0:0:0:0:
64,192,174494,1,0,0:0:0:0:
320,192,174494,1,0,0:0:0:0:
448,192,174619,1,0,0:0:0:0:
320,192,174619,1,0,0:0:0:0:
192,192,174619,1,0,0:0:0:0:
64,192,174619,1,0,0:0:0:0:
192,192,174744,1,0,0:0:0:0:
448,192,174869,1,0,0:0:0:0:
64,192,174869,1,0,0:0:0:0:
320,192,174994,1,0,0:0:0:0:
448,192,175119,1,0,0:0:0:0:
320,192,175119,1,0,0:0:0:0:
192,192,175119,1,0,0:0:0:0:
64,192,175119,1,0,0:0:0:0:
192,192,175244,1,0,0:0:0:0:
448,192,175369,1,0,0:0:0:0:
320,192,175494,1,0,0:0:0:0:
448,192,175494,1,0,0:0:0:0:
448,192,175619,1,0,0:0:0:0:
320,192,175619,1,0,0:0:0:0:
192,192,175619,1,0,0:0:0:0:
64,192,175619,1,0,0:0:0:0:
64,192,175744,1,0,0:0:0:0:
64,192,175869,1,0,0:0:0:0:
320,192,175869,1,0,0:0:0:0:
192,192,175994,1,0,0:0:0:0:
448,192,176119,1,0,0:0:0:0:
320,192,176119,1,0,0:0:0:0:
64,192,176119,1,0,0:0:0:0:
192,192,176119,1,0,0:0:0:0:
320,192,176244,1,0,0:0:0:0:
64,192,176369,1,0,0:0:0:0:
192,192,176494,1,0,0:0:0:0:
320,192,176494,1,0,0:0:0:0:
448,192,176619,1,0,0:0:0:0:
320,192,176619,1,0,0:0:0:0:
192,192,176619,1,0,0:0:0:0:
64,192,176619,1,0,0:0:0:0:
448,192,176744,1,0,0:0:0:0:
320,192,176869,1,0,0:0:0:0:
64,192,176869,1,0,0:0:0:0:
192,192,176994,1,0,0:0:0:0:
64,192,177119,1,0,0:0:0:0:
192,192,177119,1,0,0:0:0:0:
320,192,177119,1,0,0:0:0:0:
448,192,177119,1,0,0:0:0:0:
64,192,177244,1,0,0:0:0:0:
320,192,177369,1,0,0:0:0:0:
448,192,177494,1,0,0:0:0:0:
192,192,177494,1,0,0:0:0:0:
448,192,177619,1,0,0:0:0:0:
320,192,177619,1,0,0:0:0:0:
192,192,177619,1,0,0:0:0:0:
64,192,177619,1,0,0:0:0:0:
320,192,177744,1,0,0:0:0:0:
64,192,177869,1,0,0:0:0:0:
192,192,177869,1,0,0:0:0:0:
192,192,177994,1,0,0:0:0:0:
448,192,178119,1,0,0:0:0:0:
320,192,178119,1,0,0:0:0:0:
192,192,178119,1,0,0:0:0:0:
64,192,178119,1,0,0:0:0:0:
320,192,178244,1,0,0:0:0:0:
192,192,178369,1,0,0:0:0:0:
448,192,178494,1,0,0:0:0:0:
64,192,178494,1,0,0:0:0:0:
448,192,178619,1,0,0:0:0:0:
320,192,178619,1,0,0:0:0:0:
192,192,178619,1,0,0:0:0:0:
64,192,178619,1,0,0:0:0:0:
320,192,178744,1,0,0:0:0:0:
192,192,178869,1,0,0:0:0:0:
64,192,178869,1,0,0:0:0:0:
448,192,178994,1,0,0:0:0:0:
448,192,179119,1,0,0:0:0:0:
320,192,179119,1,0,0:0:0:0:
192,192,179119,1,0,0:0:0:0:
64,192,179119,1,0,0:0:0:0:
192,192,179244,1,0,0:0:0:0:
64,192,179369,1,0,0:0:0:0:
320,192,179494,1,0,0:0:0:0:
64,192,179494,1,0,0:0:0:0:
192,192,179619,1,0,0:0:0:0:
448,192,179619,1,0,0:0:0:0:
320,192,179619,1,0,0:0:0:0:
64,192,179619,1,0,0:0:0:0:
192,192,179744,1,0,0:0:0:0:
64,192,179869,1,0,0:0:0:0:
192,192,179869,1,0,0:0:0:0:
320,192,179994,1,0,0:0:0:0:
192,192,180119,1,0,0:0:0:0:
64,192,180119,1,0,0:0:0:0:
320,192,180119,1,0,0:0:0:0:
448,192,180119,1,0,0:0:0:0:
192,192,180244,1,0,0:0:0:0:
64,192,180369,1,0,0:0:0:0:
192,192,180494,1,0,0:0:0:0:
448,192,180494,1,0,0:0:0:0:
448,192,180619,1,0,0:0:0:0:
320,192,180619,1,0,0:0:0:0:
192,192,180619,1,0,0:0:0:0:
64,192,180619,1,0,0:0:0:0:
320,192,180744,1,0,0:0:0:0:
64,192,180869,1,0,0:0:0:0:
448,192,180869,1,0,0:0:0:0:
192,192,180994,1,0,0:0:0:0:
64,192,181119,1,0,0:0:0:0:
192,192,181119,1,0,0:0:0:0:
320,192,181119,1,0,0:0:0:0:
448,192,181119,1,0,0:0:0:0:
320,192,181244,1,0,0:0:0:0:
64,192,181369,1,0,0:0:0:0:
192,192,181494,1,0,0:0:0:0:
320,192,181494,1,0,0:0:0:0:
448,192,181619,1,0,0:0:0:0:
320,192,181619,1,0,0:0:0:0:
192,192,181619,1,0,0:0:0:0:
64,192,181619,1,0,0:0:0:0:
64,192,181744,1,0,0:0:0:0:
448,192,181869,1,0,0:0:0:0:
192,192,181869,1,0,0:0:0:0:
320,192,181994,1,0,0:0:0:0:
448,192,182119,1,0,0:0:0:0:
320,192,182119,1,0,0:0:0:0:
192,192,182119,1,0,0:0:0:0:
64,192,182119,1,0,0:0:0:0:
448,192,182244,1,0,0:0:0:0:
192,192,182369,1,0,0:0:0:0:
64,192,182494,1,0,0:0:0:0:
320,192,182494,1,0,0:0:0:0:
448,192,182619,1,0,0:0:0:0:
192,192,182619,1,0,0:0:0:0:
64,192,182619,1,0,0:0:0:0:
320,192,182619,1,0,0:0:0:0:
192,192,182744,1,0,0:0:0:0:
448,192,182869,1,0,0:0:0:0:
320,192,182869,1,0,0:0:0:0:
320,192,182994,1,0,0:0:0:0:
192,192,183119,1,0,0:0:0:0:
64,192,183119,1,0,0:0:0:0:
320,192,183119,1,0,0:0:0:0:
448,192,183119,1,0,0:0:0:0:
192,192,183244,1,0,0:0:0:0:
320,192,183369,1,0,0:0:0:0:
64,192,183494,1,0,0:0:0:0:
192,192,183494,1,0,0:0:0:0:
64,192,183619,1,0,0:0:0:0:
192,192,183619,1,0,0:0:0:0:
320,192,183619,1,0,0:0:0:0:
448,192,183619,1,0,0:0:0:0:
320,192,183744,1,0,0:0:0:0:
192,192,183869,1,0,0:0:0:0:
64,192,183869,1,0,0:0:0:0:
192,192,183994,1,0,0:0:0:0:
448,192,184119,1,0,0:0:0:0:
320,192,184119,1,0,0:0:0:0:
192,192,184119,1,0,0:0:0:0:
64,192,184119,1,0,0:0:0:0:
320,192,184244,1,0,0:0:0:0:
448,192,184369,1,0,0:0:0:0:
320,192,184494,1,0,0:0:0:0:
192,192,184494,1,0,0:0:0:0:
64,192,184619,1,0,0:0:0:0:
192,192,184619,1,0,0:0:0:0:
320,192,184619,1,0,0:0:0:0:
448,192,184619,1,0,0:0:0:0:
192,192,184744,1,0,0:0:0:0:
64,192,184869,1,0,0:0:0:0:
320,192,184869,1,0,0:0:0:0:
192,192,184994,1,0,0:0:0:0:
448,192,185119,1,0,0:0:0:0:
320,192,185119,1,0,0:0:0:0:
192,192,185119,1,0,0:0:0:0:
64,192,185119,1,0,0:0:0:0:
320,192,185244,1,0,0:0:0:0:
192,192,185369,1,0,0:0:0:0:
64,192,185494,1,0,0:0:0:0:
448,192,185494,1,0,0:0:0:0:
448,192,185619,1,0,0:0:0:0:
320,192,185619,1,0,0:0:0:0:
192,192,185619,1,0,0:0:0:0:
64,192,185619,1,0,0:0:0:0:
192,192,185744,1,0,0:0:0:0:
320,192,185869,1,0,0:0:0:0:
448,192,185869,1,0,0:0:0:0:
320,192,185994,1,0,0:0:0:0:
448,192,186119,1,0,0:0:0:0:
320,192,186119,1,0,0:0:0:0:
192,192,186119,1,0,0:0:0:0:
64,192,186119,1,0,0:0:0:0:
192,192,186244,1,0,0:0:0:0:
64,192,186369,1,0,0:0:0:0:
192,192,186494,1,0,0:0:0:0:
448,192,186494,1,0,0:0:0:0:
448,192,186619,1,0,0:0:0:0:
320,192,186619,1,0,0:0:0:0:
192,192,186619,1,0,0:0:0:0:
64,192,186619,1,0,0:0:0:0:
320,192,186744,1,0,0:0:0:0:
192,192,186869,1,0,0:0:0:0:
64,192,186869,1,0,0:0:0:0:
192,192,186994,1,0,0:0:0:0:
64,192,187119,1,0,0:0:0:0:
192,192,187119,1,0,0:0:0:0:
320,192,187119,1,0,0:0:0:0:
448,192,187119,1,0,0:0:0:0:
64,192,187244,1,0,0:0:0:0:
192,192,187369,1,0,0:0:0:0:
448,192,187369,1,0,0:0:0:0:
320,192,187494,1,0,0:0:0:0:
64,192,187494,1,0,0:0:0:0:
448,192,187619,1,0,0:0:0:0:
320,192,187619,1,0,0:0:0:0:
192,192,187619,1,0,0:0:0:0:
64,192,187619,1,0,0:0:0:0:
192,192,187744,1,0,0:0:0:0:
448,192,187744,1,0,0:0:0:0:
320,192,187869,1,0,0:0:0:0:
64,192,187869,1,0,0:0:0:0:
192,192,187994,1,0,0:0:0:0:
448,192,188119,1,0,0:0:0:0:
320,192,188119,1,0,0:0:0:0:
192,192,188119,1,0,0:0:0:0:
64,192,188119,1,0,0:0:0:0:
320,192,188244,1,0,0:0:0:0:
192,192,188369,1,0,0:0:0:0:
64,192,188369,1,0,0:0:0:0:
320,192,188494,1,0,0:0:0:0:
448,192,188619,1,0,0:0:0:0:
320,192,188619,1,0,0:0:0:0:
192,192,188619,1,0,0:0:0:0:
64,192,188619,1,0,0:0:0:0:
192,192,188744,1,0,0:0:0:0:
448,192,188869,1,0,0:0:0:0:
320,192,188869,1,0,0:0:0:0:
320,192,188994,1,0,0:0:0:0:
64,192,189119,1,0,0:0:0:0:
192,192,189119,1,0,0:0:0:0:
448,192,189119,1,0,0:0:0:0:
320,192,189119,1,0,0:0:0:0:
192,192,189244,1,0,0:0:0:0:
448,192,189244,1,0,0:0:0:0:
64,192,189369,1,0,0:0:0:0:
192,192,189494,1,0,0:0:0:0:
320,192,189494,1,0,0:0:0:0:
448,192,189619,1,0,0:0:0:0:
320,192,189619,1,0,0:0:0:0:
192,192,189619,1,0,0:0:0:0:
64,192,189619,1,0,0:0:0:0:
448,192,189744,1,0,0:0:0:0:
320,192,189869,1,0,0:0:0:0:
64,192,189869,1,0,0:0:0:0:
64,192,189994,1,0,0:0:0:0:
64,192,190119,1,0,0:0:0:0:
192,192,190119,1,0,0:0:0:0:
320,192,190119,1,0,0:0:0:0:
448,192,190119,1,0,0:0:0:0:
320,192,190244,1,0,0:0:0:0:
192,192,190369,1,0,0:0:0:0:
64,192,190369,1,0,0:0:0:0:
448,192,190494,1,0,0:0:0:0:
320,192,190494,1,0,0:0:0:0:
448,192,190619,1,0,0:0:0:0:
320,192,190619,1,0,0:0:0:0:
192,192,190619,1,0,0:0:0:0:
64,192,190619,1,0,0:0:0:0:
192,192,190744,1,0,0:0:0:0:
448,192,190869,1,0,0:0:0:0:
320,192,190869,1,0,0:0:0:0:
320,192,190994,1,0,0:0:0:0:
448,192,191119,1,0,0:0:0:0:
192,192,191119,1,0,0:0:0:0:
64,192,191119,1,0,0:0:0:0:
320,192,191119,1,0,0:0:0:0:
192,192,191244,1,0,0:0:0:0:
64,192,191244,1,0,0:0:0:0:
320,192,191369,1,0,0:0:0:0:
448,192,191494,1,0,0:0:0:0:
64,192,191494,1,0,0:0:0:0:
64,192,191619,1,0,0:0:0:0:
192,192,191619,1,0,0:0:0:0:
320,192,191619,1,0,0:0:0:0:
448,192,191619,1,0,0:0:0:0:
320,192,191744,1,0,0:0:0:0:
192,192,191869,1,0,0:0:0:0:
64,192,191869,1,0,0:0:0:0:
320,192,191994,1,0,0:0:0:0:
448,192,192119,1,0,0:0:0:0:
320,192,192119,1,0,0:0:0:0:
192,192,192119,1,0,0:0:0:0:
64,192,192119,1,0,0:0:0:0:
192,192,192244,1,0,0:0:0:0:
64,192,192369,1,0,0:0:0:0:
448,192,192369,1,0,0:0:0:0:
320,192,192494,1,0,0:0:0:0:
64,192,192494,1,0,0:0:0:0:
192,192,192619,1,0,0:0:0:0:
64,192,192619,1,0,0:0:0:0:
320,192,192619,1,0,0:0:0:0:
448,192,192619,1,0,0:0:0:0:
192,192,192744,1,0,0:0:0:0:
320,192,192869,1,0,0:0:0:0:
448,192,192869,1,0,0:0:0:0:
448,192,192994,1,0,0:0:0:0:
448,192,193119,1,0,0:0:0:0:
320,192,193119,1,0,0:0:0:0:
192,192,193119,1,0,0:0:0:0:
64,192,193119,1,0,0:0:0:0:
192,192,193244,1,0,0:0:0:0:
320,192,193244,1,0,0:0:0:0:
64,192,193369,1,0,0:0:0:0:
192,192,193494,1,0,0:0:0:0:
448,192,193494,1,0,0:0:0:0:
448,192,193619,1,0,0:0:0:0:
320,192,193619,1,0,0:0:0:0:
192,192,193619,1,0,0:0:0:0:
64,192,193619,1,0,0:0:0:0:
320,192,193744,1,0,0:0:0:0:
192,192,193869,1,0,0:0:0:0:
448,192,193869,1,0,0:0:0:0:
64,192,193994,1,0,0:0:0:0:
448,192,194119,1,0,0:0:0:0:
320,192,194119,1,0,0:0:0:0:
192,192,194119,1,0,0:0:0:0:
64,192,194119,1,0,0:0:0:0:
192,192,194244,1,0,0:0:0:0:
448,192,194369,1,0,0:0:0:0:
320,192,194369,1,0,0:0:0:0:
192,192,194494,1,0,0:0:0:0:
320,192,194494,1,0,0:0:0:0:
448,192,194619,1,0,0:0:0:0:
192,192,194619,1,0,0:0:0:0:
64,192,194619,1,0,0:0:0:0:
320,192,194619,1,0,0:0:0:0:
64,192,194744,1,0,0:0:0:0:
192,192,194869,1,0,0:0:0:0:
448,192,194869,1,0,0:0:0:0:
448,192,194994,1,0,0:0:0:0:
448,192,195119,1,0,0:0:0:0:
320,192,195119,1,0,0:0:0:0:
192,192,195119,1,0,0:0:0:0:
64,192,195119,1,0,0:0:0:0:
192,192,195244,1,0,0:0:0:0:
64,192,195244,1,0,0:0:0:0:
320,192,195369,1,0,0:0:0:0:
448,192,195494,1,0,0:0:0:0:
192,192,195494,1,0,0:0:0:0:
448,192,195619,1,0,0:0:0:0:
320,192,195619,1,0,0:0:0:0:
192,192,195619,1,0,0:0:0:0:
64,192,195619,1,0,0:0:0:0:
320,192,195744,1,0,0:0:0:0:
64,192,195869,1,0,0:0:0:0:
192,192,195869,1,0,0:0:0:0:
192,192,195994,1,0,0:0:0:0:
64,192,196119,1,0,0:0:0:0:
192,192,196119,1,0,0:0:0:0:
320,192,196119,1,0,0:0:0:0:
448,192,196119,1,0,0:0:0:0:
320,192,196244,1,0,0:0:0:0:
192,192,196369,1,0,0:0:0:0:
64,192,196369,1,0,0:0:0:0:
192,192,196494,1,0,0:0:0:0:
448,192,196494,1,0,0:0:0:0:
448,192,196619,1,0,0:0:0:0:
320,192,196619,1,0,0:0:0:0:
192,192,196619,1,0,0:0:0:0:
64,192,196619,1,0,0:0:0:0:
320,192,196744,1,0,0:0:0:0:
64,192,196869,1,0,0:0:0:0:
192,192,196869,1,0,0:0:0:0:
448,192,196994,1,0,0:0:0:0:
64,192,197119,1,0,0:0:0:0:
192,192,197119,1,0,0:0:0:0:
320,192,197119,1,0,0:0:0:0:
448,192,197119,1,0,0:0:0:0:
64,192,197244,1,0,0:0:0:0:
320,192,197244,1,0,0:0:0:0:
192,192,197369,1,0,0:0:0:0:
448,192,197494,1,0,0:0:0:0:
192,192,197494,1,0,0:0:0:0:
448,192,197619,1,0,0:0:0:0:
320,192,197619,1,0,0:0:0:0:
192,192,197619,1,0,0:0:0:0:
64,192,197619,1,0,0:0:0:0:
320,192,197744,1,0,0:0:0:0:
64,192,197869,1,0,0:0:0:0:
448,192,197869,1,0,0:0:0:0:
192,192,197994,1,0,0:0:0:0:
64,192,198119,1,0,0:0:0:0:
192,192,198119,1,0,0:0:0:0:
448,192,198119,1,0,0:0:0:0:
320,192,198119,1,0,0:0:0:0:
320,192,198244,1,0,0:0:0:0:
192,192,198369,1,0,0:0:0:0:
448,192,198369,1,0,0:0:0:0:
448,192,198494,1,0,0:0:0:0:
320,192,198494,1,0,0:0:0:0:
448,192,198619,1,0,0:0:0:0:
320,192,198619,1,0,0:0:0:0:
192,192,198619,1,0,0:0:0:0:
64,192,198619,1,0,0:0:0:0:
192,192,198744,1,0,0:0:0:0:
64,192,198869,1,0,0:0:0:0:
448,192,198869,1,0,0:0:0:0:
320,192,198994,1,0,0:0:0:0:
448,192,199119,1,0,0:0:0:0:
192,192,199119,1,0,0:0:0:0:
320,192,199119,1,0,0:0:0:0:
64,192,199119,1,0,0:0:0:0:
64,192,199244,1,0,0:0:0:0:
192,192,199244,1,0,0:0:0:0:
320,192,199369,1,0,0:0:0:0:
64,192,199494,1,0,0:0:0:0:
192,192,199494,1,0,0:0:0:0:
64,192,199619,1,0,0:0:0:0:
192,192,199619,1,0,0:0:0:0:
320,192,199619,1,0,0:0:0:0:
448,192,199619,1,0,0:0:0:0:
320,192,199744,1,0,0:0:0:0:
448,192,199869,1,0,0:0:0:0:
64,192,199869,1,0,0:0:0:0:
192,192,199994,1,0,0:0:0:0:
320,192,200119,1,0,0:0:0:0:
448,192,200119,1,0,0:0:0:0:
64,192,200119,1,0,0:0:0:0:
192,192,200119,1,0,0:0:0:0:
320,192,200244,1,0,0:0:0:0:
448,192,200369,1,0,0:0:0:0:
192,192,200369,1,0,0:0:0:0:
320,192,200494,1,0,0:0:0:0:
64,192,200494,1,0,0:0:0:0:
64,192,200619,1,0,0:0:0:0:
192,192,200619,1,0,0:0:0:0:
320,192,200619,1,0,0:0:0:0:
448,192,200619,1,0,0:0:0:0:
192,192,200744,1,0,0:0:0:0:
448,192,200869,1,0,0:0:0:0:
320,192,200869,1,0,0:0:0:0:
192,192,200994,1,0,0:0:0:0:
64,192,201119,1,0,0:0:0:0:
192,192,201119,1,0,0:0:0:0:
320,192,201119,1,0,0:0:0:0:
448,192,201119,1,0,0:0:0:0:
320,192,201244,1,0,0:0:0:0:
448,192,201244,1,0,0:0:0:0:
192,192,201369,1,0,0:0:0:0:
320,192,201494,1,0,0:0:0:0:
448,192,201494,1,0,0:0:0:0:
448,192,201619,1,0,0:0:0:0:
320,192,201619,1,0,0:0:0:0:
192,192,201619,1,0,0:0:0:0:
64,192,201619,1,0,0:0:0:0:
192,192,201744,1,0,0:0:0:0:
64,192,201869,1,0,0:0:0:0:
448,192,201869,1,0,0:0:0:0:
320,192,201994,1,0,0:0:0:0:
192,192,202119,1,0,0:0:0:0:
64,192,202119,1,0,0:0:0:0:
448,192,202119,1,0,0:0:0:0:
320,192,202119,1,0,0:0:0:0:
192,192,202244,1,0,0:0:0:0:
64,192,202369,1,0,0:0:0:0:
320,192,202369,1,0,0:0:0:0:
192,192,202494,1,0,0:0:0:0:
320,192,202494,1,0,0:0:0:0:
448,192,202619,1,0,0:0:0:0:
320,192,202619,1,0,0:0:0:0:
192,192,202619,1,0,0:0:0:0:
64,192,202619,1,0,0:0:0:0:
64,192,202744,1,0,0:0:0:0:
192,192,202869,1,0,0:0:0:0:
448,192,202869,1,0,0:0:0:0:
320,192,202994,1,0,0:0:0:0:
448,192,203119,1,0,0:0:0:0:
320,192,203119,1,0,0:0:0:0:
192,192,203119,1,0,0:0:0:0:
64,192,203119,1,0,0:0:0:0:
192,192,203244,1,0,0:0:0:0:
64,192,203244,1,0,0:0:0:0:
192,192,203369,1,0,0:0:0:0:
448,192,203494,1,0,0:0:0:0:
320,192,203494,1,0,0:0:0:0:
448,192,203619,1,0,0:0:0:0:
320,192,203619,1,0,0:0:0:0:
192,192,203619,1,0,0:0:0:0:
64,192,203619,1,0,0:0:0:0:
192,192,203869,1,0,0:0:0:0:
64,192,203869,1,0,0:0:0:0:
192,192,203994,1,0,0:0:0:0:
320,192,204119,1,0,0:0:0:0:
448,192,204119,1,0,0:0:0:0:
192,192,204119,1,0,0:0:0:0:
64,192,204119,1,0,0:0:0:0:
320,192,204306,1,0,0:0:0:0:
448,192,204306,1,0,0:0:0:0:
64,192,204369,1,0,0:0:0:0:
192,192,204369,1,0,0:0:0:0:
320,192,204431,1,0,0:0:0:0:
448,192,204431,1,0,0:0:0:0:
192,192,204494,1,0,0:0:0:0:
64,192,204494,1,0,0:0:0:0:
448,192,204619,1,0,0:0:0:0:
320,192,204619,1,0,0:0:0:0:
192,192,204619,1,0,0:0:0:0:
64,192,204619,1,0,0:0:0:0:
320,192,204744,1,0,0:0:0:0:
192,192,204869,1,0,0:0:0:0:
64,192,204869,1,0,0:0:0:0:
192,192,204994,1,0,0:0:0:0:
448,192,205119,1,0,0:0:0:0:
320,192,205119,1,0,0:0:0:0:
64,192,205119,1,0,0:0:0:0:
320,192,205244,1,0,0:0:0:0:
320,192,205369,1,0,0:0:0:0:
64,192,205369,1,0,0:0:0:0:
192,192,205494,1,0,0:0:0:0:
448,192,205494,1,0,0:0:0:0:
64,192,205619,1,0,0:0:0:0:
320,192,205619,1,0,0:0:0:0:
192,192,205744,1,0,0:0:0:0:
192,192,205869,1,0,0:0:0:0:
448,192,205869,1,0,0:0:0:0:
320,192,205994,1,0,0:0:0:0:
448,192,205994,1,0,0:0:0:0:
192,192,206119,1,0,0:0:0:0:
64,192,206119,1,0,0:0:0:0:
192,192,206244,1,0,0:0:0:0:
448,192,206369,1,0,0:0:0:0:
64,192,206369,1,0,0:0:0:0:
320,192,206494,1,0,0:0:0:0:
448,192,206494,1,0,0:0:0:0:
192,192,206619,1,0,0:0:0:0:
64,192,206619,1,0,0:0:0:0:
192,192,206744,1,0,0:0:0:0:
64,192,206869,1,0,0:0:0:0:
320,192,206869,1,0,0:0:0:0:
192,192,206994,1,0,0:0:0:0:
448,192,206994,1,0,0:0:0:0:
64,192,207119,1,0,0:0:0:0:
448,192,207119,1,0,0:0:0:0:
320,192,207244,1,0,0:0:0:0:
320,192,207369,1,0,0:0:0:0:
64,192,207369,1,0,0:0:0:0:
192,192,207494,1,0,0:0:0:0:
64,192,207494,1,0,0:0:0:0:
448,192,207619,1,0,0:0:0:0:
192,192,207619,1,0,0:0:0:0:
320,192,207744,1,0,0:0:0:0:
192,192,207869,1,0,0:0:0:0:
448,192,207869,1,0,0:0:0:0:
64,192,207994,1,0,0:0:0:0:
320,192,207994,1,0,0:0:0:0:
192,192,208119,1,0,0:0:0:0:
64,192,208119,1,0,0:0:0:0:
320,192,208244,1,0,0:0:0:0:
192,192,208369,1,0,0:0:0:0:
448,192,208369,1,0,0:0:0:0:
320,192,208494,1,0,0:0:0:0:
64,192,208494,1,0,0:0:0:0:
192,192,208619,1,0,0:0:0:0:
448,192,208619,1,0,0:0:0:0:
448,192,208744,1,0,0:0:0:0:
64,192,208869,1,0,0:0:0:0:
192,192,208869,1,0,0:0:0:0:
320,192,208994,1,0,0:0:0:0:
448,192,208994,1,0,0:0:0:0:
192,192,209119,1,0,0:0:0:0:
64,192,209119,1,0,0:0:0:0:
320,192,209244,1,0,0:0:0:0:
448,192,209369,1,0,0:0:0:0:
64,192,209369,1,0,0:0:0:0:
192,192,209494,1,0,0:0:0:0:
320,192,209494,1,0,0:0:0:0:
448,192,209619,1,0,0:0:0:0:
64,192,209619,1,0,0:0:0:0:
320,192,209744,1,0,0:0:0:0:
64,192,209869,1,0,0:0:0:0:
192,192,209869,1,0,0:0:0:0:
320,192,209994,1,0,0:0:0:0:
448,192,209994,1,0,0:0:0:0:
64,192,210119,1,0,0:0:0:0:
192,192,210119,1,0,0:0:0:0:
320,192,210244,1,0,0:0:0:0:
448,192,210369,1,0,0:0:0:0:
192,192,210369,1,0,0:0:0:0:
192,192,210494,1,0,0:0:0:0:
64,192,210494,1,0,0:0:0:0:
64,192,210619,1,0,0:0:0:0:
448,192,210619,1,0,0:0:0:0:
320,192,210744,1,0,0:0:0:0:
192,192,210869,1,0,0:0:0:0:
64,192,210869,1,0,0:0:0:0:
192,192,210994,1,0,0:0:0:0:
448,192,210994,1,0,0:0:0:0:
448,192,211119,1,0,0:0:0:0:
320,192,211119,1,0,0:0:0:0:
192,192,211244,1,0,0:0:0:0:
64,192,211369,1,0,0:0:0:0:
320,192,211369,1,0,0:0:0:0:
448,192,211494,1,0,0:0:0:0:
192,192,211494,1,0,0:0:0:0:
320,192,211619,1,0,0:0:0:0:
192,192,211619,1,0,0:0:0:0:
64,192,211744,1,0,0:0:0:0:
64,192,211869,1,0,0:0:0:0:
448,192,211869,1,0,0:0:0:0:
320,192,211994,1,0,0:0:0:0:
192,192,211994,1,0,0:0:0:0:
448,192,212119,1,0,0:0:0:0:
320,192,212119,1,0,0:0:0:0:
192,192,212244,1,0,0:0:0:0:
64,192,212369,1,0,0:0:0:0:
320,192,212369,1,0,0:0:0:0:
448,192,212494,1,0,0:0:0:0:
320,192,212494,1,0,0:0:0:0:
192,192,212619,1,0,0:0:0:0:
64,192,212619,1,0,0:0:0:0:
192,192,212744,1,0,0:0:0:0:
448,192,212869,1,0,0:0:0:0:
64,192,212869,1,0,0:0:0:0:
320,192,212994,1,0,0:0:0:0:
192,192,212994,1,0,0:0:0:0:
64,192,213119,1,0,0:0:0:0:
448,192,213119,1,0,0:0:0:0:
192,192,213119,1,0,0:0:0:0:
320,192,213244,1,0,0:0:0:0:
192,192,213369,1,0,0:0:0:0:
64,192,213369,1,0,0:0:0:0:
320,192,213494,1,0,0:0:0:0:
448,192,213494,1,0,0:0:0:0:
64,192,213619,1,0,0:0:0:0:
192,192,213619,1,0,0:0:0:0:
192,192,213744,1,0,0:0:0:0:
448,192,213869,1,0,0:0:0:0:
64,192,213869,1,0,0:0:0:0:
192,192,213994,1,0,0:0:0:0:
320,192,213994,1,0,0:0:0:0:
448,192,214119,1,0,0:0:0:0:
64,192,214119,1,0,0:0:0:0:
192,192,214244,1,0,0:0:0:0:
320,192,214369,1,0,0:0:0:0:
448,192,214369,1,0,0:0:0:0:
192,192,214494,1,0,0:0:0:0:
64,192,214494,1,0,0:0:0:0:
448,192,214619,1,0,0:0:0:0:
320,192,214619,1,0,0:0:0:0:
192,192,214744,1,0,0:0:0:0:
64,192,214869,1,0,0:0:0:0:
320,192,214869,1,0,0:0:0:0:
192,192,214994,1,0,0:0:0:0:
448,192,214994,1,0,0:0:0:0:
64,192,215119,1,0,0:0:0:0:
320,192,215119,1,0,0:0:0:0:
448,192,215119,1,0,0:0:0:0:
192,192,215244,1,0,0:0:0:0:
320,192,215369,1,0,0:0:0:0:
448,192,215369,1,0,0:0:0:0:
192,192,215494,1,0,0:0:0:0:
64,192,215494,1,0,0:0:0:0:
448,192,215619,1,0,0:0:0:0:
64,192,215619,1,0,0:0:0:0:
192,192,215744,1,0,0:0:0:0:
320,192,215869,1,0,0:0:0:0:
448,192,215869,1,0,0:0:0:0:
320,192,215994,1,0,0:0:0:0:
64,192,215994,1,0,0:0:0:0:
448,192,216119,1,0,0:0:0:0:
192,192,216119,1,0,0:0:0:0:
192,192,216244,1,0,0:0:0:0:
64,192,216369,1,0,0:0:0:0:
448,192,216369,1,0,0:0:0:0:
320,192,216494,1,0,0:0:0:0:
192,192,216494,1,0,0:0:0:0:
64,192,216619,1,0,0:0:0:0:
192,192,216619,1,0,0:0:0:0:
320,192,216744,1,0,0:0:0:0:
64,192,216869,1,0,0:0:0:0:
192,192,216869,1,0,0:0:0:0:
320,192,216994,1,0,0:0:0:0:
448,192,216994,1,0,0:0:0:0:
192,192,217119,1,0,0:0:0:0:
64,192,217119,1,0,0:0:0:0:
448,192,217119,1,0,0:0:0:0:
320,192,217244,1,0,0:0:0:0:
192,192,217369,1,0,0:0:0:0:
448,192,217369,1,0,0:0:0:0:
64,192,217494,1,0,0:0:0:0:
320,192,217494,1,0,0:0:0:0:
448,192,217619,1,0,0:0:0:0:
192,192,217619,1,0,0:0:0:0:
320,192,217744,1,0,0:0:0:0:
64,192,217869,1,0,0:0:0:0:
192,192,217869,1,0,0:0:0:0:
192,192,217994,1,0,0:0:0:0:
320,192,217994,1,0,0:0:0:0:
448,192,218119,1,0,0:0:0:0:
64,192,218119,1,0,0:0:0:0:
192,192,218244,1,0,0:0:0:0:
448,192,218369,1,0,0:0:0:0:
64,192,218369,1,0,0:0:0:0:
320,192,218494,1,0,0:0:0:0:
64,192,218494,1,0,0:0:0:0:
192,192,218619,1,0,0:0:0:0:
448,192,218619,1,0,0:0:0:0:
192,192,218744,1,0,0:0:0:0:
64,192,218869,1,0,0:0:0:0:
320,192,218869,1,0,0:0:0:0:
448,192,218994,1,0,0:0:0:0:
192,192,218994,1,0,0:0:0:0:
448,192,219119,1,0,0:0:0:0:
320,192,219119,1,0,0:0:0:0:
64,192,219119,1,0,0:0:0:0:
192,192,219244,1,0,0:0:0:0:
64,192,219244,1,0,0:0:0:0:
320,192,219369,1,0,0:0:0:0:
320,192,219494,1,0,0:0:0:0:
64,192,219494,1,0,0:0:0:0:
192,192,219494,1,0,0:0:0:0:
192,192,219619,1,0,0:0:0:0:
320,192,219744,1,0,0:0:0:0:
64,192,219744,1,0,0:0:0:0:
448,192,219744,1,0,0:0:0:0:
320,192,219869,1,0,0:0:0:0:
192,192,219869,1,0,0:0:0:0:
192,192,219994,1,0,0:0:0:0:
64,192,220119,1,0,0:0:0:0:
448,192,220119,1,0,0:0:0:0:
320,192,220244,1,0,0:0:0:0:
448,192,220369,1,0,0:0:0:0:
192,192,220369,1,0,0:0:0:0:
64,192,220369,1,0,0:0:0:0:
320,192,220494,1,0,0:0:0:0:
192,192,220619,1,0,0:0:0:0:
64,192,220619,1,0,0:0:0:0:
320,192,220619,1,0,0:0:0:0:
192,192,220744,1,0,0:0:0:0:
448,192,220869,1,0,0:0:0:0:
64,192,220869,1,0,0:0:0:0:
192,192,220994,1,0,0:0:0:0:
320,192,220994,1,0,0:0:0:0:
448,192,220994,1,0,0:0:0:0:
64,192,221119,1,0,0:0:0:0:
192,192,221119,1,0,0:0:0:0:
320,192,221119,1,0,0:0:0:0:
448,192,221119,1,0,0:0:0:0:
