osu file format v14

[General]
AudioFilename: audio 1.400x.mp3
AudioLeadIn: 0
PreviewTime: 0
Countdown: 0
SampleSet: None
StackLeniency: 0.7
Mode: 3
LetterboxInBreaks: 0
SpecialStyle: 0
WidescreenStoryboard: 1

[Editor]
DistanceSpacing: 0.6
BeatDivisor: 4
GridSize: 4
TimelineZoom: 2.1

[Metadata]
Title:Nina Bonita
TitleUnicode:NiƱa Bonita
Artist:Chino y Nacho
ArtistUnicode:Chino y Nacho
Creator:Mieruosu
Version:Jacks 1.4x (168bpm)
Source:
Tags:osutrainer
BeatmapID:4537584
BeatmapSetID:2153513

[Difficulty]
HPDrainRate:7
CircleSize:4
OverallDifficulty:9.5
ApproachRate:6.3
SliderMultiplier:1.4
SliderTickRate:1

[Events]
//Background and Video events
0,0,"ea7f9d3f86856e47333e9cfc12963ab5.jpg",0,0
//Break Periods
//Storyboard Layer 0 (Background)
//Storyboard Layer 1 (Fail)
//Storyboard Layer 2 (Pass)
//Storyboard Layer 3 (Foreground)
//Storyboard Layer 4 (Overlay)
//Storyboard Sound Samples

[TimingPoints]
9370,357.142857142857,4,1,0,100,1,0

[HitObjects]
64,192,8477,5,0,0:0:0:0:
192,192,8477,1,0,0:0:0:0:
320,192,8567,1,0,0:0:0:0:
448,192,8567,1,0,0:0:0:0:
192,192,8656,1,0,0:0:0:0:
64,192,8656,1,0,0:0:0:0:
192,192,8745,1,0,0:0:0:0:
320,192,8835,1,0,0:0:0:0:
448,192,8835,1,0,0:0:0:0:
320,192,8924,1,0,0:0:0:0:
64,192,8924,1,0,0:0:0:0:
192,192,9013,1,0,0:0:0:0:
64,192,9013,1,0,0:0:0:0:
448,192,9013,1,0,0:0:0:0:
192,192,9102,1,0,0:0:0:0:
320,192,9192,1,0,0:0:0:0:
448,192,9192,1,0,0:0:0:0:
64,192,9192,1,0,0:0:0:0:
192,192,9281,1,0,0:0:0:0:
192,192,9370,1,0,0:0:0:0:
64,192,9370,1,0,0:0:0:0:
320,192,9370,1,0,0:0:0:0:
448,192,9370,1,0,0:0:0:0:
448,192,9460,1,0,0:0:0:0:
448,192,9549,1,0,0:0:0:0:
320,192,9638,1,0,0:0:0:0:
192,192,9638,1,0,0:0:0:0:
448,192,9727,1,0,0:0:0:0:
64,192,9727,1,0,0:0:0:0:
192,192,9727,1,0,0:0:0:0:
320,192,9727,1,0,0:0:0:0:
192,192,9817,1,0,0:0:0:0:
64,192,9906,1,0,0:0:0:0:
320,192,9906,1,0,0:0:0:0:
192,192,9995,1,0,0:0:0:0:
448,192,10085,1,0,0:0:0:0:
320,192,10085,1,0,0:0:0:0:
64,192,10085,1,0,0:0:0:0:
320,192,10174,1,0,0:0:0:0:
320,192,10263,1,0,0:0:0:0:
64,192,10352,1,0,0:0:0:0:
192,192,10352,1,0,0:0:0:0:
64,192,10442,1,0,0:0:0:0:
320,192,10442,1,0,0:0:0:0:
448,192,10442,1,0,0:0:0:0:
192,192,10442,1,0,0:0:0:0:
320,192,10531,1,0,0:0:0:0:
64,192,10620,1,0,0:0:0:0:
448,192,10620,1,0,0:0:0:0:
192,192,10710,1,0,0:0:0:0:
64,192,10799,1,0,0:0:0:0:
320,192,10799,1,0,0:0:0:0:
448,192,10799,1,0,0:0:0:0:
64,192,10888,1,0,0:0:0:0:
64,192,10977,1,0,0:0:0:0:
320,192,11067,1,0,0:0:0:0:
448,192,11067,1,0,0:0:0:0:
320,192,11156,1,0,0:0:0:0:
192,192,11156,1,0,0:0:0:0:
64,192,11156,1,0,0:0:0:0:
448,192,11156,1,0,0:0:0:0:
192,192,11245,1,0,0:0:0:0:
64,192,11335,1,0,0:0:0:0:
320,192,11335,1,0,0:0:0:0:
448,192,11424,1,0,0:0:0:0:
320,192,11513,1,0,0:0:0:0:
448,192,11513,1,0,0:0:0:0:
64,192,11513,1,0,0:0:0:0:
320,192,11602,1,0,0:0:0:0:
320,192,11692,1,0,0:0:0:0:
64,192,11781,1,0,0:0:0:0:
448,192,11781,1,0,0:0:0:0:
448,192,11870,1,0,0:0:0:0:
192,192,11870,1,0,0:0:0:0:
64,192,11870,1,0,0:0:0:0:
320,192,11870,1,0,0:0:0:0:
192,192,11960,1,0,0:0:0:0:
320,192,12049,1,0,0:0:0:0:
448,192,12049,1,0,0:0:0:0:
64,192,12138,1,0,0:0:0:0:
64,192,12227,1,0,0:0:0:0:
320,192,12227,1,0,0:0:0:0:
448,192,12227,1,0,0:0:0:0:
320,192,12317,1,0,0:0:0:0:
192,192,12406,1,0,0:0:0:0:
64,192,12495,1,0,0:0:0:0:
320,192,12495,1,0,0:0:0:0:
448,192,12585,1,0,0:0:0:0:
320,192,12585,1,0,0:0:0:0:
192,192,12585,1,0,0:0:0:0:
64,192,12585,1,0,0:0:0:0:
192,192,12674,1,0,0:0:0:0:
448,192,12763,1,0,0:0:0:0:
64,192,12763,1,0,0:0:0:0:
320,192,12852,1,0,0:0:0:0:
448,192,12942,1,0,0:0:0:0:
192,192,12942,1,0,0:0:0:0:
64,192,12942,1,0,0:0:0:0:
192,192,13031,1,0,0:0:0:0:
192,192,13120,1,0,0:0:0:0:
64,192,13210,1,0,0:0:0:0:
320,192,13210,1,0,0:0:0:0:
64,192,13299,1,0,0:0:0:0:
192,192,13299,1,0,0:0:0:0:
320,192,13299,1,0,0:0:0:0:
448,192,13299,1,0,0:0:0:0:
192,192,13388,1,0,0:0:0:0:
448,192,13477,1,0,0:0:0:0:
320,192,13477,1,0,0:0:0:0:
192,192,13567,1,0,0:0:0:0:
64,192,13656,1,0,0:0:0:0:
192,192,13656,1,0,0:0:0:0:
448,192,13656,1,0,0:0:0:0:
64,192,13745,1,0,0:0:0:0:
64,192,13835,1,0,0:0:0:0:
448,192,13924,1,0,0:0:0:0:
192,192,13924,1,0,0:0:0:0:
448,192,14013,1,0,0:0:0:0:
320,192,14013,1,0,0:0:0:0:
192,192,14013,1,0,0:0:0:0:
64,192,14013,1,0,0:0:0:0:
320,192,14102,1,0,0:0:0:0:
64,192,14192,1,0,0:0:0:0:
448,192,14192,1,0,0:0:0:0:
192,192,14281,1,0,0:0:0:0:
320,192,14370,1,0,0:0:0:0:
192,192,14370,1,0,0:0:0:0:
64,192,14370,1,0,0:0:0:0:
320,192,14460,1,0,0:0:0:0:
320,192,14549,1,0,0:0:0:0:
192,192,14638,1,0,0:0:0:0:
64,192,14638,1,0,0:0:0:0:
64,192,14727,1,0,0:0:0:0:
192,192,14727,1,0,0:0:0:0:
320,192,14727,1,0,0:0:0:0:
448,192,14727,1,0,0:0:0:0:
320,192,14817,1,0,0:0:0:0:
64,192,14906,1,0,0:0:0:0:
192,192,14906,1,0,0:0:0:0:
320,192,14995,1,0,0:0:0:0:
448,192,15085,1,0,0:0:0:0:
320,192,15085,1,0,0:0:0:0:
192,192,15085,1,0,0:0:0:0:
192,192,15174,1,0,0:0:0:0:
192,192,15263,1,0,0:0:0:0:
64,192,15352,1,0,0:0:0:0:
320,192,15352,1,0,0:0:0:0:
448,192,15442,1,0,0:0:0:0:
320,192,15442,1,0,0:0:0:0:
192,192,15442,1,0,0:0:0:0:
64,192,15442,1,0,0:0:0:0:
192,192,15531,1,0,0:0:0:0:
448,192,15620,1,0,0:0:0:0:
320,192,15620,1,0,0:0:0:0:
64,192,15710,1,0,0:0:0:0:
320,192,15799,1,0,0:0:0:0:
448,192,15799,1,0,0:0:0:0:
64,192,15799,1,0,0:0:0:0:
320,192,15888,1,0,0:0:0:0:
320,192,15977,1,0,0:0:0:0:
192,192,16067,1,0,0:0:0:0:
448,192,16067,1,0,0:0:0:0:
448,192,16156,1,0,0:0:0:0:
320,192,16156,1,0,0:0:0:0:
192,192,16156,1,0,0:0:0:0:
64,192,16156,1,0,0:0:0:0:
64,192,16245,1,0,0:0:0:0:
64,192,16335,1,0,0:0:0:0:
320,192,16335,1,0,0:0:0:0:
192,192,16424,1,0,0:0:0:0:
448,192,16513,1,0,0:0:0:0:
64,192,16513,1,0,0:0:0:0:
320,192,16513,1,0,0:0:0:0:
320,192,16602,1,0,0:0:0:0:
320,192,16692,1,0,0:0:0:0:
192,192,16781,1,0,0:0:0:0:
64,192,16781,1,0,0:0:0:0:
64,192,16870,1,0,0:0:0:0:
320,192,16870,1,0,0:0:0:0:
448,192,16870,1,0,0:0:0:0:
192,192,16870,1,0,0:0:0:0:
448,192,16960,1,0,0:0:0:0:
448,192,17049,1,0,0:0:0:0:
192,192,17049,1,0,0:0:0:0:
320,192,17138,1,0,0:0:0:0:
192,192,17227,1,0,0:0:0:0:
64,192,17227,1,0,0:0:0:0:
320,192,17227,1,0,0:0:0:0:
192,192,17317,1,0,0:0:0:0:
192,192,17406,1,0,0:0:0:0:
320,192,17495,1,0,0:0:0:0:
448,192,17495,1,0,0:0:0:0:
448,192,17585,1,0,0:0:0:0:
320,192,17585,1,0,0:0:0:0:
192,192,17585,1,0,0:0:0:0:
64,192,17585,1,0,0:0:0:0:
64,192,17674,1,0,0:0:0:0:
64,192,17763,1,0,0:0:0:0:
320,192,17763,1,0,0:0:0:0:
448,192,17852,1,0,0:0:0:0:
448,192,17942,1,0,0:0:0:0:
320,192,17942,1,0,0:0:0:0:
64,192,17942,1,0,0:0:0:0:
192,192,18031,1,0,0:0:0:0:
192,192,18120,1,0,0:0:0:0:
320,192,18210,1,0,0:0:0:0:
64,192,18210,1,0,0:0:0:0:
64,192,18299,1,0,0:0:0:0:
192,192,18299,1,0,0:0:0:0:
320,192,18299,1,0,0:0:0:0:
448,192,18299,1,0,0:0:0:0:
320,192,18388,1,0,0:0:0:0:
448,192,18477,1,0,0:0:0:0:
192,192,18477,1,0,0:0:0:0:
320,192,18567,1,0,0:0:0:0:
448,192,18656,1,0,0:0:0:0:
192,192,18656,1,0,0:0:0:0:
64,192,18656,1,0,0:0:0:0:
192,192,18745,1,0,0:0:0:0:
192,192,18835,1,0,0:0:0:0:
320,192,18924,1,0,0:0:0:0:
448,192,18924,1,0,0:0:0:0:
448,192,19013,1,0,0:0:0:0:
320,192,19013,1,0,0:0:0:0:
192,192,19013,1,0,0:0:0:0:
64,192,19013,1,0,0:0:0:0:
192,192,19102,1,0,0:0:0:0:
320,192,19192,1,0,0:0:0:0:
64,192,19192,1,0,0:0:0:0:
192,192,19281,1,0,0:0:0:0:
320,192,19370,1,0,0:0:0:0:
192,192,19370,1,0,0:0:0:0:
448,192,19370,1,0,0:0:0:0:
320,192,19460,1,0,0:0:0:0:
320,192,19549,1,0,0:0:0:0:
64,192,19638,1,0,0:0:0:0:
448,192,19638,1,0,0:0:0:0:
448,192,19727,1,0,0:0:0:0:
320,192,19727,1,0,0:0:0:0:
192,192,19727,1,0,0:0:0:0:
64,192,19727,1,0,0:0:0:0:
192,192,19817,1,0,0:0:0:0:
320,192,19906,1,0,0:0:0:0:
448,192,19906,1,0,0:0:0:0:
320,192,19995,1,0,0:0:0:0:
448,192,20085,1,0,0:0:0:0:
192,192,20085,1,0,0:0:0:0:
64,192,20085,1,0,0:0:0:0:
192,192,20174,1,0,0:0:0:0:
192,192,20263,1,0,0:0:0:0:
320,192,20352,1,0,0:0:0:0:
448,192,20352,1,0,0:0:0:0:
192,192,20397,1,0,0:0:0:0:
64,192,20397,1,0,0:0:0:0:
320,192,20442,1,0,0:0:0:0:
448,192,20442,1,0,0:0:0:0:
192,192,20531,1,0,0:0:0:0:
64,192,20531,1,0,0:0:0:0:
64,192,20620,1,0,0:0:0:0:
320,192,20620,1,0,0:0:0:0:
192,192,20710,1,0,0:0:0:0:
448,192,20710,1,0,0:0:0:0:
448,192,20799,1,0,0:0:0:0:
320,192,20799,1,0,0:0:0:0:
192,192,20799,1,0,0:0:0:0:
64,192,20799,1,0,0:0:0:0:
64,192,20888,1,0,0:0:0:0:
64,192,20977,1,0,0:0:0:0:
320,192,21067,1,0,0:0:0:0:
448,192,21067,1,0,0:0:0:0:
448,192,21156,1,0,0:0:0:0:
192,192,21156,1,0,0:0:0:0:
64,192,21156,1,0,0:0:0:0:
192,192,21245,1,0,0:0:0:0:
192,192,21335,1,0,0:0:0:0:
64,192,21424,1,0,0:0:0:0:
448,192,21424,1,0,0:0:0:0:
448,192,21513,1,0,0:0:0:0:
192,192,21513,1,0,0:0:0:0:
64,192,21513,1,0,0:0:0:0:
192,192,21602,1,0,0:0:0:0:
192,192,21692,1,0,0:0:0:0:
448,192,21781,1,0,0:0:0:0:
64,192,21781,1,0,0:0:0:0:
448,192,21870,1,0,0:0:0:0:
64,192,21870,1,0,0:0:0:0:
320,192,21870,1,0,0:0:0:0:
320,192,21960,1,0,0:0:0:0:
320,192,22049,1,0,0:0:0:0:
64,192,22049,1,0,0:0:0:0:
192,192,22138,1,0,0:0:0:0:
320,192,22227,1,0,0:0:0:0:
448,192,22227,1,0,0:0:0:0:
192,192,22227,1,0,0:0:0:0:
64,192,22227,1,0,0:0:0:0:
320,192,22317,1,0,0:0:0:0:
320,192,22406,1,0,0:0:0:0:
192,192,22495,1,0,0:0:0:0:
64,192,22495,1,0,0:0:0:0:
64,192,22585,1,0,0:0:0:0:
192,192,22585,1,0,0:0:0:0:
448,192,22585,1,0,0:0:0:0:
448,192,22674,1,0,0:0:0:0:
192,192,22763,1,0,0:0:0:0:
448,192,22763,1,0,0:0:0:0:
320,192,22852,1,0,0:0:0:0:
448,192,22942,1,0,0:0:0:0:
192,192,22942,1,0,0:0:0:0:
64,192,22942,1,0,0:0:0:0:
64,192,23031,1,0,0:0:0:0:
64,192,23120,1,0,0:0:0:0:
192,192,23210,1,0,0:0:0:0:
320,192,23210,1,0,0:0:0:0:
448,192,23299,1,0,0:0:0:0:
320,192,23299,1,0,0:0:0:0:
64,192,23299,1,0,0:0:0:0:
448,192,23388,1,0,0:0:0:0:
64,192,23477,1,0,0:0:0:0:
320,192,23477,1,0,0:0:0:0:
192,192,23567,1,0,0:0:0:0:
448,192,23656,1,0,0:0:0:0:
320,192,23656,1,0,0:0:0:0:
192,192,23656,1,0,0:0:0:0:
64,192,23656,1,0,0:0:0:0:
320,192,23745,1,0,0:0:0:0:
320,192,23835,1,0,0:0:0:0:
192,192,23924,1,0,0:0:0:0:
64,192,23924,1,0,0:0:0:0:
192,192,24013,1,0,0:0:0:0:
448,192,24013,1,0,0:0:0:0:
320,192,24013,1,0,0:0:0:0:
320,192,24102,1,0,0:0:0:0:
192,192,24192,1,0,0:0:0:0:
448,192,24192,1,0,0:0:0:0:
320,192,24281,1,0,0:0:0:0:
192,192,24370,1,0,0:0:0:0:
64,192,24370,1,0,0:0:0:0:
448,192,24370,1,0,0:0:0:0:
192,192,24460,1,0,0:0:0:0:
192,192,24549,1,0,0:0:0:0:
320,192,24638,1,0,0:0:0:0:
448,192,24638,1,0,0:0:0:0:
448,192,24727,1,0,0:0:0:0:
320,192,24727,1,0,0:0:0:0:
64,192,24727,1,0,0:0:0:0:
192,192,24817,1,0,0:0:0:0:
64,192,24906,1,0,0:0:0:0:
320,192,24906,1,0,0:0:0:0:
448,192,24995,1,0,0:0:0:0:
448,192,25085,1,0,0:0:0:0:
320,192,25085,1,0,0:0:0:0:
192,192,25085,1,0,0:0:0:0:
64,192,25085,1,0,0:0:0:0:
192,192,25174,1,0,0:0:0:0:
64,192,25263,1,0,0:0:0:0:
64,192,25352,1,0,0:0:0:0:
192,192,25352,1,0,0:0:0:0:
64,192,25442,1,0,0:0:0:0:
192,192,25442,1,0,0:0:0:0:
448,192,25442,1,0,0:0:0:0:
320,192,25531,1,0,0:0:0:0:
192,192,25620,1,0,0:0:0:0:
448,192,25620,1,0,0:0:0:0:
448,192,25710,1,0,0:0:0:0:
320,192,25799,1,0,0:0:0:0:
64,192,25799,1,0,0:0:0:0:
192,192,25799,1,0,0:0:0:0:
192,192,25888,1,0,0:0:0:0:
192,192,25977,1,0,0:0:0:0:
320,192,26067,1,0,0:0:0:0:
448,192,26067,1,0,0:0:0:0:
448,192,26156,1,0,0:0:0:0:
320,192,26156,1,0,0:0:0:0:
64,192,26156,1,0,0:0:0:0:
64,192,26245,1,0,0:0:0:0:
64,192,26335,1,0,0:0:0:0:
320,192,26424,1,0,0:0:0:0:
192,192,26424,1,0,0:0:0:0:
448,192,26513,1,0,0:0:0:0:
320,192,26513,1,0,0:0:0:0:
64,192,26513,1,0,0:0:0:0:
192,192,26513,1,0,0:0:0:0:
448,192,26602,1,0,0:0:0:0:
448,192,26692,1,0,0:0:0:0:
64,192,26781,1,0,0:0:0:0:
320,192,26781,1,0,0:0:0:0:
320,192,26870,1,0,0:0:0:0:
64,192,26870,1,0,0:0:0:0:
448,192,26870,1,0,0:0:0:0:
320,192,26960,1,0,0:0:0:0:
64,192,27049,1,0,0:0:0:0:
448,192,27049,1,0,0:0:0:0:
320,192,27138,1,0,0:0:0:0:
192,192,27227,1,0,0:0:0:0:
64,192,27227,1,0,0:0:0:0:
448,192,27227,1,0,0:0:0:0:
192,192,27317,1,0,0:0:0:0:
320,192,27406,1,0,0:0:0:0:
192,192,27495,1,0,0:0:0:0:
448,192,27495,1,0,0:0:0:0:
448,192,27585,1,0,0:0:0:0:
64,192,27585,1,0,0:0:0:0:
320,192,27585,1,0,0:0:0:0:
192,192,27674,1,0,0:0:0:0:
64,192,27763,1,0,0:0:0:0:
320,192,27763,1,0,0:0:0:0:
192,192,27852,1,0,0:0:0:0:
192,192,27942,1,0,0:0:0:0:
64,192,27942,1,0,0:0:0:0:
320,192,27942,1,0,0:0:0:0:
448,192,27942,1,0,0:0:0:0:
64,192,28031,1,0,0:0:0:0:
192,192,28120,1,0,0:0:0:0:
64,192,28210,1,0,0:0:0:0:
320,192,28210,1,0,0:0:0:0:
448,192,28299,1,0,0:0:0:0:
192,192,28299,1,0,0:0:0:0:
64,192,28299,1,0,0:0:0:0:
320,192,28388,1,0,0:0:0:0:
320,192,28477,1,0,0:0:0:0:
64,192,28477,1,0,0:0:0:0:
192,192,28567,1,0,0:0:0:0:
64,192,28656,1,0,0:0:0:0:
192,192,28656,1,0,0:0:0:0:
320,192,28656,1,0,0:0:0:0:
448,192,28656,1,0,0:0:0:0:
320,192,28745,1,0,0:0:0:0:
320,192,28835,1,0,0:0:0:0:
64,192,28924,1,0,0:0:0:0:
192,192,28924,1,0,0:0:0:0:
448,192,29013,1,0,0:0:0:0:
320,192,29013,1,0,0:0:0:0:
64,192,29013,1,0,0:0:0:0:
192,192,29102,1,0,0:0:0:0:
320,192,29192,1,0,0:0:0:0:
64,192,29192,1,0,0:0:0:0:
320,192,29281,1,0,0:0:0:0:
448,192,29370,1,0,0:0:0:0:
192,192,29370,1,0,0:0:0:0:
64,192,29370,1,0,0:0:0:0:
320,192,29370,1,0,0:0:0:0:
448,192,29460,1,0,0:0:0:0:
448,192,29549,1,0,0:0:0:0:
320,192,29638,1,0,0:0:0:0:
192,192,29638,1,0,0:0:0:0:
448,192,29727,1,0,0:0:0:0:
192,192,29727,1,0,0:0:0:0:
64,192,29727,1,0,0:0:0:0:
320,192,29817,1,0,0:0:0:0:
64,192,29906,1,0,0:0:0:0:
320,192,29906,1,0,0:0:0:0:
192,192,29995,1,0,0:0:0:0:
448,192,30085,1,0,0:0:0:0:
320,192,30085,1,0,0:0:0:0:
64,192,30085,1,0,0:0:0:0:
192,192,30174,1,0,0:0:0:0:
192,192,30263,1,0,0:0:0:0:
64,192,30352,1,0,0:0:0:0:
320,192,30352,1,0,0:0:0:0:
320,192,30442,1,0,0:0:0:0:
192,192,30442,1,0,0:0:0:0:
64,192,30442,1,0,0:0:0:0:
192,192,30531,1,0,0:0:0:0:
64,192,30620,1,0,0:0:0:0:
320,192,30620,1,0,0:0:0:0:
64,192,30710,1,0,0:0:0:0:
192,192,30799,1,0,0:0:0:0:
64,192,30799,1,0,0:0:0:0:
320,192,30799,1,0,0:0:0:0:
448,192,30799,1,0,0:0:0:0:
192,192,30888,1,0,0:0:0:0:
320,192,30977,1,0,0:0:0:0:
448,192,31067,1,0,0:0:0:0:
64,192,31067,1,0,0:0:0:0:
448,192,31156,1,0,0:0:0:0:
192,192,31156,1,0,0:0:0:0:
64,192,31156,1,0,0:0:0:0:
320,192,31245,1,0,0:0:0:0:
192,192,31335,1,0,0:0:0:0:
64,192,31335,1,0,0:0:0:0:
192,192,31424,1,0,0:0:0:0:
448,192,31513,1,0,0:0:0:0:
320,192,31513,1,0,0:0:0:0:
64,192,31513,1,0,0:0:0:0:
320,192,31602,1,0,0:0:0:0:
192,192,31692,1,0,0:0:0:0:
320,192,31781,1,0,0:0:0:0:
64,192,31781,1,0,0:0:0:0:
320,192,31870,1,0,0:0:0:0:
192,192,31870,1,0,0:0:0:0:
64,192,31870,1,0,0:0:0:0:
448,192,31870,1,0,0:0:0:0:
192,192,31960,1,0,0:0:0:0:
448,192,32049,1,0,0:0:0:0:
64,192,32049,1,0,0:0:0:0:
192,192,32138,1,0,0:0:0:0:
64,192,32227,1,0,0:0:0:0:
192,192,32227,1,0,0:0:0:0:
320,192,32227,1,0,0:0:0:0:
448,192,32227,1,0,0:0:0:0:
320,192,32317,1,0,0:0:0:0:
320,192,32406,1,0,0:0:0:0:
192,192,32495,1,0,0:0:0:0:
64,192,32495,1,0,0:0:0:0:
64,192,32585,1,0,0:0:0:0:
192,192,32585,1,0,0:0:0:0:
320,192,32585,1,0,0:0:0:0:
448,192,32585,1,0,0:0:0:0:
320,192,32674,1,0,0:0:0:0:
192,192,32763,1,0,0:0:0:0:
448,192,32763,1,0,0:0:0:0:
192,192,32852,1,0,0:0:0:0:
448,192,32942,1,0,0:0:0:0:
320,192,32942,1,0,0:0:0:0:
192,192,32942,1,0,0:0:0:0:
64,192,32942,1,0,0:0:0:0:
64,192,33031,1,0,0:0:0:0:
64,192,33120,1,0,0:0:0:0:
448,192,33210,1,0,0:0:0:0:
320,192,33210,1,0,0:0:0:0:
320,192,33299,1,0,0:0:0:0:
192,192,33299,1,0,0:0:0:0:
64,192,33299,1,0,0:0:0:0:
448,192,33299,1,0,0:0:0:0:
192,192,33388,1,0,0:0:0:0:
448,192,33477,1,0,0:0:0:0:
64,192,33477,1,0,0:0:0:0:
320,192,33567,1,0,0:0:0:0:
448,192,33656,1,0,0:0:0:0:
320,192,33656,1,0,0:0:0:0:
192,192,33656,1,0,0:0:0:0:
64,192,33656,1,0,0:0:0:0:
192,192,33745,1,0,0:0:0:0:
192,192,33835,1,0,0:0:0:0:
448,192,33924,1,0,0:0:0:0:
64,192,33924,1,0,0:0:0:0:
64,192,34013,1,0,0:0:0:0:
192,192,34013,1,0,0:0:0:0:
320,192,34013,1,0,0:0:0:0:
448,192,34013,1,0,0:0:0:0:
320,192,34102,1,0,0:0:0:0:
192,192,34192,1,0,0:0:0:0:
448,192,34192,1,0,0:0:0:0:
320,192,34281,1,0,0:0:0:0:
448,192,34370,1,0,0:0:0:0:
320,192,34370,1,0,0:0:0:0:
192,192,34370,1,0,0:0:0:0:
64,192,34370,1,0,0:0:0:0:
64,192,34460,1,0,0:0:0:0:
192,192,34549,1,0,0:0:0:0:
320,192,34638,1,0,0:0:0:0:
64,192,34638,1,0,0:0:0:0:
64,192,34727,1,0,0:0:0:0:
320,192,34727,1,0,0:0:0:0:
448,192,34727,1,0,0:0:0:0:
192,192,34727,1,0,0:0:0:0:
448,192,34817,1,0,0:0:0:0:
448,192,34906,1,0,0:0:0:0:
192,192,34906,1,0,0:0:0:0:
320,192,34995,1,0,0:0:0:0:
192,192,35085,1,0,0:0:0:0:
64,192,35085,1,0,0:0:0:0:
320,192,35085,1,0,0:0:0:0:
448,192,35085,1,0,0:0:0:0:
192,192,35174,1,0,0:0:0:0:
192,192,35263,1,0,0:0:0:0:
448,192,35352,1,0,0:0:0:0:
320,192,35352,1,0,0:0:0:0:
448,192,35442,1,0,0:0:0:0:
320,192,35442,1,0,0:0:0:0:
64,192,35442,1,0,0:0:0:0:
192,192,35442,1,0,0:0:0:0:
64,192,35531,1,0,0:0:0:0:
64,192,35620,1,0,0:0:0:0:
448,192,35620,1,0,0:0:0:0:
320,192,35710,1,0,0:0:0:0:
448,192,35799,1,0,0:0:0:0:
320,192,35799,1,0,0:0:0:0:
192,192,35799,1,0,0:0:0:0:
64,192,35799,1,0,0:0:0:0:
448,192,35888,1,0,0:0:0:0:
448,192,35977,1,0,0:0:0:0:
192,192,36067,1,0,0:0:0:0:
64,192,36067,1,0,0:0:0:0:
64,192,36156,1,0,0:0:0:0:
192,192,36156,1,0,0:0:0:0:
320,192,36156,1,0,0:0:0:0:
448,192,36156,1,0,0:0:0:0:
320,192,36245,1,0,0:0:0:0:
64,192,36335,1,0,0:0:0:0:
448,192,36335,1,0,0:0:0:0:
192,192,36424,1,0,0:0:0:0:
448,192,36513,1,0,0:0:0:0:
320,192,36513,1,0,0:0:0:0:
64,192,36513,1,0,0:0:0:0:
192,192,36513,1,0,0:0:0:0:
320,192,36602,1,0,0:0:0:0:
320,192,36692,1,0,0:0:0:0:
192,192,36781,1,0,0:0:0:0:
448,192,36781,1,0,0:0:0:0:
448,192,36870,1,0,0:0:0:0:
320,192,36870,1,0,0:0:0:0:
192,192,36870,1,0,0:0:0:0:
64,192,36870,1,0,0:0:0:0:
64,192,36960,1,0,0:0:0:0:
64,192,37049,1,0,0:0:0:0:
320,192,37049,1,0,0:0:0:0:
192,192,37138,1,0,0:0:0:0:
448,192,37227,1,0,0:0:0:0:
320,192,37227,1,0,0:0:0:0:
192,192,37227,1,0,0:0:0:0:
64,192,37227,1,0,0:0:0:0:
320,192,37317,1,0,0:0:0:0:
320,192,37406,1,0,0:0:0:0:
192,192,37406,1,0,0:0:0:0:
64,192,37495,1,0,0:0:0:0:
448,192,37495,1,0,0:0:0:0:
64,192,37585,1,0,0:0:0:0:
192,192,37585,1,0,0:0:0:0:
320,192,37585,1,0,0:0:0:0:
448,192,37585,1,0,0:0:0:0:
192,192,37674,1,0,0:0:0:0:
320,192,37674,1,0,0:0:0:0:
448,192,37763,1,0,0:0:0:0:
64,192,37763,1,0,0:0:0:0:
192,192,37852,1,0,0:0:0:0:
64,192,37852,1,0,0:0:0:0:
64,192,37942,1,0,0:0:0:0:
192,192,37942,1,0,0:0:0:0:
320,192,37942,1,0,0:0:0:0:
448,192,37942,1,0,0:0:0:0:
192,192,38031,1,0,0:0:0:0:
192,192,38120,1,0,0:0:0:0:
448,192,38210,1,0,0:0:0:0:
320,192,38210,1,0,0:0:0:0:
448,192,38299,1,0,0:0:0:0:
320,192,38299,1,0,0:0:0:0:
192,192,38299,1,0,0:0:0:0:
64,192,38299,1,0,0:0:0:0:
64,192,38388,1,0,0:0:0:0:
64,192,38477,1,0,0:0:0:0:
320,192,38477,1,0,0:0:0:0:
320,192,38567,1,0,0:0:0:0:
448,192,38656,1,0,0:0:0:0:
320,192,38656,1,0,0:0:0:0:
192,192,38656,1,0,0:0:0:0:
64,192,38656,1,0,0:0:0:0:
192,192,38745,1,0,0:0:0:0:
192,192,38835,1,0,0:0:0:0:
448,192,38924,1,0,0:0:0:0:
64,192,38924,1,0,0:0:0:0:
64,192,39013,1,0,0:0:0:0:
192,192,39013,1,0,0:0:0:0:
320,192,39013,1,0,0:0:0:0:
448,192,39013,1,0,0:0:0:0:
320,192,39102,1,0,0:0:0:0:
192,192,39192,1,0,0:0:0:0:
64,192,39192,1,0,0:0:0:0:
64,192,39281,1,0,0:0:0:0:
64,192,39370,1,0,0:0:0:0:
192,192,39370,1,0,0:0:0:0:
320,192,39370,1,0,0:0:0:0:
448,192,39370,1,0,0:0:0:0:
192,192,39460,1,0,0:0:0:0:
192,192,39549,1,0,0:0:0:0:
448,192,39638,1,0,0:0:0:0:
320,192,39638,1,0,0:0:0:0:
448,192,39727,1,0,0:0:0:0:
320,192,39727,1,0,0:0:0:0:
192,192,39727,1,0,0:0:0:0:
64,192,39727,1,0,0:0:0:0:
192,192,39817,1,0,0:0:0:0:
64,192,39906,1,0,0:0:0:0:
320,192,39906,1,0,0:0:0:0:
448,192,39995,1,0,0:0:0:0:
448,192,40085,1,0,0:0:0:0:
320,192,40085,1,0,0:0:0:0:
192,192,40085,1,0,0:0:0:0:
64,192,40085,1,0,0:0:0:0:
320,192,40174,1,0,0:0:0:0:
320,192,40263,1,0,0:0:0:0:
192,192,40263,1,0,0:0:0:0:
192,192,40352,1,0,0:0:0:0:
64,192,40352,1,0,0:0:0:0:
192,192,40442,1,0,0:0:0:0:
64,192,40442,1,0,0:0:0:0:
320,192,40442,1,0,0:0:0:0:
448,192,40442,1,0,0:0:0:0:
448,192,40531,1,0,0:0:0:0:
320,192,40531,1,0,0:0:0:0:
320,192,40620,1,0,0:0:0:0:
192,192,40620,1,0,0:0:0:0:
192,192,40710,1,0,0:0:0:0:
64,192,40710,1,0,0:0:0:0:
448,192,40799,1,0,0:0:0:0:
320,192,40799,1,0,0:0:0:0:
192,192,40799,1,0,0:0:0:0:
64,192,40799,1,0,0:0:0:0:
448,192,40888,1,0,0:0:0:0:
448,192,40977,1,0,0:0:0:0:
192,192,41067,1,0,0:0:0:0:
64,192,41067,1,0,0:0:0:0:
64,192,41156,1,0,0:0:0:0:
192,192,41156,1,0,0:0:0:0:
320,192,41156,1,0,0:0:0:0:
448,192,41156,1,0,0:0:0:0:
320,192,41245,1,0,0:0:0:0:
64,192,41335,1,0,0:0:0:0:
448,192,41335,1,0,0:0:0:0:
64,192,41424,1,0,0:0:0:0:
64,192,41513,1,0,0:0:0:0:
192,192,41513,1,0,0:0:0:0:
320,192,41513,1,0,0:0:0:0:
448,192,41513,1,0,0:0:0:0:
320,192,41602,1,0,0:0:0:0:
192,192,41692,1,0,0:0:0:0:
192,192,41781,1,0,0:0:0:0:
448,192,41781,1,0,0:0:0:0:
448,192,41870,1,0,0:0:0:0:
320,192,41870,1,0,0:0:0:0:
192,192,41870,1,0,0:0:0:0:
64,192,41870,1,0,0:0:0:0:
320,192,41960,1,0,0:0:0:0:
64,192,42049,1,0,0:0:0:0:
192,192,42049,1,0,0:0:0:0:
448,192,42138,1,0,0:0:0:0:
448,192,42227,1,0,0:0:0:0:
320,192,42227,1,0,0:0:0:0:
192,192,42227,1,0,0:0:0:0:
64,192,42227,1,0,0:0:0:0:
192,192,42317,1,0,0:0:0:0:
192,192,42406,1,0,0:0:0:0:
192,192,42495,1,0,0:0:0:0:
320,192,42495,1,0,0:0:0:0:
448,192,42585,1,0,0:0:0:0:
320,192,42585,1,0,0:0:0:0:
192,192,42585,1,0,0:0:0:0:
64,192,42585,1,0,0:0:0:0:
448,192,42674,1,0,0:0:0:0:
448,192,42763,1,0,0:0:0:0:
192,192,42763,1,0,0:0:0:0:
320,192,42852,1,0,0:0:0:0:
320,192,42942,1,0,0:0:0:0:
192,192,42942,1,0,0:0:0:0:
64,192,42942,1,0,0:0:0:0:
448,192,42942,1,0,0:0:0:0:
448,192,43031,1,0,0:0:0:0:
320,192,43120,1,0,0:0:0:0:
192,192,43210,1,0,0:0:0:0:
64,192,43210,1,0,0:0:0:0:
64,192,43299,1,0,0:0:0:0:
192,192,43299,1,0,0:0:0:0:
320,192,43299,1,0,0:0:0:0:
448,192,43299,1,0,0:0:0:0:
192,192,43388,1,0,0:0:0:0:
320,192,43477,1,0,0:0:0:0:
64,192,43477,1,0,0:0:0:0:
64,192,43567,1,0,0:0:0:0:
64,192,43656,1,0,0:0:0:0:
192,192,43656,1,0,0:0:0:0:
320,192,43656,1,0,0:0:0:0:
448,192,43656,1,0,0:0:0:0:
320,192,43745,1,0,0:0:0:0:
448,192,43745,1,0,0:0:0:0:
64,192,43835,1,0,0:0:0:0:
192,192,43924,1,0,0:0:0:0:
448,192,43924,1,0,0:0:0:0:
448,192,44013,1,0,0:0:0:0:
320,192,44013,1,0,0:0:0:0:
192,192,44013,1,0,0:0:0:0:
64,192,44013,1,0,0:0:0:0:
320,192,44102,1,0,0:0:0:0:
192,192,44192,1,0,0:0:0:0:
64,192,44192,1,0,0:0:0:0:
320,192,44281,1,0,0:0:0:0:
448,192,44370,1,0,0:0:0:0:
64,192,44370,1,0,0:0:0:0:
192,192,44370,1,0,0:0:0:0:
192,192,44460,1,0,0:0:0:0:
320,192,44460,1,0,0:0:0:0:
64,192,44549,1,0,0:0:0:0:
192,192,44638,1,0,0:0:0:0:
448,192,44638,1,0,0:0:0:0:
448,192,44727,1,0,0:0:0:0:
320,192,44727,1,0,0:0:0:0:
192,192,44727,1,0,0:0:0:0:
64,192,44727,1,0,0:0:0:0:
64,192,44817,1,0,0:0:0:0:
192,192,44906,1,0,0:0:0:0:
448,192,44906,1,0,0:0:0:0:
448,192,44995,1,0,0:0:0:0:
320,192,45085,1,0,0:0:0:0:
192,192,45085,1,0,0:0:0:0:
64,192,45085,1,0,0:0:0:0:
192,192,45174,1,0,0:0:0:0:
192,192,45263,1,0,0:0:0:0:
320,192,45352,1,0,0:0:0:0:
64,192,45352,1,0,0:0:0:0:
448,192,45442,1,0,0:0:0:0:
320,192,45442,1,0,0:0:0:0:
192,192,45442,1,0,0:0:0:0:
64,192,45442,1,0,0:0:0:0:
192,192,45531,1,0,0:0:0:0:
320,192,45620,1,0,0:0:0:0:
64,192,45620,1,0,0:0:0:0:
320,192,45710,1,0,0:0:0:0:
192,192,45799,1,0,0:0:0:0:
64,192,45799,1,0,0:0:0:0:
448,192,45799,1,0,0:0:0:0:
192,192,45888,1,0,0:0:0:0:
192,192,45977,1,0,0:0:0:0:
448,192,46067,1,0,0:0:0:0:
320,192,46067,1,0,0:0:0:0:
448,192,46156,1,0,0:0:0:0:
320,192,46156,1,0,0:0:0:0:
64,192,46156,1,0,0:0:0:0:
192,192,46156,1,0,0:0:0:0:
192,192,46245,1,0,0:0:0:0:
320,192,46335,1,0,0:0:0:0:
448,192,46335,1,0,0:0:0:0:
320,192,46424,1,0,0:0:0:0:
192,192,46513,1,0,0:0:0:0:
64,192,46513,1,0,0:0:0:0:
448,192,46513,1,0,0:0:0:0:
192,192,46602,1,0,0:0:0:0:
320,192,46692,1,0,0:0:0:0:
192,192,46781,1,0,0:0:0:0:
448,192,46781,1,0,0:0:0:0:
448,192,46870,1,0,0:0:0:0:
192,192,46870,1,0,0:0:0:0:
64,192,46870,1,0,0:0:0:0:
320,192,46870,1,0,0:0:0:0:
64,192,46960,1,0,0:0:0:0:
64,192,47049,1,0,0:0:0:0:
320,192,47049,1,0,0:0:0:0:
192,192,47138,1,0,0:0:0:0:
448,192,47227,1,0,0:0:0:0:
320,192,47227,1,0,0:0:0:0:
64,192,47227,1,0,0:0:0:0:
192,192,47317,1,0,0:0:0:0:
320,192,47406,1,0,0:0:0:0:
192,192,47495,1,0,0:0:0:0:
64,192,47495,1,0,0:0:0:0:
448,192,47585,1,0,0:0:0:0:
64,192,47585,1,0,0:0:0:0:
192,192,47585,1,0,0:0:0:0:
320,192,47585,1,0,0:0:0:0:
448,192,47674,1,0,0:0:0:0:
64,192,47763,1,0,0:0:0:0:
320,192,47763,1,0,0:0:0:0:
64,192,47852,1,0,0:0:0:0:
192,192,47942,1,0,0:0:0:0:
320,192,47942,1,0,0:0:0:0:
448,192,47942,1,0,0:0:0:0:
320,192,48031,1,0,0:0:0:0:
64,192,48120,1,0,0:0:0:0:
192,192,48210,1,0,0:0:0:0:
320,192,48210,1,0,0:0:0:0:
448,192,48299,1,0,0:0:0:0:
320,192,48299,1,0,0:0:0:0:
192,192,48299,1,0,0:0:0:0:
64,192,48299,1,0,0:0:0:0:
320,192,48388,1,0,0:0:0:0:
448,192,48477,1,0,0:0:0:0:
64,192,48477,1,0,0:0:0:0:
192,192,48567,1,0,0:0:0:0:
448,192,48656,1,0,0:0:0:0:
320,192,48656,1,0,0:0:0:0:
64,192,48656,1,0,0:0:0:0:
192,192,48745,1,0,0:0:0:0:
64,192,48745,1,0,0:0:0:0:
320,192,48835,1,0,0:0:0:0:
64,192,48924,1,0,0:0:0:0:
192,192,48924,1,0,0:0:0:0:
64,192,49013,1,0,0:0:0:0:
192,192,49013,1,0,0:0:0:0:
320,192,49013,1,0,0:0:0:0:
448,192,49013,1,0,0:0:0:0:
320,192,49102,1,0,0:0:0:0:
448,192,49102,1,0,0:0:0:0:
64,192,49192,1,0,0:0:0:0:
192,192,49192,1,0,0:0:0:0:
320,192,49281,1,0,0:0:0:0:
448,192,49281,1,0,0:0:0:0:
448,192,49370,1,0,0:0:0:0:
320,192,49370,1,0,0:0:0:0:
192,192,49370,1,0,0:0:0:0:
64,192,49370,1,0,0:0:0:0:
192,192,49460,1,0,0:0:0:0:
192,192,49549,1,0,0:0:0:0:
320,192,49638,1,0,0:0:0:0:
448,192,49638,1,0,0:0:0:0:
448,192,49727,1,0,0:0:0:0:
192,192,49727,1,0,0:0:0:0:
64,192,49727,1,0,0:0:0:0:
320,192,49727,1,0,0:0:0:0:
192,192,49817,1,0,0:0:0:0:
192,192,49906,1,0,0:0:0:0:
64,192,49906,1,0,0:0:0:0:
64,192,49995,1,0,0:0:0:0:
192,192,50085,1,0,0:0:0:0:
320,192,50085,1,0,0:0:0:0:
448,192,50085,1,0,0:0:0:0:
320,192,50174,1,0,0:0:0:0:
64,192,50263,1,0,0:0:0:0:
448,192,50352,1,0,0:0:0:0:
192,192,50352,1,0,0:0:0:0:
448,192,50442,1,0,0:0:0:0:
192,192,50442,1,0,0:0:0:0:
64,192,50442,1,0,0:0:0:0:
320,192,50531,1,0,0:0:0:0:
448,192,50620,1,0,0:0:0:0:
192,192,50620,1,0,0:0:0:0:
192,192,50710,1,0,0:0:0:0:
448,192,50799,1,0,0:0:0:0:
192,192,50799,1,0,0:0:0:0:
64,192,50799,1,0,0:0:0:0:
320,192,50888,1,0,0:0:0:0:
448,192,50977,1,0,0:0:0:0:
320,192,51067,1,0,0:0:0:0:
192,192,51067,1,0,0:0:0:0:
448,192,51156,1,0,0:0:0:0:
320,192,51156,1,0,0:0:0:0:
64,192,51156,1,0,0:0:0:0:
192,192,51156,1,0,0:0:0:0:
64,192,51245,1,0,0:0:0:0:
64,192,51335,1,0,0:0:0:0:
320,192,51335,1,0,0:0:0:0:
320,192,51424,1,0,0:0:0:0:
448,192,51513,1,0,0:0:0:0:
192,192,51513,1,0,0:0:0:0:
64,192,51513,1,0,0:0:0:0:
448,192,51602,1,0,0:0:0:0:
192,192,51692,1,0,0:0:0:0:
448,192,51781,1,0,0:0:0:0:
320,192,51781,1,0,0:0:0:0:
64,192,51870,1,0,0:0:0:0:
192,192,51870,1,0,0:0:0:0:
320,192,51870,1,0,0:0:0:0:
448,192,51870,1,0,0:0:0:0:
192,192,51960,1,0,0:0:0:0:
64,192,52049,1,0,0:0:0:0:
320,192,52049,1,0,0:0:0:0:
64,192,52138,1,0,0:0:0:0:
192,192,52227,1,0,0:0:0:0:
448,192,52227,1,0,0:0:0:0:
64,192,52227,1,0,0:0:0:0:
320,192,52317,1,0,0:0:0:0:
448,192,52406,1,0,0:0:0:0:
64,192,52495,1,0,0:0:0:0:
320,192,52495,1,0,0:0:0:0:
448,192,52585,1,0,0:0:0:0:
320,192,52585,1,0,0:0:0:0:
64,192,52585,1,0,0:0:0:0:
448,192,52674,1,0,0:0:0:0:
192,192,52763,1,0,0:0:0:0:
64,192,52763,1,0,0:0:0:0:
192,192,52852,1,0,0:0:0:0:
448,192,52942,1,0,0:0:0:0:
320,192,52942,1,0,0:0:0:0:
64,192,52942,1,0,0:0:0:0:
320,192,53031,1,0,0:0:0:0:
192,192,53120,1,0,0:0:0:0:
64,192,53210,1,0,0:0:0:0:
320,192,53210,1,0,0:0:0:0:
448,192,53299,1,0,0:0:0:0:
192,192,53299,1,0,0:0:0:0:
64,192,53299,1,0,0:0:0:0:
320,192,53299,1,0,0:0:0:0:
320,192,53388,1,0,0:0:0:0:
448,192,53477,1,0,0:0:0:0:
64,192,53477,1,0,0:0:0:0:
64,192,53567,1,0,0:0:0:0:
192,192,53656,1,0,0:0:0:0:
320,192,53656,1,0,0:0:0:0:
448,192,53656,1,0,0:0:0:0:
64,192,53745,1,0,0:0:0:0:
192,192,53745,1,0,0:0:0:0:
320,192,53835,1,0,0:0:0:0:
448,192,53835,1,0,0:0:0:0:
64,192,53924,1,0,0:0:0:0:
320,192,53924,1,0,0:0:0:0:
448,192,54013,1,0,0:0:0:0:
192,192,54013,1,0,0:0:0:0:
64,192,54013,1,0,0:0:0:0:
320,192,54102,1,0,0:0:0:0:
448,192,54102,1,0,0:0:0:0:
192,192,54192,1,0,0:0:0:0:
64,192,54192,1,0,0:0:0:0:
320,192,54192,1,0,0:0:0:0:
64,192,54281,1,0,0:0:0:0:
448,192,54281,1,0,0:0:0:0:
448,192,54370,1,0,0:0:0:0:
320,192,54370,1,0,0:0:0:0:
192,192,54370,1,0,0:0:0:0:
192,192,54460,1,0,0:0:0:0:
64,192,54549,1,0,0:0:0:0:
320,192,54549,1,0,0:0:0:0:
448,192,54549,1,0,0:0:0:0:
320,192,54638,1,0,0:0:0:0:
192,192,54638,1,0,0:0:0:0:
192,192,54727,1,0,0:0:0:0:
64,192,54727,1,0,0:0:0:0:
448,192,54727,1,0,0:0:0:0:
64,192,54817,1,0,0:0:0:0:
320,192,54906,1,0,0:0:0:0:
192,192,54906,1,0,0:0:0:0:
448,192,54906,1,0,0:0:0:0:
320,192,54995,1,0,0:0:0:0:
192,192,55085,1,0,0:0:0:0:
64,192,55085,1,0,0:0:0:0:
448,192,55085,1,0,0:0:0:0:
320,192,55085,1,0,0:0:0:0:
64,192,55174,1,0,0:0:0:0:
64,192,55263,1,0,0:0:0:0:
192,192,55352,1,0,0:0:0:0:
448,192,55352,1,0,0:0:0:0:
448,192,55442,1,0,0:0:0:0:
192,192,55442,1,0,0:0:0:0:
64,192,55442,1,0,0:0:0:0:
320,192,55442,1,0,0:0:0:0:
448,192,55531,1,0,0:0:0:0:
320,192,55620,1,0,0:0:0:0:
64,192,55620,1,0,0:0:0:0:
192,192,55710,1,0,0:0:0:0:
448,192,55799,1,0,0:0:0:0:
320,192,55799,1,0,0:0:0:0:
192,192,55799,1,0,0:0:0:0:
64,192,55799,1,0,0:0:0:0:
320,192,55888,1,0,0:0:0:0:
192,192,55977,1,0,0:0:0:0:
192,192,56067,1,0,0:0:0:0:
448,192,56067,1,0,0:0:0:0:
448,192,56156,1,0,0:0:0:0:
320,192,56156,1,0,0:0:0:0:
192,192,56156,1,0,0:0:0:0:
64,192,56156,1,0,0:0:0:0:
320,192,56245,1,0,0:0:0:0:
192,192,56335,1,0,0:0:0:0:
448,192,56335,1,0,0:0:0:0:
64,192,56424,1,0,0:0:0:0:
64,192,56513,1,0,0:0:0:0:
192,192,56513,1,0,0:0:0:0:
320,192,56513,1,0,0:0:0:0:
448,192,56513,1,0,0:0:0:0:
320,192,56602,1,0,0:0:0:0:
192,192,56692,1,0,0:0:0:0:
192,192,56781,1,0,0:0:0:0:
320,192,56781,1,0,0:0:0:0:
448,192,56870,1,0,0:0:0:0:
320,192,56870,1,0,0:0:0:0:
192,192,56870,1,0,0:0:0:0:
64,192,56870,1,0,0:0:0:0:
448,192,56960,1,0,0:0:0:0:
320,192,57049,1,0,0:0:0:0:
192,192,57049,1,0,0:0:0:0:
192,192,57138,1,0,0:0:0:0:
448,192,57227,1,0,0:0:0:0:
320,192,57227,1,0,0:0:0:0:
192,192,57227,1,0,0:0:0:0:
64,192,57227,1,0,0:0:0:0:
320,192,57317,1,0,0:0:0:0:
64,192,57406,1,0,0:0:0:0:
192,192,57406,1,0,0:0:0:0:
320,192,57495,1,0,0:0:0:0:
448,192,57495,1,0,0:0:0:0:
448,192,57585,1,0,0:0:0:0:
320,192,57585,1,0,0:0:0:0:
192,192,57585,1,0,0:0:0:0:
64,192,57585,1,0,0:0:0:0:
192,192,57674,1,0,0:0:0:0:
64,192,57763,1,0,0:0:0:0:
320,192,57763,1,0,0:0:0:0:
448,192,57852,1,0,0:0:0:0:
192,192,57852,1,0,0:0:0:0:
448,192,57942,1,0,0:0:0:0:
320,192,57942,1,0,0:0:0:0:
192,192,57942,1,0,0:0:0:0:
64,192,57942,1,0,0:0:0:0:
320,192,58031,1,0,0:0:0:0:
64,192,58120,1,0,0:0:0:0:
192,192,58210,1,0,0:0:0:0:
64,192,58210,1,0,0:0:0:0:
448,192,58299,1,0,0:0:0:0:
320,192,58299,1,0,0:0:0:0:
192,192,58299,1,0,0:0:0:0:
64,192,58299,1,0,0:0:0:0:
320,192,58388,1,0,0:0:0:0:
192,192,58477,1,0,0:0:0:0:
448,192,58477,1,0,0:0:0:0:
448,192,58567,1,0,0:0:0:0:
448,192,58656,1,0,0:0:0:0:
320,192,58656,1,0,0:0:0:0:
192,192,58656,1,0,0:0:0:0:
64,192,58656,1,0,0:0:0:0:
192,192,58745,1,0,0:0:0:0:
320,192,58835,1,0,0:0:0:0:
448,192,58924,1,0,0:0:0:0:
320,192,58924,1,0,0:0:0:0:
448,192,59013,1,0,0:0:0:0:
320,192,59013,1,0,0:0:0:0:
64,192,59013,1,0,0:0:0:0:
192,192,59013,1,0,0:0:0:0:
192,192,59102,1,0,0:0:0:0:
64,192,59192,1,0,0:0:0:0:
448,192,59192,1,0,0:0:0:0:
192,192,59281,1,0,0:0:0:0:
320,192,59370,1,0,0:0:0:0:
64,192,59370,1,0,0:0:0:0:
192,192,59370,1,0,0:0:0:0:
448,192,59370,1,0,0:0:0:0:
320,192,59460,1,0,0:0:0:0:
192,192,59549,1,0,0:0:0:0:
64,192,59638,1,0,0:0:0:0:
320,192,59638,1,0,0:0:0:0:
448,192,59727,1,0,0:0:0:0:
320,192,59727,1,0,0:0:0:0:
192,192,59727,1,0,0:0:0:0:
64,192,59727,1,0,0:0:0:0:
192,192,59817,1,0,0:0:0:0:
192,192,59906,1,0,0:0:0:0:
448,192,59906,1,0,0:0:0:0:
320,192,59995,1,0,0:0:0:0:
448,192,60085,1,0,0:0:0:0:
320,192,60085,1,0,0:0:0:0:
192,192,60085,1,0,0:0:0:0:
64,192,60085,1,0,0:0:0:0:
192,192,60174,1,0,0:0:0:0:
448,192,60174,1,0,0:0:0:0:
320,192,60263,1,0,0:0:0:0:
64,192,60263,1,0,0:0:0:0:
192,192,60352,1,0,0:0:0:0:
448,192,60352,1,0,0:0:0:0:
320,192,60352,1,0,0:0:0:0:
448,192,60442,1,0,0:0:0:0:
320,192,60442,1,0,0:0:0:0:
192,192,60442,1,0,0:0:0:0:
64,192,60442,1,0,0:0:0:0:
64,192,60531,1,0,0:0:0:0:
320,192,60531,1,0,0:0:0:0:
192,192,60620,1,0,0:0:0:0:
64,192,60620,1,0,0:0:0:0:
448,192,60710,1,0,0:0:0:0:
320,192,60710,1,0,0:0:0:0:
192,192,60710,1,0,0:0:0:0:
448,192,60799,1,0,0:0:0:0:
320,192,60799,1,0,0:0:0:0:
192,192,60799,1,0,0:0:0:0:
64,192,60799,1,0,0:0:0:0:
192,192,60888,1,0,0:0:0:0:
64,192,60977,1,0,0:0:0:0:
320,192,61067,1,0,0:0:0:0:
64,192,61067,1,0,0:0:0:0:
448,192,61156,1,0,0:0:0:0:
320,192,61156,1,0,0:0:0:0:
64,192,61156,1,0,0:0:0:0:
192,192,61156,1,0,0:0:0:0:
192,192,61245,1,0,0:0:0:0:
320,192,61335,1,0,0:0:0:0:
448,192,61335,1,0,0:0:0:0:
320,192,61424,1,0,0:0:0:0:
448,192,61513,1,0,0:0:0:0:
320,192,61513,1,0,0:0:0:0:
192,192,61513,1,0,0:0:0:0:
64,192,61513,1,0,0:0:0:0:
192,192,61602,1,0,0:0:0:0:
192,192,61692,1,0,0:0:0:0:
320,192,61781,1,0,0:0:0:0:
448,192,61781,1,0,0:0:0:0:
448,192,61870,1,0,0:0:0:0:
320,192,61870,1,0,0:0:0:0:
64,192,61870,1,0,0:0:0:0:
192,192,61870,1,0,0:0:0:0:
192,192,61960,1,0,0:0:0:0:
448,192,62049,1,0,0:0:0:0:
64,192,62049,1,0,0:0:0:0:
448,192,62138,1,0,0:0:0:0:
448,192,62227,1,0,0:0:0:0:
320,192,62227,1,0,0:0:0:0:
192,192,62227,1,0,0:0:0:0:
64,192,62227,1,0,0:0:0:0:
64,192,62317,1,0,0:0:0:0:
192,192,62406,1,0,0:0:0:0:
320,192,62495,1,0,0:0:0:0:
64,192,62495,1,0,0:0:0:0:
448,192,62585,1,0,0:0:0:0:
320,192,62585,1,0,0:0:0:0:
192,192,62585,1,0,0:0:0:0:
64,192,62585,1,0,0:0:0:0:
448,192,62674,1,0,0:0:0:0:
320,192,62763,1,0,0:0:0:0:
64,192,62763,1,0,0:0:0:0:
192,192,62852,1,0,0:0:0:0:
448,192,62942,1,0,0:0:0:0:
320,192,62942,1,0,0:0:0:0:
64,192,62942,1,0,0:0:0:0:
192,192,62942,1,0,0:0:0:0:
320,192,63031,1,0,0:0:0:0:
192,192,63120,1,0,0:0:0:0:
64,192,63210,1,0,0:0:0:0:
192,192,63210,1,0,0:0:0:0:
448,192,63299,1,0,0:0:0:0:
320,192,63299,1,0,0:0:0:0:
192,192,63299,1,0,0:0:0:0:
64,192,63299,1,0,0:0:0:0:
320,192,63388,1,0,0:0:0:0:
448,192,63477,1,0,0:0:0:0:
192,192,63477,1,0,0:0:0:0:
448,192,63567,1,0,0:0:0:0:
448,192,63656,1,0,0:0:0:0:
320,192,63656,1,0,0:0:0:0:
192,192,63656,1,0,0:0:0:0:
64,192,63656,1,0,0:0:0:0:
192,192,63745,1,0,0:0:0:0:
64,192,63835,1,0,0:0:0:0:
192,192,63924,1,0,0:0:0:0:
320,192,63924,1,0,0:0:0:0:
448,192,64013,1,0,0:0:0:0:
320,192,64013,1,0,0:0:0:0:
192,192,64013,1,0,0:0:0:0:
64,192,64013,1,0,0:0:0:0:
448,192,64102,1,0,0:0:0:0:
320,192,64192,1,0,0:0:0:0:
64,192,64192,1,0,0:0:0:0:
192,192,64281,1,0,0:0:0:0:
448,192,64370,1,0,0:0:0:0:
320,192,64370,1,0,0:0:0:0:
192,192,64370,1,0,0:0:0:0:
64,192,64370,1,0,0:0:0:0:
64,192,64460,1,0,0:0:0:0:
192,192,64549,1,0,0:0:0:0:
448,192,64638,1,0,0:0:0:0:
320,192,64638,1,0,0:0:0:0:
448,192,64727,1,0,0:0:0:0:
320,192,64727,1,0,0:0:0:0:
192,192,64727,1,0,0:0:0:0:
64,192,64727,1,0,0:0:0:0:
192,192,64817,1,0,0:0:0:0:
448,192,64906,1,0,0:0:0:0:
64,192,64906,1,0,0:0:0:0:
320,192,64995,1,0,0:0:0:0:
192,192,65085,1,0,0:0:0:0:
64,192,65085,1,0,0:0:0:0:
320,192,65085,1,0,0:0:0:0:
448,192,65085,1,0,0:0:0:0:
192,192,65174,1,0,0:0:0:0:
64,192,65263,1,0,0:0:0:0:
448,192,65263,1,0,0:0:0:0:
64,192,65352,1,0,0:0:0:0:
192,192,65352,1,0,0:0:0:0:
448,192,65442,1,0,0:0:0:0:
320,192,65442,1,0,0:0:0:0:
192,192,65442,1,0,0:0:0:0:
320,192,65531,1,0,0:0:0:0:
64,192,65531,1,0,0:0:0:0:
192,192,65620,1,0,0:0:0:0:
64,192,65620,1,0,0:0:0:0:
320,192,65710,1,0,0:0:0:0:
448,192,65710,1,0,0:0:0:0:
448,192,65799,1,0,0:0:0:0:
192,192,65799,1,0,0:0:0:0:
64,192,65799,1,0,0:0:0:0:
320,192,65888,1,0,0:0:0:0:
192,192,65888,1,0,0:0:0:0:
64,192,65977,1,0,0:0:0:0:
320,192,65977,1,0,0:0:0:0:
448,192,66067,1,0,0:0:0:0:
192,192,66067,1,0,0:0:0:0:
448,192,66156,1,0,0:0:0:0:
320,192,66156,1,0,0:0:0:0:
64,192,66156,1,0,0:0:0:0:
192,192,66245,1,0,0:0:0:0:
64,192,66245,1,0,0:0:0:0:
192,192,66335,1,0,0:0:0:0:
320,192,66335,1,0,0:0:0:0:
320,192,66424,1,0,0:0:0:0:
64,192,66424,1,0,0:0:0:0:
448,192,66513,1,0,0:0:0:0:
192,192,66513,1,0,0:0:0:0:
64,192,66513,1,0,0:0:0:0:
320,192,66513,1,0,0:0:0:0:
448,192,66602,1,0,0:0:0:0:
192,192,66602,1,0,0:0:0:0:
320,192,66692,1,0,0:0:0:0:
192,192,66781,1,0,0:0:0:0:
64,192,66781,1,0,0:0:0:0:
448,192,66870,1,0,0:0:0:0:
320,192,66870,1,0,0:0:0:0:
64,192,66870,1,0,0:0:0:0:
192,192,66960,1,0,0:0:0:0:
448,192,67049,1,0,0:0:0:0:
320,192,67049,1,0,0:0:0:0:
192,192,67138,1,0,0:0:0:0:
448,192,67227,1,0,0:0:0:0:
320,192,67227,1,0,0:0:0:0:
64,192,67227,1,0,0:0:0:0:
192,192,67227,1,0,0:0:0:0:
320,192,67317,1,0,0:0:0:0:
192,192,67406,1,0,0:0:0:0:
448,192,67406,1,0,0:0:0:0:
320,192,67495,1,0,0:0:0:0:
64,192,67495,1,0,0:0:0:0:
64,192,67585,1,0,0:0:0:0:
192,192,67585,1,0,0:0:0:0:
320,192,67585,1,0,0:0:0:0:
448,192,67585,1,0,0:0:0:0:
192,192,67674,1,0,0:0:0:0:
320,192,67763,1,0,0:0:0:0:
448,192,67763,1,0,0:0:0:0:
320,192,67852,1,0,0:0:0:0:
448,192,67942,1,0,0:0:0:0:
320,192,67942,1,0,0:0:0:0:
192,192,67942,1,0,0:0:0:0:
64,192,67942,1,0,0:0:0:0:
192,192,68031,1,0,0:0:0:0:
64,192,68031,1,0,0:0:0:0:
320,192,68120,1,0,0:0:0:0:
448,192,68210,1,0,0:0:0:0:
64,192,68210,1,0,0:0:0:0:
192,192,68299,1,0,0:0:0:0:
64,192,68299,1,0,0:0:0:0:
320,192,68299,1,0,0:0:0:0:
448,192,68299,1,0,0:0:0:0:
320,192,68388,1,0,0:0:0:0:
192,192,68477,1,0,0:0:0:0:
64,192,68477,1,0,0:0:0:0:
192,192,68567,1,0,0:0:0:0:
448,192,68656,1,0,0:0:0:0:
320,192,68656,1,0,0:0:0:0:
192,192,68656,1,0,0:0:0:0:
64,192,68656,1,0,0:0:0:0:
320,192,68745,1,0,0:0:0:0:
448,192,68835,1,0,0:0:0:0:
192,192,68835,1,0,0:0:0:0:
320,192,68924,1,0,0:0:0:0:
448,192,68924,1,0,0:0:0:0:
448,192,69013,1,0,0:0:0:0:
320,192,69013,1,0,0:0:0:0:
192,192,69013,1,0,0:0:0:0:
64,192,69013,1,0,0:0:0:0:
192,192,69102,1,0,0:0:0:0:
64,192,69192,1,0,0:0:0:0:
320,192,69192,1,0,0:0:0:0:
192,192,69281,1,0,0:0:0:0:
448,192,69370,1,0,0:0:0:0:
320,192,69370,1,0,0:0:0:0:
192,192,69370,1,0,0:0:0:0:
64,192,69370,1,0,0:0:0:0:
320,192,69460,1,0,0:0:0:0:
448,192,69460,1,0,0:0:0:0:
192,192,69549,1,0,0:0:0:0:
192,192,69638,1,0,0:0:0:0:
320,192,69638,1,0,0:0:0:0:
320,192,69727,1,0,0:0:0:0:
448,192,69727,1,0,0:0:0:0:
64,192,69727,1,0,0:0:0:0:
192,192,69817,1,0,0:0:0:0:
448,192,69906,1,0,0:0:0:0:
320,192,69906,1,0,0:0:0:0:
320,192,69995,1,0,0:0:0:0:
192,192,70085,1,0,0:0:0:0:
64,192,70085,1,0,0:0:0:0:
448,192,70085,1,0,0:0:0:0:
192,192,70174,1,0,0:0:0:0:
64,192,70263,1,0,0:0:0:0:
448,192,70263,1,0,0:0:0:0:
448,192,70352,1,0,0:0:0:0:
192,192,70352,1,0,0:0:0:0:
320,192,70442,1,0,0:0:0:0:
192,192,70442,1,0,0:0:0:0:
64,192,70442,1,0,0:0:0:0:
320,192,70531,1,0,0:0:0:0:
64,192,70620,1,0,0:0:0:0:
192,192,70620,1,0,0:0:0:0:
320,192,70710,1,0,0:0:0:0:
448,192,70799,1,0,0:0:0:0:
192,192,70799,1,0,0:0:0:0:
64,192,70799,1,0,0:0:0:0:
448,192,70888,1,0,0:0:0:0:
320,192,70888,1,0,0:0:0:0:
64,192,70977,1,0,0:0:0:0:
192,192,71067,1,0,0:0:0:0:
64,192,71067,1,0,0:0:0:0:
448,192,71156,1,0,0:0:0:0:
320,192,71156,1,0,0:0:0:0:
192,192,71156,1,0,0:0:0:0:
320,192,71245,1,0,0:0:0:0:
192,192,71335,1,0,0:0:0:0:
64,192,71335,1,0,0:0:0:0:
64,192,71424,1,0,0:0:0:0:
448,192,71513,1,0,0:0:0:0:
320,192,71513,1,0,0:0:0:0:
192,192,71513,1,0,0:0:0:0:
320,192,71602,1,0,0:0:0:0:
448,192,71692,1,0,0:0:0:0:
192,192,71692,1,0,0:0:0:0:
64,192,71781,1,0,0:0:0:0:
320,192,71781,1,0,0:0:0:0:
192,192,71870,1,0,0:0:0:0:
64,192,71870,1,0,0:0:0:0:
448,192,71870,1,0,0:0:0:0:
320,192,71960,1,0,0:0:0:0:
448,192,72049,1,0,0:0:0:0:
320,192,72049,1,0,0:0:0:0:
192,192,72138,1,0,0:0:0:0:
64,192,72227,1,0,0:0:0:0:
192,192,72227,1,0,0:0:0:0:
320,192,72227,1,0,0:0:0:0:
448,192,72227,1,0,0:0:0:0:
320,192,72317,1,0,0:0:0:0:
64,192,72317,1,0,0:0:0:0:
192,192,72406,1,0,0:0:0:0:
448,192,72495,1,0,0:0:0:0:
320,192,72495,1,0,0:0:0:0:
448,192,72585,1,0,0:0:0:0:
320,192,72585,1,0,0:0:0:0:
64,192,72585,1,0,0:0:0:0:
192,192,72585,1,0,0:0:0:0:
192,192,72674,1,0,0:0:0:0:
64,192,72763,1,0,0:0:0:0:
448,192,72763,1,0,0:0:0:0:
448,192,72852,1,0,0:0:0:0:
320,192,72942,1,0,0:0:0:0:
192,192,72942,1,0,0:0:0:0:
64,192,72942,1,0,0:0:0:0:
192,192,73031,1,0,0:0:0:0:
320,192,73120,1,0,0:0:0:0:
448,192,73120,1,0,0:0:0:0:
192,192,73210,1,0,0:0:0:0:
64,192,73210,1,0,0:0:0:0:
64,192,73299,1,0,0:0:0:0:
320,192,73299,1,0,0:0:0:0:
448,192,73299,1,0,0:0:0:0:
192,192,73299,1,0,0:0:0:0:
320,192,73388,1,0,0:0:0:0:
448,192,73477,1,0,0:0:0:0:
64,192,73477,1,0,0:0:0:0:
192,192,73567,1,0,0:0:0:0:
64,192,73656,1,0,0:0:0:0:
192,192,73656,1,0,0:0:0:0:
320,192,73656,1,0,0:0:0:0:
448,192,73656,1,0,0:0:0:0:
192,192,73745,1,0,0:0:0:0:
448,192,73745,1,0,0:0:0:0:
320,192,73835,1,0,0:0:0:0:
192,192,73924,1,0,0:0:0:0:
64,192,73924,1,0,0:0:0:0:
448,192,74013,1,0,0:0:0:0:
320,192,74013,1,0,0:0:0:0:
64,192,74013,1,0,0:0:0:0:
192,192,74013,1,0,0:0:0:0:
320,192,74102,1,0,0:0:0:0:
448,192,74192,1,0,0:0:0:0:
192,192,74192,1,0,0:0:0:0:
192,192,74281,1,0,0:0:0:0:
448,192,74370,1,0,0:0:0:0:
320,192,74370,1,0,0:0:0:0:
64,192,74370,1,0,0:0:0:0:
192,192,74370,1,0,0:0:0:0:
320,192,74460,1,0,0:0:0:0:
448,192,74549,1,0,0:0:0:0:
192,192,74549,1,0,0:0:0:0:
320,192,74638,1,0,0:0:0:0:
192,192,74638,1,0,0:0:0:0:
64,192,74727,1,0,0:0:0:0:
192,192,74727,1,0,0:0:0:0:
448,192,74727,1,0,0:0:0:0:
320,192,74727,1,0,0:0:0:0:
320,192,74817,1,0,0:0:0:0:
448,192,74906,1,0,0:0:0:0:
192,192,74906,1,0,0:0:0:0:
192,192,74995,1,0,0:0:0:0:
448,192,75085,1,0,0:0:0:0:
320,192,75085,1,0,0:0:0:0:
192,192,75085,1,0,0:0:0:0:
64,192,75085,1,0,0:0:0:0:
64,192,75174,1,0,0:0:0:0:
448,192,75174,1,0,0:0:0:0:
192,192,75263,1,0,0:0:0:0:
448,192,75352,1,0,0:0:0:0:
320,192,75352,1,0,0:0:0:0:
448,192,75442,1,0,0:0:0:0:
320,192,75442,1,0,0:0:0:0:
192,192,75442,1,0,0:0:0:0:
64,192,75442,1,0,0:0:0:0:
192,192,75531,1,0,0:0:0:0:
320,192,75620,1,0,0:0:0:0:
64,192,75620,1,0,0:0:0:0:
192,192,75710,1,0,0:0:0:0:
448,192,75799,1,0,0:0:0:0:
320,192,75799,1,0,0:0:0:0:
192,192,75799,1,0,0:0:0:0:
64,192,75799,1,0,0:0:0:0:
192,192,75888,1,0,0:0:0:0:
64,192,75977,1,0,0:0:0:0:
320,192,75977,1,0,0:0:0:0:
192,192,76067,1,0,0:0:0:0:
448,192,76067,1,0,0:0:0:0:
192,192,76156,1,0,0:0:0:0:
64,192,76156,1,0,0:0:0:0:
320,192,76156,1,0,0:0:0:0:
448,192,76156,1,0,0:0:0:0:
320,192,76245,1,0,0:0:0:0:
448,192,76335,1,0,0:0:0:0:
192,192,76335,1,0,0:0:0:0:
320,192,76424,1,0,0:0:0:0:
448,192,76513,1,0,0:0:0:0:
320,192,76513,1,0,0:0:0:0:
192,192,76513,1,0,0:0:0:0:
64,192,76513,1,0,0:0:0:0:
192,192,76602,1,0,0:0:0:0:
64,192,76602,1,0,0:0:0:0:
192,192,76692,1,0,0:0:0:0:
320,192,76781,1,0,0:0:0:0:
192,192,76781,1,0,0:0:0:0:
320,192,76870,1,0,0:0:0:0:
448,192,76870,1,0,0:0:0:0:
64,192,76870,1,0,0:0:0:0:
448,192,76960,1,0,0:0:0:0:
448,192,77049,1,0,0:0:0:0:
320,192,77049,1,0,0:0:0:0:
320,192,77138,1,0,0:0:0:0:
192,192,77227,1,0,0:0:0:0:
64,192,77227,1,0,0:0:0:0:
448,192,77227,1,0,0:0:0:0:
320,192,77317,1,0,0:0:0:0:
64,192,77406,1,0,0:0:0:0:
448,192,77406,1,0,0:0:0:0:
192,192,77406,1,0,0:0:0:0:
448,192,77495,1,0,0:0:0:0:
320,192,77495,1,0,0:0:0:0:
192,192,77585,1,0,0:0:0:0:
64,192,77585,1,0,0:0:0:0:
320,192,77585,1,0,0:0:0:0:
192,192,77674,1,0,0:0:0:0:
448,192,77674,1,0,0:0:0:0:
448,192,77763,1,0,0:0:0:0:
320,192,77763,1,0,0:0:0:0:
64,192,77763,1,0,0:0:0:0:
192,192,77852,1,0,0:0:0:0:
64,192,77852,1,0,0:0:0:0:
448,192,77942,1,0,0:0:0:0:
320,192,77942,1,0,0:0:0:0:
192,192,77942,1,0,0:0:0:0:
64,192,77942,1,0,0:0:0:0:
320,192,78031,1,0,0:0:0:0:
320,192,78120,1,0,0:0:0:0:
320,192,78210,1,0,0:0:0:0:
64,192,78210,1,0,0:0:0:0:
64,192,78299,1,0,0:0:0:0:
192,192,78299,1,0,0:0:0:0:
448,192,78299,1,0,0:0:0:0:
192,192,78388,1,0,0:0:0:0:
192,192,78477,1,0,0:0:0:0:
448,192,78477,1,0,0:0:0:0:
192,192,78567,1,0,0:0:0:0:
320,192,78656,1,0,0:0:0:0:
64,192,78656,1,0,0:0:0:0:
448,192,78656,1,0,0:0:0:0:
448,192,78745,1,0,0:0:0:0:
448,192,78835,1,0,0:0:0:0:
192,192,78924,1,0,0:0:0:0:
64,192,78924,1,0,0:0:0:0:
64,192,79013,1,0,0:0:0:0:
320,192,79013,1,0,0:0:0:0:
448,192,79013,1,0,0:0:0:0:
192,192,79102,1,0,0:0:0:0:
192,192,79192,1,0,0:0:0:0:
64,192,79192,1,0,0:0:0:0:
192,192,79281,1,0,0:0:0:0:
448,192,79370,1,0,0:0:0:0:
320,192,79370,1,0,0:0:0:0:
64,192,79370,1,0,0:0:0:0:
192,192,79460,1,0,0:0:0:0:
320,192,79460,1,0,0:0:0:0:
448,192,79549,1,0,0:0:0:0:
192,192,79549,1,0,0:0:0:0:
320,192,79638,1,0,0:0:0:0:
448,192,79638,1,0,0:0:0:0:
192,192,79727,1,0,0:0:0:0:
64,192,79727,1,0,0:0:0:0:
448,192,79727,1,0,0:0:0:0:
320,192,79817,1,0,0:0:0:0:
64,192,79817,1,0,0:0:0:0:
192,192,79906,1,0,0:0:0:0:
448,192,79906,1,0,0:0:0:0:
448,192,79995,1,0,0:0:0:0:
320,192,79995,1,0,0:0:0:0:
192,192,80085,1,0,0:0:0:0:
64,192,80085,1,0,0:0:0:0:
320,192,80085,1,0,0:0:0:0:
192,192,80174,1,0,0:0:0:0:
64,192,80174,1,0,0:0:0:0:
448,192,80263,1,0,0:0:0:0:
320,192,80263,1,0,0:0:0:0:
64,192,80352,1,0,0:0:0:0:
320,192,80352,1,0,0:0:0:0:
192,192,80442,1,0,0:0:0:0:
448,192,80442,1,0,0:0:0:0:
64,192,80442,1,0,0:0:0:0:
320,192,80531,1,0,0:0:0:0:
448,192,80531,1,0,0:0:0:0:
64,192,80620,1,0,0:0:0:0:
320,192,80620,1,0,0:0:0:0:
192,192,80710,1,0,0:0:0:0:
64,192,80710,1,0,0:0:0:0:
448,192,80799,1,0,0:0:0:0:
320,192,80799,1,0,0:0:0:0:
192,192,80799,1,0,0:0:0:0:
320,192,80888,1,0,0:0:0:0:
64,192,80888,1,0,0:0:0:0:
320,192,80977,1,0,0:0:0:0:
64,192,81067,1,0,0:0:0:0:
448,192,81067,1,0,0:0:0:0:
192,192,81156,1,0,0:0:0:0:
64,192,81156,1,0,0:0:0:0:
448,192,81156,1,0,0:0:0:0:
192,192,81245,1,0,0:0:0:0:
192,192,81335,1,0,0:0:0:0:
448,192,81335,1,0,0:0:0:0:
320,192,81424,1,0,0:0:0:0:
448,192,81513,1,0,0:0:0:0:
320,192,81513,1,0,0:0:0:0:
64,192,81513,1,0,0:0:0:0:
64,192,81602,1,0,0:0:0:0:
64,192,81692,1,0,0:0:0:0:
448,192,81692,1,0,0:0:0:0:
320,192,81781,1,0,0:0:0:0:
448,192,81870,1,0,0:0:0:0:
192,192,81870,1,0,0:0:0:0:
64,192,81870,1,0,0:0:0:0:
192,192,81960,1,0,0:0:0:0:
448,192,82049,1,0,0:0:0:0:
64,192,82049,1,0,0:0:0:0:
448,192,82138,1,0,0:0:0:0:
320,192,82227,1,0,0:0:0:0:
192,192,82227,1,0,0:0:0:0:
64,192,82227,1,0,0:0:0:0:
320,192,82317,1,0,0:0:0:0:
448,192,82317,1,0,0:0:0:0:
64,192,82406,1,0,0:0:0:0:
192,192,82406,1,0,0:0:0:0:
192,192,82495,1,0,0:0:0:0:
448,192,82495,1,0,0:0:0:0:
448,192,82585,1,0,0:0:0:0:
64,192,82585,1,0,0:0:0:0:
320,192,82585,1,0,0:0:0:0:
192,192,82674,1,0,0:0:0:0:
64,192,82674,1,0,0:0:0:0:
448,192,82763,1,0,0:0:0:0:
320,192,82763,1,0,0:0:0:0:
64,192,82852,1,0,0:0:0:0:
320,192,82852,1,0,0:0:0:0:
64,192,82942,1,0,0:0:0:0:
448,192,82942,1,0,0:0:0:0:
192,192,82942,1,0,0:0:0:0:
320,192,83031,1,0,0:0:0:0:
448,192,83031,1,0,0:0:0:0:
192,192,83120,1,0,0:0:0:0:
64,192,83120,1,0,0:0:0:0:
320,192,83210,1,0,0:0:0:0:
64,192,83210,1,0,0:0:0:0:
448,192,83299,1,0,0:0:0:0:
320,192,83299,1,0,0:0:0:0:
192,192,83299,1,0,0:0:0:0:
64,192,83388,1,0,0:0:0:0:
192,192,83388,1,0,0:0:0:0:
448,192,83477,1,0,0:0:0:0:
64,192,83477,1,0,0:0:0:0:
320,192,83567,1,0,0:0:0:0:
192,192,83567,1,0,0:0:0:0:
448,192,83656,1,0,0:0:0:0:
64,192,83656,1,0,0:0:0:0:
192,192,83656,1,0,0:0:0:0:
448,192,83745,1,0,0:0:0:0:
192,192,83745,1,0,0:0:0:0:
448,192,83835,1,0,0:0:0:0:
320,192,83924,1,0,0:0:0:0:
64,192,83924,1,0,0:0:0:0:
192,192,84013,1,0,0:0:0:0:
64,192,84013,1,0,0:0:0:0:
448,192,84013,1,0,0:0:0:0:
320,192,84102,1,0,0:0:0:0:
320,192,84192,1,0,0:0:0:0:
64,192,84192,1,0,0:0:0:0:
192,192,84281,1,0,0:0:0:0:
320,192,84370,1,0,0:0:0:0:
448,192,84370,1,0,0:0:0:0:
64,192,84370,1,0,0:0:0:0:
64,192,84460,1,0,0:0:0:0:
64,192,84549,1,0,0:0:0:0:
192,192,84638,1,0,0:0:0:0:
448,192,84638,1,0,0:0:0:0:
448,192,84727,1,0,0:0:0:0:
320,192,84727,1,0,0:0:0:0:
64,192,84727,1,0,0:0:0:0:
192,192,84817,1,0,0:0:0:0:
320,192,84906,1,0,0:0:0:0:
448,192,84906,1,0,0:0:0:0:
320,192,84995,1,0,0:0:0:0:
448,192,85085,1,0,0:0:0:0:
64,192,85085,1,0,0:0:0:0:
192,192,85085,1,0,0:0:0:0:
320,192,85174,1,0,0:0:0:0:
192,192,85174,1,0,0:0:0:0:
64,192,85263,1,0,0:0:0:0:
320,192,85352,1,0,0:0:0:0:
448,192,85352,1,0,0:0:0:0:
448,192,85442,1,0,0:0:0:0:
192,192,85442,1,0,0:0:0:0:
64,192,85442,1,0,0:0:0:0:
320,192,85531,1,0,0:0:0:0:
192,192,85620,1,0,0:0:0:0:
448,192,85620,1,0,0:0:0:0:
448,192,85710,1,0,0:0:0:0:
320,192,85799,1,0,0:0:0:0:
192,192,85799,1,0,0:0:0:0:
64,192,85799,1,0,0:0:0:0:
192,192,85888,1,0,0:0:0:0:
64,192,85977,1,0,0:0:0:0:
320,192,86067,1,0,0:0:0:0:
64,192,86067,1,0,0:0:0:0:
448,192,86156,1,0,0:0:0:0:
192,192,86156,1,0,0:0:0:0:
320,192,86156,1,0,0:0:0:0:
192,192,86245,1,0,0:0:0:0:
448,192,86335,1,0,0:0:0:0:
64,192,86335,1,0,0:0:0:0:
320,192,86424,1,0,0:0:0:0:
448,192,86513,1,0,0:0:0:0:
192,192,86513,1,0,0:0:0:0:
64,192,86513,1,0,0:0:0:0:
448,192,86602,1,0,0:0:0:0:
320,192,86602,1,0,0:0:0:0:
192,192,86692,1,0,0:0:0:0:
192,192,86781,1,0,0:0:0:0:
320,192,86781,1,0,0:0:0:0:
448,192,86870,1,0,0:0:0:0:
320,192,86870,1,0,0:0:0:0:
64,192,86870,1,0,0:0:0:0:
192,192,86960,1,0,0:0:0:0:
448,192,87049,1,0,0:0:0:0:
192,192,87049,1,0,0:0:0:0:
320,192,87138,1,0,0:0:0:0:
448,192,87227,1,0,0:0:0:0:
192,192,87227,1,0,0:0:0:0:
64,192,87227,1,0,0:0:0:0:
192,192,87317,1,0,0:0:0:0:
64,192,87406,1,0,0:0:0:0:
192,192,87495,1,0,0:0:0:0:
64,192,87495,1,0,0:0:0:0:
448,192,87585,1,0,0:0:0:0:
320,192,87585,1,0,0:0:0:0:
192,192,87585,1,0,0:0:0:0:
320,192,87674,1,0,0:0:0:0:
448,192,87763,1,0,0:0:0:0:
64,192,87763,1,0,0:0:0:0:
320,192,87852,1,0,0:0:0:0:
192,192,87942,1,0,0:0:0:0:
64,192,87942,1,0,0:0:0:0:
448,192,87942,1,0,0:0:0:0:
192,192,88031,1,0,0:0:0:0:
448,192,88031,1,0,0:0:0:0:
320,192,88120,1,0,0:0:0:0:
192,192,88210,1,0,0:0:0:0:
64,192,88210,1,0,0:0:0:0:
448,192,88299,1,0,0:0:0:0:
320,192,88299,1,0,0:0:0:0:
192,192,88299,1,0,0:0:0:0:
320,192,88388,1,0,0:0:0:0:
64,192,88477,1,0,0:0:0:0:
192,192,88477,1,0,0:0:0:0:
192,192,88567,1,0,0:0:0:0:
448,192,88656,1,0,0:0:0:0:
320,192,88656,1,0,0:0:0:0:
64,192,88656,1,0,0:0:0:0:
192,192,88745,1,0,0:0:0:0:
320,192,88835,1,0,0:0:0:0:
448,192,88924,1,0,0:0:0:0:
192,192,88924,1,0,0:0:0:0:
192,192,89013,1,0,0:0:0:0:
448,192,89013,1,0,0:0:0:0:
320,192,89013,1,0,0:0:0:0:
64,192,89102,1,0,0:0:0:0:
192,192,89192,1,0,0:0:0:0:
448,192,89192,1,0,0:0:0:0:
320,192,89281,1,0,0:0:0:0:
64,192,89281,1,0,0:0:0:0:
192,192,89370,1,0,0:0:0:0:
64,192,89370,1,0,0:0:0:0:
320,192,89370,1,0,0:0:0:0:
448,192,89370,1,0,0:0:0:0:
192,192,89460,1,0,0:0:0:0:
192,192,89549,1,0,0:0:0:0:
320,192,89638,1,0,0:0:0:0:
448,192,89638,1,0,0:0:0:0:
448,192,89727,1,0,0:0:0:0:
64,192,89727,1,0,0:0:0:0:
192,192,89727,1,0,0:0:0:0:
192,192,89817,1,0,0:0:0:0:
192,192,89906,1,0,0:0:0:0:
448,192,89906,1,0,0:0:0:0:
320,192,89995,1,0,0:0:0:0:
448,192,90085,1,0,0:0:0:0:
320,192,90085,1,0,0:0:0:0:
192,192,90085,1,0,0:0:0:0:
64,192,90085,1,0,0:0:0:0:
192,192,90174,1,0,0:0:0:0:
320,192,90263,1,0,0:0:0:0:
448,192,90352,1,0,0:0:0:0:
192,192,90352,1,0,0:0:0:0:
448,192,90442,1,0,0:0:0:0:
320,192,90442,1,0,0:0:0:0:
64,192,90442,1,0,0:0:0:0:
64,192,90531,1,0,0:0:0:0:
64,192,90620,1,0,0:0:0:0:
320,192,90620,1,0,0:0:0:0:
192,192,90710,1,0,0:0:0:0:
448,192,90799,1,0,0:0:0:0:
320,192,90799,1,0,0:0:0:0:
192,192,90799,1,0,0:0:0:0:
64,192,90799,1,0,0:0:0:0:
320,192,90888,1,0,0:0:0:0:
448,192,90888,1,0,0:0:0:0:
192,192,90977,1,0,0:0:0:0:
64,192,91067,1,0,0:0:0:0:
320,192,91067,1,0,0:0:0:0:
448,192,91156,1,0,0:0:0:0:
192,192,91156,1,0,0:0:0:0:
64,192,91156,1,0,0:0:0:0:
320,192,91245,1,0,0:0:0:0:
192,192,91245,1,0,0:0:0:0:
320,192,91335,1,0,0:0:0:0:
448,192,91335,1,0,0:0:0:0:
192,192,91424,1,0,0:0:0:0:
448,192,91513,1,0,0:0:0:0:
320,192,91513,1,0,0:0:0:0:
192,192,91513,1,0,0:0:0:0:
64,192,91513,1,0,0:0:0:0:
320,192,91602,1,0,0:0:0:0:
448,192,91602,1,0,0:0:0:0:
64,192,91692,1,0,0:0:0:0:
192,192,91692,1,0,0:0:0:0:
192,192,91781,1,0,0:0:0:0:
448,192,91781,1,0,0:0:0:0:
448,192,91870,1,0,0:0:0:0:
320,192,91870,1,0,0:0:0:0:
64,192,91870,1,0,0:0:0:0:
320,192,91960,1,0,0:0:0:0:
64,192,91960,1,0,0:0:0:0:
192,192,92049,1,0,0:0:0:0:
448,192,92049,1,0,0:0:0:0:
320,192,92138,1,0,0:0:0:0:
64,192,92138,1,0,0:0:0:0:
320,192,92227,1,0,0:0:0:0:
192,192,92227,1,0,0:0:0:0:
64,192,92227,1,0,0:0:0:0:
448,192,92227,1,0,0:0:0:0:
192,192,92317,1,0,0:0:0:0:
448,192,92317,1,0,0:0:0:0:
320,192,92406,1,0,0:0:0:0:
192,192,92495,1,0,0:0:0:0:
64,192,92495,1,0,0:0:0:0:
64,192,92585,1,0,0:0:0:0:
448,192,92585,1,0,0:0:0:0:
320,192,92585,1,0,0:0:0:0:
320,192,92674,1,0,0:0:0:0:
192,192,92763,1,0,0:0:0:0:
448,192,92763,1,0,0:0:0:0:
320,192,92852,1,0,0:0:0:0:
448,192,92942,1,0,0:0:0:0:
320,192,92942,1,0,0:0:0:0:
192,192,92942,1,0,0:0:0:0:
64,192,92942,1,0,0:0:0:0:
192,192,93031,1,0,0:0:0:0:
64,192,93120,1,0,0:0:0:0:
192,192,93210,1,0,0:0:0:0:
448,192,93210,1,0,0:0:0:0:
320,192,93299,1,0,0:0:0:0:
64,192,93299,1,0,0:0:0:0:
192,192,93299,1,0,0:0:0:0:
320,192,93388,1,0,0:0:0:0:
448,192,93477,1,0,0:0:0:0:
64,192,93477,1,0,0:0:0:0:
192,192,93567,1,0,0:0:0:0:
320,192,93656,1,0,0:0:0:0:
448,192,93656,1,0,0:0:0:0:
192,192,93656,1,0,0:0:0:0:
64,192,93656,1,0,0:0:0:0:
320,192,93745,1,0,0:0:0:0:
448,192,93745,1,0,0:0:0:0:
320,192,93835,1,0,0:0:0:0:
192,192,93924,1,0,0:0:0:0:
64,192,93924,1,0,0:0:0:0:
64,192,94013,1,0,0:0:0:0:
320,192,94013,1,0,0:0:0:0:
448,192,94013,1,0,0:0:0:0:
320,192,94102,1,0,0:0:0:0:
64,192,94192,1,0,0:0:0:0:
192,192,94192,1,0,0:0:0:0:
320,192,94281,1,0,0:0:0:0:
192,192,94370,1,0,0:0:0:0:
448,192,94370,1,0,0:0:0:0:
320,192,94370,1,0,0:0:0:0:
64,192,94370,1,0,0:0:0:0:
192,192,94460,1,0,0:0:0:0:
64,192,94549,1,0,0:0:0:0:
320,192,94549,1,0,0:0:0:0:
448,192,94638,1,0,0:0:0:0:
192,192,94727,1,0,0:0:0:0:
64,192,94727,1,0,0:0:0:0:
448,192,94727,1,0,0:0:0:0:
320,192,94817,1,0,0:0:0:0:
320,192,94906,1,0,0:0:0:0:
64,192,94906,1,0,0:0:0:0:
192,192,94995,1,0,0:0:0:0:
64,192,95085,1,0,0:0:0:0:
192,192,95085,1,0,0:0:0:0:
320,192,95085,1,0,0:0:0:0:
448,192,95085,1,0,0:0:0:0:
320,192,95174,1,0,0:0:0:0:
64,192,95174,1,0,0:0:0:0:
192,192,95263,1,0,0:0:0:0:
320,192,95352,1,0,0:0:0:0:
448,192,95352,1,0,0:0:0:0:
448,192,95442,1,0,0:0:0:0:
320,192,95442,1,0,0:0:0:0:
64,192,95442,1,0,0:0:0:0:
192,192,95531,1,0,0:0:0:0:
64,192,95620,1,0,0:0:0:0:
320,192,95620,1,0,0:0:0:0:
192,192,95710,1,0,0:0:0:0:
448,192,95799,1,0,0:0:0:0:
320,192,95799,1,0,0:0:0:0:
192,192,95799,1,0,0:0:0:0:
64,192,95799,1,0,0:0:0:0:
320,192,95888,1,0,0:0:0:0:
64,192,95977,1,0,0:0:0:0:
320,192,96067,1,0,0:0:0:0:
448,192,96067,1,0,0:0:0:0:
192,192,96156,1,0,0:0:0:0:
64,192,96156,1,0,0:0:0:0:
448,192,96156,1,0,0:0:0:0:
320,192,96245,1,0,0:0:0:0:
192,192,96335,1,0,0:0:0:0:
448,192,96335,1,0,0:0:0:0:
64,192,96424,1,0,0:0:0:0:
64,192,96513,1,0,0:0:0:0:
192,192,96513,1,0,0:0:0:0:
320,192,96513,1,0,0:0:0:0:
448,192,96513,1,0,0:0:0:0:
320,192,96602,1,0,0:0:0:0:
320,192,96692,1,0,0:0:0:0:
192,192,96781,1,0,0:0:0:0:
64,192,96781,1,0,0:0:0:0:
64,192,96870,1,0,0:0:0:0:
192,192,96870,1,0,0:0:0:0:
320,192,96870,1,0,0:0:0:0:
320,192,96960,1,0,0:0:0:0:
448,192,97049,1,0,0:0:0:0:
192,192,97049,1,0,0:0:0:0:
320,192,97138,1,0,0:0:0:0:
320,192,97227,1,0,0:0:0:0:
192,192,97227,1,0,0:0:0:0:
64,192,97227,1,0,0:0:0:0:
448,192,97227,1,0,0:0:0:0:
192,192,97317,1,0,0:0:0:0:
64,192,97406,1,0,0:0:0:0:
64,192,97495,1,0,0:0:0:0:
192,192,97495,1,0,0:0:0:0:
448,192,97585,1,0,0:0:0:0:
320,192,97585,1,0,0:0:0:0:
192,192,97585,1,0,0:0:0:0:
320,192,97674,1,0,0:0:0:0:
448,192,97763,1,0,0:0:0:0:
64,192,97763,1,0,0:0:0:0:
192,192,97852,1,0,0:0:0:0:
192,192,97942,1,0,0:0:0:0:
320,192,97942,1,0,0:0:0:0:
448,192,97942,1,0,0:0:0:0:
64,192,97942,1,0,0:0:0:0:
320,192,98031,1,0,0:0:0:0:
64,192,98120,1,0,0:0:0:0:
192,192,98210,1,0,0:0:0:0:
448,192,98210,1,0,0:0:0:0:
448,192,98299,1,0,0:0:0:0:
320,192,98299,1,0,0:0:0:0:
192,192,98299,1,0,0:0:0:0:
320,192,98388,1,0,0:0:0:0:
64,192,98477,1,0,0:0:0:0:
192,192,98477,1,0,0:0:0:0:
448,192,98567,1,0,0:0:0:0:
448,192,98656,1,0,0:0:0:0:
320,192,98656,1,0,0:0:0:0:
64,192,98656,1,0,0:0:0:0:
192,192,98656,1,0,0:0:0:0:
192,192,98745,1,0,0:0:0:0:
320,192,98835,1,0,0:0:0:0:
448,192,98835,1,0,0:0:0:0:
320,192,98924,1,0,0:0:0:0:
64,192,99013,1,0,0:0:0:0:
192,192,99013,1,0,0:0:0:0:
448,192,99013,1,0,0:0:0:0:
192,192,99102,1,0,0:0:0:0:
64,192,99192,1,0,0:0:0:0:
448,192,99192,1,0,0:0:0:0:
192,192,99281,1,0,0:0:0:0:
448,192,99370,1,0,0:0:0:0:
320,192,99370,1,0,0:0:0:0:
192,192,99370,1,0,0:0:0:0:
64,192,99370,1,0,0:0:0:0:
448,192,99460,1,0,0:0:0:0:
64,192,99460,1,0,0:0:0:0:
192,192,99549,1,0,0:0:0:0:
64,192,99638,1,0,0:0:0:0:
320,192,99638,1,0,0:0:0:0:
448,192,99727,1,0,0:0:0:0:
192,192,99727,1,0,0:0:0:0:
64,192,99727,1,0,0:0:0:0:
320,192,99817,1,0,0:0:0:0:
448,192,99906,1,0,0:0:0:0:
192,192,99906,1,0,0:0:0:0:
64,192,99995,1,0,0:0:0:0:
448,192,100085,1,0,0:0:0:0:
320,192,100085,1,0,0:0:0:0:
64,192,100085,1,0,0:0:0:0:
192,192,100085,1,0,0:0:0:0:
192,192,100174,1,0,0:0:0:0:
448,192,100174,1,0,0:0:0:0:
320,192,100263,1,0,0:0:0:0:
192,192,100352,1,0,0:0:0:0:
448,192,100442,1,0,0:0:0:0:
320,192,100442,1,0,0:0:0:0:
64,192,100442,1,0,0:0:0:0:
192,192,100442,1,0,0:0:0:0:
320,192,100531,1,0,0:0:0:0:
64,192,100620,1,0,0:0:0:0:
192,192,100710,1,0,0:0:0:0:
448,192,100799,1,0,0:0:0:0:
320,192,100799,1,0,0:0:0:0:
64,192,100799,1,0,0:0:0:0:
192,192,100888,1,0,0:0:0:0:
320,192,100977,1,0,0:0:0:0:
320,192,101067,1,0,0:0:0:0:
448,192,101156,1,0,0:0:0:0:
192,192,101156,1,0,0:0:0:0:
64,192,101156,1,0,0:0:0:0:
320,192,101245,1,0,0:0:0:0:
192,192,101335,1,0,0:0:0:0:
192,192,101424,1,0,0:0:0:0:
320,192,101513,1,0,0:0:0:0:
448,192,101513,1,0,0:0:0:0:
64,192,101513,1,0,0:0:0:0:
448,192,101602,1,0,0:0:0:0:
64,192,101692,1,0,0:0:0:0:
64,192,101781,1,0,0:0:0:0:
192,192,101870,1,0,0:0:0:0:
320,192,101870,1,0,0:0:0:0:
448,192,101870,1,0,0:0:0:0:
192,192,101960,1,0,0:0:0:0:
448,192,102049,1,0,0:0:0:0:
448,192,102138,1,0,0:0:0:0:
320,192,102227,1,0,0:0:0:0:
64,192,102227,1,0,0:0:0:0:
448,192,102227,1,0,0:0:0:0:
192,192,102317,1,0,0:0:0:0:
320,192,102406,1,0,0:0:0:0:
320,192,102495,1,0,0:0:0:0:
448,192,102585,1,0,0:0:0:0:
192,192,102585,1,0,0:0:0:0:
64,192,102585,1,0,0:0:0:0:
64,192,102674,1,0,0:0:0:0:
192,192,102763,1,0,0:0:0:0:
192,192,102852,1,0,0:0:0:0:
448,192,102942,1,0,0:0:0:0:
320,192,102942,1,0,0:0:0:0:
64,192,102942,1,0,0:0:0:0:
448,192,103031,1,0,0:0:0:0:
64,192,103120,1,0,0:0:0:0:
64,192,103210,1,0,0:0:0:0:
192,192,103299,1,0,0:0:0:0:
320,192,103299,1,0,0:0:0:0:
448,192,103299,1,0,0:0:0:0:
192,192,103388,1,0,0:0:0:0:
448,192,103477,1,0,0:0:0:0:
448,192,103567,1,0,0:0:0:0:
320,192,103656,1,0,0:0:0:0:
192,192,103656,1,0,0:0:0:0:
64,192,103656,1,0,0:0:0:0:
192,192,103745,1,0,0:0:0:0:
448,192,103745,1,0,0:0:0:0:
320,192,103835,1,0,0:0:0:0:
320,192,103924,1,0,0:0:0:0:
64,192,103924,1,0,0:0:0:0:
192,192,104013,1,0,0:0:0:0:
64,192,104013,1,0,0:0:0:0:
448,192,104013,1,0,0:0:0:0:
320,192,104102,1,0,0:0:0:0:
192,192,104192,1,0,0:0:0:0:
64,192,104192,1,0,0:0:0:0:
192,192,104281,1,0,0:0:0:0:
448,192,104370,1,0,0:0:0:0:
320,192,104370,1,0,0:0:0:0:
64,192,104370,1,0,0:0:0:0:
192,192,104460,1,0,0:0:0:0:
64,192,104460,1,0,0:0:0:0:
192,192,104549,1,0,0:0:0:0:
448,192,104638,1,0,0:0:0:0:
320,192,104638,1,0,0:0:0:0:
448,192,104727,1,0,0:0:0:0:
192,192,104727,1,0,0:0:0:0:
64,192,104727,1,0,0:0:0:0:
320,192,104817,1,0,0:0:0:0:
192,192,104906,1,0,0:0:0:0:
64,192,104906,1,0,0:0:0:0:
192,192,104995,1,0,0:0:0:0:
448,192,104995,1,0,0:0:0:0:
448,192,105085,1,0,0:0:0:0:
320,192,105085,1,0,0:0:0:0:
64,192,105085,1,0,0:0:0:0:
64,192,105174,1,0,0:0:0:0:
320,192,105174,1,0,0:0:0:0:
192,192,105263,1,0,0:0:0:0:
448,192,105352,1,0,0:0:0:0:
320,192,105352,1,0,0:0:0:0:
320,192,105442,1,0,0:0:0:0:
64,192,105442,1,0,0:0:0:0:
192,192,105442,1,0,0:0:0:0:
192,192,105531,1,0,0:0:0:0:
448,192,105620,1,0,0:0:0:0:
320,192,105620,1,0,0:0:0:0:
64,192,105710,1,0,0:0:0:0:
320,192,105710,1,0,0:0:0:0:
192,192,105799,1,0,0:0:0:0:
64,192,105799,1,0,0:0:0:0:
448,192,105799,1,0,0:0:0:0:
320,192,105888,1,0,0:0:0:0:
192,192,105977,1,0,0:0:0:0:
448,192,105977,1,0,0:0:0:0:
320,192,106067,1,0,0:0:0:0:
64,192,106067,1,0,0:0:0:0:
64,192,106156,1,0,0:0:0:0:
192,192,106156,1,0,0:0:0:0:
448,192,106156,1,0,0:0:0:0:
320,192,106245,1,0,0:0:0:0:
192,192,106335,1,0,0:0:0:0:
448,192,106335,1,0,0:0:0:0:
64,192,106424,1,0,0:0:0:0:
448,192,106513,1,0,0:0:0:0:
192,192,106513,1,0,0:0:0:0:
64,192,106513,1,0,0:0:0:0:
320,192,106602,1,0,0:0:0:0:
448,192,106692,1,0,0:0:0:0:
320,192,106692,1,0,0:0:0:0:
192,192,106781,1,0,0:0:0:0:
64,192,106781,1,0,0:0:0:0:
448,192,106870,1,0,0:0:0:0:
320,192,106870,1,0,0:0:0:0:
192,192,106870,1,0,0:0:0:0:
320,192,106960,1,0,0:0:0:0:
192,192,107049,1,0,0:0:0:0:
64,192,107049,1,0,0:0:0:0:
192,192,107138,1,0,0:0:0:0:
448,192,107138,1,0,0:0:0:0:
448,192,107227,1,0,0:0:0:0:
320,192,107227,1,0,0:0:0:0:
64,192,107227,1,0,0:0:0:0:
192,192,107317,1,0,0:0:0:0:
320,192,107406,1,0,0:0:0:0:
192,192,107406,1,0,0:0:0:0:
320,192,107495,1,0,0:0:0:0:
192,192,107585,1,0,0:0:0:0:
64,192,107585,1,0,0:0:0:0:
448,192,107585,1,0,0:0:0:0:
320,192,107674,1,0,0:0:0:0:
192,192,107763,1,0,0:0:0:0:
448,192,107763,1,0,0:0:0:0:
448,192,107852,1,0,0:0:0:0:
64,192,107852,1,0,0:0:0:0:
320,192,107942,1,0,0:0:0:0:
192,192,107942,1,0,0:0:0:0:
64,192,107942,1,0,0:0:0:0:
192,192,108031,1,0,0:0:0:0:
448,192,108120,1,0,0:0:0:0:
64,192,108120,1,0,0:0:0:0:
64,192,108210,1,0,0:0:0:0:
320,192,108210,1,0,0:0:0:0:
192,192,108299,1,0,0:0:0:0:
320,192,108299,1,0,0:0:0:0:
448,192,108299,1,0,0:0:0:0:
192,192,108388,1,0,0:0:0:0:
64,192,108477,1,0,0:0:0:0:
448,192,108477,1,0,0:0:0:0:
320,192,108477,1,0,0:0:0:0:
320,192,108567,1,0,0:0:0:0:
192,192,108656,1,0,0:0:0:0:
64,192,108656,1,0,0:0:0:0:
448,192,108656,1,0,0:0:0:0:
192,192,108745,1,0,0:0:0:0:
320,192,108835,1,0,0:0:0:0:
320,192,108924,1,0,0:0:0:0:
448,192,109013,1,0,0:0:0:0:
192,192,109013,1,0,0:0:0:0:
64,192,109013,1,0,0:0:0:0:
320,192,109102,1,0,0:0:0:0:
192,192,109192,1,0,0:0:0:0:
64,192,109192,1,0,0:0:0:0:
320,192,109281,1,0,0:0:0:0:
448,192,109281,1,0,0:0:0:0:
448,192,109370,1,0,0:0:0:0:
192,192,109370,1,0,0:0:0:0:
64,192,109370,1,0,0:0:0:0:
320,192,109460,1,0,0:0:0:0:
192,192,109549,1,0,0:0:0:0:
64,192,109549,1,0,0:0:0:0:
448,192,109638,1,0,0:0:0:0:
192,192,109638,1,0,0:0:0:0:
448,192,109727,1,0,0:0:0:0:
320,192,109727,1,0,0:0:0:0:
64,192,109727,1,0,0:0:0:0:
192,192,109817,1,0,0:0:0:0:
320,192,109906,1,0,0:0:0:0:
64,192,109906,1,0,0:0:0:0:
64,192,109995,1,0,0:0:0:0:
448,192,109995,1,0,0:0:0:0:
448,192,110085,1,0,0:0:0:0:
320,192,110085,1,0,0:0:0:0:
192,192,110085,1,0,0:0:0:0:
320,192,110174,1,0,0:0:0:0:
192,192,110263,1,0,0:0:0:0:
64,192,110263,1,0,0:0:0:0:
448,192,110352,1,0,0:0:0:0:
320,192,110352,1,0,0:0:0:0:
448,192,110442,1,0,0:0:0:0:
192,192,110442,1,0,0:0:0:0:
64,192,110442,1,0,0:0:0:0:
192,192,110531,1,0,0:0:0:0:
320,192,110620,1,0,0:0:0:0:
448,192,110620,1,0,0:0:0:0:
64,192,110710,1,0,0:0:0:0:
192,192,110710,1,0,0:0:0:0:
192,192,110799,1,0,0:0:0:0:
64,192,110799,1,0,0:0:0:0:
320,192,110799,1,0,0:0:0:0:
320,192,110888,1,0,0:0:0:0:
448,192,110977,1,0,0:0:0:0:
192,192,110977,1,0,0:0:0:0:
320,192,111067,1,0,0:0:0:0:
448,192,111067,1,0,0:0:0:0:
320,192,111156,1,0,0:0:0:0:
192,192,111156,1,0,0:0:0:0:
64,192,111156,1,0,0:0:0:0:
192,192,111245,1,0,0:0:0:0:
448,192,111335,1,0,0:0:0:0:
64,192,111335,1,0,0:0:0:0:
320,192,111424,1,0,0:0:0:0:
192,192,111424,1,0,0:0:0:0:
64,192,111513,1,0,0:0:0:0:
192,192,111513,1,0,0:0:0:0:
448,192,111513,1,0,0:0:0:0:
320,192,111602,1,0,0:0:0:0:
448,192,111602,1,0,0:0:0:0:
192,192,111692,1,0,0:0:0:0:
64,192,111692,1,0,0:0:0:0:
448,192,111736,1,0,0:0:0:0:
320,192,111736,1,0,0:0:0:0:
192,192,111781,1,0,0:0:0:0:
64,192,111781,1,0,0:0:0:0:
320,192,111870,1,0,0:0:0:0:
448,192,111870,1,0,0:0:0:0:
64,192,111870,1,0,0:0:0:0:
192,192,111960,1,0,0:0:0:0:
448,192,112049,1,0,0:0:0:0:
64,192,112049,1,0,0:0:0:0:
192,192,112138,1,0,0:0:0:0:
192,192,112227,1,0,0:0:0:0:
448,192,112227,1,0,0:0:0:0:
64,192,112227,1,0,0:0:0:0:
320,192,112317,1,0,0:0:0:0:
192,192,112406,1,0,0:0:0:0:
320,192,112495,1,0,0:0:0:0:
64,192,112495,1,0,0:0:0:0:
64,192,112585,1,0,0:0:0:0:
448,192,112585,1,0,0:0:0:0:
192,192,112585,1,0,0:0:0:0:
320,192,112585,1,0,0:0:0:0:
192,192,112674,1,0,0:0:0:0:
448,192,112763,1,0,0:0:0:0:
192,192,112763,1,0,0:0:0:0:
320,192,112852,1,0,0:0:0:0:
192,192,112942,1,0,0:0:0:0:
64,192,112942,1,0,0:0:0:0:
448,192,112942,1,0,0:0:0:0:
192,192,113031,1,0,0:0:0:0:
64,192,113120,1,0,0:0:0:0:
64,192,113210,1,0,0:0:0:0:
320,192,113210,1,0,0:0:0:0:
192,192,113299,1,0,0:0:0:0:
448,192,113299,1,0,0:0:0:0:
320,192,113299,1,0,0:0:0:0:
64,192,113299,1,0,0:0:0:0:
192,192,113388,1,0,0:0:0:0:
448,192,113477,1,0,0:0:0:0:
320,192,113477,1,0,0:0:0:0:
320,192,113567,1,0,0:0:0:0:
192,192,113656,1,0,0:0:0:0:
64,192,113656,1,0,0:0:0:0:
448,192,113656,1,0,0:0:0:0:
192,192,113745,1,0,0:0:0:0:
320,192,113835,1,0,0:0:0:0:
192,192,113924,1,0,0:0:0:0:
64,192,113924,1,0,0:0:0:0:
448,192,114013,1,0,0:0:0:0:
320,192,114013,1,0,0:0:0:0:
192,192,114013,1,0,0:0:0:0:
64,192,114013,1,0,0:0:0:0:
320,192,114102,1,0,0:0:0:0:
448,192,114192,1,0,0:0:0:0:
64,192,114192,1,0,0:0:0:0:
320,192,114281,1,0,0:0:0:0:
192,192,114370,1,0,0:0:0:0:
64,192,114370,1,0,0:0:0:0:
320,192,114370,1,0,0:0:0:0:
192,192,114460,1,0,0:0:0:0:
448,192,114549,1,0,0:0:0:0:
320,192,114638,1,0,0:0:0:0:
64,192,114638,1,0,0:0:0:0:
64,192,114727,1,0,0:0:0:0:
192,192,114727,1,0,0:0:0:0:
320,192,114727,1,0,0:0:0:0:
448,192,114727,1,0,0:0:0:0:
192,192,114817,1,0,0:0:0:0:
448,192,114906,1,0,0:0:0:0:
320,192,114906,1,0,0:0:0:0:
320,192,114995,1,0,0:0:0:0:
448,192,115085,1,0,0:0:0:0:
192,192,115085,1,0,0:0:0:0:
64,192,115085,1,0,0:0:0:0:
192,192,115174,1,0,0:0:0:0:
64,192,115263,1,0,0:0:0:0:
448,192,115352,1,0,0:0:0:0:
192,192,115352,1,0,0:0:0:0:
320,192,115442,1,0,0:0:0:0:
64,192,115442,1,0,0:0:0:0:
448,192,115442,1,0,0:0:0:0:
192,192,115442,1,0,0:0:0:0:
320,192,115531,1,0,0:0:0:0:
192,192,115620,1,0,0:0:0:0:
64,192,115620,1,0,0:0:0:0:
192,192,115710,1,0,0:0:0:0:
448,192,115799,1,0,0:0:0:0:
320,192,115799,1,0,0:0:0:0:
192,192,115799,1,0,0:0:0:0:
320,192,115888,1,0,0:0:0:0:
64,192,115977,1,0,0:0:0:0:
192,192,116067,1,0,0:0:0:0:
448,192,116067,1,0,0:0:0:0:
448,192,116156,1,0,0:0:0:0:
320,192,116156,1,0,0:0:0:0:
192,192,116156,1,0,0:0:0:0:
64,192,116156,1,0,0:0:0:0:
320,192,116245,1,0,0:0:0:0:
192,192,116335,1,0,0:0:0:0:
448,192,116335,1,0,0:0:0:0:
192,192,116424,1,0,0:0:0:0:
320,192,116513,1,0,0:0:0:0:
448,192,116513,1,0,0:0:0:0:
64,192,116513,1,0,0:0:0:0:
192,192,116602,1,0,0:0:0:0:
64,192,116692,1,0,0:0:0:0:
192,192,116781,1,0,0:0:0:0:
320,192,116781,1,0,0:0:0:0:
448,192,116870,1,0,0:0:0:0:
320,192,116870,1,0,0:0:0:0:
192,192,116870,1,0,0:0:0:0:
64,192,116870,1,0,0:0:0:0:
64,192,116960,1,0,0:0:0:0:
192,192,117049,1,0,0:0:0:0:
448,192,117049,1,0,0:0:0:0:
448,192,117138,1,0,0:0:0:0:
448,192,117227,1,0,0:0:0:0:
320,192,117227,1,0,0:0:0:0:
192,192,117227,1,0,0:0:0:0:
320,192,117317,1,0,0:0:0:0:
64,192,117406,1,0,0:0:0:0:
192,192,117495,1,0,0:0:0:0:
448,192,117495,1,0,0:0:0:0:
448,192,117585,1,0,0:0:0:0:
320,192,117585,1,0,0:0:0:0:
192,192,117585,1,0,0:0:0:0:
64,192,117585,1,0,0:0:0:0:
320,192,117674,1,0,0:0:0:0:
64,192,117763,1,0,0:0:0:0:
192,192,117763,1,0,0:0:0:0:
192,192,117852,1,0,0:0:0:0:
448,192,117942,1,0,0:0:0:0:
320,192,117942,1,0,0:0:0:0:
64,192,117942,1,0,0:0:0:0:
320,192,118031,1,0,0:0:0:0:
64,192,118120,1,0,0:0:0:0:
64,192,118210,1,0,0:0:0:0:
192,192,118210,1,0,0:0:0:0:
448,192,118299,1,0,0:0:0:0:
320,192,118299,1,0,0:0:0:0:
192,192,118299,1,0,0:0:0:0:
64,192,118299,1,0,0:0:0:0:
320,192,118388,1,0,0:0:0:0:
192,192,118477,1,0,0:0:0:0:
64,192,118477,1,0,0:0:0:0:
192,192,118567,1,0,0:0:0:0:
448,192,118656,1,0,0:0:0:0:
320,192,118656,1,0,0:0:0:0:
64,192,118656,1,0,0:0:0:0:
320,192,118745,1,0,0:0:0:0:
192,192,118835,1,0,0:0:0:0:
320,192,118924,1,0,0:0:0:0:
448,192,118924,1,0,0:0:0:0:
448,192,119013,1,0,0:0:0:0:
320,192,119013,1,0,0:0:0:0:
64,192,119013,1,0,0:0:0:0:
192,192,119013,1,0,0:0:0:0:
192,192,119102,1,0,0:0:0:0:
320,192,119192,1,0,0:0:0:0:
64,192,119192,1,0,0:0:0:0:
192,192,119281,1,0,0:0:0:0:
320,192,119370,1,0,0:0:0:0:
448,192,119370,1,0,0:0:0:0:
192,192,119370,1,0,0:0:0:0:
320,192,119460,1,0,0:0:0:0:
64,192,119549,1,0,0:0:0:0:
64,192,119638,1,0,0:0:0:0:
320,192,119638,1,0,0:0:0:0:
448,192,119727,1,0,0:0:0:0:
320,192,119727,1,0,0:0:0:0:
192,192,119727,1,0,0:0:0:0:
64,192,119727,1,0,0:0:0:0:
192,192,119817,1,0,0:0:0:0:
64,192,119906,1,0,0:0:0:0:
448,192,119906,1,0,0:0:0:0:
448,192,119995,1,0,0:0:0:0:
320,192,120085,1,0,0:0:0:0:
192,192,120085,1,0,0:0:0:0:
64,192,120085,1,0,0:0:0:0:
64,192,120174,1,0,0:0:0:0:
192,192,120263,1,0,0:0:0:0:
448,192,120352,1,0,0:0:0:0:
64,192,120352,1,0,0:0:0:0:
448,192,120442,1,0,0:0:0:0:
320,192,120442,1,0,0:0:0:0:
192,192,120442,1,0,0:0:0:0:
64,192,120442,1,0,0:0:0:0:
192,192,120531,1,0,0:0:0:0:
320,192,120620,1,0,0:0:0:0:
64,192,120620,1,0,0:0:0:0:
320,192,120710,1,0,0:0:0:0:
448,192,120799,1,0,0:0:0:0:
192,192,120799,1,0,0:0:0:0:
64,192,120799,1,0,0:0:0:0:
448,192,120888,1,0,0:0:0:0:
192,192,120977,1,0,0:0:0:0:
448,192,121067,1,0,0:0:0:0:
320,192,121067,1,0,0:0:0:0:
448,192,121156,1,0,0:0:0:0:
320,192,121156,1,0,0:0:0:0:
64,192,121156,1,0,0:0:0:0:
192,192,121156,1,0,0:0:0:0:
192,192,121245,1,0,0:0:0:0:
64,192,121335,1,0,0:0:0:0:
448,192,121335,1,0,0:0:0:0:
192,192,121424,1,0,0:0:0:0:
64,192,121513,1,0,0:0:0:0:
320,192,121513,1,0,0:0:0:0:
192,192,121513,1,0,0:0:0:0:
320,192,121602,1,0,0:0:0:0:
192,192,121692,1,0,0:0:0:0:
448,192,121781,1,0,0:0:0:0:
192,192,121781,1,0,0:0:0:0:
448,192,121870,1,0,0:0:0:0:
320,192,121870,1,0,0:0:0:0:
192,192,121870,1,0,0:0:0:0:
64,192,121870,1,0,0:0:0:0:
320,192,121960,1,0,0:0:0:0:
192,192,122049,1,0,0:0:0:0:
64,192,122049,1,0,0:0:0:0:
192,192,122138,1,0,0:0:0:0:
448,192,122227,1,0,0:0:0:0:
320,192,122227,1,0,0:0:0:0:
64,192,122227,1,0,0:0:0:0:
320,192,122317,1,0,0:0:0:0:
64,192,122406,1,0,0:0:0:0:
448,192,122406,1,0,0:0:0:0:
192,192,122495,1,0,0:0:0:0:
320,192,122495,1,0,0:0:0:0:
448,192,122585,1,0,0:0:0:0:
320,192,122585,1,0,0:0:0:0:
64,192,122585,1,0,0:0:0:0:
192,192,122585,1,0,0:0:0:0:
448,192,122674,1,0,0:0:0:0:
192,192,122763,1,0,0:0:0:0:
64,192,122763,1,0,0:0:0:0:
320,192,122852,1,0,0:0:0:0:
448,192,122942,1,0,0:0:0:0:
192,192,122942,1,0,0:0:0:0:
64,192,122942,1,0,0:0:0:0:
192,192,123031,1,0,0:0:0:0:
320,192,123120,1,0,0:0:0:0:
64,192,123120,1,0,0:0:0:0:
192,192,123210,1,0,0:0:0:0:
448,192,123210,1,0,0:0:0:0:
448,192,123299,1,0,0:0:0:0:
320,192,123299,1,0,0:0:0:0:
192,192,123299,1,0,0:0:0:0:
64,192,123299,1,0,0:0:0:0:
64,192,123388,1,0,0:0:0:0:
192,192,123477,1,0,0:0:0:0:
448,192,123477,1,0,0:0:0:0:
448,192,123567,1,0,0:0:0:0:
320,192,123656,1,0,0:0:0:0:
192,192,123656,1,0,0:0:0:0:
64,192,123656,1,0,0:0:0:0:
448,192,123656,1,0,0:0:0:0:
192,192,123745,1,0,0:0:0:0:
320,192,123835,1,0,0:0:0:0:
448,192,123924,1,0,0:0:0:0:
192,192,123924,1,0,0:0:0:0:
448,192,124013,1,0,0:0:0:0:
320,192,124013,1,0,0:0:0:0:
64,192,124013,1,0,0:0:0:0:
192,192,124013,1,0,0:0:0:0:
320,192,124102,1,0,0:0:0:0:
192,192,124192,1,0,0:0:0:0:
64,192,124192,1,0,0:0:0:0:
192,192,124281,1,0,0:0:0:0:
64,192,124370,1,0,0:0:0:0:
192,192,124370,1,0,0:0:0:0:
320,192,124370,1,0,0:0:0:0:
448,192,124370,1,0,0:0:0:0:
320,192,124460,1,0,0:0:0:0:
64,192,124549,1,0,0:0:0:0:
64,192,124638,1,0,0:0:0:0:
320,192,124638,1,0,0:0:0:0:
448,192,124727,1,0,0:0:0:0:
320,192,124727,1,0,0:0:0:0:
192,192,124727,1,0,0:0:0:0:
64,192,124727,1,0,0:0:0:0:
192,192,124817,1,0,0:0:0:0:
448,192,124906,1,0,0:0:0:0:
64,192,124906,1,0,0:0:0:0:
320,192,124995,1,0,0:0:0:0:
448,192,125085,1,0,0:0:0:0:
320,192,125085,1,0,0:0:0:0:
192,192,125085,1,0,0:0:0:0:
64,192,125085,1,0,0:0:0:0:
192,192,125174,1,0,0:0:0:0:
448,192,125263,1,0,0:0:0:0:
320,192,125352,1,0,0:0:0:0:
448,192,125352,1,0,0:0:0:0:
448,192,125442,1,0,0:0:0:0:
320,192,125442,1,0,0:0:0:0:
192,192,125442,1,0,0:0:0:0:
64,192,125442,1,0,0:0:0:0:
64,192,125531,1,0,0:0:0:0:
64,192,125620,1,0,0:0:0:0:
320,192,125620,1,0,0:0:0:0:
192,192,125710,1,0,0:0:0:0:
448,192,125799,1,0,0:0:0:0:
320,192,125799,1,0,0:0:0:0:
64,192,125799,1,0,0:0:0:0:
192,192,125799,1,0,0:0:0:0:
320,192,125888,1,0,0:0:0:0:
64,192,125977,1,0,0:0:0:0:
192,192,126067,1,0,0:0:0:0:
320,192,126067,1,0,0:0:0:0:
448,192,126156,1,0,0:0:0:0:
320,192,126156,1,0,0:0:0:0:
192,192,126156,1,0,0:0:0:0:
64,192,126156,1,0,0:0:0:0:
448,192,126245,1,0,0:0:0:0:
320,192,126335,1,0,0:0:0:0:
64,192,126335,1,0,0:0:0:0:
192,192,126424,1,0,0:0:0:0:
64,192,126513,1,0,0:0:0:0:
192,192,126513,1,0,0:0:0:0:
320,192,126513,1,0,0:0:0:0:
448,192,126513,1,0,0:0:0:0:
64,192,126602,1,0,0:0:0:0:
320,192,126692,1,0,0:0:0:0:
448,192,126781,1,0,0:0:0:0:
192,192,126781,1,0,0:0:0:0:
448,192,126870,1,0,0:0:0:0:
320,192,126870,1,0,0:0:0:0:
192,192,126870,1,0,0:0:0:0:
64,192,126870,1,0,0:0:0:0:
320,192,126960,1,0,0:0:0:0:
64,192,127049,1,0,0:0:0:0:
192,192,127049,1,0,0:0:0:0:
192,192,127138,1,0,0:0:0:0:
448,192,127227,1,0,0:0:0:0:
320,192,127227,1,0,0:0:0:0:
192,192,127227,1,0,0:0:0:0:
64,192,127227,1,0,0:0:0:0:
320,192,127317,1,0,0:0:0:0:
192,192,127406,1,0,0:0:0:0:
448,192,127495,1,0,0:0:0:0:
64,192,127495,1,0,0:0:0:0:
448,192,127585,1,0,0:0:0:0:
320,192,127585,1,0,0:0:0:0:
192,192,127585,1,0,0:0:0:0:
64,192,127585,1,0,0:0:0:0:
320,192,127674,1,0,0:0:0:0:
192,192,127763,1,0,0:0:0:0:
64,192,127763,1,0,0:0:0:0:
448,192,127852,1,0,0:0:0:0:
448,192,127942,1,0,0:0:0:0:
320,192,127942,1,0,0:0:0:0:
192,192,127942,1,0,0:0:0:0:
64,192,127942,1,0,0:0:0:0:
192,192,128031,1,0,0:0:0:0:
64,192,128120,1,0,0:0:0:0:
320,192,128210,1,0,0:0:0:0:
64,192,128210,1,0,0:0:0:0:
192,192,128299,1,0,0:0:0:0:
448,192,128299,1,0,0:0:0:0:
320,192,128299,1,0,0:0:0:0:
64,192,128299,1,0,0:0:0:0:
192,192,128388,1,0,0:0:0:0:
64,192,128477,1,0,0:0:0:0:
192,192,128477,1,0,0:0:0:0:
320,192,128567,1,0,0:0:0:0:
192,192,128656,1,0,0:0:0:0:
64,192,128656,1,0,0:0:0:0:
320,192,128656,1,0,0:0:0:0:
448,192,128656,1,0,0:0:0:0:
192,192,128745,1,0,0:0:0:0:
64,192,128835,1,0,0:0:0:0:
192,192,128924,1,0,0:0:0:0:
448,192,128924,1,0,0:0:0:0:
448,192,129013,1,0,0:0:0:0:
320,192,129013,1,0,0:0:0:0:
192,192,129013,1,0,0:0:0:0:
64,192,129013,1,0,0:0:0:0:
320,192,129102,1,0,0:0:0:0:
64,192,129192,1,0,0:0:0:0:
448,192,129192,1,0,0:0:0:0:
192,192,129281,1,0,0:0:0:0:
64,192,129370,1,0,0:0:0:0:
192,192,129370,1,0,0:0:0:0:
320,192,129370,1,0,0:0:0:0:
448,192,129370,1,0,0:0:0:0:
320,192,129460,1,0,0:0:0:0:
64,192,129549,1,0,0:0:0:0:
192,192,129638,1,0,0:0:0:0:
320,192,129638,1,0,0:0:0:0:
448,192,129727,1,0,0:0:0:0:
320,192,129727,1,0,0:0:0:0:
192,192,129727,1,0,0:0:0:0:
64,192,129727,1,0,0:0:0:0:
64,192,129817,1,0,0:0:0:0:
448,192,129906,1,0,0:0:0:0:
192,192,129906,1,0,0:0:0:0:
320,192,129995,1,0,0:0:0:0:
448,192,130085,1,0,0:0:0:0:
320,192,130085,1,0,0:0:0:0:
192,192,130085,1,0,0:0:0:0:
64,192,130085,1,0,0:0:0:0:
448,192,130174,1,0,0:0:0:0:
192,192,130263,1,0,0:0:0:0:
64,192,130352,1,0,0:0:0:0:
320,192,130352,1,0,0:0:0:0:
448,192,130442,1,0,0:0:0:0:
192,192,130442,1,0,0:0:0:0:
64,192,130442,1,0,0:0:0:0:
320,192,130442,1,0,0:0:0:0:
192,192,130531,1,0,0:0:0:0:
448,192,130620,1,0,0:0:0:0:
320,192,130620,1,0,0:0:0:0:
320,192,130710,1,0,0:0:0:0:
192,192,130799,1,0,0:0:0:0:
64,192,130799,1,0,0:0:0:0:
320,192,130799,1,0,0:0:0:0:
448,192,130799,1,0,0:0:0:0:
192,192,130888,1,0,0:0:0:0:
320,192,130977,1,0,0:0:0:0:
64,192,131067,1,0,0:0:0:0:
192,192,131067,1,0,0:0:0:0:
64,192,131156,1,0,0:0:0:0:
192,192,131156,1,0,0:0:0:0:
320,192,131156,1,0,0:0:0:0:
448,192,131156,1,0,0:0:0:0:
320,192,131245,1,0,0:0:0:0:
192,192,131335,1,0,0:0:0:0:
64,192,131335,1,0,0:0:0:0:
192,192,131424,1,0,0:0:0:0:
448,192,131513,1,0,0:0:0:0:
320,192,131513,1,0,0:0:0:0:
192,192,131513,1,0,0:0:0:0:
64,192,131513,1,0,0:0:0:0:
320,192,131602,1,0,0:0:0:0:
448,192,131692,1,0,0:0:0:0:
320,192,131781,1,0,0:0:0:0:
192,192,131781,1,0,0:0:0:0:
64,192,131870,1,0,0:0:0:0:
192,192,131870,1,0,0:0:0:0:
320,192,131870,1,0,0:0:0:0:
448,192,131870,1,0,0:0:0:0:
192,192,131960,1,0,0:0:0:0:
64,192,132049,1,0,0:0:0:0:
320,192,132049,1,0,0:0:0:0:
192,192,132138,1,0,0:0:0:0:
448,192,132227,1,0,0:0:0:0:
320,192,132227,1,0,0:0:0:0:
192,192,132227,1,0,0:0:0:0:
64,192,132227,1,0,0:0:0:0:
320,192,132317,1,0,0:0:0:0:
192,192,132406,1,0,0:0:0:0:
64,192,132495,1,0,0:0:0:0:
448,192,132495,1,0,0:0:0:0:
448,192,132585,1,0,0:0:0:0:
320,192,132585,1,0,0:0:0:0:
192,192,132585,1,0,0:0:0:0:
64,192,132585,1,0,0:0:0:0:
192,192,132674,1,0,0:0:0:0:
320,192,132763,1,0,0:0:0:0:
448,192,132763,1,0,0:0:0:0:
320,192,132852,1,0,0:0:0:0:
448,192,132942,1,0,0:0:0:0:
320,192,132942,1,0,0:0:0:0:
192,192,132942,1,0,0:0:0:0:
64,192,132942,1,0,0:0:0:0:
192,192,133031,1,0,0:0:0:0:
64,192,133120,1,0,0:0:0:0:
192,192,133210,1,0,0:0:0:0:
448,192,133210,1,0,0:0:0:0:
448,192,133299,1,0,0:0:0:0:
320,192,133299,1,0,0:0:0:0:
192,192,133299,1,0,0:0:0:0:
64,192,133299,1,0,0:0:0:0:
320,192,133388,1,0,0:0:0:0:
192,192,133477,1,0,0:0:0:0:
64,192,133477,1,0,0:0:0:0:
192,192,133567,1,0,0:0:0:0:
64,192,133656,1,0,0:0:0:0:
192,192,133656,1,0,0:0:0:0:
320,192,133656,1,0,0:0:0:0:
448,192,133656,1,0,0:0:0:0:
64,192,133745,1,0,0:0:0:0:
192,192,133835,1,0,0:0:0:0:
448,192,133835,1,0,0:0:0:0:
320,192,133924,1,0,0:0:0:0:
64,192,133924,1,0,0:0:0:0:
448,192,134013,1,0,0:0:0:0:
320,192,134013,1,0,0:0:0:0:
192,192,134013,1,0,0:0:0:0:
64,192,134013,1,0,0:0:0:0:
192,192,134102,1,0,0:0:0:0:
448,192,134102,1,0,0:0:0:0:
320,192,134192,1,0,0:0:0:0:
64,192,134192,1,0,0:0:0:0:
192,192,134281,1,0,0:0:0:0:
448,192,134370,1,0,0:0:0:0:
320,192,134370,1,0,0:0:0:0:
192,192,134370,1,0,0:0:0:0:
64,192,134370,1,0,0:0:0:0:
320,192,134460,1,0,0:0:0:0:
192,192,134549,1,0,0:0:0:0:
64,192,134549,1,0,0:0:0:0:
320,192,134638,1,0,0:0:0:0:
448,192,134727,1,0,0:0:0:0:
320,192,134727,1,0,0:0:0:0:
192,192,134727,1,0,0:0:0:0:
64,192,134727,1,0,0:0:0:0:
192,192,134817,1,0,0:0:0:0:
448,192,134906,1,0,0:0:0:0:
320,192,134906,1,0,0:0:0:0:
320,192,134995,1,0,0:0:0:0:
64,192,135085,1,0,0:0:0:0:
192,192,135085,1,0,0:0:0:0:
448,192,135085,1,0,0:0:0:0:
320,192,135085,1,0,0:0:0:0:
192,192,135174,1,0,0:0:0:0:
448,192,135174,1,0,0:0:0:0:
64,192,135263,1,0,0:0:0:0:
192,192,135352,1,0,0:0:0:0:
320,192,135352,1,0,0:0:0:0:
448,192,135442,1,0,0:0:0:0:
320,192,135442,1,0,0:0:0:0:
192,192,135442,1,0,0:0:0:0:
64,192,135442,1,0,0:0:0:0:
448,192,135531,1,0,0:0:0:0:
320,192,135620,1,0,0:0:0:0:
64,192,135620,1,0,0:0:0:0:
64,192,135710,1,0,0:0:0:0:
64,192,135799,1,0,0:0:0:0:
192,192,135799,1,0,0:0:0:0:
320,192,135799,1,0,0:0:0:0:
448,192,135799,1,0,0:0:0:0:
320,192,135888,1,0,0:0:0:0:
192,192,135977,1,0,0:0:0:0:
64,192,135977,1,0,0:0:0:0:
448,192,136067,1,0,0:0:0:0:
320,192,136067,1,0,0:0:0:0:
448,192,136156,1,0,0:0:0:0:
320,192,136156,1,0,0:0:0:0:
192,192,136156,1,0,0:0:0:0:
64,192,136156,1,0,0:0:0:0:
192,192,136245,1,0,0:0:0:0:
448,192,136335,1,0,0:0:0:0:
320,192,136335,1,0,0:0:0:0:
320,192,136424,1,0,0:0:0:0:
448,192,136513,1,0,0:0:0:0:
192,192,136513,1,0,0:0:0:0:
64,192,136513,1,0,0:0:0:0:
320,192,136513,1,0,0:0:0:0:
192,192,136602,1,0,0:0:0:0:
64,192,136602,1,0,0:0:0:0:
320,192,136692,1,0,0:0:0:0:
448,192,136781,1,0,0:0:0:0:
64,192,136781,1,0,0:0:0:0:
64,192,136870,1,0,0:0:0:0:
192,192,136870,1,0,0:0:0:0:
320,192,136870,1,0,0:0:0:0:
448,192,136870,1,0,0:0:0:0:
320,192,136960,1,0,0:0:0:0:
192,192,137049,1,0,0:0:0:0:
64,192,137049,1,0,0:0:0:0:
320,192,137138,1,0,0:0:0:0:
448,192,137227,1,0,0:0:0:0:
320,192,137227,1,0,0:0:0:0:
192,192,137227,1,0,0:0:0:0:
64,192,137227,1,0,0:0:0:0:
192,192,137317,1,0,0:0:0:0:
64,192,137406,1,0,0:0:0:0:
448,192,137406,1,0,0:0:0:0:
320,192,137495,1,0,0:0:0:0:
64,192,137495,1,0,0:0:0:0:
192,192,137585,1,0,0:0:0:0:
64,192,137585,1,0,0:0:0:0:
320,192,137585,1,0,0:0:0:0:
448,192,137585,1,0,0:0:0:0:
192,192,137674,1,0,0:0:0:0:
320,192,137763,1,0,0:0:0:0:
448,192,137763,1,0,0:0:0:0:
448,192,137852,1,0,0:0:0:0:
448,192,137942,1,0,0:0:0:0:
320,192,137942,1,0,0:0:0:0:
192,192,137942,1,0,0:0:0:0:
64,192,137942,1,0,0:0:0:0:
192,192,138031,1,0,0:0:0:0:
320,192,138031,1,0,0:0:0:0:
64,192,138120,1,0,0:0:0:0:
192,192,138210,1,0,0:0:0:0:
448,192,138210,1,0,0:0:0:0:
448,192,138299,1,0,0:0:0:0:
320,192,138299,1,0,0:0:0:0:
192,192,138299,1,0,0:0:0:0:
64,192,138299,1,0,0:0:0:0:
320,192,138388,1,0,0:0:0:0:
192,192,138477,1,0,0:0:0:0:
448,192,138477,1,0,0:0:0:0:
64,192,138567,1,0,0:0:0:0:
448,192,138656,1,0,0:0:0:0:
320,192,138656,1,0,0:0:0:0:
192,192,138656,1,0,0:0:0:0:
64,192,138656,1,0,0:0:0:0:
192,192,138745,1,0,0:0:0:0:
448,192,138835,1,0,0:0:0:0:
320,192,138835,1,0,0:0:0:0:
192,192,138924,1,0,0:0:0:0:
320,192,138924,1,0,0:0:0:0:
448,192,139013,1,0,0:0:0:0:
192,192,139013,1,0,0:0:0:0:
64,192,139013,1,0,0:0:0:0:
320,192,139013,1,0,0:0:0:0:
64,192,139102,1,0,0:0:0:0:
192,192,139192,1,0,0:0:0:0:
448,192,139192,1,0,0:0:0:0:
448,192,139281,1,0,0:0:0:0:
448,192,139370,1,0,0:0:0:0:
320,192,139370,1,0,0:0:0:0:
192,192,139370,1,0,0:0:0:0:
64,192,139370,1,0,0:0:0:0:
192,192,139460,1,0,0:0:0:0:
64,192,139460,1,0,0:0:0:0:
320,192,139549,1,0,0:0:0:0:
448,192,139638,1,0,0:0:0:0:
192,192,139638,1,0,0:0:0:0:
448,192,139727,1,0,0:0:0:0:
320,192,139727,1,0,0:0:0:0:
192,192,139727,1,0,0:0:0:0:
64,192,139727,1,0,0:0:0:0:
320,192,139817,1,0,0:0:0:0:
64,192,139906,1,0,0:0:0:0:
192,192,139906,1,0,0:0:0:0:
192,192,139995,1,0,0:0:0:0:
64,192,140085,1,0,0:0:0:0:
192,192,140085,1,0,0:0:0:0:
320,192,140085,1,0,0:0:0:0:
448,192,140085,1,0,0:0:0:0:
320,192,140174,1,0,0:0:0:0:
192,192,140263,1,0,0:0:0:0:
64,192,140263,1,0,0:0:0:0:
192,192,140352,1,0,0:0:0:0:
448,192,140352,1,0,0:0:0:0:
448,192,140442,1,0,0:0:0:0:
320,192,140442,1,0,0:0:0:0:
192,192,140442,1,0,0:0:0:0:
64,192,140442,1,0,0:0:0:0:
320,192,140531,1,0,0:0:0:0:
64,192,140620,1,0,0:0:0:0:
192,192,140620,1,0,0:0:0:0:
448,192,140710,1,0,0:0:0:0:
64,192,140799,1,0,0:0:0:0:
192,192,140799,1,0,0:0:0:0:
320,192,140799,1,0,0:0:0:0:
448,192,140799,1,0,0:0:0:0:
64,192,140888,1,0,0:0:0:0:
320,192,140888,1,0,0:0:0:0:
192,192,140977,1,0,0:0:0:0:
448,192,141067,1,0,0:0:0:0:
192,192,141067,1,0,0:0:0:0:
448,192,141156,1,0,0:0:0:0:
320,192,141156,1,0,0:0:0:0:
192,192,141156,1,0,0:0:0:0:
64,192,141156,1,0,0:0:0:0:
320,192,141245,1,0,0:0:0:0:
64,192,141335,1,0,0:0:0:0:
448,192,141335,1,0,0:0:0:0:
192,192,141424,1,0,0:0:0:0:
64,192,141513,1,0,0:0:0:0:
192,192,141513,1,0,0:0:0:0:
448,192,141513,1,0,0:0:0:0:
320,192,141513,1,0,0:0:0:0:
320,192,141602,1,0,0:0:0:0:
192,192,141692,1,0,0:0:0:0:
448,192,141692,1,0,0:0:0:0:
448,192,141781,1,0,0:0:0:0:
320,192,141781,1,0,0:0:0:0:
448,192,141870,1,0,0:0:0:0:
320,192,141870,1,0,0:0:0:0:
192,192,141870,1,0,0:0:0:0:
64,192,141870,1,0,0:0:0:0:
192,192,141960,1,0,0:0:0:0:
64,192,142049,1,0,0:0:0:0:
448,192,142049,1,0,0:0:0:0:
320,192,142138,1,0,0:0:0:0:
448,192,142227,1,0,0:0:0:0:
192,192,142227,1,0,0:0:0:0:
320,192,142227,1,0,0:0:0:0:
64,192,142227,1,0,0:0:0:0:
64,192,142317,1,0,0:0:0:0:
192,192,142317,1,0,0:0:0:0:
320,192,142406,1,0,0:0:0:0:
64,192,142495,1,0,0:0:0:0:
192,192,142495,1,0,0:0:0:0:
64,192,142585,1,0,0:0:0:0:
192,192,142585,1,0,0:0:0:0:
320,192,142585,1,0,0:0:0:0:
448,192,142585,1,0,0:0:0:0:
320,192,142674,1,0,0:0:0:0:
448,192,142763,1,0,0:0:0:0:
64,192,142763,1,0,0:0:0:0:
192,192,142852,1,0,0:0:0:0:
320,192,142942,1,0,0:0:0:0:
448,192,142942,1,0,0:0:0:0:
64,192,142942,1,0,0:0:0:0:
192,192,142942,1,0,0:0:0:0:
320,192,143031,1,0,0:0:0:0:
448,192,143120,1,0,0:0:0:0:
192,192,143120,1,0,0:0:0:0:
320,192,143210,1,0,0:0:0:0:
64,192,143210,1,0,0:0:0:0:
64,192,143299,1,0,0:0:0:0:
192,192,143299,1,0,0:0:0:0:
320,192,143299,1,0,0:0:0:0:
448,192,143299,1,0,0:0:0:0:
192,192,143388,1,0,0:0:0:0:
448,192,143477,1,0,0:0:0:0:
320,192,143477,1,0,0:0:0:0:
192,192,143567,1,0,0:0:0:0:
64,192,143656,1,0,0:0:0:0:
192,192,143656,1,0,0:0:0:0:
320,192,143656,1,0,0:0:0:0:
448,192,143656,1,0,0:0:0:0:
320,192,143745,1,0,0:0:0:0:
448,192,143745,1,0,0:0:0:0:
192,192,143835,1,0,0:0:0:0:
320,192,143924,1,0,0:0:0:0:
448,192,143924,1,0,0:0:0:0:
448,192,144013,1,0,0:0:0:0:
320,192,144013,1,0,0:0:0:0:
192,192,144013,1,0,0:0:0:0:
64,192,144013,1,0,0:0:0:0:
192,192,144102,1,0,0:0:0:0:
64,192,144192,1,0,0:0:0:0:
448,192,144192,1,0,0:0:0:0:
320,192,144281,1,0,0:0:0:0:
192,192,144370,1,0,0:0:0:0:
64,192,144370,1,0,0:0:0:0:
448,192,144370,1,0,0:0:0:0:
320,192,144370,1,0,0:0:0:0:
192,192,144460,1,0,0:0:0:0:
64,192,144549,1,0,0:0:0:0:
320,192,144549,1,0,0:0:0:0:
192,192,144638,1,0,0:0:0:0:
320,192,144638,1,0,0:0:0:0:
448,192,144727,1,0,0:0:0:0:
320,192,144727,1,0,0:0:0:0:
192,192,144727,1,0,0:0:0:0:
64,192,144727,1,0,0:0:0:0:
64,192,144817,1,0,0:0:0:0:
192,192,144906,1,0,0:0:0:0:
448,192,144906,1,0,0:0:0:0:
320,192,144995,1,0,0:0:0:0:
448,192,145085,1,0,0:0:0:0:
320,192,145085,1,0,0:0:0:0:
192,192,145085,1,0,0:0:0:0:
64,192,145085,1,0,0:0:0:0:
192,192,145174,1,0,0:0:0:0:
64,192,145174,1,0,0:0:0:0:
192,192,145263,1,0,0:0:0:0:
448,192,145352,1,0,0:0:0:0:
320,192,145352,1,0,0:0:0:0:
448,192,145442,1,0,0:0:0:0:
320,192,145442,1,0,0:0:0:0:
192,192,145442,1,0,0:0:0:0:
64,192,145442,1,0,0:0:0:0:
192,192,145620,1,0,0:0:0:0:
64,192,145620,1,0,0:0:0:0:
192,192,145710,1,0,0:0:0:0:
320,192,145799,1,0,0:0:0:0:
448,192,145799,1,0,0:0:0:0:
192,192,145799,1,0,0:0:0:0:
64,192,145799,1,0,0:0:0:0:
320,192,145932,1,0,0:0:0:0:
448,192,145932,1,0,0:0:0:0:
64,192,145977,1,0,0:0:0:0:
192,192,145977,1,0,0:0:0:0:
320,192,146022,1,0,0:0:0:0:
448,192,146022,1,0,0:0:0:0:
192,192,146067,1,0,0:0:0:0:
64,192,146067,1,0,0:0:0:0:
448,192,146156,1,0,0:0:0:0:
320,192,146156,1,0,0:0:0:0:
192,192,146156,1,0,0:0:0:0:
64,192,146156,1,0,0:0:0:0:
320,192,146245,1,0,0:0:0:0:
192,192,146335,1,0,0:0:0:0:
64,192,146335,1,0,0:0:0:0:
192,192,146424,1,0,0:0:0:0:
448,192,146513,1,0,0:0:0:0:
320,192,146513,1,0,0:0:0:0:
64,192,146513,1,0,0:0:0:0:
320,192,146602,1,0,0:0:0:0:
320,192,146692,1,0,0:0:0:0:
64,192,146692,1,0,0:0:0:0:
192,192,146781,1,0,0:0:0:0:
448,192,146781,1,0,0:0:0:0:
64,192,146870,1,0,0:0:0:0:
320,192,146870,1,0,0:0:0:0:
192,192,146960,1,0,0:0:0:0:
192,192,147049,1,0,0:0:0:0:
448,192,147049,1,0,0:0:0:0:
320,192,147138,1,0,0:0:0:0:
448,192,147138,1,0,0:0:0:0:
192,192,147227,1,0,0:0:0:0:
64,192,147227,1,0,0:0:0:0:
192,192,147317,1,0,0:0:0:0:
448,192,147406,1,0,0:0:0:0:
64,192,147406,1,0,0:0:0:0:
320,192,147495,1,0,0:0:0:0:
448,192,147495,1,0,0:0:0:0:
192,192,147585,1,0,0:0:0:0:
64,192,147585,1,0,0:0:0:0:
192,192,147674,1,0,0:0:0:0:
64,192,147763,1,0,0:0:0:0:
320,192,147763,1,0,0:0:0:0:
192,192,147852,1,0,0:0:0:0:
448,192,147852,1,0,0:0:0:0:
64,192,147942,1,0,0:0:0:0:
448,192,147942,1,0,0:0:0:0:
320,192,148031,1,0,0:0:0:0:
320,192,148120,1,0,0:0:0:0:
64,192,148120,1,0,0:0:0:0:
192,192,148210,1,0,0:0:0:0:
64,192,148210,1,0,0:0:0:0:
448,192,148299,1,0,0:0:0:0:
192,192,148299,1,0,0:0:0:0:
320,192,148388,1,0,0:0:0:0:
192,192,148477,1,0,0:0:0:0:
448,192,148477,1,0,0:0:0:0:
64,192,148567,1,0,0:0:0:0:
320,192,148567,1,0,0:0:0:0:
192,192,148656,1,0,0:0:0:0:
64,192,148656,1,0,0:0:0:0:
320,192,148745,1,0,0:0:0:0:
192,192,148835,1,0,0:0:0:0:
448,192,148835,1,0,0:0:0:0:
320,192,148924,1,0,0:0:0:0:
64,192,148924,1,0,0:0:0:0:
192,192,149013,1,0,0:0:0:0:
448,192,149013,1,0,0:0:0:0:
448,192,149102,1,0,0:0:0:0:
64,192,149192,1,0,0:0:0:0:
192,192,149192,1,0,0:0:0:0:
320,192,149281,1,0,0:0:0:0:
448,192,149281,1,0,0:0:0:0:
192,192,149370,1,0,0:0:0:0:
64,192,149370,1,0,0:0:0:0:
320,192,149460,1,0,0:0:0:0:
448,192,149549,1,0,0:0:0:0:
64,192,149549,1,0,0:0:0:0:
192,192,149638,1,0,0:0:0:0:
320,192,149638,1,0,0:0:0:0:
448,192,149727,1,0,0:0:0:0:
64,192,149727,1,0,0:0:0:0:
320,192,149817,1,0,0:0:0:0:
64,192,149906,1,0,0:0:0:0:
192,192,149906,1,0,0:0:0:0:
320,192,149995,1,0,0:0:0:0:
448,192,149995,1,0,0:0:0:0:
64,192,150085,1,0,0:0:0:0:
192,192,150085,1,0,0:0:0:0:
320,192,150174,1,0,0:0:0:0:
448,192,150263,1,0,0:0:0:0:
192,192,150263,1,0,0:0:0:0:
192,192,150352,1,0,0:0:0:0:
64,192,150352,1,0,0:0:0:0:
64,192,150442,1,0,0:0:0:0:
448,192,150442,1,0,0:0:0:0:
320,192,150531,1,0,0:0:0:0:
192,192,150620,1,0,0:0:0:0:
64,192,150620,1,0,0:0:0:0:
192,192,150710,1,0,0:0:0:0:
448,192,150710,1,0,0:0:0:0:
448,192,150799,1,0,0:0:0:0:
320,192,150799,1,0,0:0:0:0:
192,192,150888,1,0,0:0:0:0:
64,192,150977,1,0,0:0:0:0:
320,192,150977,1,0,0:0:0:0:
448,192,151067,1,0,0:0:0:0:
192,192,151067,1,0,0:0:0:0:
320,192,151156,1,0,0:0:0:0:
192,192,151156,1,0,0:0:0:0:
64,192,151245,1,0,0:0:0:0:
64,192,151335,1,0,0:0:0:0:
448,192,151335,1,0,0:0:0:0:
320,192,151424,1,0,0:0:0:0:
192,192,151424,1,0,0:0:0:0:
448,192,151513,1,0,0:0:0:0:
320,192,151513,1,0,0:0:0:0:
192,192,151602,1,0,0:0:0:0:
64,192,151692,1,0,0:0:0:0:
320,192,151692,1,0,0:0:0:0:
448,192,151781,1,0,0:0:0:0:
320,192,151781,1,0,0:0:0:0:
192,192,151870,1,0,0:0:0:0:
64,192,151870,1,0,0:0:0:0:
192,192,151960,1,0,0:0:0:0:
448,192,152049,1,0,0:0:0:0:
64,192,152049,1,0,0:0:0:0:
320,192,152138,1,0,0:0:0:0:
192,192,152138,1,0,0:0:0:0:
64,192,152227,1,0,0:0:0:0:
448,192,152227,1,0,0:0:0:0:
192,192,152227,1,0,0:0:0:0:
320,192,152317,1,0,0:0:0:0:
192,192,152406,1,0,0:0:0:0:
64,192,152406,1,0,0:0:0:0:
320,192,152495,1,0,0:0:0:0:
448,192,152495,1,0,0:0:0:0:
64,192,152585,1,0,0:0:0:0:
192,192,152585,1,0,0:0:0:0:
192,192,152674,1,0,0:0:0:0:
448,192,152763,1,0,0:0:0:0:
64,192,152763,1,0,0:0:0:0:
192,192,152852,1,0,0:0:0:0:
320,192,152852,1,0,0:0:0:0:
448,192,152942,1,0,0:0:0:0:
64,192,152942,1,0,0:0:0:0:
192,192,153031,1,0,0:0:0:0:
320,192,153120,1,0,0:0:0:0:
448,192,153120,1,0,0:0:0:0:
192,192,153210,1,0,0:0:0:0:
64,192,153210,1,0,0:0:0:0:
448,192,153299,1,0,0:0:0:0:
320,192,153299,1,0,0:0:0:0:
192,192,153388,1,0,0:0:0:0:
64,192,153477,1,0,0:0:0:0:
320,192,153477,1,0,0:0:0:0:
192,192,153567,1,0,0:0:0:0:
448,192,153567,1,0,0:0:0:0:
64,192,153656,1,0,0:0:0:0:
320,192,153656,1,0,0:0:0:0:
448,192,153656,1,0,0:0:0:0:
192,192,153745,1,0,0:0:0:0:
320,192,153835,1,0,0:0:0:0:
448,192,153835,1,0,0:0:0:0:
192,192,153924,1,0,0:0:0:0:
64,192,153924,1,0,0:0:0:0:
448,192,154013,1,0,0:0:0:0:
64,192,154013,1,0,0:0:0:0:
192,192,154102,1,0,0:0:0:0:
320,192,154192,1,0,0:0:0:0:
448,192,154192,1,0,0:0:0:0:
320,192,154281,1,0,0:0:0:0:
64,192,154281,1,0,0:0:0:0:
448,192,154370,1,0,0:0:0:0:
192,192,154370,1,0,0:0:0:0:
192,192,154460,1,0,0:0:0:0:
64,192,154549,1,0,0:0:0:0:
448,192,154549,1,0,0:0:0:0:
320,192,154638,1,0,0:0:0:0:
192,192,154638,1,0,0:0:0:0:
64,192,154727,1,0,0:0:0:0:
192,192,154727,1,0,0:0:0:0:
320,192,154817,1,0,0:0:0:0:
64,192,154906,1,0,0:0:0:0:
192,192,154906,1,0,0:0:0:0:
320,192,154995,1,0,0:0:0:0:
448,192,154995,1,0,0:0:0:0:
192,192,155085,1,0,0:0:0:0:
64,192,155085,1,0,0:0:0:0:
448,192,155085,1,0,0:0:0:0:
320,192,155174,1,0,0:0:0:0:
192,192,155263,1,0,0:0:0:0:
448,192,155263,1,0,0:0:0:0:
64,192,155352,1,0,0:0:0:0:
320,192,155352,1,0,0:0:0:0:
448,192,155442,1,0,0:0:0:0:
192,192,155442,1,0,0:0:0:0:
320,192,155531,1,0,0:0:0:0:
64,192,155620,1,0,0:0:0:0:
192,192,155620,1,0,0:0:0:0:
192,192,155710,1,0,0:0:0:0:
320,192,155710,1,0,0:0:0:0:
448,192,155799,1,0,0:0:0:0:
64,192,155799,1,0,0:0:0:0:
192,192,155888,1,0,0:0:0:0:
448,192,155977,1,0,0:0:0:0:
64,192,155977,1,0,0:0:0:0:
320,192,156067,1,0,0:0:0:0:
64,192,156067,1,0,0:0:0:0:
192,192,156156,1,0,0:0:0:0:
448,192,156156,1,0,0:0:0:0:
192,192,156245,1,0,0:0:0:0:
64,192,156335,1,0,0:0:0:0:
320,192,156335,1,0,0:0:0:0:
448,192,156424,1,0,0:0:0:0:
192,192,156424,1,0,0:0:0:0:
448,192,156513,1,0,0:0:0:0:
320,192,156513,1,0,0:0:0:0:
64,192,156513,1,0,0:0:0:0:
192,192,156602,1,0,0:0:0:0:
64,192,156602,1,0,0:0:0:0:
320,192,156692,1,0,0:0:0:0:
320,192,156781,1,0,0:0:0:0:
64,192,156781,1,0,0:0:0:0:
192,192,156781,1,0,0:0:0:0:
192,192,156870,1,0,0:0:0:0:
320,192,156960,1,0,0:0:0:0:
64,192,156960,1,0,0:0:0:0:
448,192,156960,1,0,0:0:0:0:
320,192,157049,1,0,0:0:0:0:
192,192,157049,1,0,0:0:0:0:
192,192,157138,1,0,0:0:0:0:
64,192,157227,1,0,0:0:0:0:
448,192,157227,1,0,0:0:0:0:
320,192,157317,1,0,0:0:0:0:
448,192,157406,1,0,0:0:0:0:
192,192,157406,1,0,0:0:0:0:
64,192,157406,1,0,0:0:0:0:
320,192,157495,1,0,0:0:0:0:
192,192,157585,1,0,0:0:0:0:
64,192,157585,1,0,0:0:0:0:
320,192,157585,1,0,0:0:0:0:
192,192,157674,1,0,0:0:0:0:
448,192,157763,1,0,0:0:0:0:
64,192,157763,1,0,0:0:0:0:
192,192,157852,1,0,0:0:0:0:
320,192,157852,1,0,0:0:0:0:
448,192,157852,1,0,0:0:0:0:
64,192,157942,1,0,0:0:0:0:
192,192,157942,1,0,0:0:0:0:
320,192,157942,1,0,0:0:0:0:
448,192,157942,1,0,0:0:0:0:
