osu file format v14

[General]
AudioFilename: audio 1.450x.mp3
AudioLeadIn: 0
PreviewTime: 0
Countdown: 0
SampleSet: None
StackLeniency: 0.7
Mode: 3
LetterboxInBreaks: 0
SpecialStyle: 0
WidescreenStoryboard: 1

[Editor]
DistanceSpacing: 0.6
BeatDivisor: 4
GridSize: 4
TimelineZoom: 2.1

[Metadata]
Title:Nina Bonita
TitleUnicode:NiƱa Bonita
Artist:Chino y Nacho
ArtistUnicode:Chino y Nacho
Creator:Mieruosu
Version:Jacks 1.45x (174bpm)
Source:
Tags:osutrainer
BeatmapID:4537583
BeatmapSetID:2153513

[Difficulty]
HPDrainRate:7
CircleSize:4
OverallDifficulty:9.6
ApproachRate:5.4
SliderMultiplier:1.4
SliderTickRate:1

[Events]
//Background and Video events
0,0,"ea7f9d3f86856e47333e9cfc12963ab5.jpg",0,0
//Break Periods
//Storyboard Layer 0 (Background)
//Storyboard Layer 1 (Fail)
//Storyboard Layer 2 (Pass)
//Storyboard Layer 3 (Foreground)
//Storyboard Layer 4 (Overlay)
//Storyboard Sound Samples

[TimingPoints]
9047,344.827586206897,4,1,0,100,1,0

[HitObjects]
64,192,8184,5,0,0:0:0:0:
192,192,8185,1,0,0:0:0:0:
320,192,8271,1,0,0:0:0:0:
448,192,8271,1,0,0:0:0:0:
192,192,8357,1,0,0:0:0:0:
64,192,8357,1,0,0:0:0:0:
192,192,8444,1,0,0:0:0:0:
320,192,8530,1,0,0:0:0:0:
448,192,8530,1,0,0:0:0:0:
320,192,8616,1,0,0:0:0:0:
64,192,8616,1,0,0:0:0:0:
192,192,8702,1,0,0:0:0:0:
64,192,8702,1,0,0:0:0:0:
448,192,8702,1,0,0:0:0:0:
192,192,8788,1,0,0:0:0:0:
320,192,8875,1,0,0:0:0:0:
448,192,8875,1,0,0:0:0:0:
64,192,8875,1,0,0:0:0:0:
192,192,8961,1,0,0:0:0:0:
192,192,9046,1,0,0:0:0:0:
64,192,9046,1,0,0:0:0:0:
320,192,9046,1,0,0:0:0:0:
448,192,9046,1,0,0:0:0:0:
448,192,9133,1,0,0:0:0:0:
448,192,9220,1,0,0:0:0:0:
320,192,9306,1,0,0:0:0:0:
192,192,9306,1,0,0:0:0:0:
448,192,9392,1,0,0:0:0:0:
64,192,9392,1,0,0:0:0:0:
192,192,9392,1,0,0:0:0:0:
320,192,9392,1,0,0:0:0:0:
192,192,9478,1,0,0:0:0:0:
64,192,9564,1,0,0:0:0:0:
320,192,9564,1,0,0:0:0:0:
192,192,9651,1,0,0:0:0:0:
448,192,9737,1,0,0:0:0:0:
320,192,9737,1,0,0:0:0:0:
64,192,9737,1,0,0:0:0:0:
320,192,9823,1,0,0:0:0:0:
320,192,9909,1,0,0:0:0:0:
64,192,9995,1,0,0:0:0:0:
192,192,9995,1,0,0:0:0:0:
64,192,10082,1,0,0:0:0:0:
320,192,10082,1,0,0:0:0:0:
448,192,10082,1,0,0:0:0:0:
192,192,10082,1,0,0:0:0:0:
320,192,10168,1,0,0:0:0:0:
64,192,10254,1,0,0:0:0:0:
448,192,10254,1,0,0:0:0:0:
192,192,10340,1,0,0:0:0:0:
64,192,10426,1,0,0:0:0:0:
320,192,10426,1,0,0:0:0:0:
448,192,10426,1,0,0:0:0:0:
64,192,10513,1,0,0:0:0:0:
64,192,10599,1,0,0:0:0:0:
320,192,10685,1,0,0:0:0:0:
448,192,10685,1,0,0:0:0:0:
320,192,10771,1,0,0:0:0:0:
192,192,10771,1,0,0:0:0:0:
64,192,10771,1,0,0:0:0:0:
448,192,10771,1,0,0:0:0:0:
192,192,10857,1,0,0:0:0:0:
64,192,10944,1,0,0:0:0:0:
320,192,10944,1,0,0:0:0:0:
448,192,11030,1,0,0:0:0:0:
320,192,11116,1,0,0:0:0:0:
448,192,11116,1,0,0:0:0:0:
64,192,11116,1,0,0:0:0:0:
320,192,11202,1,0,0:0:0:0:
320,192,11288,1,0,0:0:0:0:
64,192,11375,1,0,0:0:0:0:
448,192,11375,1,0,0:0:0:0:
448,192,11461,1,0,0:0:0:0:
192,192,11461,1,0,0:0:0:0:
64,192,11461,1,0,0:0:0:0:
320,192,11461,1,0,0:0:0:0:
192,192,11547,1,0,0:0:0:0:
320,192,11633,1,0,0:0:0:0:
448,192,11633,1,0,0:0:0:0:
64,192,11720,1,0,0:0:0:0:
64,192,11806,1,0,0:0:0:0:
320,192,11806,1,0,0:0:0:0:
448,192,11806,1,0,0:0:0:0:
320,192,11892,1,0,0:0:0:0:
192,192,11978,1,0,0:0:0:0:
64,192,12064,1,0,0:0:0:0:
320,192,12064,1,0,0:0:0:0:
448,192,12151,1,0,0:0:0:0:
320,192,12151,1,0,0:0:0:0:
192,192,12151,1,0,0:0:0:0:
64,192,12151,1,0,0:0:0:0:
192,192,12237,1,0,0:0:0:0:
448,192,12323,1,0,0:0:0:0:
64,192,12323,1,0,0:0:0:0:
320,192,12409,1,0,0:0:0:0:
448,192,12495,1,0,0:0:0:0:
192,192,12495,1,0,0:0:0:0:
64,192,12495,1,0,0:0:0:0:
192,192,12582,1,0,0:0:0:0:
192,192,12668,1,0,0:0:0:0:
64,192,12754,1,0,0:0:0:0:
320,192,12754,1,0,0:0:0:0:
64,192,12840,1,0,0:0:0:0:
192,192,12840,1,0,0:0:0:0:
320,192,12840,1,0,0:0:0:0:
448,192,12840,1,0,0:0:0:0:
192,192,12926,1,0,0:0:0:0:
448,192,13013,1,0,0:0:0:0:
320,192,13013,1,0,0:0:0:0:
192,192,13099,1,0,0:0:0:0:
64,192,13185,1,0,0:0:0:0:
192,192,13185,1,0,0:0:0:0:
448,192,13185,1,0,0:0:0:0:
64,192,13271,1,0,0:0:0:0:
64,192,13357,1,0,0:0:0:0:
448,192,13444,1,0,0:0:0:0:
192,192,13444,1,0,0:0:0:0:
448,192,13530,1,0,0:0:0:0:
320,192,13530,1,0,0:0:0:0:
192,192,13530,1,0,0:0:0:0:
64,192,13530,1,0,0:0:0:0:
320,192,13616,1,0,0:0:0:0:
64,192,13702,1,0,0:0:0:0:
448,192,13702,1,0,0:0:0:0:
192,192,13788,1,0,0:0:0:0:
320,192,13875,1,0,0:0:0:0:
192,192,13875,1,0,0:0:0:0:
64,192,13875,1,0,0:0:0:0:
320,192,13961,1,0,0:0:0:0:
320,192,14047,1,0,0:0:0:0:
192,192,14133,1,0,0:0:0:0:
64,192,14133,1,0,0:0:0:0:
64,192,14220,1,0,0:0:0:0:
192,192,14220,1,0,0:0:0:0:
320,192,14220,1,0,0:0:0:0:
448,192,14220,1,0,0:0:0:0:
320,192,14306,1,0,0:0:0:0:
64,192,14392,1,0,0:0:0:0:
192,192,14392,1,0,0:0:0:0:
320,192,14478,1,0,0:0:0:0:
448,192,14564,1,0,0:0:0:0:
320,192,14564,1,0,0:0:0:0:
192,192,14564,1,0,0:0:0:0:
192,192,14651,1,0,0:0:0:0:
192,192,14737,1,0,0:0:0:0:
64,192,14823,1,0,0:0:0:0:
320,192,14823,1,0,0:0:0:0:
448,192,14909,1,0,0:0:0:0:
320,192,14909,1,0,0:0:0:0:
192,192,14909,1,0,0:0:0:0:
64,192,14909,1,0,0:0:0:0:
192,192,14995,1,0,0:0:0:0:
448,192,15082,1,0,0:0:0:0:
320,192,15082,1,0,0:0:0:0:
64,192,15168,1,0,0:0:0:0:
320,192,15254,1,0,0:0:0:0:
448,192,15254,1,0,0:0:0:0:
64,192,15254,1,0,0:0:0:0:
320,192,15340,1,0,0:0:0:0:
320,192,15426,1,0,0:0:0:0:
192,192,15513,1,0,0:0:0:0:
448,192,15513,1,0,0:0:0:0:
448,192,15599,1,0,0:0:0:0:
320,192,15599,1,0,0:0:0:0:
192,192,15599,1,0,0:0:0:0:
64,192,15599,1,0,0:0:0:0:
64,192,15685,1,0,0:0:0:0:
64,192,15771,1,0,0:0:0:0:
320,192,15771,1,0,0:0:0:0:
192,192,15857,1,0,0:0:0:0:
448,192,15944,1,0,0:0:0:0:
64,192,15944,1,0,0:0:0:0:
320,192,15944,1,0,0:0:0:0:
320,192,16030,1,0,0:0:0:0:
320,192,16116,1,0,0:0:0:0:
192,192,16202,1,0,0:0:0:0:
64,192,16202,1,0,0:0:0:0:
64,192,16288,1,0,0:0:0:0:
320,192,16288,1,0,0:0:0:0:
448,192,16288,1,0,0:0:0:0:
192,192,16288,1,0,0:0:0:0:
448,192,16375,1,0,0:0:0:0:
448,192,16461,1,0,0:0:0:0:
192,192,16461,1,0,0:0:0:0:
320,192,16547,1,0,0:0:0:0:
192,192,16633,1,0,0:0:0:0:
64,192,16633,1,0,0:0:0:0:
320,192,16633,1,0,0:0:0:0:
192,192,16720,1,0,0:0:0:0:
192,192,16806,1,0,0:0:0:0:
320,192,16892,1,0,0:0:0:0:
448,192,16892,1,0,0:0:0:0:
448,192,16978,1,0,0:0:0:0:
320,192,16978,1,0,0:0:0:0:
192,192,16978,1,0,0:0:0:0:
64,192,16978,1,0,0:0:0:0:
64,192,17064,1,0,0:0:0:0:
64,192,17151,1,0,0:0:0:0:
320,192,17151,1,0,0:0:0:0:
448,192,17237,1,0,0:0:0:0:
448,192,17323,1,0,0:0:0:0:
320,192,17323,1,0,0:0:0:0:
64,192,17323,1,0,0:0:0:0:
192,192,17409,1,0,0:0:0:0:
192,192,17495,1,0,0:0:0:0:
320,192,17582,1,0,0:0:0:0:
64,192,17582,1,0,0:0:0:0:
64,192,17668,1,0,0:0:0:0:
192,192,17668,1,0,0:0:0:0:
320,192,17668,1,0,0:0:0:0:
448,192,17668,1,0,0:0:0:0:
320,192,17754,1,0,0:0:0:0:
448,192,17840,1,0,0:0:0:0:
192,192,17840,1,0,0:0:0:0:
320,192,17926,1,0,0:0:0:0:
448,192,18013,1,0,0:0:0:0:
192,192,18013,1,0,0:0:0:0:
64,192,18013,1,0,0:0:0:0:
192,192,18099,1,0,0:0:0:0:
192,192,18185,1,0,0:0:0:0:
320,192,18271,1,0,0:0:0:0:
448,192,18271,1,0,0:0:0:0:
448,192,18357,1,0,0:0:0:0:
320,192,18357,1,0,0:0:0:0:
192,192,18357,1,0,0:0:0:0:
64,192,18357,1,0,0:0:0:0:
192,192,18444,1,0,0:0:0:0:
320,192,18530,1,0,0:0:0:0:
64,192,18530,1,0,0:0:0:0:
192,192,18616,1,0,0:0:0:0:
320,192,18702,1,0,0:0:0:0:
192,192,18702,1,0,0:0:0:0:
448,192,18702,1,0,0:0:0:0:
320,192,18788,1,0,0:0:0:0:
320,192,18875,1,0,0:0:0:0:
64,192,18961,1,0,0:0:0:0:
448,192,18961,1,0,0:0:0:0:
448,192,19047,1,0,0:0:0:0:
320,192,19047,1,0,0:0:0:0:
192,192,19047,1,0,0:0:0:0:
64,192,19047,1,0,0:0:0:0:
192,192,19133,1,0,0:0:0:0:
320,192,19220,1,0,0:0:0:0:
448,192,19220,1,0,0:0:0:0:
320,192,19306,1,0,0:0:0:0:
448,192,19392,1,0,0:0:0:0:
192,192,19392,1,0,0:0:0:0:
64,192,19392,1,0,0:0:0:0:
192,192,19478,1,0,0:0:0:0:
192,192,19564,1,0,0:0:0:0:
320,192,19651,1,0,0:0:0:0:
448,192,19651,1,0,0:0:0:0:
192,192,19693,1,0,0:0:0:0:
64,192,19693,1,0,0:0:0:0:
320,192,19737,1,0,0:0:0:0:
448,192,19737,1,0,0:0:0:0:
192,192,19823,1,0,0:0:0:0:
64,192,19823,1,0,0:0:0:0:
64,192,19909,1,0,0:0:0:0:
320,192,19909,1,0,0:0:0:0:
192,192,19995,1,0,0:0:0:0:
448,192,19995,1,0,0:0:0:0:
448,192,20082,1,0,0:0:0:0:
320,192,20082,1,0,0:0:0:0:
192,192,20082,1,0,0:0:0:0:
64,192,20082,1,0,0:0:0:0:
64,192,20168,1,0,0:0:0:0:
64,192,20254,1,0,0:0:0:0:
320,192,20340,1,0,0:0:0:0:
448,192,20340,1,0,0:0:0:0:
448,192,20426,1,0,0:0:0:0:
192,192,20426,1,0,0:0:0:0:
64,192,20426,1,0,0:0:0:0:
192,192,20513,1,0,0:0:0:0:
192,192,20599,1,0,0:0:0:0:
64,192,20685,1,0,0:0:0:0:
448,192,20685,1,0,0:0:0:0:
448,192,20771,1,0,0:0:0:0:
192,192,20771,1,0,0:0:0:0:
64,192,20771,1,0,0:0:0:0:
192,192,20857,1,0,0:0:0:0:
192,192,20944,1,0,0:0:0:0:
448,192,21030,1,0,0:0:0:0:
64,192,21030,1,0,0:0:0:0:
448,192,21116,1,0,0:0:0:0:
64,192,21116,1,0,0:0:0:0:
320,192,21116,1,0,0:0:0:0:
320,192,21202,1,0,0:0:0:0:
320,192,21288,1,0,0:0:0:0:
64,192,21288,1,0,0:0:0:0:
192,192,21375,1,0,0:0:0:0:
320,192,21461,1,0,0:0:0:0:
448,192,21461,1,0,0:0:0:0:
192,192,21461,1,0,0:0:0:0:
64,192,21461,1,0,0:0:0:0:
320,192,21547,1,0,0:0:0:0:
320,192,21633,1,0,0:0:0:0:
192,192,21720,1,0,0:0:0:0:
64,192,21720,1,0,0:0:0:0:
64,192,21806,1,0,0:0:0:0:
192,192,21806,1,0,0:0:0:0:
448,192,21806,1,0,0:0:0:0:
448,192,21892,1,0,0:0:0:0:
192,192,21978,1,0,0:0:0:0:
448,192,21978,1,0,0:0:0:0:
320,192,22064,1,0,0:0:0:0:
448,192,22151,1,0,0:0:0:0:
192,192,22151,1,0,0:0:0:0:
64,192,22151,1,0,0:0:0:0:
64,192,22237,1,0,0:0:0:0:
64,192,22323,1,0,0:0:0:0:
192,192,22409,1,0,0:0:0:0:
320,192,22409,1,0,0:0:0:0:
448,192,22495,1,0,0:0:0:0:
320,192,22495,1,0,0:0:0:0:
64,192,22495,1,0,0:0:0:0:
448,192,22582,1,0,0:0:0:0:
64,192,22668,1,0,0:0:0:0:
320,192,22668,1,0,0:0:0:0:
192,192,22754,1,0,0:0:0:0:
448,192,22840,1,0,0:0:0:0:
320,192,22840,1,0,0:0:0:0:
192,192,22840,1,0,0:0:0:0:
64,192,22840,1,0,0:0:0:0:
320,192,22926,1,0,0:0:0:0:
320,192,23013,1,0,0:0:0:0:
192,192,23099,1,0,0:0:0:0:
64,192,23099,1,0,0:0:0:0:
192,192,23185,1,0,0:0:0:0:
448,192,23185,1,0,0:0:0:0:
320,192,23185,1,0,0:0:0:0:
320,192,23271,1,0,0:0:0:0:
192,192,23357,1,0,0:0:0:0:
448,192,23357,1,0,0:0:0:0:
320,192,23444,1,0,0:0:0:0:
192,192,23530,1,0,0:0:0:0:
64,192,23530,1,0,0:0:0:0:
448,192,23530,1,0,0:0:0:0:
192,192,23616,1,0,0:0:0:0:
192,192,23702,1,0,0:0:0:0:
320,192,23788,1,0,0:0:0:0:
448,192,23788,1,0,0:0:0:0:
448,192,23875,1,0,0:0:0:0:
320,192,23875,1,0,0:0:0:0:
64,192,23875,1,0,0:0:0:0:
192,192,23961,1,0,0:0:0:0:
64,192,24047,1,0,0:0:0:0:
320,192,24047,1,0,0:0:0:0:
448,192,24133,1,0,0:0:0:0:
448,192,24220,1,0,0:0:0:0:
320,192,24220,1,0,0:0:0:0:
192,192,24220,1,0,0:0:0:0:
64,192,24220,1,0,0:0:0:0:
192,192,24306,1,0,0:0:0:0:
64,192,24392,1,0,0:0:0:0:
64,192,24478,1,0,0:0:0:0:
192,192,24478,1,0,0:0:0:0:
64,192,24564,1,0,0:0:0:0:
192,192,24564,1,0,0:0:0:0:
448,192,24564,1,0,0:0:0:0:
320,192,24651,1,0,0:0:0:0:
192,192,24737,1,0,0:0:0:0:
448,192,24737,1,0,0:0:0:0:
448,192,24823,1,0,0:0:0:0:
320,192,24909,1,0,0:0:0:0:
64,192,24909,1,0,0:0:0:0:
192,192,24909,1,0,0:0:0:0:
192,192,24995,1,0,0:0:0:0:
192,192,25082,1,0,0:0:0:0:
320,192,25168,1,0,0:0:0:0:
448,192,25168,1,0,0:0:0:0:
448,192,25254,1,0,0:0:0:0:
320,192,25254,1,0,0:0:0:0:
64,192,25254,1,0,0:0:0:0:
64,192,25340,1,0,0:0:0:0:
64,192,25426,1,0,0:0:0:0:
320,192,25513,1,0,0:0:0:0:
192,192,25513,1,0,0:0:0:0:
448,192,25599,1,0,0:0:0:0:
320,192,25599,1,0,0:0:0:0:
64,192,25599,1,0,0:0:0:0:
192,192,25599,1,0,0:0:0:0:
448,192,25685,1,0,0:0:0:0:
448,192,25771,1,0,0:0:0:0:
64,192,25857,1,0,0:0:0:0:
320,192,25857,1,0,0:0:0:0:
320,192,25944,1,0,0:0:0:0:
64,192,25944,1,0,0:0:0:0:
448,192,25944,1,0,0:0:0:0:
320,192,26030,1,0,0:0:0:0:
64,192,26116,1,0,0:0:0:0:
448,192,26116,1,0,0:0:0:0:
320,192,26202,1,0,0:0:0:0:
192,192,26288,1,0,0:0:0:0:
64,192,26288,1,0,0:0:0:0:
448,192,26288,1,0,0:0:0:0:
192,192,26375,1,0,0:0:0:0:
320,192,26461,1,0,0:0:0:0:
192,192,26547,1,0,0:0:0:0:
448,192,26547,1,0,0:0:0:0:
448,192,26633,1,0,0:0:0:0:
64,192,26633,1,0,0:0:0:0:
320,192,26633,1,0,0:0:0:0:
192,192,26720,1,0,0:0:0:0:
64,192,26806,1,0,0:0:0:0:
320,192,26806,1,0,0:0:0:0:
192,192,26892,1,0,0:0:0:0:
192,192,26978,1,0,0:0:0:0:
64,192,26978,1,0,0:0:0:0:
320,192,26978,1,0,0:0:0:0:
448,192,26978,1,0,0:0:0:0:
64,192,27064,1,0,0:0:0:0:
192,192,27151,1,0,0:0:0:0:
64,192,27237,1,0,0:0:0:0:
320,192,27237,1,0,0:0:0:0:
448,192,27323,1,0,0:0:0:0:
192,192,27323,1,0,0:0:0:0:
64,192,27323,1,0,0:0:0:0:
320,192,27409,1,0,0:0:0:0:
320,192,27495,1,0,0:0:0:0:
64,192,27495,1,0,0:0:0:0:
192,192,27582,1,0,0:0:0:0:
64,192,27668,1,0,0:0:0:0:
192,192,27668,1,0,0:0:0:0:
320,192,27668,1,0,0:0:0:0:
448,192,27668,1,0,0:0:0:0:
320,192,27754,1,0,0:0:0:0:
320,192,27840,1,0,0:0:0:0:
64,192,27926,1,0,0:0:0:0:
192,192,27926,1,0,0:0:0:0:
448,192,28013,1,0,0:0:0:0:
320,192,28013,1,0,0:0:0:0:
64,192,28013,1,0,0:0:0:0:
192,192,28099,1,0,0:0:0:0:
320,192,28185,1,0,0:0:0:0:
64,192,28185,1,0,0:0:0:0:
320,192,28271,1,0,0:0:0:0:
448,192,28357,1,0,0:0:0:0:
192,192,28357,1,0,0:0:0:0:
64,192,28357,1,0,0:0:0:0:
320,192,28357,1,0,0:0:0:0:
448,192,28444,1,0,0:0:0:0:
448,192,28530,1,0,0:0:0:0:
320,192,28616,1,0,0:0:0:0:
192,192,28616,1,0,0:0:0:0:
448,192,28702,1,0,0:0:0:0:
192,192,28702,1,0,0:0:0:0:
64,192,28702,1,0,0:0:0:0:
320,192,28788,1,0,0:0:0:0:
64,192,28875,1,0,0:0:0:0:
320,192,28875,1,0,0:0:0:0:
192,192,28961,1,0,0:0:0:0:
448,192,29047,1,0,0:0:0:0:
320,192,29047,1,0,0:0:0:0:
64,192,29047,1,0,0:0:0:0:
192,192,29133,1,0,0:0:0:0:
192,192,29220,1,0,0:0:0:0:
64,192,29306,1,0,0:0:0:0:
320,192,29306,1,0,0:0:0:0:
320,192,29392,1,0,0:0:0:0:
192,192,29392,1,0,0:0:0:0:
64,192,29392,1,0,0:0:0:0:
192,192,29478,1,0,0:0:0:0:
64,192,29564,1,0,0:0:0:0:
320,192,29564,1,0,0:0:0:0:
64,192,29651,1,0,0:0:0:0:
192,192,29737,1,0,0:0:0:0:
64,192,29737,1,0,0:0:0:0:
320,192,29737,1,0,0:0:0:0:
448,192,29737,1,0,0:0:0:0:
192,192,29823,1,0,0:0:0:0:
320,192,29909,1,0,0:0:0:0:
448,192,29995,1,0,0:0:0:0:
64,192,29995,1,0,0:0:0:0:
448,192,30082,1,0,0:0:0:0:
192,192,30082,1,0,0:0:0:0:
64,192,30082,1,0,0:0:0:0:
320,192,30168,1,0,0:0:0:0:
192,192,30254,1,0,0:0:0:0:
64,192,30254,1,0,0:0:0:0:
192,192,30340,1,0,0:0:0:0:
448,192,30426,1,0,0:0:0:0:
320,192,30426,1,0,0:0:0:0:
64,192,30426,1,0,0:0:0:0:
320,192,30513,1,0,0:0:0:0:
192,192,30599,1,0,0:0:0:0:
320,192,30685,1,0,0:0:0:0:
64,192,30685,1,0,0:0:0:0:
320,192,30771,1,0,0:0:0:0:
192,192,30771,1,0,0:0:0:0:
64,192,30771,1,0,0:0:0:0:
448,192,30771,1,0,0:0:0:0:
192,192,30857,1,0,0:0:0:0:
448,192,30944,1,0,0:0:0:0:
64,192,30944,1,0,0:0:0:0:
192,192,31030,1,0,0:0:0:0:
64,192,31116,1,0,0:0:0:0:
192,192,31116,1,0,0:0:0:0:
320,192,31116,1,0,0:0:0:0:
448,192,31116,1,0,0:0:0:0:
320,192,31202,1,0,0:0:0:0:
320,192,31288,1,0,0:0:0:0:
192,192,31375,1,0,0:0:0:0:
64,192,31375,1,0,0:0:0:0:
64,192,31461,1,0,0:0:0:0:
192,192,31461,1,0,0:0:0:0:
320,192,31461,1,0,0:0:0:0:
448,192,31461,1,0,0:0:0:0:
320,192,31547,1,0,0:0:0:0:
192,192,31633,1,0,0:0:0:0:
448,192,31633,1,0,0:0:0:0:
192,192,31720,1,0,0:0:0:0:
448,192,31806,1,0,0:0:0:0:
320,192,31806,1,0,0:0:0:0:
192,192,31806,1,0,0:0:0:0:
64,192,31806,1,0,0:0:0:0:
64,192,31892,1,0,0:0:0:0:
64,192,31978,1,0,0:0:0:0:
448,192,32064,1,0,0:0:0:0:
320,192,32064,1,0,0:0:0:0:
320,192,32151,1,0,0:0:0:0:
192,192,32151,1,0,0:0:0:0:
64,192,32151,1,0,0:0:0:0:
448,192,32151,1,0,0:0:0:0:
192,192,32237,1,0,0:0:0:0:
448,192,32323,1,0,0:0:0:0:
64,192,32323,1,0,0:0:0:0:
320,192,32409,1,0,0:0:0:0:
448,192,32495,1,0,0:0:0:0:
320,192,32495,1,0,0:0:0:0:
192,192,32495,1,0,0:0:0:0:
64,192,32495,1,0,0:0:0:0:
192,192,32582,1,0,0:0:0:0:
192,192,32668,1,0,0:0:0:0:
448,192,32754,1,0,0:0:0:0:
64,192,32754,1,0,0:0:0:0:
64,192,32840,1,0,0:0:0:0:
192,192,32840,1,0,0:0:0:0:
320,192,32840,1,0,0:0:0:0:
448,192,32840,1,0,0:0:0:0:
320,192,32926,1,0,0:0:0:0:
192,192,33013,1,0,0:0:0:0:
448,192,33013,1,0,0:0:0:0:
320,192,33099,1,0,0:0:0:0:
448,192,33185,1,0,0:0:0:0:
320,192,33185,1,0,0:0:0:0:
192,192,33185,1,0,0:0:0:0:
64,192,33185,1,0,0:0:0:0:
64,192,33271,1,0,0:0:0:0:
192,192,33357,1,0,0:0:0:0:
320,192,33444,1,0,0:0:0:0:
64,192,33444,1,0,0:0:0:0:
64,192,33530,1,0,0:0:0:0:
320,192,33530,1,0,0:0:0:0:
448,192,33530,1,0,0:0:0:0:
192,192,33530,1,0,0:0:0:0:
448,192,33616,1,0,0:0:0:0:
448,192,33702,1,0,0:0:0:0:
192,192,33702,1,0,0:0:0:0:
320,192,33788,1,0,0:0:0:0:
192,192,33875,1,0,0:0:0:0:
64,192,33875,1,0,0:0:0:0:
320,192,33875,1,0,0:0:0:0:
448,192,33875,1,0,0:0:0:0:
192,192,33961,1,0,0:0:0:0:
192,192,34047,1,0,0:0:0:0:
448,192,34133,1,0,0:0:0:0:
320,192,34133,1,0,0:0:0:0:
448,192,34220,1,0,0:0:0:0:
320,192,34220,1,0,0:0:0:0:
64,192,34220,1,0,0:0:0:0:
192,192,34220,1,0,0:0:0:0:
64,192,34306,1,0,0:0:0:0:
64,192,34392,1,0,0:0:0:0:
448,192,34392,1,0,0:0:0:0:
320,192,34478,1,0,0:0:0:0:
448,192,34564,1,0,0:0:0:0:
320,192,34564,1,0,0:0:0:0:
192,192,34564,1,0,0:0:0:0:
64,192,34564,1,0,0:0:0:0:
448,192,34651,1,0,0:0:0:0:
448,192,34737,1,0,0:0:0:0:
192,192,34823,1,0,0:0:0:0:
64,192,34823,1,0,0:0:0:0:
64,192,34909,1,0,0:0:0:0:
192,192,34909,1,0,0:0:0:0:
320,192,34909,1,0,0:0:0:0:
448,192,34909,1,0,0:0:0:0:
320,192,34995,1,0,0:0:0:0:
64,192,35082,1,0,0:0:0:0:
448,192,35082,1,0,0:0:0:0:
192,192,35168,1,0,0:0:0:0:
448,192,35254,1,0,0:0:0:0:
320,192,35254,1,0,0:0:0:0:
64,192,35254,1,0,0:0:0:0:
192,192,35254,1,0,0:0:0:0:
320,192,35340,1,0,0:0:0:0:
320,192,35426,1,0,0:0:0:0:
192,192,35513,1,0,0:0:0:0:
448,192,35513,1,0,0:0:0:0:
448,192,35599,1,0,0:0:0:0:
320,192,35599,1,0,0:0:0:0:
192,192,35599,1,0,0:0:0:0:
64,192,35599,1,0,0:0:0:0:
64,192,35685,1,0,0:0:0:0:
64,192,35771,1,0,0:0:0:0:
320,192,35771,1,0,0:0:0:0:
192,192,35857,1,0,0:0:0:0:
448,192,35944,1,0,0:0:0:0:
320,192,35944,1,0,0:0:0:0:
192,192,35944,1,0,0:0:0:0:
64,192,35944,1,0,0:0:0:0:
320,192,36030,1,0,0:0:0:0:
320,192,36116,1,0,0:0:0:0:
192,192,36116,1,0,0:0:0:0:
64,192,36202,1,0,0:0:0:0:
448,192,36202,1,0,0:0:0:0:
64,192,36288,1,0,0:0:0:0:
192,192,36288,1,0,0:0:0:0:
320,192,36288,1,0,0:0:0:0:
448,192,36288,1,0,0:0:0:0:
192,192,36375,1,0,0:0:0:0:
320,192,36375,1,0,0:0:0:0:
448,192,36461,1,0,0:0:0:0:
64,192,36461,1,0,0:0:0:0:
192,192,36547,1,0,0:0:0:0:
64,192,36547,1,0,0:0:0:0:
64,192,36633,1,0,0:0:0:0:
192,192,36633,1,0,0:0:0:0:
320,192,36633,1,0,0:0:0:0:
448,192,36633,1,0,0:0:0:0:
192,192,36720,1,0,0:0:0:0:
192,192,36806,1,0,0:0:0:0:
448,192,36892,1,0,0:0:0:0:
320,192,36892,1,0,0:0:0:0:
448,192,36978,1,0,0:0:0:0:
320,192,36978,1,0,0:0:0:0:
192,192,36978,1,0,0:0:0:0:
64,192,36978,1,0,0:0:0:0:
64,192,37064,1,0,0:0:0:0:
64,192,37151,1,0,0:0:0:0:
320,192,37151,1,0,0:0:0:0:
320,192,37237,1,0,0:0:0:0:
448,192,37323,1,0,0:0:0:0:
320,192,37323,1,0,0:0:0:0:
192,192,37323,1,0,0:0:0:0:
64,192,37323,1,0,0:0:0:0:
192,192,37409,1,0,0:0:0:0:
192,192,37495,1,0,0:0:0:0:
448,192,37582,1,0,0:0:0:0:
64,192,37582,1,0,0:0:0:0:
64,192,37668,1,0,0:0:0:0:
192,192,37668,1,0,0:0:0:0:
320,192,37668,1,0,0:0:0:0:
448,192,37668,1,0,0:0:0:0:
320,192,37754,1,0,0:0:0:0:
192,192,37840,1,0,0:0:0:0:
64,192,37840,1,0,0:0:0:0:
64,192,37926,1,0,0:0:0:0:
64,192,38013,1,0,0:0:0:0:
192,192,38013,1,0,0:0:0:0:
320,192,38013,1,0,0:0:0:0:
448,192,38013,1,0,0:0:0:0:
192,192,38099,1,0,0:0:0:0:
192,192,38185,1,0,0:0:0:0:
448,192,38271,1,0,0:0:0:0:
320,192,38271,1,0,0:0:0:0:
448,192,38357,1,0,0:0:0:0:
320,192,38357,1,0,0:0:0:0:
192,192,38357,1,0,0:0:0:0:
64,192,38357,1,0,0:0:0:0:
192,192,38444,1,0,0:0:0:0:
64,192,38530,1,0,0:0:0:0:
320,192,38530,1,0,0:0:0:0:
448,192,38616,1,0,0:0:0:0:
448,192,38702,1,0,0:0:0:0:
320,192,38702,1,0,0:0:0:0:
192,192,38702,1,0,0:0:0:0:
64,192,38702,1,0,0:0:0:0:
320,192,38788,1,0,0:0:0:0:
320,192,38875,1,0,0:0:0:0:
192,192,38875,1,0,0:0:0:0:
192,192,38961,1,0,0:0:0:0:
64,192,38961,1,0,0:0:0:0:
192,192,39047,1,0,0:0:0:0:
64,192,39047,1,0,0:0:0:0:
320,192,39047,1,0,0:0:0:0:
448,192,39047,1,0,0:0:0:0:
448,192,39133,1,0,0:0:0:0:
320,192,39133,1,0,0:0:0:0:
320,192,39220,1,0,0:0:0:0:
192,192,39220,1,0,0:0:0:0:
192,192,39306,1,0,0:0:0:0:
64,192,39306,1,0,0:0:0:0:
448,192,39392,1,0,0:0:0:0:
320,192,39392,1,0,0:0:0:0:
192,192,39392,1,0,0:0:0:0:
64,192,39392,1,0,0:0:0:0:
448,192,39478,1,0,0:0:0:0:
448,192,39564,1,0,0:0:0:0:
192,192,39651,1,0,0:0:0:0:
64,192,39651,1,0,0:0:0:0:
64,192,39737,1,0,0:0:0:0:
192,192,39737,1,0,0:0:0:0:
320,192,39737,1,0,0:0:0:0:
448,192,39737,1,0,0:0:0:0:
320,192,39823,1,0,0:0:0:0:
64,192,39909,1,0,0:0:0:0:
448,192,39909,1,0,0:0:0:0:
64,192,39995,1,0,0:0:0:0:
64,192,40082,1,0,0:0:0:0:
192,192,40082,1,0,0:0:0:0:
320,192,40082,1,0,0:0:0:0:
448,192,40082,1,0,0:0:0:0:
320,192,40168,1,0,0:0:0:0:
192,192,40254,1,0,0:0:0:0:
192,192,40340,1,0,0:0:0:0:
448,192,40340,1,0,0:0:0:0:
448,192,40426,1,0,0:0:0:0:
320,192,40426,1,0,0:0:0:0:
192,192,40426,1,0,0:0:0:0:
64,192,40426,1,0,0:0:0:0:
320,192,40513,1,0,0:0:0:0:
64,192,40599,1,0,0:0:0:0:
192,192,40599,1,0,0:0:0:0:
448,192,40685,1,0,0:0:0:0:
448,192,40771,1,0,0:0:0:0:
320,192,40771,1,0,0:0:0:0:
192,192,40771,1,0,0:0:0:0:
64,192,40771,1,0,0:0:0:0:
192,192,40857,1,0,0:0:0:0:
192,192,40944,1,0,0:0:0:0:
192,192,41030,1,0,0:0:0:0:
320,192,41030,1,0,0:0:0:0:
448,192,41116,1,0,0:0:0:0:
320,192,41116,1,0,0:0:0:0:
192,192,41116,1,0,0:0:0:0:
64,192,41116,1,0,0:0:0:0:
448,192,41202,1,0,0:0:0:0:
448,192,41288,1,0,0:0:0:0:
192,192,41288,1,0,0:0:0:0:
320,192,41375,1,0,0:0:0:0:
320,192,41461,1,0,0:0:0:0:
192,192,41461,1,0,0:0:0:0:
64,192,41461,1,0,0:0:0:0:
448,192,41461,1,0,0:0:0:0:
448,192,41547,1,0,0:0:0:0:
320,192,41633,1,0,0:0:0:0:
192,192,41720,1,0,0:0:0:0:
64,192,41720,1,0,0:0:0:0:
64,192,41806,1,0,0:0:0:0:
192,192,41806,1,0,0:0:0:0:
320,192,41806,1,0,0:0:0:0:
448,192,41806,1,0,0:0:0:0:
192,192,41892,1,0,0:0:0:0:
320,192,41978,1,0,0:0:0:0:
64,192,41978,1,0,0:0:0:0:
64,192,42064,1,0,0:0:0:0:
64,192,42151,1,0,0:0:0:0:
192,192,42151,1,0,0:0:0:0:
320,192,42151,1,0,0:0:0:0:
448,192,42151,1,0,0:0:0:0:
320,192,42237,1,0,0:0:0:0:
448,192,42237,1,0,0:0:0:0:
64,192,42323,1,0,0:0:0:0:
192,192,42409,1,0,0:0:0:0:
448,192,42409,1,0,0:0:0:0:
448,192,42495,1,0,0:0:0:0:
320,192,42495,1,0,0:0:0:0:
192,192,42495,1,0,0:0:0:0:
64,192,42495,1,0,0:0:0:0:
320,192,42582,1,0,0:0:0:0:
192,192,42668,1,0,0:0:0:0:
64,192,42668,1,0,0:0:0:0:
320,192,42754,1,0,0:0:0:0:
448,192,42840,1,0,0:0:0:0:
64,192,42840,1,0,0:0:0:0:
192,192,42840,1,0,0:0:0:0:
192,192,42926,1,0,0:0:0:0:
320,192,42926,1,0,0:0:0:0:
64,192,43013,1,0,0:0:0:0:
192,192,43099,1,0,0:0:0:0:
448,192,43099,1,0,0:0:0:0:
448,192,43185,1,0,0:0:0:0:
320,192,43185,1,0,0:0:0:0:
192,192,43185,1,0,0:0:0:0:
64,192,43185,1,0,0:0:0:0:
64,192,43271,1,0,0:0:0:0:
192,192,43357,1,0,0:0:0:0:
448,192,43357,1,0,0:0:0:0:
448,192,43444,1,0,0:0:0:0:
320,192,43530,1,0,0:0:0:0:
192,192,43530,1,0,0:0:0:0:
64,192,43530,1,0,0:0:0:0:
192,192,43616,1,0,0:0:0:0:
192,192,43702,1,0,0:0:0:0:
320,192,43788,1,0,0:0:0:0:
64,192,43788,1,0,0:0:0:0:
448,192,43875,1,0,0:0:0:0:
320,192,43875,1,0,0:0:0:0:
192,192,43875,1,0,0:0:0:0:
64,192,43875,1,0,0:0:0:0:
192,192,43961,1,0,0:0:0:0:
320,192,44047,1,0,0:0:0:0:
64,192,44047,1,0,0:0:0:0:
320,192,44133,1,0,0:0:0:0:
192,192,44220,1,0,0:0:0:0:
64,192,44220,1,0,0:0:0:0:
448,192,44220,1,0,0:0:0:0:
192,192,44306,1,0,0:0:0:0:
192,192,44392,1,0,0:0:0:0:
448,192,44478,1,0,0:0:0:0:
320,192,44478,1,0,0:0:0:0:
448,192,44564,1,0,0:0:0:0:
320,192,44564,1,0,0:0:0:0:
64,192,44564,1,0,0:0:0:0:
192,192,44564,1,0,0:0:0:0:
192,192,44651,1,0,0:0:0:0:
320,192,44737,1,0,0:0:0:0:
448,192,44737,1,0,0:0:0:0:
320,192,44823,1,0,0:0:0:0:
192,192,44909,1,0,0:0:0:0:
64,192,44909,1,0,0:0:0:0:
448,192,44909,1,0,0:0:0:0:
192,192,44995,1,0,0:0:0:0:
320,192,45082,1,0,0:0:0:0:
192,192,45168,1,0,0:0:0:0:
448,192,45168,1,0,0:0:0:0:
448,192,45254,1,0,0:0:0:0:
192,192,45254,1,0,0:0:0:0:
64,192,45254,1,0,0:0:0:0:
320,192,45254,1,0,0:0:0:0:
64,192,45340,1,0,0:0:0:0:
64,192,45426,1,0,0:0:0:0:
320,192,45426,1,0,0:0:0:0:
192,192,45513,1,0,0:0:0:0:
448,192,45599,1,0,0:0:0:0:
320,192,45599,1,0,0:0:0:0:
64,192,45599,1,0,0:0:0:0:
192,192,45685,1,0,0:0:0:0:
320,192,45771,1,0,0:0:0:0:
192,192,45857,1,0,0:0:0:0:
64,192,45857,1,0,0:0:0:0:
448,192,45944,1,0,0:0:0:0:
64,192,45944,1,0,0:0:0:0:
192,192,45944,1,0,0:0:0:0:
320,192,45944,1,0,0:0:0:0:
448,192,46030,1,0,0:0:0:0:
64,192,46116,1,0,0:0:0:0:
320,192,46116,1,0,0:0:0:0:
64,192,46202,1,0,0:0:0:0:
192,192,46288,1,0,0:0:0:0:
320,192,46288,1,0,0:0:0:0:
448,192,46288,1,0,0:0:0:0:
320,192,46375,1,0,0:0:0:0:
64,192,46461,1,0,0:0:0:0:
192,192,46547,1,0,0:0:0:0:
320,192,46547,1,0,0:0:0:0:
448,192,46633,1,0,0:0:0:0:
320,192,46633,1,0,0:0:0:0:
192,192,46633,1,0,0:0:0:0:
64,192,46633,1,0,0:0:0:0:
320,192,46720,1,0,0:0:0:0:
448,192,46806,1,0,0:0:0:0:
64,192,46806,1,0,0:0:0:0:
192,192,46892,1,0,0:0:0:0:
448,192,46978,1,0,0:0:0:0:
320,192,46978,1,0,0:0:0:0:
64,192,46978,1,0,0:0:0:0:
192,192,47064,1,0,0:0:0:0:
64,192,47064,1,0,0:0:0:0:
320,192,47151,1,0,0:0:0:0:
64,192,47237,1,0,0:0:0:0:
192,192,47237,1,0,0:0:0:0:
64,192,47323,1,0,0:0:0:0:
192,192,47323,1,0,0:0:0:0:
320,192,47323,1,0,0:0:0:0:
448,192,47323,1,0,0:0:0:0:
320,192,47409,1,0,0:0:0:0:
448,192,47409,1,0,0:0:0:0:
64,192,47495,1,0,0:0:0:0:
192,192,47495,1,0,0:0:0:0:
320,192,47582,1,0,0:0:0:0:
448,192,47582,1,0,0:0:0:0:
448,192,47668,1,0,0:0:0:0:
320,192,47668,1,0,0:0:0:0:
192,192,47668,1,0,0:0:0:0:
64,192,47668,1,0,0:0:0:0:
192,192,47754,1,0,0:0:0:0:
192,192,47840,1,0,0:0:0:0:
320,192,47926,1,0,0:0:0:0:
448,192,47926,1,0,0:0:0:0:
448,192,48013,1,0,0:0:0:0:
192,192,48013,1,0,0:0:0:0:
64,192,48013,1,0,0:0:0:0:
320,192,48013,1,0,0:0:0:0:
192,192,48099,1,0,0:0:0:0:
192,192,48185,1,0,0:0:0:0:
64,192,48185,1,0,0:0:0:0:
64,192,48271,1,0,0:0:0:0:
192,192,48357,1,0,0:0:0:0:
320,192,48357,1,0,0:0:0:0:
448,192,48357,1,0,0:0:0:0:
320,192,48444,1,0,0:0:0:0:
64,192,48530,1,0,0:0:0:0:
448,192,48616,1,0,0:0:0:0:
192,192,48616,1,0,0:0:0:0:
448,192,48702,1,0,0:0:0:0:
192,192,48702,1,0,0:0:0:0:
64,192,48702,1,0,0:0:0:0:
320,192,48788,1,0,0:0:0:0:
448,192,48875,1,0,0:0:0:0:
192,192,48875,1,0,0:0:0:0:
192,192,48961,1,0,0:0:0:0:
448,192,49047,1,0,0:0:0:0:
192,192,49047,1,0,0:0:0:0:
64,192,49047,1,0,0:0:0:0:
320,192,49133,1,0,0:0:0:0:
448,192,49220,1,0,0:0:0:0:
320,192,49306,1,0,0:0:0:0:
192,192,49306,1,0,0:0:0:0:
448,192,49392,1,0,0:0:0:0:
320,192,49392,1,0,0:0:0:0:
64,192,49392,1,0,0:0:0:0:
192,192,49392,1,0,0:0:0:0:
64,192,49478,1,0,0:0:0:0:
64,192,49564,1,0,0:0:0:0:
320,192,49564,1,0,0:0:0:0:
320,192,49651,1,0,0:0:0:0:
448,192,49737,1,0,0:0:0:0:
192,192,49737,1,0,0:0:0:0:
64,192,49737,1,0,0:0:0:0:
448,192,49823,1,0,0:0:0:0:
192,192,49909,1,0,0:0:0:0:
448,192,49995,1,0,0:0:0:0:
320,192,49995,1,0,0:0:0:0:
64,192,50082,1,0,0:0:0:0:
192,192,50082,1,0,0:0:0:0:
320,192,50082,1,0,0:0:0:0:
448,192,50082,1,0,0:0:0:0:
192,192,50168,1,0,0:0:0:0:
64,192,50254,1,0,0:0:0:0:
320,192,50254,1,0,0:0:0:0:
64,192,50340,1,0,0:0:0:0:
192,192,50426,1,0,0:0:0:0:
448,192,50426,1,0,0:0:0:0:
64,192,50426,1,0,0:0:0:0:
320,192,50513,1,0,0:0:0:0:
448,192,50599,1,0,0:0:0:0:
64,192,50685,1,0,0:0:0:0:
320,192,50685,1,0,0:0:0:0:
448,192,50771,1,0,0:0:0:0:
320,192,50771,1,0,0:0:0:0:
64,192,50771,1,0,0:0:0:0:
448,192,50857,1,0,0:0:0:0:
192,192,50944,1,0,0:0:0:0:
64,192,50944,1,0,0:0:0:0:
192,192,51030,1,0,0:0:0:0:
448,192,51116,1,0,0:0:0:0:
320,192,51116,1,0,0:0:0:0:
64,192,51116,1,0,0:0:0:0:
320,192,51202,1,0,0:0:0:0:
192,192,51288,1,0,0:0:0:0:
64,192,51375,1,0,0:0:0:0:
320,192,51375,1,0,0:0:0:0:
448,192,51461,1,0,0:0:0:0:
192,192,51461,1,0,0:0:0:0:
64,192,51461,1,0,0:0:0:0:
320,192,51461,1,0,0:0:0:0:
320,192,51547,1,0,0:0:0:0:
448,192,51633,1,0,0:0:0:0:
64,192,51633,1,0,0:0:0:0:
64,192,51720,1,0,0:0:0:0:
192,192,51806,1,0,0:0:0:0:
320,192,51806,1,0,0:0:0:0:
448,192,51806,1,0,0:0:0:0:
64,192,51892,1,0,0:0:0:0:
192,192,51892,1,0,0:0:0:0:
320,192,51978,1,0,0:0:0:0:
448,192,51978,1,0,0:0:0:0:
64,192,52064,1,0,0:0:0:0:
320,192,52064,1,0,0:0:0:0:
448,192,52151,1,0,0:0:0:0:
192,192,52151,1,0,0:0:0:0:
64,192,52151,1,0,0:0:0:0:
320,192,52237,1,0,0:0:0:0:
448,192,52237,1,0,0:0:0:0:
192,192,52323,1,0,0:0:0:0:
64,192,52323,1,0,0:0:0:0:
320,192,52323,1,0,0:0:0:0:
64,192,52409,1,0,0:0:0:0:
448,192,52409,1,0,0:0:0:0:
448,192,52495,1,0,0:0:0:0:
320,192,52495,1,0,0:0:0:0:
192,192,52495,1,0,0:0:0:0:
192,192,52582,1,0,0:0:0:0:
64,192,52668,1,0,0:0:0:0:
320,192,52668,1,0,0:0:0:0:
448,192,52668,1,0,0:0:0:0:
320,192,52754,1,0,0:0:0:0:
192,192,52754,1,0,0:0:0:0:
192,192,52840,1,0,0:0:0:0:
64,192,52840,1,0,0:0:0:0:
448,192,52840,1,0,0:0:0:0:
64,192,52926,1,0,0:0:0:0:
320,192,53013,1,0,0:0:0:0:
192,192,53013,1,0,0:0:0:0:
448,192,53013,1,0,0:0:0:0:
320,192,53099,1,0,0:0:0:0:
192,192,53185,1,0,0:0:0:0:
64,192,53185,1,0,0:0:0:0:
448,192,53185,1,0,0:0:0:0:
320,192,53185,1,0,0:0:0:0:
64,192,53271,1,0,0:0:0:0:
64,192,53357,1,0,0:0:0:0:
192,192,53444,1,0,0:0:0:0:
448,192,53444,1,0,0:0:0:0:
448,192,53530,1,0,0:0:0:0:
192,192,53530,1,0,0:0:0:0:
64,192,53530,1,0,0:0:0:0:
320,192,53530,1,0,0:0:0:0:
448,192,53616,1,0,0:0:0:0:
320,192,53702,1,0,0:0:0:0:
64,192,53702,1,0,0:0:0:0:
192,192,53788,1,0,0:0:0:0:
448,192,53875,1,0,0:0:0:0:
320,192,53875,1,0,0:0:0:0:
192,192,53875,1,0,0:0:0:0:
64,192,53875,1,0,0:0:0:0:
320,192,53961,1,0,0:0:0:0:
192,192,54047,1,0,0:0:0:0:
192,192,54133,1,0,0:0:0:0:
448,192,54133,1,0,0:0:0:0:
448,192,54220,1,0,0:0:0:0:
320,192,54220,1,0,0:0:0:0:
192,192,54220,1,0,0:0:0:0:
64,192,54220,1,0,0:0:0:0:
320,192,54306,1,0,0:0:0:0:
192,192,54392,1,0,0:0:0:0:
448,192,54392,1,0,0:0:0:0:
64,192,54478,1,0,0:0:0:0:
64,192,54564,1,0,0:0:0:0:
192,192,54564,1,0,0:0:0:0:
320,192,54564,1,0,0:0:0:0:
448,192,54564,1,0,0:0:0:0:
320,192,54651,1,0,0:0:0:0:
192,192,54737,1,0,0:0:0:0:
192,192,54823,1,0,0:0:0:0:
320,192,54823,1,0,0:0:0:0:
448,192,54909,1,0,0:0:0:0:
320,192,54909,1,0,0:0:0:0:
192,192,54909,1,0,0:0:0:0:
64,192,54909,1,0,0:0:0:0:
448,192,54995,1,0,0:0:0:0:
320,192,55082,1,0,0:0:0:0:
192,192,55082,1,0,0:0:0:0:
192,192,55168,1,0,0:0:0:0:
448,192,55254,1,0,0:0:0:0:
320,192,55254,1,0,0:0:0:0:
192,192,55254,1,0,0:0:0:0:
64,192,55254,1,0,0:0:0:0:
320,192,55340,1,0,0:0:0:0:
64,192,55426,1,0,0:0:0:0:
192,192,55426,1,0,0:0:0:0:
320,192,55513,1,0,0:0:0:0:
448,192,55513,1,0,0:0:0:0:
448,192,55599,1,0,0:0:0:0:
320,192,55599,1,0,0:0:0:0:
192,192,55599,1,0,0:0:0:0:
64,192,55599,1,0,0:0:0:0:
192,192,55685,1,0,0:0:0:0:
64,192,55771,1,0,0:0:0:0:
320,192,55771,1,0,0:0:0:0:
448,192,55857,1,0,0:0:0:0:
192,192,55857,1,0,0:0:0:0:
448,192,55944,1,0,0:0:0:0:
320,192,55944,1,0,0:0:0:0:
192,192,55944,1,0,0:0:0:0:
64,192,55944,1,0,0:0:0:0:
320,192,56030,1,0,0:0:0:0:
64,192,56116,1,0,0:0:0:0:
192,192,56202,1,0,0:0:0:0:
64,192,56202,1,0,0:0:0:0:
448,192,56288,1,0,0:0:0:0:
320,192,56288,1,0,0:0:0:0:
192,192,56288,1,0,0:0:0:0:
64,192,56288,1,0,0:0:0:0:
320,192,56375,1,0,0:0:0:0:
192,192,56461,1,0,0:0:0:0:
448,192,56461,1,0,0:0:0:0:
448,192,56547,1,0,0:0:0:0:
448,192,56633,1,0,0:0:0:0:
320,192,56633,1,0,0:0:0:0:
192,192,56633,1,0,0:0:0:0:
64,192,56633,1,0,0:0:0:0:
192,192,56720,1,0,0:0:0:0:
320,192,56806,1,0,0:0:0:0:
448,192,56892,1,0,0:0:0:0:
320,192,56892,1,0,0:0:0:0:
448,192,56978,1,0,0:0:0:0:
320,192,56978,1,0,0:0:0:0:
64,192,56978,1,0,0:0:0:0:
192,192,56978,1,0,0:0:0:0:
192,192,57064,1,0,0:0:0:0:
64,192,57151,1,0,0:0:0:0:
448,192,57151,1,0,0:0:0:0:
192,192,57237,1,0,0:0:0:0:
320,192,57323,1,0,0:0:0:0:
64,192,57323,1,0,0:0:0:0:
192,192,57323,1,0,0:0:0:0:
448,192,57323,1,0,0:0:0:0:
320,192,57409,1,0,0:0:0:0:
192,192,57495,1,0,0:0:0:0:
64,192,57582,1,0,0:0:0:0:
320,192,57582,1,0,0:0:0:0:
448,192,57668,1,0,0:0:0:0:
320,192,57668,1,0,0:0:0:0:
192,192,57668,1,0,0:0:0:0:
64,192,57668,1,0,0:0:0:0:
192,192,57754,1,0,0:0:0:0:
192,192,57840,1,0,0:0:0:0:
448,192,57840,1,0,0:0:0:0:
320,192,57926,1,0,0:0:0:0:
448,192,58013,1,0,0:0:0:0:
320,192,58013,1,0,0:0:0:0:
192,192,58013,1,0,0:0:0:0:
64,192,58013,1,0,0:0:0:0:
192,192,58099,1,0,0:0:0:0:
448,192,58099,1,0,0:0:0:0:
320,192,58185,1,0,0:0:0:0:
64,192,58185,1,0,0:0:0:0:
192,192,58271,1,0,0:0:0:0:
448,192,58271,1,0,0:0:0:0:
320,192,58271,1,0,0:0:0:0:
448,192,58357,1,0,0:0:0:0:
320,192,58357,1,0,0:0:0:0:
192,192,58357,1,0,0:0:0:0:
64,192,58357,1,0,0:0:0:0:
64,192,58444,1,0,0:0:0:0:
320,192,58444,1,0,0:0:0:0:
192,192,58530,1,0,0:0:0:0:
64,192,58530,1,0,0:0:0:0:
448,192,58616,1,0,0:0:0:0:
320,192,58616,1,0,0:0:0:0:
192,192,58616,1,0,0:0:0:0:
448,192,58702,1,0,0:0:0:0:
320,192,58702,1,0,0:0:0:0:
192,192,58702,1,0,0:0:0:0:
64,192,58702,1,0,0:0:0:0:
192,192,58788,1,0,0:0:0:0:
64,192,58875,1,0,0:0:0:0:
320,192,58961,1,0,0:0:0:0:
64,192,58961,1,0,0:0:0:0:
448,192,59047,1,0,0:0:0:0:
320,192,59047,1,0,0:0:0:0:
64,192,59047,1,0,0:0:0:0:
192,192,59047,1,0,0:0:0:0:
192,192,59133,1,0,0:0:0:0:
320,192,59220,1,0,0:0:0:0:
448,192,59220,1,0,0:0:0:0:
320,192,59306,1,0,0:0:0:0:
448,192,59392,1,0,0:0:0:0:
320,192,59392,1,0,0:0:0:0:
192,192,59392,1,0,0:0:0:0:
64,192,59392,1,0,0:0:0:0:
192,192,59478,1,0,0:0:0:0:
192,192,59564,1,0,0:0:0:0:
320,192,59651,1,0,0:0:0:0:
448,192,59651,1,0,0:0:0:0:
448,192,59737,1,0,0:0:0:0:
320,192,59737,1,0,0:0:0:0:
64,192,59737,1,0,0:0:0:0:
192,192,59737,1,0,0:0:0:0:
192,192,59823,1,0,0:0:0:0:
448,192,59909,1,0,0:0:0:0:
64,192,59909,1,0,0:0:0:0:
448,192,59995,1,0,0:0:0:0:
448,192,60082,1,0,0:0:0:0:
320,192,60082,1,0,0:0:0:0:
192,192,60082,1,0,0:0:0:0:
64,192,60082,1,0,0:0:0:0:
64,192,60168,1,0,0:0:0:0:
192,192,60254,1,0,0:0:0:0:
320,192,60340,1,0,0:0:0:0:
64,192,60340,1,0,0:0:0:0:
448,192,60426,1,0,0:0:0:0:
320,192,60426,1,0,0:0:0:0:
192,192,60426,1,0,0:0:0:0:
64,192,60426,1,0,0:0:0:0:
448,192,60513,1,0,0:0:0:0:
320,192,60599,1,0,0:0:0:0:
64,192,60599,1,0,0:0:0:0:
192,192,60685,1,0,0:0:0:0:
448,192,60771,1,0,0:0:0:0:
320,192,60771,1,0,0:0:0:0:
64,192,60771,1,0,0:0:0:0:
192,192,60771,1,0,0:0:0:0:
320,192,60857,1,0,0:0:0:0:
192,192,60944,1,0,0:0:0:0:
64,192,61030,1,0,0:0:0:0:
192,192,61030,1,0,0:0:0:0:
448,192,61116,1,0,0:0:0:0:
320,192,61116,1,0,0:0:0:0:
192,192,61116,1,0,0:0:0:0:
64,192,61116,1,0,0:0:0:0:
320,192,61202,1,0,0:0:0:0:
448,192,61288,1,0,0:0:0:0:
192,192,61288,1,0,0:0:0:0:
448,192,61375,1,0,0:0:0:0:
448,192,61461,1,0,0:0:0:0:
320,192,61461,1,0,0:0:0:0:
192,192,61461,1,0,0:0:0:0:
64,192,61461,1,0,0:0:0:0:
192,192,61547,1,0,0:0:0:0:
64,192,61633,1,0,0:0:0:0:
192,192,61720,1,0,0:0:0:0:
320,192,61720,1,0,0:0:0:0:
448,192,61806,1,0,0:0:0:0:
320,192,61806,1,0,0:0:0:0:
192,192,61806,1,0,0:0:0:0:
64,192,61806,1,0,0:0:0:0:
448,192,61892,1,0,0:0:0:0:
320,192,61978,1,0,0:0:0:0:
64,192,61978,1,0,0:0:0:0:
192,192,62064,1,0,0:0:0:0:
448,192,62151,1,0,0:0:0:0:
320,192,62151,1,0,0:0:0:0:
192,192,62151,1,0,0:0:0:0:
64,192,62151,1,0,0:0:0:0:
64,192,62237,1,0,0:0:0:0:
192,192,62323,1,0,0:0:0:0:
448,192,62409,1,0,0:0:0:0:
320,192,62409,1,0,0:0:0:0:
448,192,62495,1,0,0:0:0:0:
320,192,62495,1,0,0:0:0:0:
192,192,62495,1,0,0:0:0:0:
64,192,62495,1,0,0:0:0:0:
192,192,62582,1,0,0:0:0:0:
448,192,62668,1,0,0:0:0:0:
64,192,62668,1,0,0:0:0:0:
320,192,62754,1,0,0:0:0:0:
192,192,62840,1,0,0:0:0:0:
64,192,62840,1,0,0:0:0:0:
320,192,62840,1,0,0:0:0:0:
448,192,62840,1,0,0:0:0:0:
192,192,62926,1,0,0:0:0:0:
64,192,63013,1,0,0:0:0:0:
448,192,63013,1,0,0:0:0:0:
64,192,63099,1,0,0:0:0:0:
192,192,63099,1,0,0:0:0:0:
448,192,63185,1,0,0:0:0:0:
320,192,63185,1,0,0:0:0:0:
192,192,63185,1,0,0:0:0:0:
320,192,63271,1,0,0:0:0:0:
64,192,63271,1,0,0:0:0:0:
192,192,63357,1,0,0:0:0:0:
64,192,63357,1,0,0:0:0:0:
320,192,63444,1,0,0:0:0:0:
448,192,63444,1,0,0:0:0:0:
448,192,63530,1,0,0:0:0:0:
192,192,63530,1,0,0:0:0:0:
64,192,63530,1,0,0:0:0:0:
320,192,63616,1,0,0:0:0:0:
192,192,63616,1,0,0:0:0:0:
64,192,63702,1,0,0:0:0:0:
320,192,63702,1,0,0:0:0:0:
448,192,63788,1,0,0:0:0:0:
192,192,63788,1,0,0:0:0:0:
448,192,63875,1,0,0:0:0:0:
320,192,63875,1,0,0:0:0:0:
64,192,63875,1,0,0:0:0:0:
192,192,63961,1,0,0:0:0:0:
64,192,63961,1,0,0:0:0:0:
192,192,64047,1,0,0:0:0:0:
320,192,64047,1,0,0:0:0:0:
320,192,64133,1,0,0:0:0:0:
64,192,64133,1,0,0:0:0:0:
448,192,64220,1,0,0:0:0:0:
192,192,64220,1,0,0:0:0:0:
64,192,64220,1,0,0:0:0:0:
320,192,64220,1,0,0:0:0:0:
448,192,64306,1,0,0:0:0:0:
192,192,64306,1,0,0:0:0:0:
320,192,64392,1,0,0:0:0:0:
192,192,64478,1,0,0:0:0:0:
64,192,64478,1,0,0:0:0:0:
448,192,64564,1,0,0:0:0:0:
320,192,64564,1,0,0:0:0:0:
64,192,64564,1,0,0:0:0:0:
192,192,64651,1,0,0:0:0:0:
448,192,64737,1,0,0:0:0:0:
320,192,64737,1,0,0:0:0:0:
192,192,64823,1,0,0:0:0:0:
448,192,64909,1,0,0:0:0:0:
320,192,64909,1,0,0:0:0:0:
64,192,64909,1,0,0:0:0:0:
192,192,64909,1,0,0:0:0:0:
320,192,64995,1,0,0:0:0:0:
192,192,65082,1,0,0:0:0:0:
448,192,65082,1,0,0:0:0:0:
320,192,65168,1,0,0:0:0:0:
64,192,65168,1,0,0:0:0:0:
64,192,65254,1,0,0:0:0:0:
192,192,65254,1,0,0:0:0:0:
320,192,65254,1,0,0:0:0:0:
448,192,65254,1,0,0:0:0:0:
192,192,65340,1,0,0:0:0:0:
320,192,65426,1,0,0:0:0:0:
448,192,65426,1,0,0:0:0:0:
320,192,65513,1,0,0:0:0:0:
448,192,65599,1,0,0:0:0:0:
320,192,65599,1,0,0:0:0:0:
192,192,65599,1,0,0:0:0:0:
64,192,65599,1,0,0:0:0:0:
192,192,65685,1,0,0:0:0:0:
64,192,65685,1,0,0:0:0:0:
320,192,65771,1,0,0:0:0:0:
448,192,65857,1,0,0:0:0:0:
64,192,65857,1,0,0:0:0:0:
192,192,65944,1,0,0:0:0:0:
64,192,65944,1,0,0:0:0:0:
320,192,65944,1,0,0:0:0:0:
448,192,65944,1,0,0:0:0:0:
320,192,66030,1,0,0:0:0:0:
192,192,66116,1,0,0:0:0:0:
64,192,66116,1,0,0:0:0:0:
192,192,66202,1,0,0:0:0:0:
448,192,66288,1,0,0:0:0:0:
320,192,66288,1,0,0:0:0:0:
192,192,66288,1,0,0:0:0:0:
64,192,66288,1,0,0:0:0:0:
320,192,66375,1,0,0:0:0:0:
448,192,66461,1,0,0:0:0:0:
192,192,66461,1,0,0:0:0:0:
320,192,66547,1,0,0:0:0:0:
448,192,66547,1,0,0:0:0:0:
448,192,66633,1,0,0:0:0:0:
320,192,66633,1,0,0:0:0:0:
192,192,66633,1,0,0:0:0:0:
64,192,66633,1,0,0:0:0:0:
192,192,66720,1,0,0:0:0:0:
64,192,66806,1,0,0:0:0:0:
320,192,66806,1,0,0:0:0:0:
192,192,66892,1,0,0:0:0:0:
448,192,66978,1,0,0:0:0:0:
320,192,66978,1,0,0:0:0:0:
192,192,66978,1,0,0:0:0:0:
64,192,66978,1,0,0:0:0:0:
320,192,67064,1,0,0:0:0:0:
448,192,67064,1,0,0:0:0:0:
192,192,67151,1,0,0:0:0:0:
192,192,67237,1,0,0:0:0:0:
320,192,67237,1,0,0:0:0:0:
320,192,67323,1,0,0:0:0:0:
448,192,67323,1,0,0:0:0:0:
64,192,67323,1,0,0:0:0:0:
192,192,67409,1,0,0:0:0:0:
448,192,67495,1,0,0:0:0:0:
320,192,67495,1,0,0:0:0:0:
320,192,67582,1,0,0:0:0:0:
192,192,67668,1,0,0:0:0:0:
64,192,67668,1,0,0:0:0:0:
448,192,67668,1,0,0:0:0:0:
192,192,67754,1,0,0:0:0:0:
64,192,67840,1,0,0:0:0:0:
448,192,67840,1,0,0:0:0:0:
448,192,67926,1,0,0:0:0:0:
192,192,67926,1,0,0:0:0:0:
320,192,68013,1,0,0:0:0:0:
192,192,68013,1,0,0:0:0:0:
64,192,68013,1,0,0:0:0:0:
320,192,68099,1,0,0:0:0:0:
64,192,68185,1,0,0:0:0:0:
192,192,68185,1,0,0:0:0:0:
320,192,68271,1,0,0:0:0:0:
448,192,68357,1,0,0:0:0:0:
192,192,68357,1,0,0:0:0:0:
64,192,68357,1,0,0:0:0:0:
448,192,68444,1,0,0:0:0:0:
320,192,68444,1,0,0:0:0:0:
64,192,68530,1,0,0:0:0:0:
192,192,68616,1,0,0:0:0:0:
64,192,68616,1,0,0:0:0:0:
448,192,68702,1,0,0:0:0:0:
320,192,68702,1,0,0:0:0:0:
192,192,68702,1,0,0:0:0:0:
320,192,68788,1,0,0:0:0:0:
192,192,68875,1,0,0:0:0:0:
64,192,68875,1,0,0:0:0:0:
64,192,68961,1,0,0:0:0:0:
448,192,69047,1,0,0:0:0:0:
320,192,69047,1,0,0:0:0:0:
192,192,69047,1,0,0:0:0:0:
320,192,69133,1,0,0:0:0:0:
448,192,69220,1,0,0:0:0:0:
192,192,69220,1,0,0:0:0:0:
64,192,69306,1,0,0:0:0:0:
320,192,69306,1,0,0:0:0:0:
192,192,69392,1,0,0:0:0:0:
64,192,69392,1,0,0:0:0:0:
448,192,69392,1,0,0:0:0:0:
320,192,69478,1,0,0:0:0:0:
448,192,69564,1,0,0:0:0:0:
320,192,69564,1,0,0:0:0:0:
192,192,69651,1,0,0:0:0:0:
64,192,69737,1,0,0:0:0:0:
192,192,69737,1,0,0:0:0:0:
320,192,69737,1,0,0:0:0:0:
448,192,69737,1,0,0:0:0:0:
320,192,69823,1,0,0:0:0:0:
64,192,69823,1,0,0:0:0:0:
192,192,69909,1,0,0:0:0:0:
448,192,69995,1,0,0:0:0:0:
320,192,69995,1,0,0:0:0:0:
448,192,70082,1,0,0:0:0:0:
320,192,70082,1,0,0:0:0:0:
64,192,70082,1,0,0:0:0:0:
192,192,70082,1,0,0:0:0:0:
192,192,70168,1,0,0:0:0:0:
64,192,70254,1,0,0:0:0:0:
448,192,70254,1,0,0:0:0:0:
448,192,70340,1,0,0:0:0:0:
320,192,70426,1,0,0:0:0:0:
192,192,70426,1,0,0:0:0:0:
64,192,70426,1,0,0:0:0:0:
192,192,70513,1,0,0:0:0:0:
320,192,70599,1,0,0:0:0:0:
448,192,70599,1,0,0:0:0:0:
192,192,70685,1,0,0:0:0:0:
64,192,70685,1,0,0:0:0:0:
64,192,70771,1,0,0:0:0:0:
320,192,70771,1,0,0:0:0:0:
448,192,70771,1,0,0:0:0:0:
192,192,70771,1,0,0:0:0:0:
320,192,70857,1,0,0:0:0:0:
448,192,70944,1,0,0:0:0:0:
64,192,70944,1,0,0:0:0:0:
192,192,71030,1,0,0:0:0:0:
64,192,71116,1,0,0:0:0:0:
192,192,71116,1,0,0:0:0:0:
320,192,71116,1,0,0:0:0:0:
448,192,71116,1,0,0:0:0:0:
192,192,71202,1,0,0:0:0:0:
448,192,71202,1,0,0:0:0:0:
320,192,71288,1,0,0:0:0:0:
192,192,71375,1,0,0:0:0:0:
64,192,71375,1,0,0:0:0:0:
448,192,71461,1,0,0:0:0:0:
320,192,71461,1,0,0:0:0:0:
64,192,71461,1,0,0:0:0:0:
192,192,71461,1,0,0:0:0:0:
320,192,71547,1,0,0:0:0:0:
448,192,71633,1,0,0:0:0:0:
192,192,71633,1,0,0:0:0:0:
192,192,71720,1,0,0:0:0:0:
448,192,71806,1,0,0:0:0:0:
320,192,71806,1,0,0:0:0:0:
64,192,71806,1,0,0:0:0:0:
192,192,71806,1,0,0:0:0:0:
320,192,71892,1,0,0:0:0:0:
448,192,71978,1,0,0:0:0:0:
192,192,71978,1,0,0:0:0:0:
320,192,72064,1,0,0:0:0:0:
192,192,72064,1,0,0:0:0:0:
64,192,72151,1,0,0:0:0:0:
192,192,72151,1,0,0:0:0:0:
448,192,72151,1,0,0:0:0:0:
320,192,72151,1,0,0:0:0:0:
320,192,72237,1,0,0:0:0:0:
448,192,72323,1,0,0:0:0:0:
192,192,72323,1,0,0:0:0:0:
192,192,72409,1,0,0:0:0:0:
448,192,72495,1,0,0:0:0:0:
320,192,72495,1,0,0:0:0:0:
192,192,72495,1,0,0:0:0:0:
64,192,72495,1,0,0:0:0:0:
64,192,72582,1,0,0:0:0:0:
448,192,72582,1,0,0:0:0:0:
192,192,72668,1,0,0:0:0:0:
448,192,72754,1,0,0:0:0:0:
320,192,72754,1,0,0:0:0:0:
448,192,72840,1,0,0:0:0:0:
320,192,72840,1,0,0:0:0:0:
192,192,72840,1,0,0:0:0:0:
64,192,72840,1,0,0:0:0:0:
192,192,72926,1,0,0:0:0:0:
320,192,73013,1,0,0:0:0:0:
64,192,73013,1,0,0:0:0:0:
192,192,73099,1,0,0:0:0:0:
448,192,73185,1,0,0:0:0:0:
320,192,73185,1,0,0:0:0:0:
192,192,73185,1,0,0:0:0:0:
64,192,73185,1,0,0:0:0:0:
192,192,73271,1,0,0:0:0:0:
64,192,73357,1,0,0:0:0:0:
320,192,73357,1,0,0:0:0:0:
192,192,73444,1,0,0:0:0:0:
448,192,73444,1,0,0:0:0:0:
192,192,73530,1,0,0:0:0:0:
64,192,73530,1,0,0:0:0:0:
320,192,73530,1,0,0:0:0:0:
448,192,73530,1,0,0:0:0:0:
320,192,73616,1,0,0:0:0:0:
448,192,73702,1,0,0:0:0:0:
192,192,73702,1,0,0:0:0:0:
320,192,73788,1,0,0:0:0:0:
448,192,73875,1,0,0:0:0:0:
320,192,73875,1,0,0:0:0:0:
192,192,73875,1,0,0:0:0:0:
64,192,73875,1,0,0:0:0:0:
192,192,73961,1,0,0:0:0:0:
64,192,73961,1,0,0:0:0:0:
192,192,74047,1,0,0:0:0:0:
320,192,74133,1,0,0:0:0:0:
192,192,74133,1,0,0:0:0:0:
320,192,74220,1,0,0:0:0:0:
448,192,74220,1,0,0:0:0:0:
64,192,74220,1,0,0:0:0:0:
448,192,74306,1,0,0:0:0:0:
448,192,74392,1,0,0:0:0:0:
320,192,74392,1,0,0:0:0:0:
320,192,74478,1,0,0:0:0:0:
192,192,74564,1,0,0:0:0:0:
64,192,74564,1,0,0:0:0:0:
448,192,74564,1,0,0:0:0:0:
320,192,74651,1,0,0:0:0:0:
64,192,74737,1,0,0:0:0:0:
448,192,74737,1,0,0:0:0:0:
192,192,74737,1,0,0:0:0:0:
448,192,74823,1,0,0:0:0:0:
320,192,74823,1,0,0:0:0:0:
192,192,74909,1,0,0:0:0:0:
64,192,74909,1,0,0:0:0:0:
320,192,74909,1,0,0:0:0:0:
192,192,74995,1,0,0:0:0:0:
448,192,74995,1,0,0:0:0:0:
448,192,75082,1,0,0:0:0:0:
320,192,75082,1,0,0:0:0:0:
64,192,75082,1,0,0:0:0:0:
192,192,75168,1,0,0:0:0:0:
64,192,75168,1,0,0:0:0:0:
448,192,75254,1,0,0:0:0:0:
320,192,75254,1,0,0:0:0:0:
192,192,75254,1,0,0:0:0:0:
64,192,75254,1,0,0:0:0:0:
320,192,75340,1,0,0:0:0:0:
320,192,75426,1,0,0:0:0:0:
320,192,75513,1,0,0:0:0:0:
64,192,75513,1,0,0:0:0:0:
64,192,75599,1,0,0:0:0:0:
192,192,75599,1,0,0:0:0:0:
448,192,75599,1,0,0:0:0:0:
192,192,75685,1,0,0:0:0:0:
192,192,75771,1,0,0:0:0:0:
448,192,75771,1,0,0:0:0:0:
192,192,75857,1,0,0:0:0:0:
320,192,75944,1,0,0:0:0:0:
64,192,75944,1,0,0:0:0:0:
448,192,75944,1,0,0:0:0:0:
448,192,76030,1,0,0:0:0:0:
448,192,76116,1,0,0:0:0:0:
192,192,76202,1,0,0:0:0:0:
64,192,76202,1,0,0:0:0:0:
64,192,76288,1,0,0:0:0:0:
320,192,76288,1,0,0:0:0:0:
448,192,76288,1,0,0:0:0:0:
192,192,76375,1,0,0:0:0:0:
192,192,76461,1,0,0:0:0:0:
64,192,76461,1,0,0:0:0:0:
192,192,76547,1,0,0:0:0:0:
448,192,76633,1,0,0:0:0:0:
320,192,76633,1,0,0:0:0:0:
64,192,76633,1,0,0:0:0:0:
192,192,76720,1,0,0:0:0:0:
320,192,76720,1,0,0:0:0:0:
448,192,76806,1,0,0:0:0:0:
192,192,76806,1,0,0:0:0:0:
320,192,76892,1,0,0:0:0:0:
448,192,76892,1,0,0:0:0:0:
192,192,76978,1,0,0:0:0:0:
64,192,76978,1,0,0:0:0:0:
448,192,76978,1,0,0:0:0:0:
320,192,77064,1,0,0:0:0:0:
64,192,77064,1,0,0:0:0:0:
192,192,77151,1,0,0:0:0:0:
448,192,77151,1,0,0:0:0:0:
448,192,77237,1,0,0:0:0:0:
320,192,77237,1,0,0:0:0:0:
192,192,77323,1,0,0:0:0:0:
64,192,77323,1,0,0:0:0:0:
320,192,77323,1,0,0:0:0:0:
192,192,77409,1,0,0:0:0:0:
64,192,77409,1,0,0:0:0:0:
448,192,77495,1,0,0:0:0:0:
320,192,77495,1,0,0:0:0:0:
64,192,77582,1,0,0:0:0:0:
320,192,77582,1,0,0:0:0:0:
192,192,77668,1,0,0:0:0:0:
448,192,77668,1,0,0:0:0:0:
64,192,77668,1,0,0:0:0:0:
320,192,77754,1,0,0:0:0:0:
448,192,77754,1,0,0:0:0:0:
64,192,77840,1,0,0:0:0:0:
320,192,77840,1,0,0:0:0:0:
192,192,77926,1,0,0:0:0:0:
64,192,77926,1,0,0:0:0:0:
448,192,78013,1,0,0:0:0:0:
320,192,78013,1,0,0:0:0:0:
192,192,78013,1,0,0:0:0:0:
320,192,78099,1,0,0:0:0:0:
64,192,78099,1,0,0:0:0:0:
320,192,78185,1,0,0:0:0:0:
64,192,78271,1,0,0:0:0:0:
448,192,78271,1,0,0:0:0:0:
192,192,78357,1,0,0:0:0:0:
64,192,78357,1,0,0:0:0:0:
448,192,78357,1,0,0:0:0:0:
192,192,78444,1,0,0:0:0:0:
192,192,78530,1,0,0:0:0:0:
448,192,78530,1,0,0:0:0:0:
320,192,78616,1,0,0:0:0:0:
448,192,78702,1,0,0:0:0:0:
320,192,78702,1,0,0:0:0:0:
64,192,78702,1,0,0:0:0:0:
64,192,78788,1,0,0:0:0:0:
64,192,78875,1,0,0:0:0:0:
448,192,78875,1,0,0:0:0:0:
320,192,78961,1,0,0:0:0:0:
448,192,79047,1,0,0:0:0:0:
192,192,79047,1,0,0:0:0:0:
64,192,79047,1,0,0:0:0:0:
192,192,79133,1,0,0:0:0:0:
448,192,79220,1,0,0:0:0:0:
64,192,79220,1,0,0:0:0:0:
448,192,79306,1,0,0:0:0:0:
320,192,79392,1,0,0:0:0:0:
192,192,79392,1,0,0:0:0:0:
64,192,79392,1,0,0:0:0:0:
320,192,79478,1,0,0:0:0:0:
448,192,79478,1,0,0:0:0:0:
64,192,79564,1,0,0:0:0:0:
192,192,79564,1,0,0:0:0:0:
192,192,79651,1,0,0:0:0:0:
448,192,79651,1,0,0:0:0:0:
448,192,79737,1,0,0:0:0:0:
64,192,79737,1,0,0:0:0:0:
320,192,79737,1,0,0:0:0:0:
192,192,79823,1,0,0:0:0:0:
64,192,79823,1,0,0:0:0:0:
448,192,79909,1,0,0:0:0:0:
320,192,79909,1,0,0:0:0:0:
64,192,79995,1,0,0:0:0:0:
320,192,79995,1,0,0:0:0:0:
64,192,80082,1,0,0:0:0:0:
448,192,80082,1,0,0:0:0:0:
192,192,80082,1,0,0:0:0:0:
320,192,80168,1,0,0:0:0:0:
448,192,80168,1,0,0:0:0:0:
192,192,80254,1,0,0:0:0:0:
64,192,80254,1,0,0:0:0:0:
320,192,80340,1,0,0:0:0:0:
64,192,80340,1,0,0:0:0:0:
448,192,80426,1,0,0:0:0:0:
320,192,80426,1,0,0:0:0:0:
192,192,80426,1,0,0:0:0:0:
64,192,80513,1,0,0:0:0:0:
192,192,80513,1,0,0:0:0:0:
448,192,80599,1,0,0:0:0:0:
64,192,80599,1,0,0:0:0:0:
320,192,80685,1,0,0:0:0:0:
192,192,80685,1,0,0:0:0:0:
448,192,80771,1,0,0:0:0:0:
64,192,80771,1,0,0:0:0:0:
192,192,80771,1,0,0:0:0:0:
448,192,80857,1,0,0:0:0:0:
192,192,80857,1,0,0:0:0:0:
448,192,80944,1,0,0:0:0:0:
320,192,81030,1,0,0:0:0:0:
64,192,81030,1,0,0:0:0:0:
192,192,81116,1,0,0:0:0:0:
64,192,81116,1,0,0:0:0:0:
448,192,81116,1,0,0:0:0:0:
320,192,81202,1,0,0:0:0:0:
320,192,81288,1,0,0:0:0:0:
64,192,81288,1,0,0:0:0:0:
192,192,81375,1,0,0:0:0:0:
320,192,81461,1,0,0:0:0:0:
448,192,81461,1,0,0:0:0:0:
64,192,81461,1,0,0:0:0:0:
64,192,81547,1,0,0:0:0:0:
64,192,81633,1,0,0:0:0:0:
192,192,81720,1,0,0:0:0:0:
448,192,81720,1,0,0:0:0:0:
448,192,81806,1,0,0:0:0:0:
320,192,81806,1,0,0:0:0:0:
64,192,81806,1,0,0:0:0:0:
192,192,81892,1,0,0:0:0:0:
320,192,81978,1,0,0:0:0:0:
448,192,81978,1,0,0:0:0:0:
320,192,82064,1,0,0:0:0:0:
448,192,82151,1,0,0:0:0:0:
64,192,82151,1,0,0:0:0:0:
192,192,82151,1,0,0:0:0:0:
320,192,82237,1,0,0:0:0:0:
192,192,82237,1,0,0:0:0:0:
64,192,82323,1,0,0:0:0:0:
320,192,82409,1,0,0:0:0:0:
448,192,82409,1,0,0:0:0:0:
448,192,82495,1,0,0:0:0:0:
192,192,82495,1,0,0:0:0:0:
64,192,82495,1,0,0:0:0:0:
320,192,82582,1,0,0:0:0:0:
192,192,82668,1,0,0:0:0:0:
448,192,82668,1,0,0:0:0:0:
448,192,82754,1,0,0:0:0:0:
320,192,82840,1,0,0:0:0:0:
192,192,82840,1,0,0:0:0:0:
64,192,82840,1,0,0:0:0:0:
192,192,82926,1,0,0:0:0:0:
64,192,83013,1,0,0:0:0:0:
320,192,83099,1,0,0:0:0:0:
64,192,83099,1,0,0:0:0:0:
448,192,83185,1,0,0:0:0:0:
192,192,83185,1,0,0:0:0:0:
320,192,83185,1,0,0:0:0:0:
192,192,83271,1,0,0:0:0:0:
448,192,83357,1,0,0:0:0:0:
64,192,83357,1,0,0:0:0:0:
320,192,83444,1,0,0:0:0:0:
448,192,83530,1,0,0:0:0:0:
192,192,83530,1,0,0:0:0:0:
64,192,83530,1,0,0:0:0:0:
448,192,83616,1,0,0:0:0:0:
320,192,83616,1,0,0:0:0:0:
192,192,83702,1,0,0:0:0:0:
192,192,83788,1,0,0:0:0:0:
320,192,83788,1,0,0:0:0:0:
448,192,83875,1,0,0:0:0:0:
320,192,83875,1,0,0:0:0:0:
64,192,83875,1,0,0:0:0:0:
192,192,83961,1,0,0:0:0:0:
448,192,84047,1,0,0:0:0:0:
192,192,84047,1,0,0:0:0:0:
320,192,84133,1,0,0:0:0:0:
448,192,84220,1,0,0:0:0:0:
192,192,84220,1,0,0:0:0:0:
64,192,84220,1,0,0:0:0:0:
192,192,84306,1,0,0:0:0:0:
64,192,84392,1,0,0:0:0:0:
192,192,84478,1,0,0:0:0:0:
64,192,84478,1,0,0:0:0:0:
448,192,84564,1,0,0:0:0:0:
320,192,84564,1,0,0:0:0:0:
192,192,84564,1,0,0:0:0:0:
320,192,84651,1,0,0:0:0:0:
448,192,84737,1,0,0:0:0:0:
64,192,84737,1,0,0:0:0:0:
320,192,84823,1,0,0:0:0:0:
192,192,84909,1,0,0:0:0:0:
64,192,84909,1,0,0:0:0:0:
448,192,84909,1,0,0:0:0:0:
192,192,84995,1,0,0:0:0:0:
448,192,84995,1,0,0:0:0:0:
320,192,85082,1,0,0:0:0:0:
192,192,85168,1,0,0:0:0:0:
64,192,85168,1,0,0:0:0:0:
448,192,85254,1,0,0:0:0:0:
320,192,85254,1,0,0:0:0:0:
192,192,85254,1,0,0:0:0:0:
320,192,85340,1,0,0:0:0:0:
64,192,85426,1,0,0:0:0:0:
192,192,85426,1,0,0:0:0:0:
192,192,85513,1,0,0:0:0:0:
448,192,85599,1,0,0:0:0:0:
320,192,85599,1,0,0:0:0:0:
64,192,85599,1,0,0:0:0:0:
192,192,85685,1,0,0:0:0:0:
320,192,85771,1,0,0:0:0:0:
448,192,85857,1,0,0:0:0:0:
192,192,85857,1,0,0:0:0:0:
192,192,85944,1,0,0:0:0:0:
448,192,85944,1,0,0:0:0:0:
320,192,85944,1,0,0:0:0:0:
64,192,86030,1,0,0:0:0:0:
192,192,86116,1,0,0:0:0:0:
448,192,86116,1,0,0:0:0:0:
320,192,86202,1,0,0:0:0:0:
64,192,86202,1,0,0:0:0:0:
192,192,86288,1,0,0:0:0:0:
64,192,86288,1,0,0:0:0:0:
320,192,86288,1,0,0:0:0:0:
448,192,86288,1,0,0:0:0:0:
192,192,86375,1,0,0:0:0:0:
192,192,86461,1,0,0:0:0:0:
320,192,86547,1,0,0:0:0:0:
448,192,86547,1,0,0:0:0:0:
448,192,86633,1,0,0:0:0:0:
64,192,86633,1,0,0:0:0:0:
192,192,86633,1,0,0:0:0:0:
192,192,86720,1,0,0:0:0:0:
192,192,86806,1,0,0:0:0:0:
448,192,86806,1,0,0:0:0:0:
320,192,86892,1,0,0:0:0:0:
448,192,86978,1,0,0:0:0:0:
320,192,86978,1,0,0:0:0:0:
192,192,86978,1,0,0:0:0:0:
64,192,86978,1,0,0:0:0:0:
192,192,87064,1,0,0:0:0:0:
320,192,87151,1,0,0:0:0:0:
448,192,87237,1,0,0:0:0:0:
192,192,87237,1,0,0:0:0:0:
448,192,87323,1,0,0:0:0:0:
320,192,87323,1,0,0:0:0:0:
64,192,87323,1,0,0:0:0:0:
64,192,87409,1,0,0:0:0:0:
64,192,87495,1,0,0:0:0:0:
320,192,87495,1,0,0:0:0:0:
192,192,87582,1,0,0:0:0:0:
448,192,87668,1,0,0:0:0:0:
320,192,87668,1,0,0:0:0:0:
192,192,87668,1,0,0:0:0:0:
64,192,87668,1,0,0:0:0:0:
320,192,87754,1,0,0:0:0:0:
448,192,87754,1,0,0:0:0:0:
192,192,87840,1,0,0:0:0:0:
64,192,87926,1,0,0:0:0:0:
320,192,87926,1,0,0:0:0:0:
448,192,88013,1,0,0:0:0:0:
192,192,88013,1,0,0:0:0:0:
64,192,88013,1,0,0:0:0:0:
320,192,88099,1,0,0:0:0:0:
192,192,88099,1,0,0:0:0:0:
320,192,88185,1,0,0:0:0:0:
448,192,88185,1,0,0:0:0:0:
192,192,88271,1,0,0:0:0:0:
448,192,88357,1,0,0:0:0:0:
320,192,88357,1,0,0:0:0:0:
192,192,88357,1,0,0:0:0:0:
64,192,88357,1,0,0:0:0:0:
320,192,88444,1,0,0:0:0:0:
448,192,88444,1,0,0:0:0:0:
64,192,88530,1,0,0:0:0:0:
192,192,88530,1,0,0:0:0:0:
192,192,88616,1,0,0:0:0:0:
448,192,88616,1,0,0:0:0:0:
448,192,88702,1,0,0:0:0:0:
320,192,88702,1,0,0:0:0:0:
64,192,88702,1,0,0:0:0:0:
320,192,88788,1,0,0:0:0:0:
64,192,88788,1,0,0:0:0:0:
192,192,88875,1,0,0:0:0:0:
448,192,88875,1,0,0:0:0:0:
320,192,88961,1,0,0:0:0:0:
64,192,88961,1,0,0:0:0:0:
320,192,89047,1,0,0:0:0:0:
192,192,89047,1,0,0:0:0:0:
64,192,89047,1,0,0:0:0:0:
448,192,89047,1,0,0:0:0:0:
192,192,89133,1,0,0:0:0:0:
448,192,89133,1,0,0:0:0:0:
320,192,89220,1,0,0:0:0:0:
192,192,89306,1,0,0:0:0:0:
64,192,89306,1,0,0:0:0:0:
64,192,89392,1,0,0:0:0:0:
448,192,89392,1,0,0:0:0:0:
320,192,89392,1,0,0:0:0:0:
320,192,89478,1,0,0:0:0:0:
192,192,89564,1,0,0:0:0:0:
448,192,89564,1,0,0:0:0:0:
320,192,89651,1,0,0:0:0:0:
448,192,89737,1,0,0:0:0:0:
320,192,89737,1,0,0:0:0:0:
192,192,89737,1,0,0:0:0:0:
64,192,89737,1,0,0:0:0:0:
192,192,89823,1,0,0:0:0:0:
64,192,89909,1,0,0:0:0:0:
192,192,89995,1,0,0:0:0:0:
448,192,89995,1,0,0:0:0:0:
320,192,90082,1,0,0:0:0:0:
64,192,90082,1,0,0:0:0:0:
192,192,90082,1,0,0:0:0:0:
320,192,90168,1,0,0:0:0:0:
448,192,90254,1,0,0:0:0:0:
64,192,90254,1,0,0:0:0:0:
192,192,90340,1,0,0:0:0:0:
320,192,90426,1,0,0:0:0:0:
448,192,90426,1,0,0:0:0:0:
192,192,90426,1,0,0:0:0:0:
64,192,90426,1,0,0:0:0:0:
320,192,90513,1,0,0:0:0:0:
448,192,90513,1,0,0:0:0:0:
320,192,90599,1,0,0:0:0:0:
192,192,90685,1,0,0:0:0:0:
64,192,90685,1,0,0:0:0:0:
64,192,90771,1,0,0:0:0:0:
320,192,90771,1,0,0:0:0:0:
448,192,90771,1,0,0:0:0:0:
320,192,90857,1,0,0:0:0:0:
64,192,90944,1,0,0:0:0:0:
192,192,90944,1,0,0:0:0:0:
320,192,91030,1,0,0:0:0:0:
192,192,91116,1,0,0:0:0:0:
448,192,91116,1,0,0:0:0:0:
320,192,91116,1,0,0:0:0:0:
64,192,91116,1,0,0:0:0:0:
192,192,91202,1,0,0:0:0:0:
64,192,91288,1,0,0:0:0:0:
320,192,91288,1,0,0:0:0:0:
448,192,91375,1,0,0:0:0:0:
192,192,91461,1,0,0:0:0:0:
64,192,91461,1,0,0:0:0:0:
448,192,91461,1,0,0:0:0:0:
320,192,91547,1,0,0:0:0:0:
320,192,91633,1,0,0:0:0:0:
64,192,91633,1,0,0:0:0:0:
192,192,91720,1,0,0:0:0:0:
64,192,91806,1,0,0:0:0:0:
192,192,91806,1,0,0:0:0:0:
320,192,91806,1,0,0:0:0:0:
448,192,91806,1,0,0:0:0:0:
320,192,91892,1,0,0:0:0:0:
64,192,91892,1,0,0:0:0:0:
192,192,91978,1,0,0:0:0:0:
320,192,92064,1,0,0:0:0:0:
448,192,92064,1,0,0:0:0:0:
448,192,92151,1,0,0:0:0:0:
320,192,92151,1,0,0:0:0:0:
64,192,92151,1,0,0:0:0:0:
192,192,92237,1,0,0:0:0:0:
64,192,92323,1,0,0:0:0:0:
320,192,92323,1,0,0:0:0:0:
192,192,92409,1,0,0:0:0:0:
448,192,92495,1,0,0:0:0:0:
320,192,92495,1,0,0:0:0:0:
192,192,92495,1,0,0:0:0:0:
64,192,92495,1,0,0:0:0:0:
320,192,92582,1,0,0:0:0:0:
64,192,92668,1,0,0:0:0:0:
320,192,92754,1,0,0:0:0:0:
448,192,92754,1,0,0:0:0:0:
192,192,92840,1,0,0:0:0:0:
64,192,92840,1,0,0:0:0:0:
448,192,92840,1,0,0:0:0:0:
320,192,92926,1,0,0:0:0:0:
192,192,93013,1,0,0:0:0:0:
448,192,93013,1,0,0:0:0:0:
64,192,93099,1,0,0:0:0:0:
64,192,93185,1,0,0:0:0:0:
192,192,93185,1,0,0:0:0:0:
320,192,93185,1,0,0:0:0:0:
448,192,93185,1,0,0:0:0:0:
320,192,93271,1,0,0:0:0:0:
320,192,93357,1,0,0:0:0:0:
192,192,93444,1,0,0:0:0:0:
64,192,93444,1,0,0:0:0:0:
64,192,93530,1,0,0:0:0:0:
192,192,93530,1,0,0:0:0:0:
320,192,93530,1,0,0:0:0:0:
320,192,93616,1,0,0:0:0:0:
448,192,93702,1,0,0:0:0:0:
192,192,93702,1,0,0:0:0:0:
320,192,93788,1,0,0:0:0:0:
320,192,93875,1,0,0:0:0:0:
192,192,93875,1,0,0:0:0:0:
64,192,93875,1,0,0:0:0:0:
448,192,93875,1,0,0:0:0:0:
192,192,93961,1,0,0:0:0:0:
64,192,94047,1,0,0:0:0:0:
64,192,94133,1,0,0:0:0:0:
192,192,94133,1,0,0:0:0:0:
448,192,94220,1,0,0:0:0:0:
320,192,94220,1,0,0:0:0:0:
192,192,94220,1,0,0:0:0:0:
320,192,94306,1,0,0:0:0:0:
448,192,94392,1,0,0:0:0:0:
64,192,94392,1,0,0:0:0:0:
192,192,94478,1,0,0:0:0:0:
192,192,94564,1,0,0:0:0:0:
320,192,94564,1,0,0:0:0:0:
448,192,94564,1,0,0:0:0:0:
64,192,94564,1,0,0:0:0:0:
320,192,94651,1,0,0:0:0:0:
64,192,94737,1,0,0:0:0:0:
192,192,94823,1,0,0:0:0:0:
448,192,94823,1,0,0:0:0:0:
448,192,94909,1,0,0:0:0:0:
320,192,94909,1,0,0:0:0:0:
192,192,94909,1,0,0:0:0:0:
320,192,94995,1,0,0:0:0:0:
64,192,95082,1,0,0:0:0:0:
192,192,95082,1,0,0:0:0:0:
448,192,95168,1,0,0:0:0:0:
448,192,95254,1,0,0:0:0:0:
320,192,95254,1,0,0:0:0:0:
64,192,95254,1,0,0:0:0:0:
192,192,95254,1,0,0:0:0:0:
192,192,95340,1,0,0:0:0:0:
320,192,95426,1,0,0:0:0:0:
448,192,95426,1,0,0:0:0:0:
320,192,95513,1,0,0:0:0:0:
64,192,95599,1,0,0:0:0:0:
192,192,95599,1,0,0:0:0:0:
448,192,95599,1,0,0:0:0:0:
192,192,95685,1,0,0:0:0:0:
64,192,95771,1,0,0:0:0:0:
448,192,95771,1,0,0:0:0:0:
192,192,95857,1,0,0:0:0:0:
448,192,95944,1,0,0:0:0:0:
320,192,95944,1,0,0:0:0:0:
192,192,95944,1,0,0:0:0:0:
64,192,95944,1,0,0:0:0:0:
448,192,96030,1,0,0:0:0:0:
64,192,96030,1,0,0:0:0:0:
192,192,96116,1,0,0:0:0:0:
64,192,96202,1,0,0:0:0:0:
320,192,96202,1,0,0:0:0:0:
448,192,96288,1,0,0:0:0:0:
192,192,96288,1,0,0:0:0:0:
64,192,96288,1,0,0:0:0:0:
320,192,96375,1,0,0:0:0:0:
448,192,96461,1,0,0:0:0:0:
192,192,96461,1,0,0:0:0:0:
64,192,96547,1,0,0:0:0:0:
448,192,96633,1,0,0:0:0:0:
320,192,96633,1,0,0:0:0:0:
64,192,96633,1,0,0:0:0:0:
192,192,96633,1,0,0:0:0:0:
192,192,96720,1,0,0:0:0:0:
448,192,96720,1,0,0:0:0:0:
320,192,96806,1,0,0:0:0:0:
192,192,96892,1,0,0:0:0:0:
448,192,96978,1,0,0:0:0:0:
320,192,96978,1,0,0:0:0:0:
64,192,96978,1,0,0:0:0:0:
192,192,96978,1,0,0:0:0:0:
320,192,97064,1,0,0:0:0:0:
64,192,97151,1,0,0:0:0:0:
192,192,97237,1,0,0:0:0:0:
448,192,97323,1,0,0:0:0:0:
320,192,97323,1,0,0:0:0:0:
64,192,97323,1,0,0:0:0:0:
192,192,97409,1,0,0:0:0:0:
320,192,97495,1,0,0:0:0:0:
320,192,97582,1,0,0:0:0:0:
448,192,97668,1,0,0:0:0:0:
192,192,97668,1,0,0:0:0:0:
64,192,97668,1,0,0:0:0:0:
320,192,97754,1,0,0:0:0:0:
192,192,97840,1,0,0:0:0:0:
192,192,97926,1,0,0:0:0:0:
320,192,98013,1,0,0:0:0:0:
448,192,98013,1,0,0:0:0:0:
64,192,98013,1,0,0:0:0:0:
448,192,98099,1,0,0:0:0:0:
64,192,98185,1,0,0:0:0:0:
64,192,98271,1,0,0:0:0:0:
192,192,98357,1,0,0:0:0:0:
320,192,98357,1,0,0:0:0:0:
448,192,98357,1,0,0:0:0:0:
192,192,98444,1,0,0:0:0:0:
448,192,98530,1,0,0:0:0:0:
448,192,98616,1,0,0:0:0:0:
320,192,98702,1,0,0:0:0:0:
64,192,98702,1,0,0:0:0:0:
448,192,98702,1,0,0:0:0:0:
192,192,98788,1,0,0:0:0:0:
320,192,98875,1,0,0:0:0:0:
320,192,98961,1,0,0:0:0:0:
448,192,99047,1,0,0:0:0:0:
192,192,99047,1,0,0:0:0:0:
64,192,99047,1,0,0:0:0:0:
64,192,99133,1,0,0:0:0:0:
192,192,99220,1,0,0:0:0:0:
192,192,99306,1,0,0:0:0:0:
448,192,99392,1,0,0:0:0:0:
320,192,99392,1,0,0:0:0:0:
64,192,99392,1,0,0:0:0:0:
448,192,99478,1,0,0:0:0:0:
64,192,99564,1,0,0:0:0:0:
64,192,99651,1,0,0:0:0:0:
192,192,99737,1,0,0:0:0:0:
320,192,99737,1,0,0:0:0:0:
448,192,99737,1,0,0:0:0:0:
192,192,99823,1,0,0:0:0:0:
448,192,99909,1,0,0:0:0:0:
448,192,99995,1,0,0:0:0:0:
320,192,100082,1,0,0:0:0:0:
192,192,100082,1,0,0:0:0:0:
64,192,100082,1,0,0:0:0:0:
192,192,100168,1,0,0:0:0:0:
448,192,100168,1,0,0:0:0:0:
320,192,100254,1,0,0:0:0:0:
320,192,100340,1,0,0:0:0:0:
64,192,100340,1,0,0:0:0:0:
192,192,100426,1,0,0:0:0:0:
64,192,100426,1,0,0:0:0:0:
448,192,100426,1,0,0:0:0:0:
320,192,100513,1,0,0:0:0:0:
192,192,100599,1,0,0:0:0:0:
64,192,100599,1,0,0:0:0:0:
192,192,100685,1,0,0:0:0:0:
448,192,100771,1,0,0:0:0:0:
320,192,100771,1,0,0:0:0:0:
64,192,100771,1,0,0:0:0:0:
192,192,100857,1,0,0:0:0:0:
64,192,100857,1,0,0:0:0:0:
192,192,100944,1,0,0:0:0:0:
448,192,101030,1,0,0:0:0:0:
320,192,101030,1,0,0:0:0:0:
448,192,101116,1,0,0:0:0:0:
192,192,101116,1,0,0:0:0:0:
64,192,101116,1,0,0:0:0:0:
320,192,101202,1,0,0:0:0:0:
192,192,101288,1,0,0:0:0:0:
64,192,101288,1,0,0:0:0:0:
192,192,101375,1,0,0:0:0:0:
448,192,101375,1,0,0:0:0:0:
448,192,101461,1,0,0:0:0:0:
320,192,101461,1,0,0:0:0:0:
64,192,101461,1,0,0:0:0:0:
64,192,101547,1,0,0:0:0:0:
320,192,101547,1,0,0:0:0:0:
192,192,101633,1,0,0:0:0:0:
448,192,101720,1,0,0:0:0:0:
320,192,101720,1,0,0:0:0:0:
320,192,101806,1,0,0:0:0:0:
64,192,101806,1,0,0:0:0:0:
192,192,101806,1,0,0:0:0:0:
192,192,101892,1,0,0:0:0:0:
448,192,101978,1,0,0:0:0:0:
320,192,101978,1,0,0:0:0:0:
64,192,102064,1,0,0:0:0:0:
320,192,102064,1,0,0:0:0:0:
192,192,102151,1,0,0:0:0:0:
64,192,102151,1,0,0:0:0:0:
448,192,102151,1,0,0:0:0:0:
320,192,102237,1,0,0:0:0:0:
192,192,102323,1,0,0:0:0:0:
448,192,102323,1,0,0:0:0:0:
320,192,102409,1,0,0:0:0:0:
64,192,102409,1,0,0:0:0:0:
64,192,102495,1,0,0:0:0:0:
192,192,102495,1,0,0:0:0:0:
448,192,102495,1,0,0:0:0:0:
320,192,102582,1,0,0:0:0:0:
192,192,102668,1,0,0:0:0:0:
448,192,102668,1,0,0:0:0:0:
64,192,102754,1,0,0:0:0:0:
448,192,102840,1,0,0:0:0:0:
192,192,102840,1,0,0:0:0:0:
64,192,102840,1,0,0:0:0:0:
320,192,102926,1,0,0:0:0:0:
448,192,103013,1,0,0:0:0:0:
320,192,103013,1,0,0:0:0:0:
192,192,103099,1,0,0:0:0:0:
64,192,103099,1,0,0:0:0:0:
448,192,103185,1,0,0:0:0:0:
320,192,103185,1,0,0:0:0:0:
192,192,103185,1,0,0:0:0:0:
320,192,103271,1,0,0:0:0:0:
192,192,103357,1,0,0:0:0:0:
64,192,103357,1,0,0:0:0:0:
192,192,103444,1,0,0:0:0:0:
448,192,103444,1,0,0:0:0:0:
448,192,103530,1,0,0:0:0:0:
320,192,103530,1,0,0:0:0:0:
64,192,103530,1,0,0:0:0:0:
192,192,103616,1,0,0:0:0:0:
320,192,103702,1,0,0:0:0:0:
192,192,103702,1,0,0:0:0:0:
320,192,103788,1,0,0:0:0:0:
192,192,103875,1,0,0:0:0:0:
64,192,103875,1,0,0:0:0:0:
448,192,103875,1,0,0:0:0:0:
320,192,103961,1,0,0:0:0:0:
192,192,104047,1,0,0:0:0:0:
448,192,104047,1,0,0:0:0:0:
448,192,104133,1,0,0:0:0:0:
64,192,104133,1,0,0:0:0:0:
320,192,104220,1,0,0:0:0:0:
192,192,104220,1,0,0:0:0:0:
64,192,104220,1,0,0:0:0:0:
192,192,104306,1,0,0:0:0:0:
448,192,104392,1,0,0:0:0:0:
64,192,104392,1,0,0:0:0:0:
64,192,104478,1,0,0:0:0:0:
320,192,104478,1,0,0:0:0:0:
192,192,104564,1,0,0:0:0:0:
320,192,104564,1,0,0:0:0:0:
448,192,104564,1,0,0:0:0:0:
192,192,104651,1,0,0:0:0:0:
64,192,104737,1,0,0:0:0:0:
448,192,104737,1,0,0:0:0:0:
320,192,104737,1,0,0:0:0:0:
320,192,104823,1,0,0:0:0:0:
192,192,104909,1,0,0:0:0:0:
64,192,104909,1,0,0:0:0:0:
448,192,104909,1,0,0:0:0:0:
192,192,104995,1,0,0:0:0:0:
320,192,105082,1,0,0:0:0:0:
320,192,105168,1,0,0:0:0:0:
448,192,105254,1,0,0:0:0:0:
192,192,105254,1,0,0:0:0:0:
64,192,105254,1,0,0:0:0:0:
320,192,105340,1,0,0:0:0:0:
192,192,105426,1,0,0:0:0:0:
64,192,105426,1,0,0:0:0:0:
320,192,105513,1,0,0:0:0:0:
448,192,105513,1,0,0:0:0:0:
448,192,105599,1,0,0:0:0:0:
192,192,105599,1,0,0:0:0:0:
64,192,105599,1,0,0:0:0:0:
320,192,105685,1,0,0:0:0:0:
192,192,105771,1,0,0:0:0:0:
64,192,105771,1,0,0:0:0:0:
448,192,105857,1,0,0:0:0:0:
192,192,105857,1,0,0:0:0:0:
448,192,105944,1,0,0:0:0:0:
320,192,105944,1,0,0:0:0:0:
64,192,105944,1,0,0:0:0:0:
192,192,106030,1,0,0:0:0:0:
320,192,106116,1,0,0:0:0:0:
64,192,106116,1,0,0:0:0:0:
64,192,106202,1,0,0:0:0:0:
448,192,106202,1,0,0:0:0:0:
448,192,106288,1,0,0:0:0:0:
320,192,106288,1,0,0:0:0:0:
192,192,106288,1,0,0:0:0:0:
320,192,106375,1,0,0:0:0:0:
192,192,106461,1,0,0:0:0:0:
64,192,106461,1,0,0:0:0:0:
448,192,106547,1,0,0:0:0:0:
320,192,106547,1,0,0:0:0:0:
448,192,106633,1,0,0:0:0:0:
192,192,106633,1,0,0:0:0:0:
64,192,106633,1,0,0:0:0:0:
192,192,106720,1,0,0:0:0:0:
320,192,106806,1,0,0:0:0:0:
448,192,106806,1,0,0:0:0:0:
64,192,106892,1,0,0:0:0:0:
192,192,106892,1,0,0:0:0:0:
192,192,106978,1,0,0:0:0:0:
64,192,106978,1,0,0:0:0:0:
320,192,106978,1,0,0:0:0:0:
320,192,107064,1,0,0:0:0:0:
448,192,107151,1,0,0:0:0:0:
192,192,107151,1,0,0:0:0:0:
320,192,107237,1,0,0:0:0:0:
448,192,107237,1,0,0:0:0:0:
320,192,107323,1,0,0:0:0:0:
192,192,107323,1,0,0:0:0:0:
64,192,107323,1,0,0:0:0:0:
192,192,107409,1,0,0:0:0:0:
448,192,107495,1,0,0:0:0:0:
64,192,107495,1,0,0:0:0:0:
320,192,107582,1,0,0:0:0:0:
192,192,107582,1,0,0:0:0:0:
64,192,107668,1,0,0:0:0:0:
192,192,107668,1,0,0:0:0:0:
448,192,107668,1,0,0:0:0:0:
320,192,107754,1,0,0:0:0:0:
448,192,107754,1,0,0:0:0:0:
192,192,107840,1,0,0:0:0:0:
64,192,107840,1,0,0:0:0:0:
448,192,107883,1,0,0:0:0:0:
320,192,107883,1,0,0:0:0:0:
192,192,107926,1,0,0:0:0:0:
64,192,107926,1,0,0:0:0:0:
320,192,108013,1,0,0:0:0:0:
448,192,108013,1,0,0:0:0:0:
64,192,108013,1,0,0:0:0:0:
192,192,108099,1,0,0:0:0:0:
448,192,108185,1,0,0:0:0:0:
64,192,108185,1,0,0:0:0:0:
192,192,108271,1,0,0:0:0:0:
192,192,108357,1,0,0:0:0:0:
448,192,108357,1,0,0:0:0:0:
64,192,108357,1,0,0:0:0:0:
320,192,108444,1,0,0:0:0:0:
192,192,108530,1,0,0:0:0:0:
320,192,108616,1,0,0:0:0:0:
64,192,108616,1,0,0:0:0:0:
64,192,108702,1,0,0:0:0:0:
448,192,108702,1,0,0:0:0:0:
192,192,108702,1,0,0:0:0:0:
320,192,108702,1,0,0:0:0:0:
192,192,108788,1,0,0:0:0:0:
448,192,108875,1,0,0:0:0:0:
192,192,108875,1,0,0:0:0:0:
320,192,108961,1,0,0:0:0:0:
192,192,109047,1,0,0:0:0:0:
64,192,109047,1,0,0:0:0:0:
448,192,109047,1,0,0:0:0:0:
192,192,109133,1,0,0:0:0:0:
64,192,109220,1,0,0:0:0:0:
64,192,109306,1,0,0:0:0:0:
320,192,109306,1,0,0:0:0:0:
192,192,109392,1,0,0:0:0:0:
448,192,109392,1,0,0:0:0:0:
320,192,109392,1,0,0:0:0:0:
64,192,109392,1,0,0:0:0:0:
192,192,109478,1,0,0:0:0:0:
448,192,109564,1,0,0:0:0:0:
320,192,109564,1,0,0:0:0:0:
320,192,109651,1,0,0:0:0:0:
192,192,109737,1,0,0:0:0:0:
64,192,109737,1,0,0:0:0:0:
448,192,109737,1,0,0:0:0:0:
192,192,109823,1,0,0:0:0:0:
320,192,109909,1,0,0:0:0:0:
192,192,109995,1,0,0:0:0:0:
64,192,109995,1,0,0:0:0:0:
448,192,110082,1,0,0:0:0:0:
320,192,110082,1,0,0:0:0:0:
192,192,110082,1,0,0:0:0:0:
64,192,110082,1,0,0:0:0:0:
320,192,110168,1,0,0:0:0:0:
448,192,110254,1,0,0:0:0:0:
64,192,110254,1,0,0:0:0:0:
320,192,110340,1,0,0:0:0:0:
192,192,110426,1,0,0:0:0:0:
64,192,110426,1,0,0:0:0:0:
320,192,110426,1,0,0:0:0:0:
192,192,110513,1,0,0:0:0:0:
448,192,110599,1,0,0:0:0:0:
320,192,110685,1,0,0:0:0:0:
64,192,110685,1,0,0:0:0:0:
64,192,110771,1,0,0:0:0:0:
192,192,110771,1,0,0:0:0:0:
320,192,110771,1,0,0:0:0:0:
448,192,110771,1,0,0:0:0:0:
192,192,110857,1,0,0:0:0:0:
448,192,110944,1,0,0:0:0:0:
320,192,110944,1,0,0:0:0:0:
320,192,111030,1,0,0:0:0:0:
448,192,111116,1,0,0:0:0:0:
192,192,111116,1,0,0:0:0:0:
64,192,111116,1,0,0:0:0:0:
192,192,111202,1,0,0:0:0:0:
64,192,111288,1,0,0:0:0:0:
448,192,111375,1,0,0:0:0:0:
192,192,111375,1,0,0:0:0:0:
320,192,111461,1,0,0:0:0:0:
64,192,111461,1,0,0:0:0:0:
448,192,111461,1,0,0:0:0:0:
192,192,111461,1,0,0:0:0:0:
320,192,111547,1,0,0:0:0:0:
192,192,111633,1,0,0:0:0:0:
64,192,111633,1,0,0:0:0:0:
192,192,111720,1,0,0:0:0:0:
448,192,111806,1,0,0:0:0:0:
320,192,111806,1,0,0:0:0:0:
192,192,111806,1,0,0:0:0:0:
320,192,111892,1,0,0:0:0:0:
64,192,111978,1,0,0:0:0:0:
192,192,112064,1,0,0:0:0:0:
448,192,112064,1,0,0:0:0:0:
448,192,112151,1,0,0:0:0:0:
320,192,112151,1,0,0:0:0:0:
192,192,112151,1,0,0:0:0:0:
64,192,112151,1,0,0:0:0:0:
320,192,112237,1,0,0:0:0:0:
192,192,112323,1,0,0:0:0:0:
448,192,112323,1,0,0:0:0:0:
192,192,112409,1,0,0:0:0:0:
320,192,112495,1,0,0:0:0:0:
448,192,112495,1,0,0:0:0:0:
64,192,112495,1,0,0:0:0:0:
192,192,112582,1,0,0:0:0:0:
64,192,112668,1,0,0:0:0:0:
192,192,112754,1,0,0:0:0:0:
320,192,112754,1,0,0:0:0:0:
448,192,112840,1,0,0:0:0:0:
320,192,112840,1,0,0:0:0:0:
192,192,112840,1,0,0:0:0:0:
64,192,112840,1,0,0:0:0:0:
64,192,112926,1,0,0:0:0:0:
192,192,113013,1,0,0:0:0:0:
448,192,113013,1,0,0:0:0:0:
448,192,113099,1,0,0:0:0:0:
448,192,113185,1,0,0:0:0:0:
320,192,113185,1,0,0:0:0:0:
192,192,113185,1,0,0:0:0:0:
320,192,113271,1,0,0:0:0:0:
64,192,113357,1,0,0:0:0:0:
192,192,113444,1,0,0:0:0:0:
448,192,113444,1,0,0:0:0:0:
448,192,113530,1,0,0:0:0:0:
320,192,113530,1,0,0:0:0:0:
192,192,113530,1,0,0:0:0:0:
64,192,113530,1,0,0:0:0:0:
320,192,113616,1,0,0:0:0:0:
64,192,113702,1,0,0:0:0:0:
192,192,113702,1,0,0:0:0:0:
192,192,113788,1,0,0:0:0:0:
448,192,113875,1,0,0:0:0:0:
320,192,113875,1,0,0:0:0:0:
64,192,113875,1,0,0:0:0:0:
320,192,113961,1,0,0:0:0:0:
64,192,114047,1,0,0:0:0:0:
64,192,114133,1,0,0:0:0:0:
192,192,114133,1,0,0:0:0:0:
448,192,114220,1,0,0:0:0:0:
320,192,114220,1,0,0:0:0:0:
192,192,114220,1,0,0:0:0:0:
64,192,114220,1,0,0:0:0:0:
320,192,114306,1,0,0:0:0:0:
192,192,114392,1,0,0:0:0:0:
64,192,114392,1,0,0:0:0:0:
192,192,114478,1,0,0:0:0:0:
448,192,114564,1,0,0:0:0:0:
320,192,114564,1,0,0:0:0:0:
64,192,114564,1,0,0:0:0:0:
320,192,114651,1,0,0:0:0:0:
192,192,114737,1,0,0:0:0:0:
320,192,114823,1,0,0:0:0:0:
448,192,114823,1,0,0:0:0:0:
448,192,114909,1,0,0:0:0:0:
320,192,114909,1,0,0:0:0:0:
64,192,114909,1,0,0:0:0:0:
192,192,114909,1,0,0:0:0:0:
192,192,114995,1,0,0:0:0:0:
320,192,115082,1,0,0:0:0:0:
64,192,115082,1,0,0:0:0:0:
192,192,115168,1,0,0:0:0:0:
320,192,115254,1,0,0:0:0:0:
448,192,115254,1,0,0:0:0:0:
192,192,115254,1,0,0:0:0:0:
320,192,115340,1,0,0:0:0:0:
64,192,115426,1,0,0:0:0:0:
64,192,115513,1,0,0:0:0:0:
320,192,115513,1,0,0:0:0:0:
448,192,115599,1,0,0:0:0:0:
320,192,115599,1,0,0:0:0:0:
192,192,115599,1,0,0:0:0:0:
64,192,115599,1,0,0:0:0:0:
192,192,115685,1,0,0:0:0:0:
64,192,115771,1,0,0:0:0:0:
448,192,115771,1,0,0:0:0:0:
448,192,115857,1,0,0:0:0:0:
320,192,115944,1,0,0:0:0:0:
192,192,115944,1,0,0:0:0:0:
64,192,115944,1,0,0:0:0:0:
64,192,116030,1,0,0:0:0:0:
192,192,116116,1,0,0:0:0:0:
448,192,116202,1,0,0:0:0:0:
64,192,116202,1,0,0:0:0:0:
448,192,116288,1,0,0:0:0:0:
320,192,116288,1,0,0:0:0:0:
192,192,116288,1,0,0:0:0:0:
64,192,116288,1,0,0:0:0:0:
192,192,116375,1,0,0:0:0:0:
320,192,116461,1,0,0:0:0:0:
64,192,116461,1,0,0:0:0:0:
320,192,116547,1,0,0:0:0:0:
448,192,116633,1,0,0:0:0:0:
192,192,116633,1,0,0:0:0:0:
64,192,116633,1,0,0:0:0:0:
448,192,116720,1,0,0:0:0:0:
192,192,116806,1,0,0:0:0:0:
448,192,116892,1,0,0:0:0:0:
320,192,116892,1,0,0:0:0:0:
448,192,116978,1,0,0:0:0:0:
320,192,116978,1,0,0:0:0:0:
64,192,116978,1,0,0:0:0:0:
192,192,116978,1,0,0:0:0:0:
192,192,117064,1,0,0:0:0:0:
64,192,117151,1,0,0:0:0:0:
448,192,117151,1,0,0:0:0:0:
192,192,117237,1,0,0:0:0:0:
64,192,117323,1,0,0:0:0:0:
320,192,117323,1,0,0:0:0:0:
192,192,117323,1,0,0:0:0:0:
320,192,117409,1,0,0:0:0:0:
192,192,117495,1,0,0:0:0:0:
448,192,117582,1,0,0:0:0:0:
192,192,117582,1,0,0:0:0:0:
448,192,117668,1,0,0:0:0:0:
320,192,117668,1,0,0:0:0:0:
192,192,117668,1,0,0:0:0:0:
64,192,117668,1,0,0:0:0:0:
320,192,117754,1,0,0:0:0:0:
192,192,117840,1,0,0:0:0:0:
64,192,117840,1,0,0:0:0:0:
192,192,117926,1,0,0:0:0:0:
448,192,118013,1,0,0:0:0:0:
320,192,118013,1,0,0:0:0:0:
64,192,118013,1,0,0:0:0:0:
320,192,118099,1,0,0:0:0:0:
64,192,118185,1,0,0:0:0:0:
448,192,118185,1,0,0:0:0:0:
192,192,118271,1,0,0:0:0:0:
320,192,118271,1,0,0:0:0:0:
448,192,118357,1,0,0:0:0:0:
320,192,118357,1,0,0:0:0:0:
64,192,118357,1,0,0:0:0:0:
192,192,118357,1,0,0:0:0:0:
448,192,118444,1,0,0:0:0:0:
192,192,118530,1,0,0:0:0:0:
64,192,118530,1,0,0:0:0:0:
320,192,118616,1,0,0:0:0:0:
448,192,118702,1,0,0:0:0:0:
192,192,118702,1,0,0:0:0:0:
64,192,118702,1,0,0:0:0:0:
192,192,118788,1,0,0:0:0:0:
320,192,118875,1,0,0:0:0:0:
64,192,118875,1,0,0:0:0:0:
192,192,118961,1,0,0:0:0:0:
448,192,118961,1,0,0:0:0:0:
448,192,119047,1,0,0:0:0:0:
320,192,119047,1,0,0:0:0:0:
192,192,119047,1,0,0:0:0:0:
64,192,119047,1,0,0:0:0:0:
64,192,119133,1,0,0:0:0:0:
192,192,119220,1,0,0:0:0:0:
448,192,119220,1,0,0:0:0:0:
448,192,119306,1,0,0:0:0:0:
320,192,119392,1,0,0:0:0:0:
192,192,119392,1,0,0:0:0:0:
64,192,119392,1,0,0:0:0:0:
448,192,119392,1,0,0:0:0:0:
192,192,119478,1,0,0:0:0:0:
320,192,119564,1,0,0:0:0:0:
448,192,119651,1,0,0:0:0:0:
192,192,119651,1,0,0:0:0:0:
448,192,119737,1,0,0:0:0:0:
320,192,119737,1,0,0:0:0:0:
64,192,119737,1,0,0:0:0:0:
192,192,119737,1,0,0:0:0:0:
320,192,119823,1,0,0:0:0:0:
192,192,119909,1,0,0:0:0:0:
64,192,119909,1,0,0:0:0:0:
192,192,119995,1,0,0:0:0:0:
64,192,120082,1,0,0:0:0:0:
192,192,120082,1,0,0:0:0:0:
320,192,120082,1,0,0:0:0:0:
448,192,120082,1,0,0:0:0:0:
320,192,120168,1,0,0:0:0:0:
64,192,120254,1,0,0:0:0:0:
64,192,120340,1,0,0:0:0:0:
320,192,120340,1,0,0:0:0:0:
448,192,120426,1,0,0:0:0:0:
320,192,120426,1,0,0:0:0:0:
192,192,120426,1,0,0:0:0:0:
64,192,120426,1,0,0:0:0:0:
192,192,120513,1,0,0:0:0:0:
448,192,120599,1,0,0:0:0:0:
64,192,120599,1,0,0:0:0:0:
320,192,120685,1,0,0:0:0:0:
448,192,120771,1,0,0:0:0:0:
320,192,120771,1,0,0:0:0:0:
192,192,120771,1,0,0:0:0:0:
64,192,120771,1,0,0:0:0:0:
192,192,120857,1,0,0:0:0:0:
448,192,120944,1,0,0:0:0:0:
320,192,121030,1,0,0:0:0:0:
448,192,121030,1,0,0:0:0:0:
448,192,121116,1,0,0:0:0:0:
320,192,121116,1,0,0:0:0:0:
192,192,121116,1,0,0:0:0:0:
64,192,121116,1,0,0:0:0:0:
64,192,121202,1,0,0:0:0:0:
64,192,121288,1,0,0:0:0:0:
320,192,121288,1,0,0:0:0:0:
192,192,121375,1,0,0:0:0:0:
448,192,121461,1,0,0:0:0:0:
320,192,121461,1,0,0:0:0:0:
64,192,121461,1,0,0:0:0:0:
192,192,121461,1,0,0:0:0:0:
320,192,121547,1,0,0:0:0:0:
64,192,121633,1,0,0:0:0:0:
192,192,121720,1,0,0:0:0:0:
320,192,121720,1,0,0:0:0:0:
448,192,121806,1,0,0:0:0:0:
320,192,121806,1,0,0:0:0:0:
192,192,121806,1,0,0:0:0:0:
64,192,121806,1,0,0:0:0:0:
448,192,121892,1,0,0:0:0:0:
320,192,121978,1,0,0:0:0:0:
64,192,121978,1,0,0:0:0:0:
192,192,122064,1,0,0:0:0:0:
64,192,122151,1,0,0:0:0:0:
192,192,122151,1,0,0:0:0:0:
320,192,122151,1,0,0:0:0:0:
448,192,122151,1,0,0:0:0:0:
64,192,122237,1,0,0:0:0:0:
320,192,122323,1,0,0:0:0:0:
448,192,122409,1,0,0:0:0:0:
192,192,122409,1,0,0:0:0:0:
448,192,122495,1,0,0:0:0:0:
320,192,122495,1,0,0:0:0:0:
192,192,122495,1,0,0:0:0:0:
64,192,122495,1,0,0:0:0:0:
320,192,122582,1,0,0:0:0:0:
64,192,122668,1,0,0:0:0:0:
192,192,122668,1,0,0:0:0:0:
192,192,122754,1,0,0:0:0:0:
448,192,122840,1,0,0:0:0:0:
320,192,122840,1,0,0:0:0:0:
192,192,122840,1,0,0:0:0:0:
64,192,122840,1,0,0:0:0:0:
320,192,122926,1,0,0:0:0:0:
192,192,123013,1,0,0:0:0:0:
448,192,123099,1,0,0:0:0:0:
64,192,123099,1,0,0:0:0:0:
448,192,123185,1,0,0:0:0:0:
320,192,123185,1,0,0:0:0:0:
192,192,123185,1,0,0:0:0:0:
64,192,123185,1,0,0:0:0:0:
320,192,123271,1,0,0:0:0:0:
192,192,123357,1,0,0:0:0:0:
64,192,123357,1,0,0:0:0:0:
448,192,123444,1,0,0:0:0:0:
448,192,123530,1,0,0:0:0:0:
320,192,123530,1,0,0:0:0:0:
192,192,123530,1,0,0:0:0:0:
64,192,123530,1,0,0:0:0:0:
192,192,123616,1,0,0:0:0:0:
64,192,123702,1,0,0:0:0:0:
320,192,123788,1,0,0:0:0:0:
64,192,123788,1,0,0:0:0:0:
192,192,123875,1,0,0:0:0:0:
448,192,123875,1,0,0:0:0:0:
320,192,123875,1,0,0:0:0:0:
64,192,123875,1,0,0:0:0:0:
192,192,123961,1,0,0:0:0:0:
64,192,124047,1,0,0:0:0:0:
192,192,124047,1,0,0:0:0:0:
320,192,124133,1,0,0:0:0:0:
192,192,124220,1,0,0:0:0:0:
64,192,124220,1,0,0:0:0:0:
320,192,124220,1,0,0:0:0:0:
448,192,124220,1,0,0:0:0:0:
192,192,124306,1,0,0:0:0:0:
64,192,124392,1,0,0:0:0:0:
192,192,124478,1,0,0:0:0:0:
448,192,124478,1,0,0:0:0:0:
448,192,124564,1,0,0:0:0:0:
320,192,124564,1,0,0:0:0:0:
192,192,124564,1,0,0:0:0:0:
64,192,124564,1,0,0:0:0:0:
320,192,124651,1,0,0:0:0:0:
64,192,124737,1,0,0:0:0:0:
448,192,124737,1,0,0:0:0:0:
192,192,124823,1,0,0:0:0:0:
64,192,124909,1,0,0:0:0:0:
192,192,124909,1,0,0:0:0:0:
320,192,124909,1,0,0:0:0:0:
448,192,124909,1,0,0:0:0:0:
320,192,124995,1,0,0:0:0:0:
64,192,125082,1,0,0:0:0:0:
192,192,125168,1,0,0:0:0:0:
320,192,125168,1,0,0:0:0:0:
448,192,125254,1,0,0:0:0:0:
320,192,125254,1,0,0:0:0:0:
192,192,125254,1,0,0:0:0:0:
64,192,125254,1,0,0:0:0:0:
64,192,125340,1,0,0:0:0:0:
448,192,125426,1,0,0:0:0:0:
192,192,125426,1,0,0:0:0:0:
320,192,125513,1,0,0:0:0:0:
448,192,125599,1,0,0:0:0:0:
320,192,125599,1,0,0:0:0:0:
192,192,125599,1,0,0:0:0:0:
64,192,125599,1,0,0:0:0:0:
448,192,125685,1,0,0:0:0:0:
192,192,125771,1,0,0:0:0:0:
64,192,125857,1,0,0:0:0:0:
320,192,125857,1,0,0:0:0:0:
448,192,125944,1,0,0:0:0:0:
192,192,125944,1,0,0:0:0:0:
64,192,125944,1,0,0:0:0:0:
320,192,125944,1,0,0:0:0:0:
192,192,126030,1,0,0:0:0:0:
448,192,126116,1,0,0:0:0:0:
320,192,126116,1,0,0:0:0:0:
320,192,126202,1,0,0:0:0:0:
192,192,126288,1,0,0:0:0:0:
64,192,126288,1,0,0:0:0:0:
320,192,126288,1,0,0:0:0:0:
448,192,126288,1,0,0:0:0:0:
192,192,126375,1,0,0:0:0:0:
320,192,126461,1,0,0:0:0:0:
64,192,126547,1,0,0:0:0:0:
192,192,126547,1,0,0:0:0:0:
64,192,126633,1,0,0:0:0:0:
192,192,126633,1,0,0:0:0:0:
320,192,126633,1,0,0:0:0:0:
448,192,126633,1,0,0:0:0:0:
320,192,126720,1,0,0:0:0:0:
192,192,126806,1,0,0:0:0:0:
64,192,126806,1,0,0:0:0:0:
192,192,126892,1,0,0:0:0:0:
448,192,126978,1,0,0:0:0:0:
320,192,126978,1,0,0:0:0:0:
192,192,126978,1,0,0:0:0:0:
64,192,126978,1,0,0:0:0:0:
320,192,127064,1,0,0:0:0:0:
448,192,127151,1,0,0:0:0:0:
320,192,127237,1,0,0:0:0:0:
192,192,127237,1,0,0:0:0:0:
64,192,127323,1,0,0:0:0:0:
192,192,127323,1,0,0:0:0:0:
320,192,127323,1,0,0:0:0:0:
448,192,127323,1,0,0:0:0:0:
192,192,127409,1,0,0:0:0:0:
64,192,127495,1,0,0:0:0:0:
320,192,127495,1,0,0:0:0:0:
192,192,127582,1,0,0:0:0:0:
448,192,127668,1,0,0:0:0:0:
320,192,127668,1,0,0:0:0:0:
192,192,127668,1,0,0:0:0:0:
64,192,127668,1,0,0:0:0:0:
320,192,127754,1,0,0:0:0:0:
192,192,127840,1,0,0:0:0:0:
64,192,127926,1,0,0:0:0:0:
448,192,127926,1,0,0:0:0:0:
448,192,128013,1,0,0:0:0:0:
320,192,128013,1,0,0:0:0:0:
192,192,128013,1,0,0:0:0:0:
64,192,128013,1,0,0:0:0:0:
192,192,128099,1,0,0:0:0:0:
320,192,128185,1,0,0:0:0:0:
448,192,128185,1,0,0:0:0:0:
320,192,128271,1,0,0:0:0:0:
448,192,128357,1,0,0:0:0:0:
320,192,128357,1,0,0:0:0:0:
192,192,128357,1,0,0:0:0:0:
64,192,128357,1,0,0:0:0:0:
192,192,128444,1,0,0:0:0:0:
64,192,128530,1,0,0:0:0:0:
192,192,128616,1,0,0:0:0:0:
448,192,128616,1,0,0:0:0:0:
448,192,128702,1,0,0:0:0:0:
320,192,128702,1,0,0:0:0:0:
192,192,128702,1,0,0:0:0:0:
64,192,128702,1,0,0:0:0:0:
320,192,128788,1,0,0:0:0:0:
192,192,128875,1,0,0:0:0:0:
64,192,128875,1,0,0:0:0:0:
192,192,128961,1,0,0:0:0:0:
64,192,129047,1,0,0:0:0:0:
192,192,129047,1,0,0:0:0:0:
320,192,129047,1,0,0:0:0:0:
448,192,129047,1,0,0:0:0:0:
64,192,129133,1,0,0:0:0:0:
192,192,129220,1,0,0:0:0:0:
448,192,129220,1,0,0:0:0:0:
320,192,129306,1,0,0:0:0:0:
64,192,129306,1,0,0:0:0:0:
448,192,129392,1,0,0:0:0:0:
320,192,129392,1,0,0:0:0:0:
192,192,129392,1,0,0:0:0:0:
64,192,129392,1,0,0:0:0:0:
192,192,129478,1,0,0:0:0:0:
448,192,129478,1,0,0:0:0:0:
320,192,129564,1,0,0:0:0:0:
64,192,129564,1,0,0:0:0:0:
192,192,129651,1,0,0:0:0:0:
448,192,129737,1,0,0:0:0:0:
320,192,129737,1,0,0:0:0:0:
192,192,129737,1,0,0:0:0:0:
64,192,129737,1,0,0:0:0:0:
320,192,129823,1,0,0:0:0:0:
192,192,129909,1,0,0:0:0:0:
64,192,129909,1,0,0:0:0:0:
320,192,129995,1,0,0:0:0:0:
448,192,130082,1,0,0:0:0:0:
320,192,130082,1,0,0:0:0:0:
192,192,130082,1,0,0:0:0:0:
64,192,130082,1,0,0:0:0:0:
192,192,130168,1,0,0:0:0:0:
448,192,130254,1,0,0:0:0:0:
320,192,130254,1,0,0:0:0:0:
320,192,130340,1,0,0:0:0:0:
64,192,130426,1,0,0:0:0:0:
192,192,130426,1,0,0:0:0:0:
448,192,130426,1,0,0:0:0:0:
320,192,130426,1,0,0:0:0:0:
192,192,130513,1,0,0:0:0:0:
448,192,130513,1,0,0:0:0:0:
64,192,130599,1,0,0:0:0:0:
192,192,130685,1,0,0:0:0:0:
320,192,130685,1,0,0:0:0:0:
448,192,130771,1,0,0:0:0:0:
320,192,130771,1,0,0:0:0:0:
192,192,130771,1,0,0:0:0:0:
64,192,130771,1,0,0:0:0:0:
448,192,130857,1,0,0:0:0:0:
320,192,130944,1,0,0:0:0:0:
64,192,130944,1,0,0:0:0:0:
64,192,131030,1,0,0:0:0:0:
64,192,131116,1,0,0:0:0:0:
192,192,131116,1,0,0:0:0:0:
320,192,131116,1,0,0:0:0:0:
448,192,131116,1,0,0:0:0:0:
320,192,131202,1,0,0:0:0:0:
192,192,131288,1,0,0:0:0:0:
64,192,131288,1,0,0:0:0:0:
448,192,131375,1,0,0:0:0:0:
320,192,131375,1,0,0:0:0:0:
448,192,131461,1,0,0:0:0:0:
320,192,131461,1,0,0:0:0:0:
192,192,131461,1,0,0:0:0:0:
64,192,131461,1,0,0:0:0:0:
192,192,131547,1,0,0:0:0:0:
448,192,131633,1,0,0:0:0:0:
320,192,131633,1,0,0:0:0:0:
320,192,131720,1,0,0:0:0:0:
448,192,131806,1,0,0:0:0:0:
192,192,131806,1,0,0:0:0:0:
64,192,131806,1,0,0:0:0:0:
320,192,131806,1,0,0:0:0:0:
192,192,131892,1,0,0:0:0:0:
64,192,131892,1,0,0:0:0:0:
320,192,131978,1,0,0:0:0:0:
448,192,132064,1,0,0:0:0:0:
64,192,132064,1,0,0:0:0:0:
64,192,132151,1,0,0:0:0:0:
192,192,132151,1,0,0:0:0:0:
320,192,132151,1,0,0:0:0:0:
448,192,132151,1,0,0:0:0:0:
320,192,132237,1,0,0:0:0:0:
192,192,132323,1,0,0:0:0:0:
64,192,132323,1,0,0:0:0:0:
320,192,132409,1,0,0:0:0:0:
448,192,132495,1,0,0:0:0:0:
320,192,132495,1,0,0:0:0:0:
192,192,132495,1,0,0:0:0:0:
64,192,132495,1,0,0:0:0:0:
192,192,132582,1,0,0:0:0:0:
64,192,132668,1,0,0:0:0:0:
448,192,132668,1,0,0:0:0:0:
320,192,132754,1,0,0:0:0:0:
64,192,132754,1,0,0:0:0:0:
192,192,132840,1,0,0:0:0:0:
64,192,132840,1,0,0:0:0:0:
320,192,132840,1,0,0:0:0:0:
448,192,132840,1,0,0:0:0:0:
192,192,132926,1,0,0:0:0:0:
320,192,133013,1,0,0:0:0:0:
448,192,133013,1,0,0:0:0:0:
448,192,133099,1,0,0:0:0:0:
448,192,133185,1,0,0:0:0:0:
320,192,133185,1,0,0:0:0:0:
192,192,133185,1,0,0:0:0:0:
64,192,133185,1,0,0:0:0:0:
192,192,133271,1,0,0:0:0:0:
320,192,133271,1,0,0:0:0:0:
64,192,133357,1,0,0:0:0:0:
192,192,133444,1,0,0:0:0:0:
448,192,133444,1,0,0:0:0:0:
448,192,133530,1,0,0:0:0:0:
320,192,133530,1,0,0:0:0:0:
192,192,133530,1,0,0:0:0:0:
64,192,133530,1,0,0:0:0:0:
320,192,133616,1,0,0:0:0:0:
192,192,133702,1,0,0:0:0:0:
448,192,133702,1,0,0:0:0:0:
64,192,133788,1,0,0:0:0:0:
448,192,133875,1,0,0:0:0:0:
320,192,133875,1,0,0:0:0:0:
192,192,133875,1,0,0:0:0:0:
64,192,133875,1,0,0:0:0:0:
192,192,133961,1,0,0:0:0:0:
448,192,134047,1,0,0:0:0:0:
320,192,134047,1,0,0:0:0:0:
192,192,134133,1,0,0:0:0:0:
320,192,134133,1,0,0:0:0:0:
448,192,134220,1,0,0:0:0:0:
192,192,134220,1,0,0:0:0:0:
64,192,134220,1,0,0:0:0:0:
320,192,134220,1,0,0:0:0:0:
64,192,134306,1,0,0:0:0:0:
192,192,134392,1,0,0:0:0:0:
448,192,134392,1,0,0:0:0:0:
448,192,134478,1,0,0:0:0:0:
448,192,134564,1,0,0:0:0:0:
320,192,134564,1,0,0:0:0:0:
192,192,134564,1,0,0:0:0:0:
64,192,134564,1,0,0:0:0:0:
192,192,134651,1,0,0:0:0:0:
64,192,134651,1,0,0:0:0:0:
320,192,134737,1,0,0:0:0:0:
448,192,134823,1,0,0:0:0:0:
192,192,134823,1,0,0:0:0:0:
448,192,134909,1,0,0:0:0:0:
320,192,134909,1,0,0:0:0:0:
192,192,134909,1,0,0:0:0:0:
64,192,134909,1,0,0:0:0:0:
320,192,134995,1,0,0:0:0:0:
64,192,135082,1,0,0:0:0:0:
192,192,135082,1,0,0:0:0:0:
192,192,135168,1,0,0:0:0:0:
64,192,135254,1,0,0:0:0:0:
192,192,135254,1,0,0:0:0:0:
320,192,135254,1,0,0:0:0:0:
448,192,135254,1,0,0:0:0:0:
320,192,135340,1,0,0:0:0:0:
192,192,135426,1,0,0:0:0:0:
64,192,135426,1,0,0:0:0:0:
192,192,135513,1,0,0:0:0:0:
448,192,135513,1,0,0:0:0:0:
448,192,135599,1,0,0:0:0:0:
320,192,135599,1,0,0:0:0:0:
192,192,135599,1,0,0:0:0:0:
64,192,135599,1,0,0:0:0:0:
320,192,135685,1,0,0:0:0:0:
64,192,135771,1,0,0:0:0:0:
192,192,135771,1,0,0:0:0:0:
448,192,135857,1,0,0:0:0:0:
64,192,135944,1,0,0:0:0:0:
192,192,135944,1,0,0:0:0:0:
320,192,135944,1,0,0:0:0:0:
448,192,135944,1,0,0:0:0:0:
64,192,136030,1,0,0:0:0:0:
320,192,136030,1,0,0:0:0:0:
192,192,136116,1,0,0:0:0:0:
448,192,136202,1,0,0:0:0:0:
192,192,136202,1,0,0:0:0:0:
448,192,136288,1,0,0:0:0:0:
320,192,136288,1,0,0:0:0:0:
192,192,136288,1,0,0:0:0:0:
64,192,136288,1,0,0:0:0:0:
320,192,136375,1,0,0:0:0:0:
64,192,136461,1,0,0:0:0:0:
448,192,136461,1,0,0:0:0:0:
192,192,136547,1,0,0:0:0:0:
64,192,136633,1,0,0:0:0:0:
192,192,136633,1,0,0:0:0:0:
448,192,136633,1,0,0:0:0:0:
320,192,136633,1,0,0:0:0:0:
320,192,136720,1,0,0:0:0:0:
192,192,136806,1,0,0:0:0:0:
448,192,136806,1,0,0:0:0:0:
448,192,136892,1,0,0:0:0:0:
320,192,136892,1,0,0:0:0:0:
448,192,136978,1,0,0:0:0:0:
320,192,136978,1,0,0:0:0:0:
192,192,136978,1,0,0:0:0:0:
64,192,136978,1,0,0:0:0:0:
192,192,137064,1,0,0:0:0:0:
64,192,137151,1,0,0:0:0:0:
448,192,137151,1,0,0:0:0:0:
320,192,137237,1,0,0:0:0:0:
448,192,137323,1,0,0:0:0:0:
192,192,137323,1,0,0:0:0:0:
320,192,137323,1,0,0:0:0:0:
64,192,137323,1,0,0:0:0:0:
64,192,137409,1,0,0:0:0:0:
192,192,137409,1,0,0:0:0:0:
320,192,137495,1,0,0:0:0:0:
64,192,137582,1,0,0:0:0:0:
192,192,137582,1,0,0:0:0:0:
64,192,137668,1,0,0:0:0:0:
192,192,137668,1,0,0:0:0:0:
320,192,137668,1,0,0:0:0:0:
448,192,137668,1,0,0:0:0:0:
320,192,137754,1,0,0:0:0:0:
448,192,137840,1,0,0:0:0:0:
64,192,137840,1,0,0:0:0:0:
192,192,137926,1,0,0:0:0:0:
320,192,138013,1,0,0:0:0:0:
448,192,138013,1,0,0:0:0:0:
64,192,138013,1,0,0:0:0:0:
192,192,138013,1,0,0:0:0:0:
320,192,138099,1,0,0:0:0:0:
448,192,138185,1,0,0:0:0:0:
192,192,138185,1,0,0:0:0:0:
320,192,138271,1,0,0:0:0:0:
64,192,138271,1,0,0:0:0:0:
64,192,138357,1,0,0:0:0:0:
192,192,138357,1,0,0:0:0:0:
320,192,138357,1,0,0:0:0:0:
448,192,138357,1,0,0:0:0:0:
192,192,138444,1,0,0:0:0:0:
448,192,138530,1,0,0:0:0:0:
320,192,138530,1,0,0:0:0:0:
192,192,138616,1,0,0:0:0:0:
64,192,138702,1,0,0:0:0:0:
192,192,138702,1,0,0:0:0:0:
320,192,138702,1,0,0:0:0:0:
448,192,138702,1,0,0:0:0:0:
320,192,138788,1,0,0:0:0:0:
448,192,138788,1,0,0:0:0:0:
192,192,138875,1,0,0:0:0:0:
320,192,138961,1,0,0:0:0:0:
448,192,138961,1,0,0:0:0:0:
448,192,139047,1,0,0:0:0:0:
320,192,139047,1,0,0:0:0:0:
192,192,139047,1,0,0:0:0:0:
64,192,139047,1,0,0:0:0:0:
192,192,139133,1,0,0:0:0:0:
64,192,139220,1,0,0:0:0:0:
448,192,139220,1,0,0:0:0:0:
320,192,139306,1,0,0:0:0:0:
192,192,139392,1,0,0:0:0:0:
64,192,139392,1,0,0:0:0:0:
448,192,139392,1,0,0:0:0:0:
320,192,139392,1,0,0:0:0:0:
192,192,139478,1,0,0:0:0:0:
64,192,139564,1,0,0:0:0:0:
320,192,139564,1,0,0:0:0:0:
192,192,139651,1,0,0:0:0:0:
320,192,139651,1,0,0:0:0:0:
448,192,139737,1,0,0:0:0:0:
320,192,139737,1,0,0:0:0:0:
192,192,139737,1,0,0:0:0:0:
64,192,139737,1,0,0:0:0:0:
64,192,139823,1,0,0:0:0:0:
192,192,139909,1,0,0:0:0:0:
448,192,139909,1,0,0:0:0:0:
320,192,139995,1,0,0:0:0:0:
448,192,140082,1,0,0:0:0:0:
320,192,140082,1,0,0:0:0:0:
192,192,140082,1,0,0:0:0:0:
64,192,140082,1,0,0:0:0:0:
192,192,140168,1,0,0:0:0:0:
64,192,140168,1,0,0:0:0:0:
192,192,140254,1,0,0:0:0:0:
448,192,140340,1,0,0:0:0:0:
320,192,140340,1,0,0:0:0:0:
448,192,140426,1,0,0:0:0:0:
320,192,140426,1,0,0:0:0:0:
192,192,140426,1,0,0:0:0:0:
64,192,140426,1,0,0:0:0:0:
192,192,140599,1,0,0:0:0:0:
64,192,140599,1,0,0:0:0:0:
192,192,140685,1,0,0:0:0:0:
320,192,140771,1,0,0:0:0:0:
448,192,140771,1,0,0:0:0:0:
192,192,140771,1,0,0:0:0:0:
64,192,140771,1,0,0:0:0:0:
320,192,140900,1,0,0:0:0:0:
448,192,140900,1,0,0:0:0:0:
64,192,140944,1,0,0:0:0:0:
192,192,140944,1,0,0:0:0:0:
320,192,140986,1,0,0:0:0:0:
448,192,140986,1,0,0:0:0:0:
192,192,141030,1,0,0:0:0:0:
64,192,141030,1,0,0:0:0:0:
448,192,141116,1,0,0:0:0:0:
320,192,141116,1,0,0:0:0:0:
192,192,141116,1,0,0:0:0:0:
64,192,141116,1,0,0:0:0:0:
320,192,141202,1,0,0:0:0:0:
192,192,141288,1,0,0:0:0:0:
64,192,141288,1,0,0:0:0:0:
192,192,141375,1,0,0:0:0:0:
448,192,141461,1,0,0:0:0:0:
320,192,141461,1,0,0:0:0:0:
64,192,141461,1,0,0:0:0:0:
320,192,141547,1,0,0:0:0:0:
320,192,141633,1,0,0:0:0:0:
64,192,141633,1,0,0:0:0:0:
192,192,141720,1,0,0:0:0:0:
448,192,141720,1,0,0:0:0:0:
64,192,141806,1,0,0:0:0:0:
320,192,141806,1,0,0:0:0:0:
192,192,141892,1,0,0:0:0:0:
192,192,141978,1,0,0:0:0:0:
448,192,141978,1,0,0:0:0:0:
320,192,142064,1,0,0:0:0:0:
448,192,142064,1,0,0:0:0:0:
192,192,142151,1,0,0:0:0:0:
64,192,142151,1,0,0:0:0:0:
192,192,142237,1,0,0:0:0:0:
448,192,142323,1,0,0:0:0:0:
64,192,142323,1,0,0:0:0:0:
320,192,142409,1,0,0:0:0:0:
448,192,142409,1,0,0:0:0:0:
192,192,142495,1,0,0:0:0:0:
64,192,142495,1,0,0:0:0:0:
192,192,142582,1,0,0:0:0:0:
64,192,142668,1,0,0:0:0:0:
320,192,142668,1,0,0:0:0:0:
192,192,142754,1,0,0:0:0:0:
448,192,142754,1,0,0:0:0:0:
64,192,142840,1,0,0:0:0:0:
448,192,142840,1,0,0:0:0:0:
320,192,142926,1,0,0:0:0:0:
320,192,143013,1,0,0:0:0:0:
64,192,143013,1,0,0:0:0:0:
192,192,143099,1,0,0:0:0:0:
64,192,143099,1,0,0:0:0:0:
448,192,143185,1,0,0:0:0:0:
192,192,143185,1,0,0:0:0:0:
320,192,143271,1,0,0:0:0:0:
192,192,143357,1,0,0:0:0:0:
448,192,143357,1,0,0:0:0:0:
64,192,143444,1,0,0:0:0:0:
320,192,143444,1,0,0:0:0:0:
192,192,143530,1,0,0:0:0:0:
64,192,143530,1,0,0:0:0:0:
320,192,143616,1,0,0:0:0:0:
192,192,143702,1,0,0:0:0:0:
448,192,143702,1,0,0:0:0:0:
320,192,143788,1,0,0:0:0:0:
64,192,143788,1,0,0:0:0:0:
192,192,143875,1,0,0:0:0:0:
448,192,143875,1,0,0:0:0:0:
448,192,143961,1,0,0:0:0:0:
64,192,144047,1,0,0:0:0:0:
192,192,144047,1,0,0:0:0:0:
320,192,144133,1,0,0:0:0:0:
448,192,144133,1,0,0:0:0:0:
192,192,144220,1,0,0:0:0:0:
64,192,144220,1,0,0:0:0:0:
320,192,144306,1,0,0:0:0:0:
448,192,144392,1,0,0:0:0:0:
64,192,144392,1,0,0:0:0:0:
192,192,144478,1,0,0:0:0:0:
320,192,144478,1,0,0:0:0:0:
448,192,144564,1,0,0:0:0:0:
64,192,144564,1,0,0:0:0:0:
320,192,144651,1,0,0:0:0:0:
64,192,144737,1,0,0:0:0:0:
192,192,144737,1,0,0:0:0:0:
320,192,144823,1,0,0:0:0:0:
448,192,144823,1,0,0:0:0:0:
64,192,144909,1,0,0:0:0:0:
192,192,144909,1,0,0:0:0:0:
320,192,144995,1,0,0:0:0:0:
448,192,145082,1,0,0:0:0:0:
192,192,145082,1,0,0:0:0:0:
192,192,145168,1,0,0:0:0:0:
64,192,145168,1,0,0:0:0:0:
64,192,145254,1,0,0:0:0:0:
448,192,145254,1,0,0:0:0:0:
320,192,145340,1,0,0:0:0:0:
192,192,145426,1,0,0:0:0:0:
64,192,145426,1,0,0:0:0:0:
192,192,145513,1,0,0:0:0:0:
448,192,145513,1,0,0:0:0:0:
448,192,145599,1,0,0:0:0:0:
320,192,145599,1,0,0:0:0:0:
192,192,145685,1,0,0:0:0:0:
64,192,145771,1,0,0:0:0:0:
320,192,145771,1,0,0:0:0:0:
448,192,145857,1,0,0:0:0:0:
192,192,145857,1,0,0:0:0:0:
320,192,145944,1,0,0:0:0:0:
192,192,145944,1,0,0:0:0:0:
64,192,146030,1,0,0:0:0:0:
64,192,146116,1,0,0:0:0:0:
448,192,146116,1,0,0:0:0:0:
320,192,146202,1,0,0:0:0:0:
192,192,146202,1,0,0:0:0:0:
448,192,146288,1,0,0:0:0:0:
320,192,146288,1,0,0:0:0:0:
192,192,146375,1,0,0:0:0:0:
64,192,146461,1,0,0:0:0:0:
320,192,146461,1,0,0:0:0:0:
448,192,146547,1,0,0:0:0:0:
320,192,146547,1,0,0:0:0:0:
192,192,146633,1,0,0:0:0:0:
64,192,146633,1,0,0:0:0:0:
192,192,146720,1,0,0:0:0:0:
448,192,146806,1,0,0:0:0:0:
64,192,146806,1,0,0:0:0:0:
320,192,146892,1,0,0:0:0:0:
192,192,146892,1,0,0:0:0:0:
64,192,146978,1,0,0:0:0:0:
448,192,146978,1,0,0:0:0:0:
192,192,146978,1,0,0:0:0:0:
320,192,147064,1,0,0:0:0:0:
192,192,147151,1,0,0:0:0:0:
64,192,147151,1,0,0:0:0:0:
320,192,147237,1,0,0:0:0:0:
448,192,147237,1,0,0:0:0:0:
64,192,147323,1,0,0:0:0:0:
192,192,147323,1,0,0:0:0:0:
192,192,147409,1,0,0:0:0:0:
448,192,147495,1,0,0:0:0:0:
64,192,147495,1,0,0:0:0:0:
192,192,147582,1,0,0:0:0:0:
320,192,147582,1,0,0:0:0:0:
448,192,147668,1,0,0:0:0:0:
64,192,147668,1,0,0:0:0:0:
192,192,147754,1,0,0:0:0:0:
320,192,147840,1,0,0:0:0:0:
448,192,147840,1,0,0:0:0:0:
192,192,147926,1,0,0:0:0:0:
64,192,147926,1,0,0:0:0:0:
448,192,148013,1,0,0:0:0:0:
320,192,148013,1,0,0:0:0:0:
192,192,148099,1,0,0:0:0:0:
64,192,148185,1,0,0:0:0:0:
320,192,148185,1,0,0:0:0:0:
192,192,148271,1,0,0:0:0:0:
448,192,148271,1,0,0:0:0:0:
64,192,148357,1,0,0:0:0:0:
320,192,148357,1,0,0:0:0:0:
448,192,148357,1,0,0:0:0:0:
192,192,148444,1,0,0:0:0:0:
320,192,148530,1,0,0:0:0:0:
448,192,148530,1,0,0:0:0:0:
192,192,148616,1,0,0:0:0:0:
64,192,148616,1,0,0:0:0:0:
448,192,148702,1,0,0:0:0:0:
64,192,148702,1,0,0:0:0:0:
192,192,148788,1,0,0:0:0:0:
320,192,148875,1,0,0:0:0:0:
448,192,148875,1,0,0:0:0:0:
320,192,148961,1,0,0:0:0:0:
64,192,148961,1,0,0:0:0:0:
448,192,149047,1,0,0:0:0:0:
192,192,149047,1,0,0:0:0:0:
192,192,149133,1,0,0:0:0:0:
64,192,149220,1,0,0:0:0:0:
448,192,149220,1,0,0:0:0:0:
320,192,149306,1,0,0:0:0:0:
192,192,149306,1,0,0:0:0:0:
64,192,149392,1,0,0:0:0:0:
192,192,149392,1,0,0:0:0:0:
320,192,149478,1,0,0:0:0:0:
64,192,149564,1,0,0:0:0:0:
192,192,149564,1,0,0:0:0:0:
320,192,149651,1,0,0:0:0:0:
448,192,149651,1,0,0:0:0:0:
192,192,149737,1,0,0:0:0:0:
64,192,149737,1,0,0:0:0:0:
448,192,149737,1,0,0:0:0:0:
320,192,149823,1,0,0:0:0:0:
192,192,149909,1,0,0:0:0:0:
448,192,149909,1,0,0:0:0:0:
64,192,149995,1,0,0:0:0:0:
320,192,149995,1,0,0:0:0:0:
448,192,150082,1,0,0:0:0:0:
192,192,150082,1,0,0:0:0:0:
320,192,150168,1,0,0:0:0:0:
64,192,150254,1,0,0:0:0:0:
192,192,150254,1,0,0:0:0:0:
192,192,150340,1,0,0:0:0:0:
320,192,150340,1,0,0:0:0:0:
448,192,150426,1,0,0:0:0:0:
64,192,150426,1,0,0:0:0:0:
192,192,150513,1,0,0:0:0:0:
448,192,150599,1,0,0:0:0:0:
64,192,150599,1,0,0:0:0:0:
320,192,150685,1,0,0:0:0:0:
64,192,150685,1,0,0:0:0:0:
192,192,150771,1,0,0:0:0:0:
448,192,150771,1,0,0:0:0:0:
192,192,150857,1,0,0:0:0:0:
64,192,150944,1,0,0:0:0:0:
320,192,150944,1,0,0:0:0:0:
448,192,151030,1,0,0:0:0:0:
192,192,151030,1,0,0:0:0:0:
448,192,151116,1,0,0:0:0:0:
320,192,151116,1,0,0:0:0:0:
64,192,151116,1,0,0:0:0:0:
192,192,151202,1,0,0:0:0:0:
64,192,151202,1,0,0:0:0:0:
320,192,151288,1,0,0:0:0:0:
320,192,151375,1,0,0:0:0:0:
64,192,151375,1,0,0:0:0:0:
192,192,151375,1,0,0:0:0:0:
192,192,151461,1,0,0:0:0:0:
320,192,151547,1,0,0:0:0:0:
64,192,151547,1,0,0:0:0:0:
448,192,151547,1,0,0:0:0:0:
320,192,151633,1,0,0:0:0:0:
192,192,151633,1,0,0:0:0:0:
192,192,151720,1,0,0:0:0:0:
64,192,151806,1,0,0:0:0:0:
448,192,151806,1,0,0:0:0:0:
320,192,151892,1,0,0:0:0:0:
448,192,151978,1,0,0:0:0:0:
192,192,151978,1,0,0:0:0:0:
64,192,151978,1,0,0:0:0:0:
320,192,152064,1,0,0:0:0:0:
192,192,152151,1,0,0:0:0:0:
64,192,152151,1,0,0:0:0:0:
320,192,152151,1,0,0:0:0:0:
192,192,152237,1,0,0:0:0:0:
448,192,152323,1,0,0:0:0:0:
64,192,152323,1,0,0:0:0:0:
192,192,152409,1,0,0:0:0:0:
320,192,152409,1,0,0:0:0:0:
448,192,152409,1,0,0:0:0:0:
64,192,152495,1,0,0:0:0:0:
192,192,152495,1,0,0:0:0:0:
320,192,152495,1,0,0:0:0:0:
448,192,152495,1,0,0:0:0:0:
