osu file format v14

[General]
AudioFilename: audio 1.350x.mp3
AudioLeadIn: 0
PreviewTime: 0
Countdown: 0
SampleSet: None
StackLeniency: 0.7
Mode: 3
LetterboxInBreaks: 0
SpecialStyle: 0
WidescreenStoryboard: 1

[Editor]
DistanceSpacing: 0.6
BeatDivisor: 4
GridSize: 4
TimelineZoom: 2.1

[Metadata]
Title:Nina Bonita
TitleUnicode:NiƱa Bonita
Artist:Chino y Nacho
ArtistUnicode:Chino y Nacho
Creator:Mieruosu
Version:Jacks 1.35x (162bpm)
Source:
Tags:osutrainer
BeatmapID:4537582
BeatmapSetID:2153513

[Difficulty]
HPDrainRate:7
CircleSize:4
OverallDifficulty:9.4
ApproachRate:5.4
SliderMultiplier:1.4
SliderTickRate:1

[Events]
//Background and Video events
0,0,"ea7f9d3f86856e47333e9cfc12963ab5.jpg",0,0
//Break Periods
//Storyboard Layer 0 (Background)
//Storyboard Layer 1 (Fail)
//Storyboard Layer 2 (Pass)
//Storyboard Layer 3 (Foreground)
//Storyboard Layer 4 (Overlay)
//Storyboard Sound Samples

[TimingPoints]
9717,370.37037037037,4,1,0,100,1,0

[HitObjects]
64,192,8791,5,0,0:0:0:0:
192,192,8791,1,0,0:0:0:0:
320,192,8884,1,0,0:0:0:0:
448,192,8884,1,0,0:0:0:0:
192,192,8977,1,0,0:0:0:0:
64,192,8977,1,0,0:0:0:0:
192,192,9069,1,0,0:0:0:0:
320,192,9162,1,0,0:0:0:0:
448,192,9162,1,0,0:0:0:0:
320,192,9254,1,0,0:0:0:0:
64,192,9254,1,0,0:0:0:0:
192,192,9347,1,0,0:0:0:0:
64,192,9347,1,0,0:0:0:0:
448,192,9347,1,0,0:0:0:0:
192,192,9440,1,0,0:0:0:0:
320,192,9532,1,0,0:0:0:0:
448,192,9532,1,0,0:0:0:0:
64,192,9532,1,0,0:0:0:0:
192,192,9625,1,0,0:0:0:0:
192,192,9717,1,0,0:0:0:0:
64,192,9717,1,0,0:0:0:0:
320,192,9717,1,0,0:0:0:0:
448,192,9717,1,0,0:0:0:0:
448,192,9810,1,0,0:0:0:0:
448,192,9902,1,0,0:0:0:0:
320,192,9995,1,0,0:0:0:0:
192,192,9995,1,0,0:0:0:0:
448,192,10088,1,0,0:0:0:0:
64,192,10088,1,0,0:0:0:0:
192,192,10088,1,0,0:0:0:0:
320,192,10088,1,0,0:0:0:0:
192,192,10180,1,0,0:0:0:0:
64,192,10273,1,0,0:0:0:0:
320,192,10273,1,0,0:0:0:0:
192,192,10365,1,0,0:0:0:0:
448,192,10458,1,0,0:0:0:0:
320,192,10458,1,0,0:0:0:0:
64,192,10458,1,0,0:0:0:0:
320,192,10551,1,0,0:0:0:0:
320,192,10643,1,0,0:0:0:0:
64,192,10736,1,0,0:0:0:0:
192,192,10736,1,0,0:0:0:0:
64,192,10828,1,0,0:0:0:0:
320,192,10828,1,0,0:0:0:0:
448,192,10828,1,0,0:0:0:0:
192,192,10828,1,0,0:0:0:0:
320,192,10921,1,0,0:0:0:0:
64,192,11014,1,0,0:0:0:0:
448,192,11014,1,0,0:0:0:0:
192,192,11106,1,0,0:0:0:0:
64,192,11199,1,0,0:0:0:0:
320,192,11199,1,0,0:0:0:0:
448,192,11199,1,0,0:0:0:0:
64,192,11291,1,0,0:0:0:0:
64,192,11384,1,0,0:0:0:0:
320,192,11477,1,0,0:0:0:0:
448,192,11477,1,0,0:0:0:0:
320,192,11569,1,0,0:0:0:0:
192,192,11569,1,0,0:0:0:0:
64,192,11569,1,0,0:0:0:0:
448,192,11569,1,0,0:0:0:0:
192,192,11662,1,0,0:0:0:0:
64,192,11754,1,0,0:0:0:0:
320,192,11754,1,0,0:0:0:0:
448,192,11847,1,0,0:0:0:0:
320,192,11940,1,0,0:0:0:0:
448,192,11940,1,0,0:0:0:0:
64,192,11940,1,0,0:0:0:0:
320,192,12032,1,0,0:0:0:0:
320,192,12125,1,0,0:0:0:0:
64,192,12217,1,0,0:0:0:0:
448,192,12217,1,0,0:0:0:0:
448,192,12310,1,0,0:0:0:0:
192,192,12310,1,0,0:0:0:0:
64,192,12310,1,0,0:0:0:0:
320,192,12310,1,0,0:0:0:0:
192,192,12402,1,0,0:0:0:0:
320,192,12495,1,0,0:0:0:0:
448,192,12495,1,0,0:0:0:0:
64,192,12588,1,0,0:0:0:0:
64,192,12680,1,0,0:0:0:0:
320,192,12680,1,0,0:0:0:0:
448,192,12680,1,0,0:0:0:0:
320,192,12773,1,0,0:0:0:0:
192,192,12865,1,0,0:0:0:0:
64,192,12958,1,0,0:0:0:0:
320,192,12958,1,0,0:0:0:0:
448,192,13051,1,0,0:0:0:0:
320,192,13051,1,0,0:0:0:0:
192,192,13051,1,0,0:0:0:0:
64,192,13051,1,0,0:0:0:0:
192,192,13143,1,0,0:0:0:0:
448,192,13236,1,0,0:0:0:0:
64,192,13236,1,0,0:0:0:0:
320,192,13328,1,0,0:0:0:0:
448,192,13421,1,0,0:0:0:0:
192,192,13421,1,0,0:0:0:0:
64,192,13421,1,0,0:0:0:0:
192,192,13514,1,0,0:0:0:0:
192,192,13606,1,0,0:0:0:0:
64,192,13699,1,0,0:0:0:0:
320,192,13699,1,0,0:0:0:0:
64,192,13791,1,0,0:0:0:0:
192,192,13791,1,0,0:0:0:0:
320,192,13791,1,0,0:0:0:0:
448,192,13791,1,0,0:0:0:0:
192,192,13884,1,0,0:0:0:0:
448,192,13977,1,0,0:0:0:0:
320,192,13977,1,0,0:0:0:0:
192,192,14069,1,0,0:0:0:0:
64,192,14162,1,0,0:0:0:0:
192,192,14162,1,0,0:0:0:0:
448,192,14162,1,0,0:0:0:0:
64,192,14254,1,0,0:0:0:0:
64,192,14347,1,0,0:0:0:0:
448,192,14440,1,0,0:0:0:0:
192,192,14440,1,0,0:0:0:0:
448,192,14532,1,0,0:0:0:0:
320,192,14532,1,0,0:0:0:0:
192,192,14532,1,0,0:0:0:0:
64,192,14532,1,0,0:0:0:0:
320,192,14625,1,0,0:0:0:0:
64,192,14717,1,0,0:0:0:0:
448,192,14717,1,0,0:0:0:0:
192,192,14810,1,0,0:0:0:0:
320,192,14902,1,0,0:0:0:0:
192,192,14902,1,0,0:0:0:0:
64,192,14902,1,0,0:0:0:0:
320,192,14995,1,0,0:0:0:0:
320,192,15088,1,0,0:0:0:0:
192,192,15180,1,0,0:0:0:0:
64,192,15180,1,0,0:0:0:0:
64,192,15273,1,0,0:0:0:0:
192,192,15273,1,0,0:0:0:0:
320,192,15273,1,0,0:0:0:0:
448,192,15273,1,0,0:0:0:0:
320,192,15365,1,0,0:0:0:0:
64,192,15458,1,0,0:0:0:0:
192,192,15458,1,0,0:0:0:0:
320,192,15551,1,0,0:0:0:0:
448,192,15643,1,0,0:0:0:0:
320,192,15643,1,0,0:0:0:0:
192,192,15643,1,0,0:0:0:0:
192,192,15736,1,0,0:0:0:0:
192,192,15828,1,0,0:0:0:0:
64,192,15921,1,0,0:0:0:0:
320,192,15921,1,0,0:0:0:0:
448,192,16014,1,0,0:0:0:0:
320,192,16014,1,0,0:0:0:0:
192,192,16014,1,0,0:0:0:0:
64,192,16014,1,0,0:0:0:0:
192,192,16106,1,0,0:0:0:0:
448,192,16199,1,0,0:0:0:0:
320,192,16199,1,0,0:0:0:0:
64,192,16291,1,0,0:0:0:0:
320,192,16384,1,0,0:0:0:0:
448,192,16384,1,0,0:0:0:0:
64,192,16384,1,0,0:0:0:0:
320,192,16477,1,0,0:0:0:0:
320,192,16569,1,0,0:0:0:0:
192,192,16662,1,0,0:0:0:0:
448,192,16662,1,0,0:0:0:0:
448,192,16754,1,0,0:0:0:0:
320,192,16754,1,0,0:0:0:0:
192,192,16754,1,0,0:0:0:0:
64,192,16754,1,0,0:0:0:0:
64,192,16847,1,0,0:0:0:0:
64,192,16940,1,0,0:0:0:0:
320,192,16940,1,0,0:0:0:0:
192,192,17032,1,0,0:0:0:0:
448,192,17125,1,0,0:0:0:0:
64,192,17125,1,0,0:0:0:0:
320,192,17125,1,0,0:0:0:0:
320,192,17217,1,0,0:0:0:0:
320,192,17310,1,0,0:0:0:0:
192,192,17402,1,0,0:0:0:0:
64,192,17402,1,0,0:0:0:0:
64,192,17495,1,0,0:0:0:0:
320,192,17495,1,0,0:0:0:0:
448,192,17495,1,0,0:0:0:0:
192,192,17495,1,0,0:0:0:0:
448,192,17588,1,0,0:0:0:0:
448,192,17680,1,0,0:0:0:0:
192,192,17680,1,0,0:0:0:0:
320,192,17773,1,0,0:0:0:0:
192,192,17865,1,0,0:0:0:0:
64,192,17865,1,0,0:0:0:0:
320,192,17865,1,0,0:0:0:0:
192,192,17958,1,0,0:0:0:0:
192,192,18051,1,0,0:0:0:0:
320,192,18143,1,0,0:0:0:0:
448,192,18143,1,0,0:0:0:0:
448,192,18236,1,0,0:0:0:0:
320,192,18236,1,0,0:0:0:0:
192,192,18236,1,0,0:0:0:0:
64,192,18236,1,0,0:0:0:0:
64,192,18328,1,0,0:0:0:0:
64,192,18421,1,0,0:0:0:0:
320,192,18421,1,0,0:0:0:0:
448,192,18514,1,0,0:0:0:0:
448,192,18606,1,0,0:0:0:0:
320,192,18606,1,0,0:0:0:0:
64,192,18606,1,0,0:0:0:0:
192,192,18699,1,0,0:0:0:0:
192,192,18791,1,0,0:0:0:0:
320,192,18884,1,0,0:0:0:0:
64,192,18884,1,0,0:0:0:0:
64,192,18977,1,0,0:0:0:0:
192,192,18977,1,0,0:0:0:0:
320,192,18977,1,0,0:0:0:0:
448,192,18977,1,0,0:0:0:0:
320,192,19069,1,0,0:0:0:0:
448,192,19162,1,0,0:0:0:0:
192,192,19162,1,0,0:0:0:0:
320,192,19254,1,0,0:0:0:0:
448,192,19347,1,0,0:0:0:0:
192,192,19347,1,0,0:0:0:0:
64,192,19347,1,0,0:0:0:0:
192,192,19440,1,0,0:0:0:0:
192,192,19532,1,0,0:0:0:0:
320,192,19625,1,0,0:0:0:0:
448,192,19625,1,0,0:0:0:0:
448,192,19717,1,0,0:0:0:0:
320,192,19717,1,0,0:0:0:0:
192,192,19717,1,0,0:0:0:0:
64,192,19717,1,0,0:0:0:0:
192,192,19810,1,0,0:0:0:0:
320,192,19902,1,0,0:0:0:0:
64,192,19902,1,0,0:0:0:0:
192,192,19995,1,0,0:0:0:0:
320,192,20088,1,0,0:0:0:0:
192,192,20088,1,0,0:0:0:0:
448,192,20088,1,0,0:0:0:0:
320,192,20180,1,0,0:0:0:0:
320,192,20273,1,0,0:0:0:0:
64,192,20365,1,0,0:0:0:0:
448,192,20365,1,0,0:0:0:0:
448,192,20458,1,0,0:0:0:0:
320,192,20458,1,0,0:0:0:0:
192,192,20458,1,0,0:0:0:0:
64,192,20458,1,0,0:0:0:0:
192,192,20551,1,0,0:0:0:0:
320,192,20643,1,0,0:0:0:0:
448,192,20643,1,0,0:0:0:0:
320,192,20736,1,0,0:0:0:0:
448,192,20828,1,0,0:0:0:0:
192,192,20828,1,0,0:0:0:0:
64,192,20828,1,0,0:0:0:0:
192,192,20921,1,0,0:0:0:0:
192,192,21014,1,0,0:0:0:0:
320,192,21106,1,0,0:0:0:0:
448,192,21106,1,0,0:0:0:0:
192,192,21152,1,0,0:0:0:0:
64,192,21152,1,0,0:0:0:0:
320,192,21199,1,0,0:0:0:0:
448,192,21199,1,0,0:0:0:0:
192,192,21291,1,0,0:0:0:0:
64,192,21291,1,0,0:0:0:0:
64,192,21384,1,0,0:0:0:0:
320,192,21384,1,0,0:0:0:0:
192,192,21477,1,0,0:0:0:0:
448,192,21477,1,0,0:0:0:0:
448,192,21569,1,0,0:0:0:0:
320,192,21569,1,0,0:0:0:0:
192,192,21569,1,0,0:0:0:0:
64,192,21569,1,0,0:0:0:0:
64,192,21662,1,0,0:0:0:0:
64,192,21754,1,0,0:0:0:0:
320,192,21847,1,0,0:0:0:0:
448,192,21847,1,0,0:0:0:0:
448,192,21940,1,0,0:0:0:0:
192,192,21940,1,0,0:0:0:0:
64,192,21940,1,0,0:0:0:0:
192,192,22032,1,0,0:0:0:0:
192,192,22125,1,0,0:0:0:0:
64,192,22217,1,0,0:0:0:0:
448,192,22217,1,0,0:0:0:0:
448,192,22310,1,0,0:0:0:0:
192,192,22310,1,0,0:0:0:0:
64,192,22310,1,0,0:0:0:0:
192,192,22402,1,0,0:0:0:0:
192,192,22495,1,0,0:0:0:0:
448,192,22588,1,0,0:0:0:0:
64,192,22588,1,0,0:0:0:0:
448,192,22680,1,0,0:0:0:0:
64,192,22680,1,0,0:0:0:0:
320,192,22680,1,0,0:0:0:0:
320,192,22773,1,0,0:0:0:0:
320,192,22865,1,0,0:0:0:0:
64,192,22865,1,0,0:0:0:0:
192,192,22958,1,0,0:0:0:0:
320,192,23051,1,0,0:0:0:0:
448,192,23051,1,0,0:0:0:0:
192,192,23051,1,0,0:0:0:0:
64,192,23051,1,0,0:0:0:0:
320,192,23143,1,0,0:0:0:0:
320,192,23236,1,0,0:0:0:0:
192,192,23328,1,0,0:0:0:0:
64,192,23328,1,0,0:0:0:0:
64,192,23421,1,0,0:0:0:0:
192,192,23421,1,0,0:0:0:0:
448,192,23421,1,0,0:0:0:0:
448,192,23514,1,0,0:0:0:0:
192,192,23606,1,0,0:0:0:0:
448,192,23606,1,0,0:0:0:0:
320,192,23699,1,0,0:0:0:0:
448,192,23791,1,0,0:0:0:0:
192,192,23791,1,0,0:0:0:0:
64,192,23791,1,0,0:0:0:0:
64,192,23884,1,0,0:0:0:0:
64,192,23977,1,0,0:0:0:0:
192,192,24069,1,0,0:0:0:0:
320,192,24069,1,0,0:0:0:0:
448,192,24162,1,0,0:0:0:0:
320,192,24162,1,0,0:0:0:0:
64,192,24162,1,0,0:0:0:0:
448,192,24254,1,0,0:0:0:0:
64,192,24347,1,0,0:0:0:0:
320,192,24347,1,0,0:0:0:0:
192,192,24440,1,0,0:0:0:0:
448,192,24532,1,0,0:0:0:0:
320,192,24532,1,0,0:0:0:0:
192,192,24532,1,0,0:0:0:0:
64,192,24532,1,0,0:0:0:0:
320,192,24625,1,0,0:0:0:0:
320,192,24717,1,0,0:0:0:0:
192,192,24810,1,0,0:0:0:0:
64,192,24810,1,0,0:0:0:0:
192,192,24902,1,0,0:0:0:0:
448,192,24902,1,0,0:0:0:0:
320,192,24902,1,0,0:0:0:0:
320,192,24995,1,0,0:0:0:0:
192,192,25088,1,0,0:0:0:0:
448,192,25088,1,0,0:0:0:0:
320,192,25180,1,0,0:0:0:0:
192,192,25273,1,0,0:0:0:0:
64,192,25273,1,0,0:0:0:0:
448,192,25273,1,0,0:0:0:0:
192,192,25365,1,0,0:0:0:0:
192,192,25458,1,0,0:0:0:0:
320,192,25551,1,0,0:0:0:0:
448,192,25551,1,0,0:0:0:0:
448,192,25643,1,0,0:0:0:0:
320,192,25643,1,0,0:0:0:0:
64,192,25643,1,0,0:0:0:0:
192,192,25736,1,0,0:0:0:0:
64,192,25828,1,0,0:0:0:0:
320,192,25828,1,0,0:0:0:0:
448,192,25921,1,0,0:0:0:0:
448,192,26014,1,0,0:0:0:0:
320,192,26014,1,0,0:0:0:0:
192,192,26014,1,0,0:0:0:0:
64,192,26014,1,0,0:0:0:0:
192,192,26106,1,0,0:0:0:0:
64,192,26199,1,0,0:0:0:0:
64,192,26291,1,0,0:0:0:0:
192,192,26291,1,0,0:0:0:0:
64,192,26384,1,0,0:0:0:0:
192,192,26384,1,0,0:0:0:0:
448,192,26384,1,0,0:0:0:0:
320,192,26477,1,0,0:0:0:0:
192,192,26569,1,0,0:0:0:0:
448,192,26569,1,0,0:0:0:0:
448,192,26662,1,0,0:0:0:0:
320,192,26754,1,0,0:0:0:0:
64,192,26754,1,0,0:0:0:0:
192,192,26754,1,0,0:0:0:0:
192,192,26847,1,0,0:0:0:0:
192,192,26940,1,0,0:0:0:0:
320,192,27032,1,0,0:0:0:0:
448,192,27032,1,0,0:0:0:0:
448,192,27125,1,0,0:0:0:0:
320,192,27125,1,0,0:0:0:0:
64,192,27125,1,0,0:0:0:0:
64,192,27217,1,0,0:0:0:0:
64,192,27310,1,0,0:0:0:0:
320,192,27402,1,0,0:0:0:0:
192,192,27402,1,0,0:0:0:0:
448,192,27495,1,0,0:0:0:0:
320,192,27495,1,0,0:0:0:0:
64,192,27495,1,0,0:0:0:0:
192,192,27495,1,0,0:0:0:0:
448,192,27588,1,0,0:0:0:0:
448,192,27680,1,0,0:0:0:0:
64,192,27773,1,0,0:0:0:0:
320,192,27773,1,0,0:0:0:0:
320,192,27865,1,0,0:0:0:0:
64,192,27865,1,0,0:0:0:0:
448,192,27865,1,0,0:0:0:0:
320,192,27958,1,0,0:0:0:0:
64,192,28051,1,0,0:0:0:0:
448,192,28051,1,0,0:0:0:0:
320,192,28143,1,0,0:0:0:0:
192,192,28236,1,0,0:0:0:0:
64,192,28236,1,0,0:0:0:0:
448,192,28236,1,0,0:0:0:0:
192,192,28328,1,0,0:0:0:0:
320,192,28421,1,0,0:0:0:0:
192,192,28514,1,0,0:0:0:0:
448,192,28514,1,0,0:0:0:0:
448,192,28606,1,0,0:0:0:0:
64,192,28606,1,0,0:0:0:0:
320,192,28606,1,0,0:0:0:0:
192,192,28699,1,0,0:0:0:0:
64,192,28791,1,0,0:0:0:0:
320,192,28791,1,0,0:0:0:0:
192,192,28884,1,0,0:0:0:0:
192,192,28977,1,0,0:0:0:0:
64,192,28977,1,0,0:0:0:0:
320,192,28977,1,0,0:0:0:0:
448,192,28977,1,0,0:0:0:0:
64,192,29069,1,0,0:0:0:0:
192,192,29162,1,0,0:0:0:0:
64,192,29254,1,0,0:0:0:0:
320,192,29254,1,0,0:0:0:0:
448,192,29347,1,0,0:0:0:0:
192,192,29347,1,0,0:0:0:0:
64,192,29347,1,0,0:0:0:0:
320,192,29440,1,0,0:0:0:0:
320,192,29532,1,0,0:0:0:0:
64,192,29532,1,0,0:0:0:0:
192,192,29625,1,0,0:0:0:0:
64,192,29717,1,0,0:0:0:0:
192,192,29717,1,0,0:0:0:0:
320,192,29717,1,0,0:0:0:0:
448,192,29717,1,0,0:0:0:0:
320,192,29810,1,0,0:0:0:0:
320,192,29902,1,0,0:0:0:0:
64,192,29995,1,0,0:0:0:0:
192,192,29995,1,0,0:0:0:0:
448,192,30088,1,0,0:0:0:0:
320,192,30088,1,0,0:0:0:0:
64,192,30088,1,0,0:0:0:0:
192,192,30180,1,0,0:0:0:0:
320,192,30273,1,0,0:0:0:0:
64,192,30273,1,0,0:0:0:0:
320,192,30365,1,0,0:0:0:0:
448,192,30458,1,0,0:0:0:0:
192,192,30458,1,0,0:0:0:0:
64,192,30458,1,0,0:0:0:0:
320,192,30458,1,0,0:0:0:0:
448,192,30551,1,0,0:0:0:0:
448,192,30643,1,0,0:0:0:0:
320,192,30736,1,0,0:0:0:0:
192,192,30736,1,0,0:0:0:0:
448,192,30828,1,0,0:0:0:0:
192,192,30828,1,0,0:0:0:0:
64,192,30828,1,0,0:0:0:0:
320,192,30921,1,0,0:0:0:0:
64,192,31014,1,0,0:0:0:0:
320,192,31014,1,0,0:0:0:0:
192,192,31106,1,0,0:0:0:0:
448,192,31199,1,0,0:0:0:0:
320,192,31199,1,0,0:0:0:0:
64,192,31199,1,0,0:0:0:0:
192,192,31291,1,0,0:0:0:0:
192,192,31384,1,0,0:0:0:0:
64,192,31477,1,0,0:0:0:0:
320,192,31477,1,0,0:0:0:0:
320,192,31569,1,0,0:0:0:0:
192,192,31569,1,0,0:0:0:0:
64,192,31569,1,0,0:0:0:0:
192,192,31662,1,0,0:0:0:0:
64,192,31754,1,0,0:0:0:0:
320,192,31754,1,0,0:0:0:0:
64,192,31847,1,0,0:0:0:0:
192,192,31940,1,0,0:0:0:0:
64,192,31940,1,0,0:0:0:0:
320,192,31940,1,0,0:0:0:0:
448,192,31940,1,0,0:0:0:0:
192,192,32032,1,0,0:0:0:0:
320,192,32125,1,0,0:0:0:0:
448,192,32217,1,0,0:0:0:0:
64,192,32217,1,0,0:0:0:0:
448,192,32310,1,0,0:0:0:0:
192,192,32310,1,0,0:0:0:0:
64,192,32310,1,0,0:0:0:0:
320,192,32402,1,0,0:0:0:0:
192,192,32495,1,0,0:0:0:0:
64,192,32495,1,0,0:0:0:0:
192,192,32588,1,0,0:0:0:0:
448,192,32680,1,0,0:0:0:0:
320,192,32680,1,0,0:0:0:0:
64,192,32680,1,0,0:0:0:0:
320,192,32773,1,0,0:0:0:0:
192,192,32865,1,0,0:0:0:0:
320,192,32958,1,0,0:0:0:0:
64,192,32958,1,0,0:0:0:0:
320,192,33051,1,0,0:0:0:0:
192,192,33051,1,0,0:0:0:0:
64,192,33051,1,0,0:0:0:0:
448,192,33051,1,0,0:0:0:0:
192,192,33143,1,0,0:0:0:0:
448,192,33236,1,0,0:0:0:0:
64,192,33236,1,0,0:0:0:0:
192,192,33328,1,0,0:0:0:0:
64,192,33421,1,0,0:0:0:0:
192,192,33421,1,0,0:0:0:0:
320,192,33421,1,0,0:0:0:0:
448,192,33421,1,0,0:0:0:0:
320,192,33514,1,0,0:0:0:0:
320,192,33606,1,0,0:0:0:0:
192,192,33699,1,0,0:0:0:0:
64,192,33699,1,0,0:0:0:0:
64,192,33791,1,0,0:0:0:0:
192,192,33791,1,0,0:0:0:0:
320,192,33791,1,0,0:0:0:0:
448,192,33791,1,0,0:0:0:0:
320,192,33884,1,0,0:0:0:0:
192,192,33977,1,0,0:0:0:0:
448,192,33977,1,0,0:0:0:0:
192,192,34069,1,0,0:0:0:0:
448,192,34162,1,0,0:0:0:0:
320,192,34162,1,0,0:0:0:0:
192,192,34162,1,0,0:0:0:0:
64,192,34162,1,0,0:0:0:0:
64,192,34254,1,0,0:0:0:0:
64,192,34347,1,0,0:0:0:0:
448,192,34440,1,0,0:0:0:0:
320,192,34440,1,0,0:0:0:0:
320,192,34532,1,0,0:0:0:0:
192,192,34532,1,0,0:0:0:0:
64,192,34532,1,0,0:0:0:0:
448,192,34532,1,0,0:0:0:0:
192,192,34625,1,0,0:0:0:0:
448,192,34717,1,0,0:0:0:0:
64,192,34717,1,0,0:0:0:0:
320,192,34810,1,0,0:0:0:0:
448,192,34902,1,0,0:0:0:0:
320,192,34902,1,0,0:0:0:0:
192,192,34902,1,0,0:0:0:0:
64,192,34902,1,0,0:0:0:0:
192,192,34995,1,0,0:0:0:0:
192,192,35088,1,0,0:0:0:0:
448,192,35180,1,0,0:0:0:0:
64,192,35180,1,0,0:0:0:0:
64,192,35273,1,0,0:0:0:0:
192,192,35273,1,0,0:0:0:0:
320,192,35273,1,0,0:0:0:0:
448,192,35273,1,0,0:0:0:0:
320,192,35365,1,0,0:0:0:0:
192,192,35458,1,0,0:0:0:0:
448,192,35458,1,0,0:0:0:0:
320,192,35551,1,0,0:0:0:0:
448,192,35643,1,0,0:0:0:0:
320,192,35643,1,0,0:0:0:0:
192,192,35643,1,0,0:0:0:0:
64,192,35643,1,0,0:0:0:0:
64,192,35736,1,0,0:0:0:0:
192,192,35828,1,0,0:0:0:0:
320,192,35921,1,0,0:0:0:0:
64,192,35921,1,0,0:0:0:0:
64,192,36014,1,0,0:0:0:0:
320,192,36014,1,0,0:0:0:0:
448,192,36014,1,0,0:0:0:0:
192,192,36014,1,0,0:0:0:0:
448,192,36106,1,0,0:0:0:0:
448,192,36199,1,0,0:0:0:0:
192,192,36199,1,0,0:0:0:0:
320,192,36291,1,0,0:0:0:0:
192,192,36384,1,0,0:0:0:0:
64,192,36384,1,0,0:0:0:0:
320,192,36384,1,0,0:0:0:0:
448,192,36384,1,0,0:0:0:0:
192,192,36477,1,0,0:0:0:0:
192,192,36569,1,0,0:0:0:0:
448,192,36662,1,0,0:0:0:0:
320,192,36662,1,0,0:0:0:0:
448,192,36754,1,0,0:0:0:0:
320,192,36754,1,0,0:0:0:0:
64,192,36754,1,0,0:0:0:0:
192,192,36754,1,0,0:0:0:0:
64,192,36847,1,0,0:0:0:0:
64,192,36940,1,0,0:0:0:0:
448,192,36940,1,0,0:0:0:0:
320,192,37032,1,0,0:0:0:0:
448,192,37125,1,0,0:0:0:0:
320,192,37125,1,0,0:0:0:0:
192,192,37125,1,0,0:0:0:0:
64,192,37125,1,0,0:0:0:0:
448,192,37217,1,0,0:0:0:0:
448,192,37310,1,0,0:0:0:0:
192,192,37402,1,0,0:0:0:0:
64,192,37402,1,0,0:0:0:0:
64,192,37495,1,0,0:0:0:0:
192,192,37495,1,0,0:0:0:0:
320,192,37495,1,0,0:0:0:0:
448,192,37495,1,0,0:0:0:0:
320,192,37588,1,0,0:0:0:0:
64,192,37680,1,0,0:0:0:0:
448,192,37680,1,0,0:0:0:0:
192,192,37773,1,0,0:0:0:0:
448,192,37865,1,0,0:0:0:0:
320,192,37865,1,0,0:0:0:0:
64,192,37865,1,0,0:0:0:0:
192,192,37865,1,0,0:0:0:0:
320,192,37958,1,0,0:0:0:0:
320,192,38051,1,0,0:0:0:0:
192,192,38143,1,0,0:0:0:0:
448,192,38143,1,0,0:0:0:0:
448,192,38236,1,0,0:0:0:0:
320,192,38236,1,0,0:0:0:0:
192,192,38236,1,0,0:0:0:0:
64,192,38236,1,0,0:0:0:0:
64,192,38328,1,0,0:0:0:0:
64,192,38421,1,0,0:0:0:0:
320,192,38421,1,0,0:0:0:0:
192,192,38514,1,0,0:0:0:0:
448,192,38606,1,0,0:0:0:0:
320,192,38606,1,0,0:0:0:0:
192,192,38606,1,0,0:0:0:0:
64,192,38606,1,0,0:0:0:0:
320,192,38699,1,0,0:0:0:0:
320,192,38791,1,0,0:0:0:0:
192,192,38791,1,0,0:0:0:0:
64,192,38884,1,0,0:0:0:0:
448,192,38884,1,0,0:0:0:0:
64,192,38977,1,0,0:0:0:0:
192,192,38977,1,0,0:0:0:0:
320,192,38977,1,0,0:0:0:0:
448,192,38977,1,0,0:0:0:0:
192,192,39069,1,0,0:0:0:0:
320,192,39069,1,0,0:0:0:0:
448,192,39162,1,0,0:0:0:0:
64,192,39162,1,0,0:0:0:0:
192,192,39254,1,0,0:0:0:0:
64,192,39254,1,0,0:0:0:0:
64,192,39347,1,0,0:0:0:0:
192,192,39347,1,0,0:0:0:0:
320,192,39347,1,0,0:0:0:0:
448,192,39347,1,0,0:0:0:0:
192,192,39440,1,0,0:0:0:0:
192,192,39532,1,0,0:0:0:0:
448,192,39625,1,0,0:0:0:0:
320,192,39625,1,0,0:0:0:0:
448,192,39717,1,0,0:0:0:0:
320,192,39717,1,0,0:0:0:0:
192,192,39717,1,0,0:0:0:0:
64,192,39717,1,0,0:0:0:0:
64,192,39810,1,0,0:0:0:0:
64,192,39902,1,0,0:0:0:0:
320,192,39902,1,0,0:0:0:0:
320,192,39995,1,0,0:0:0:0:
448,192,40088,1,0,0:0:0:0:
320,192,40088,1,0,0:0:0:0:
192,192,40088,1,0,0:0:0:0:
64,192,40088,1,0,0:0:0:0:
192,192,40180,1,0,0:0:0:0:
192,192,40273,1,0,0:0:0:0:
448,192,40365,1,0,0:0:0:0:
64,192,40365,1,0,0:0:0:0:
64,192,40458,1,0,0:0:0:0:
192,192,40458,1,0,0:0:0:0:
320,192,40458,1,0,0:0:0:0:
448,192,40458,1,0,0:0:0:0:
320,192,40551,1,0,0:0:0:0:
192,192,40643,1,0,0:0:0:0:
64,192,40643,1,0,0:0:0:0:
64,192,40736,1,0,0:0:0:0:
64,192,40828,1,0,0:0:0:0:
192,192,40828,1,0,0:0:0:0:
320,192,40828,1,0,0:0:0:0:
448,192,40828,1,0,0:0:0:0:
192,192,40921,1,0,0:0:0:0:
192,192,41014,1,0,0:0:0:0:
448,192,41106,1,0,0:0:0:0:
320,192,41106,1,0,0:0:0:0:
448,192,41199,1,0,0:0:0:0:
320,192,41199,1,0,0:0:0:0:
192,192,41199,1,0,0:0:0:0:
64,192,41199,1,0,0:0:0:0:
192,192,41291,1,0,0:0:0:0:
64,192,41384,1,0,0:0:0:0:
320,192,41384,1,0,0:0:0:0:
448,192,41477,1,0,0:0:0:0:
448,192,41569,1,0,0:0:0:0:
320,192,41569,1,0,0:0:0:0:
192,192,41569,1,0,0:0:0:0:
64,192,41569,1,0,0:0:0:0:
320,192,41662,1,0,0:0:0:0:
320,192,41754,1,0,0:0:0:0:
192,192,41754,1,0,0:0:0:0:
192,192,41847,1,0,0:0:0:0:
64,192,41847,1,0,0:0:0:0:
192,192,41940,1,0,0:0:0:0:
64,192,41940,1,0,0:0:0:0:
320,192,41940,1,0,0:0:0:0:
448,192,41940,1,0,0:0:0:0:
448,192,42032,1,0,0:0:0:0:
320,192,42032,1,0,0:0:0:0:
320,192,42125,1,0,0:0:0:0:
192,192,42125,1,0,0:0:0:0:
192,192,42217,1,0,0:0:0:0:
64,192,42217,1,0,0:0:0:0:
448,192,42310,1,0,0:0:0:0:
320,192,42310,1,0,0:0:0:0:
192,192,42310,1,0,0:0:0:0:
64,192,42310,1,0,0:0:0:0:
448,192,42402,1,0,0:0:0:0:
448,192,42495,1,0,0:0:0:0:
192,192,42588,1,0,0:0:0:0:
64,192,42588,1,0,0:0:0:0:
64,192,42680,1,0,0:0:0:0:
192,192,42680,1,0,0:0:0:0:
320,192,42680,1,0,0:0:0:0:
448,192,42680,1,0,0:0:0:0:
320,192,42773,1,0,0:0:0:0:
64,192,42865,1,0,0:0:0:0:
448,192,42865,1,0,0:0:0:0:
64,192,42958,1,0,0:0:0:0:
64,192,43051,1,0,0:0:0:0:
192,192,43051,1,0,0:0:0:0:
320,192,43051,1,0,0:0:0:0:
448,192,43051,1,0,0:0:0:0:
320,192,43143,1,0,0:0:0:0:
192,192,43236,1,0,0:0:0:0:
192,192,43328,1,0,0:0:0:0:
448,192,43328,1,0,0:0:0:0:
448,192,43421,1,0,0:0:0:0:
320,192,43421,1,0,0:0:0:0:
192,192,43421,1,0,0:0:0:0:
64,192,43421,1,0,0:0:0:0:
320,192,43514,1,0,0:0:0:0:
64,192,43606,1,0,0:0:0:0:
192,192,43606,1,0,0:0:0:0:
448,192,43699,1,0,0:0:0:0:
448,192,43791,1,0,0:0:0:0:
320,192,43791,1,0,0:0:0:0:
192,192,43791,1,0,0:0:0:0:
64,192,43791,1,0,0:0:0:0:
192,192,43884,1,0,0:0:0:0:
192,192,43977,1,0,0:0:0:0:
192,192,44069,1,0,0:0:0:0:
320,192,44069,1,0,0:0:0:0:
448,192,44162,1,0,0:0:0:0:
320,192,44162,1,0,0:0:0:0:
192,192,44162,1,0,0:0:0:0:
64,192,44162,1,0,0:0:0:0:
448,192,44254,1,0,0:0:0:0:
448,192,44347,1,0,0:0:0:0:
192,192,44347,1,0,0:0:0:0:
320,192,44440,1,0,0:0:0:0:
320,192,44532,1,0,0:0:0:0:
192,192,44532,1,0,0:0:0:0:
64,192,44532,1,0,0:0:0:0:
448,192,44532,1,0,0:0:0:0:
448,192,44625,1,0,0:0:0:0:
320,192,44717,1,0,0:0:0:0:
192,192,44810,1,0,0:0:0:0:
64,192,44810,1,0,0:0:0:0:
64,192,44902,1,0,0:0:0:0:
192,192,44902,1,0,0:0:0:0:
320,192,44902,1,0,0:0:0:0:
448,192,44902,1,0,0:0:0:0:
192,192,44995,1,0,0:0:0:0:
320,192,45088,1,0,0:0:0:0:
64,192,45088,1,0,0:0:0:0:
64,192,45180,1,0,0:0:0:0:
64,192,45273,1,0,0:0:0:0:
192,192,45273,1,0,0:0:0:0:
320,192,45273,1,0,0:0:0:0:
448,192,45273,1,0,0:0:0:0:
320,192,45365,1,0,0:0:0:0:
448,192,45365,1,0,0:0:0:0:
64,192,45458,1,0,0:0:0:0:
192,192,45551,1,0,0:0:0:0:
448,192,45551,1,0,0:0:0:0:
448,192,45643,1,0,0:0:0:0:
320,192,45643,1,0,0:0:0:0:
192,192,45643,1,0,0:0:0:0:
64,192,45643,1,0,0:0:0:0:
320,192,45736,1,0,0:0:0:0:
192,192,45828,1,0,0:0:0:0:
64,192,45828,1,0,0:0:0:0:
320,192,45921,1,0,0:0:0:0:
448,192,46014,1,0,0:0:0:0:
64,192,46014,1,0,0:0:0:0:
192,192,46014,1,0,0:0:0:0:
192,192,46106,1,0,0:0:0:0:
320,192,46106,1,0,0:0:0:0:
64,192,46199,1,0,0:0:0:0:
192,192,46291,1,0,0:0:0:0:
448,192,46291,1,0,0:0:0:0:
448,192,46384,1,0,0:0:0:0:
320,192,46384,1,0,0:0:0:0:
192,192,46384,1,0,0:0:0:0:
64,192,46384,1,0,0:0:0:0:
64,192,46477,1,0,0:0:0:0:
192,192,46569,1,0,0:0:0:0:
448,192,46569,1,0,0:0:0:0:
448,192,46662,1,0,0:0:0:0:
320,192,46754,1,0,0:0:0:0:
192,192,46754,1,0,0:0:0:0:
64,192,46754,1,0,0:0:0:0:
192,192,46847,1,0,0:0:0:0:
192,192,46940,1,0,0:0:0:0:
320,192,47032,1,0,0:0:0:0:
64,192,47032,1,0,0:0:0:0:
448,192,47125,1,0,0:0:0:0:
320,192,47125,1,0,0:0:0:0:
192,192,47125,1,0,0:0:0:0:
64,192,47125,1,0,0:0:0:0:
192,192,47217,1,0,0:0:0:0:
320,192,47310,1,0,0:0:0:0:
64,192,47310,1,0,0:0:0:0:
320,192,47402,1,0,0:0:0:0:
192,192,47495,1,0,0:0:0:0:
64,192,47495,1,0,0:0:0:0:
448,192,47495,1,0,0:0:0:0:
192,192,47588,1,0,0:0:0:0:
192,192,47680,1,0,0:0:0:0:
448,192,47773,1,0,0:0:0:0:
320,192,47773,1,0,0:0:0:0:
448,192,47865,1,0,0:0:0:0:
320,192,47865,1,0,0:0:0:0:
64,192,47865,1,0,0:0:0:0:
192,192,47865,1,0,0:0:0:0:
192,192,47958,1,0,0:0:0:0:
320,192,48051,1,0,0:0:0:0:
448,192,48051,1,0,0:0:0:0:
320,192,48143,1,0,0:0:0:0:
192,192,48236,1,0,0:0:0:0:
64,192,48236,1,0,0:0:0:0:
448,192,48236,1,0,0:0:0:0:
192,192,48328,1,0,0:0:0:0:
320,192,48421,1,0,0:0:0:0:
192,192,48514,1,0,0:0:0:0:
448,192,48514,1,0,0:0:0:0:
448,192,48606,1,0,0:0:0:0:
192,192,48606,1,0,0:0:0:0:
64,192,48606,1,0,0:0:0:0:
320,192,48606,1,0,0:0:0:0:
64,192,48699,1,0,0:0:0:0:
64,192,48791,1,0,0:0:0:0:
320,192,48791,1,0,0:0:0:0:
192,192,48884,1,0,0:0:0:0:
448,192,48977,1,0,0:0:0:0:
320,192,48977,1,0,0:0:0:0:
64,192,48977,1,0,0:0:0:0:
192,192,49069,1,0,0:0:0:0:
320,192,49162,1,0,0:0:0:0:
192,192,49254,1,0,0:0:0:0:
64,192,49254,1,0,0:0:0:0:
448,192,49347,1,0,0:0:0:0:
64,192,49347,1,0,0:0:0:0:
192,192,49347,1,0,0:0:0:0:
320,192,49347,1,0,0:0:0:0:
448,192,49440,1,0,0:0:0:0:
64,192,49532,1,0,0:0:0:0:
320,192,49532,1,0,0:0:0:0:
64,192,49625,1,0,0:0:0:0:
192,192,49717,1,0,0:0:0:0:
320,192,49717,1,0,0:0:0:0:
448,192,49717,1,0,0:0:0:0:
320,192,49810,1,0,0:0:0:0:
64,192,49902,1,0,0:0:0:0:
192,192,49995,1,0,0:0:0:0:
320,192,49995,1,0,0:0:0:0:
448,192,50088,1,0,0:0:0:0:
320,192,50088,1,0,0:0:0:0:
192,192,50088,1,0,0:0:0:0:
64,192,50088,1,0,0:0:0:0:
320,192,50180,1,0,0:0:0:0:
448,192,50273,1,0,0:0:0:0:
64,192,50273,1,0,0:0:0:0:
192,192,50365,1,0,0:0:0:0:
448,192,50458,1,0,0:0:0:0:
320,192,50458,1,0,0:0:0:0:
64,192,50458,1,0,0:0:0:0:
192,192,50551,1,0,0:0:0:0:
64,192,50551,1,0,0:0:0:0:
320,192,50643,1,0,0:0:0:0:
64,192,50736,1,0,0:0:0:0:
192,192,50736,1,0,0:0:0:0:
64,192,50828,1,0,0:0:0:0:
192,192,50828,1,0,0:0:0:0:
320,192,50828,1,0,0:0:0:0:
448,192,50828,1,0,0:0:0:0:
320,192,50921,1,0,0:0:0:0:
448,192,50921,1,0,0:0:0:0:
64,192,51014,1,0,0:0:0:0:
192,192,51014,1,0,0:0:0:0:
320,192,51106,1,0,0:0:0:0:
448,192,51106,1,0,0:0:0:0:
448,192,51199,1,0,0:0:0:0:
320,192,51199,1,0,0:0:0:0:
192,192,51199,1,0,0:0:0:0:
64,192,51199,1,0,0:0:0:0:
192,192,51291,1,0,0:0:0:0:
192,192,51384,1,0,0:0:0:0:
320,192,51477,1,0,0:0:0:0:
448,192,51477,1,0,0:0:0:0:
448,192,51569,1,0,0:0:0:0:
192,192,51569,1,0,0:0:0:0:
64,192,51569,1,0,0:0:0:0:
320,192,51569,1,0,0:0:0:0:
192,192,51662,1,0,0:0:0:0:
192,192,51754,1,0,0:0:0:0:
64,192,51754,1,0,0:0:0:0:
64,192,51847,1,0,0:0:0:0:
192,192,51940,1,0,0:0:0:0:
320,192,51940,1,0,0:0:0:0:
448,192,51940,1,0,0:0:0:0:
320,192,52032,1,0,0:0:0:0:
64,192,52125,1,0,0:0:0:0:
448,192,52217,1,0,0:0:0:0:
192,192,52217,1,0,0:0:0:0:
448,192,52310,1,0,0:0:0:0:
192,192,52310,1,0,0:0:0:0:
64,192,52310,1,0,0:0:0:0:
320,192,52402,1,0,0:0:0:0:
448,192,52495,1,0,0:0:0:0:
192,192,52495,1,0,0:0:0:0:
192,192,52588,1,0,0:0:0:0:
448,192,52680,1,0,0:0:0:0:
192,192,52680,1,0,0:0:0:0:
64,192,52680,1,0,0:0:0:0:
320,192,52773,1,0,0:0:0:0:
448,192,52865,1,0,0:0:0:0:
320,192,52958,1,0,0:0:0:0:
192,192,52958,1,0,0:0:0:0:
448,192,53051,1,0,0:0:0:0:
320,192,53051,1,0,0:0:0:0:
64,192,53051,1,0,0:0:0:0:
192,192,53051,1,0,0:0:0:0:
64,192,53143,1,0,0:0:0:0:
64,192,53236,1,0,0:0:0:0:
320,192,53236,1,0,0:0:0:0:
320,192,53328,1,0,0:0:0:0:
448,192,53421,1,0,0:0:0:0:
192,192,53421,1,0,0:0:0:0:
64,192,53421,1,0,0:0:0:0:
448,192,53514,1,0,0:0:0:0:
192,192,53606,1,0,0:0:0:0:
448,192,53699,1,0,0:0:0:0:
320,192,53699,1,0,0:0:0:0:
64,192,53791,1,0,0:0:0:0:
192,192,53791,1,0,0:0:0:0:
320,192,53791,1,0,0:0:0:0:
448,192,53791,1,0,0:0:0:0:
192,192,53884,1,0,0:0:0:0:
64,192,53977,1,0,0:0:0:0:
320,192,53977,1,0,0:0:0:0:
64,192,54069,1,0,0:0:0:0:
192,192,54162,1,0,0:0:0:0:
448,192,54162,1,0,0:0:0:0:
64,192,54162,1,0,0:0:0:0:
320,192,54254,1,0,0:0:0:0:
448,192,54347,1,0,0:0:0:0:
64,192,54440,1,0,0:0:0:0:
320,192,54440,1,0,0:0:0:0:
448,192,54532,1,0,0:0:0:0:
320,192,54532,1,0,0:0:0:0:
64,192,54532,1,0,0:0:0:0:
448,192,54625,1,0,0:0:0:0:
192,192,54717,1,0,0:0:0:0:
64,192,54717,1,0,0:0:0:0:
192,192,54810,1,0,0:0:0:0:
448,192,54902,1,0,0:0:0:0:
320,192,54902,1,0,0:0:0:0:
64,192,54902,1,0,0:0:0:0:
320,192,54995,1,0,0:0:0:0:
192,192,55088,1,0,0:0:0:0:
64,192,55180,1,0,0:0:0:0:
320,192,55180,1,0,0:0:0:0:
448,192,55273,1,0,0:0:0:0:
192,192,55273,1,0,0:0:0:0:
64,192,55273,1,0,0:0:0:0:
320,192,55273,1,0,0:0:0:0:
320,192,55365,1,0,0:0:0:0:
448,192,55458,1,0,0:0:0:0:
64,192,55458,1,0,0:0:0:0:
64,192,55551,1,0,0:0:0:0:
192,192,55643,1,0,0:0:0:0:
320,192,55643,1,0,0:0:0:0:
448,192,55643,1,0,0:0:0:0:
64,192,55736,1,0,0:0:0:0:
192,192,55736,1,0,0:0:0:0:
320,192,55828,1,0,0:0:0:0:
448,192,55828,1,0,0:0:0:0:
64,192,55921,1,0,0:0:0:0:
320,192,55921,1,0,0:0:0:0:
448,192,56014,1,0,0:0:0:0:
192,192,56014,1,0,0:0:0:0:
64,192,56014,1,0,0:0:0:0:
320,192,56106,1,0,0:0:0:0:
448,192,56106,1,0,0:0:0:0:
192,192,56199,1,0,0:0:0:0:
64,192,56199,1,0,0:0:0:0:
320,192,56199,1,0,0:0:0:0:
64,192,56291,1,0,0:0:0:0:
448,192,56291,1,0,0:0:0:0:
448,192,56384,1,0,0:0:0:0:
320,192,56384,1,0,0:0:0:0:
192,192,56384,1,0,0:0:0:0:
192,192,56477,1,0,0:0:0:0:
64,192,56569,1,0,0:0:0:0:
320,192,56569,1,0,0:0:0:0:
448,192,56569,1,0,0:0:0:0:
320,192,56662,1,0,0:0:0:0:
192,192,56662,1,0,0:0:0:0:
192,192,56754,1,0,0:0:0:0:
64,192,56754,1,0,0:0:0:0:
448,192,56754,1,0,0:0:0:0:
64,192,56847,1,0,0:0:0:0:
320,192,56940,1,0,0:0:0:0:
192,192,56940,1,0,0:0:0:0:
448,192,56940,1,0,0:0:0:0:
320,192,57032,1,0,0:0:0:0:
192,192,57125,1,0,0:0:0:0:
64,192,57125,1,0,0:0:0:0:
448,192,57125,1,0,0:0:0:0:
320,192,57125,1,0,0:0:0:0:
64,192,57217,1,0,0:0:0:0:
64,192,57310,1,0,0:0:0:0:
192,192,57402,1,0,0:0:0:0:
448,192,57402,1,0,0:0:0:0:
448,192,57495,1,0,0:0:0:0:
192,192,57495,1,0,0:0:0:0:
64,192,57495,1,0,0:0:0:0:
320,192,57495,1,0,0:0:0:0:
448,192,57588,1,0,0:0:0:0:
320,192,57680,1,0,0:0:0:0:
64,192,57680,1,0,0:0:0:0:
192,192,57773,1,0,0:0:0:0:
448,192,57865,1,0,0:0:0:0:
320,192,57865,1,0,0:0:0:0:
192,192,57865,1,0,0:0:0:0:
64,192,57865,1,0,0:0:0:0:
320,192,57958,1,0,0:0:0:0:
192,192,58051,1,0,0:0:0:0:
192,192,58143,1,0,0:0:0:0:
448,192,58143,1,0,0:0:0:0:
448,192,58236,1,0,0:0:0:0:
320,192,58236,1,0,0:0:0:0:
192,192,58236,1,0,0:0:0:0:
64,192,58236,1,0,0:0:0:0:
320,192,58328,1,0,0:0:0:0:
192,192,58421,1,0,0:0:0:0:
448,192,58421,1,0,0:0:0:0:
64,192,58514,1,0,0:0:0:0:
64,192,58606,1,0,0:0:0:0:
192,192,58606,1,0,0:0:0:0:
320,192,58606,1,0,0:0:0:0:
448,192,58606,1,0,0:0:0:0:
320,192,58699,1,0,0:0:0:0:
192,192,58791,1,0,0:0:0:0:
192,192,58884,1,0,0:0:0:0:
320,192,58884,1,0,0:0:0:0:
448,192,58977,1,0,0:0:0:0:
320,192,58977,1,0,0:0:0:0:
192,192,58977,1,0,0:0:0:0:
64,192,58977,1,0,0:0:0:0:
448,192,59069,1,0,0:0:0:0:
320,192,59162,1,0,0:0:0:0:
192,192,59162,1,0,0:0:0:0:
192,192,59254,1,0,0:0:0:0:
448,192,59347,1,0,0:0:0:0:
320,192,59347,1,0,0:0:0:0:
192,192,59347,1,0,0:0:0:0:
64,192,59347,1,0,0:0:0:0:
320,192,59440,1,0,0:0:0:0:
64,192,59532,1,0,0:0:0:0:
192,192,59532,1,0,0:0:0:0:
320,192,59625,1,0,0:0:0:0:
448,192,59625,1,0,0:0:0:0:
448,192,59717,1,0,0:0:0:0:
320,192,59717,1,0,0:0:0:0:
192,192,59717,1,0,0:0:0:0:
64,192,59717,1,0,0:0:0:0:
192,192,59810,1,0,0:0:0:0:
64,192,59902,1,0,0:0:0:0:
320,192,59902,1,0,0:0:0:0:
448,192,59995,1,0,0:0:0:0:
192,192,59995,1,0,0:0:0:0:
448,192,60088,1,0,0:0:0:0:
320,192,60088,1,0,0:0:0:0:
192,192,60088,1,0,0:0:0:0:
64,192,60088,1,0,0:0:0:0:
320,192,60180,1,0,0:0:0:0:
64,192,60273,1,0,0:0:0:0:
192,192,60365,1,0,0:0:0:0:
64,192,60365,1,0,0:0:0:0:
448,192,60458,1,0,0:0:0:0:
320,192,60458,1,0,0:0:0:0:
192,192,60458,1,0,0:0:0:0:
64,192,60458,1,0,0:0:0:0:
320,192,60551,1,0,0:0:0:0:
192,192,60643,1,0,0:0:0:0:
448,192,60643,1,0,0:0:0:0:
448,192,60736,1,0,0:0:0:0:
448,192,60828,1,0,0:0:0:0:
320,192,60828,1,0,0:0:0:0:
192,192,60828,1,0,0:0:0:0:
64,192,60828,1,0,0:0:0:0:
192,192,60921,1,0,0:0:0:0:
320,192,61014,1,0,0:0:0:0:
448,192,61106,1,0,0:0:0:0:
320,192,61106,1,0,0:0:0:0:
448,192,61199,1,0,0:0:0:0:
320,192,61199,1,0,0:0:0:0:
64,192,61199,1,0,0:0:0:0:
192,192,61199,1,0,0:0:0:0:
192,192,61291,1,0,0:0:0:0:
64,192,61384,1,0,0:0:0:0:
448,192,61384,1,0,0:0:0:0:
192,192,61477,1,0,0:0:0:0:
320,192,61569,1,0,0:0:0:0:
64,192,61569,1,0,0:0:0:0:
192,192,61569,1,0,0:0:0:0:
448,192,61569,1,0,0:0:0:0:
320,192,61662,1,0,0:0:0:0:
192,192,61754,1,0,0:0:0:0:
64,192,61847,1,0,0:0:0:0:
320,192,61847,1,0,0:0:0:0:
448,192,61940,1,0,0:0:0:0:
320,192,61940,1,0,0:0:0:0:
192,192,61940,1,0,0:0:0:0:
64,192,61940,1,0,0:0:0:0:
192,192,62032,1,0,0:0:0:0:
192,192,62125,1,0,0:0:0:0:
448,192,62125,1,0,0:0:0:0:
320,192,62217,1,0,0:0:0:0:
448,192,62310,1,0,0:0:0:0:
320,192,62310,1,0,0:0:0:0:
192,192,62310,1,0,0:0:0:0:
64,192,62310,1,0,0:0:0:0:
192,192,62402,1,0,0:0:0:0:
448,192,62402,1,0,0:0:0:0:
320,192,62495,1,0,0:0:0:0:
64,192,62495,1,0,0:0:0:0:
192,192,62588,1,0,0:0:0:0:
448,192,62588,1,0,0:0:0:0:
320,192,62588,1,0,0:0:0:0:
448,192,62680,1,0,0:0:0:0:
320,192,62680,1,0,0:0:0:0:
192,192,62680,1,0,0:0:0:0:
64,192,62680,1,0,0:0:0:0:
64,192,62773,1,0,0:0:0:0:
320,192,62773,1,0,0:0:0:0:
192,192,62865,1,0,0:0:0:0:
64,192,62865,1,0,0:0:0:0:
448,192,62958,1,0,0:0:0:0:
320,192,62958,1,0,0:0:0:0:
192,192,62958,1,0,0:0:0:0:
448,192,63051,1,0,0:0:0:0:
320,192,63051,1,0,0:0:0:0:
192,192,63051,1,0,0:0:0:0:
64,192,63051,1,0,0:0:0:0:
192,192,63143,1,0,0:0:0:0:
64,192,63236,1,0,0:0:0:0:
320,192,63328,1,0,0:0:0:0:
64,192,63328,1,0,0:0:0:0:
448,192,63421,1,0,0:0:0:0:
320,192,63421,1,0,0:0:0:0:
64,192,63421,1,0,0:0:0:0:
192,192,63421,1,0,0:0:0:0:
192,192,63514,1,0,0:0:0:0:
320,192,63606,1,0,0:0:0:0:
448,192,63606,1,0,0:0:0:0:
320,192,63699,1,0,0:0:0:0:
448,192,63791,1,0,0:0:0:0:
320,192,63791,1,0,0:0:0:0:
192,192,63791,1,0,0:0:0:0:
64,192,63791,1,0,0:0:0:0:
192,192,63884,1,0,0:0:0:0:
192,192,63977,1,0,0:0:0:0:
320,192,64069,1,0,0:0:0:0:
448,192,64069,1,0,0:0:0:0:
448,192,64162,1,0,0:0:0:0:
320,192,64162,1,0,0:0:0:0:
64,192,64162,1,0,0:0:0:0:
192,192,64162,1,0,0:0:0:0:
192,192,64254,1,0,0:0:0:0:
448,192,64347,1,0,0:0:0:0:
64,192,64347,1,0,0:0:0:0:
448,192,64440,1,0,0:0:0:0:
448,192,64532,1,0,0:0:0:0:
320,192,64532,1,0,0:0:0:0:
192,192,64532,1,0,0:0:0:0:
64,192,64532,1,0,0:0:0:0:
64,192,64625,1,0,0:0:0:0:
192,192,64717,1,0,0:0:0:0:
320,192,64810,1,0,0:0:0:0:
64,192,64810,1,0,0:0:0:0:
448,192,64902,1,0,0:0:0:0:
320,192,64902,1,0,0:0:0:0:
192,192,64902,1,0,0:0:0:0:
64,192,64902,1,0,0:0:0:0:
448,192,64995,1,0,0:0:0:0:
320,192,65088,1,0,0:0:0:0:
64,192,65088,1,0,0:0:0:0:
192,192,65180,1,0,0:0:0:0:
448,192,65273,1,0,0:0:0:0:
320,192,65273,1,0,0:0:0:0:
64,192,65273,1,0,0:0:0:0:
192,192,65273,1,0,0:0:0:0:
320,192,65365,1,0,0:0:0:0:
192,192,65458,1,0,0:0:0:0:
64,192,65551,1,0,0:0:0:0:
192,192,65551,1,0,0:0:0:0:
448,192,65643,1,0,0:0:0:0:
320,192,65643,1,0,0:0:0:0:
192,192,65643,1,0,0:0:0:0:
64,192,65643,1,0,0:0:0:0:
320,192,65736,1,0,0:0:0:0:
448,192,65828,1,0,0:0:0:0:
192,192,65828,1,0,0:0:0:0:
448,192,65921,1,0,0:0:0:0:
448,192,66014,1,0,0:0:0:0:
320,192,66014,1,0,0:0:0:0:
192,192,66014,1,0,0:0:0:0:
64,192,66014,1,0,0:0:0:0:
192,192,66106,1,0,0:0:0:0:
64,192,66199,1,0,0:0:0:0:
192,192,66291,1,0,0:0:0:0:
320,192,66291,1,0,0:0:0:0:
448,192,66384,1,0,0:0:0:0:
320,192,66384,1,0,0:0:0:0:
192,192,66384,1,0,0:0:0:0:
64,192,66384,1,0,0:0:0:0:
448,192,66477,1,0,0:0:0:0:
320,192,66569,1,0,0:0:0:0:
64,192,66569,1,0,0:0:0:0:
192,192,66662,1,0,0:0:0:0:
448,192,66754,1,0,0:0:0:0:
320,192,66754,1,0,0:0:0:0:
192,192,66754,1,0,0:0:0:0:
64,192,66754,1,0,0:0:0:0:
64,192,66847,1,0,0:0:0:0:
192,192,66940,1,0,0:0:0:0:
448,192,67032,1,0,0:0:0:0:
320,192,67032,1,0,0:0:0:0:
448,192,67125,1,0,0:0:0:0:
320,192,67125,1,0,0:0:0:0:
192,192,67125,1,0,0:0:0:0:
64,192,67125,1,0,0:0:0:0:
192,192,67217,1,0,0:0:0:0:
448,192,67310,1,0,0:0:0:0:
64,192,67310,1,0,0:0:0:0:
320,192,67402,1,0,0:0:0:0:
192,192,67495,1,0,0:0:0:0:
64,192,67495,1,0,0:0:0:0:
320,192,67495,1,0,0:0:0:0:
448,192,67495,1,0,0:0:0:0:
192,192,67588,1,0,0:0:0:0:
64,192,67680,1,0,0:0:0:0:
448,192,67680,1,0,0:0:0:0:
64,192,67773,1,0,0:0:0:0:
192,192,67773,1,0,0:0:0:0:
448,192,67865,1,0,0:0:0:0:
320,192,67865,1,0,0:0:0:0:
192,192,67865,1,0,0:0:0:0:
320,192,67958,1,0,0:0:0:0:
64,192,67958,1,0,0:0:0:0:
192,192,68051,1,0,0:0:0:0:
64,192,68051,1,0,0:0:0:0:
320,192,68143,1,0,0:0:0:0:
448,192,68143,1,0,0:0:0:0:
448,192,68236,1,0,0:0:0:0:
192,192,68236,1,0,0:0:0:0:
64,192,68236,1,0,0:0:0:0:
320,192,68328,1,0,0:0:0:0:
192,192,68328,1,0,0:0:0:0:
64,192,68421,1,0,0:0:0:0:
320,192,68421,1,0,0:0:0:0:
448,192,68514,1,0,0:0:0:0:
192,192,68514,1,0,0:0:0:0:
448,192,68606,1,0,0:0:0:0:
320,192,68606,1,0,0:0:0:0:
64,192,68606,1,0,0:0:0:0:
192,192,68699,1,0,0:0:0:0:
64,192,68699,1,0,0:0:0:0:
192,192,68791,1,0,0:0:0:0:
320,192,68791,1,0,0:0:0:0:
320,192,68884,1,0,0:0:0:0:
64,192,68884,1,0,0:0:0:0:
448,192,68977,1,0,0:0:0:0:
192,192,68977,1,0,0:0:0:0:
64,192,68977,1,0,0:0:0:0:
320,192,68977,1,0,0:0:0:0:
448,192,69069,1,0,0:0:0:0:
192,192,69069,1,0,0:0:0:0:
320,192,69162,1,0,0:0:0:0:
192,192,69254,1,0,0:0:0:0:
64,192,69254,1,0,0:0:0:0:
448,192,69347,1,0,0:0:0:0:
320,192,69347,1,0,0:0:0:0:
64,192,69347,1,0,0:0:0:0:
192,192,69440,1,0,0:0:0:0:
448,192,69532,1,0,0:0:0:0:
320,192,69532,1,0,0:0:0:0:
192,192,69625,1,0,0:0:0:0:
448,192,69717,1,0,0:0:0:0:
320,192,69717,1,0,0:0:0:0:
64,192,69717,1,0,0:0:0:0:
192,192,69717,1,0,0:0:0:0:
320,192,69810,1,0,0:0:0:0:
192,192,69902,1,0,0:0:0:0:
448,192,69902,1,0,0:0:0:0:
320,192,69995,1,0,0:0:0:0:
64,192,69995,1,0,0:0:0:0:
64,192,70088,1,0,0:0:0:0:
192,192,70088,1,0,0:0:0:0:
320,192,70088,1,0,0:0:0:0:
448,192,70088,1,0,0:0:0:0:
192,192,70180,1,0,0:0:0:0:
320,192,70273,1,0,0:0:0:0:
448,192,70273,1,0,0:0:0:0:
320,192,70365,1,0,0:0:0:0:
448,192,70458,1,0,0:0:0:0:
320,192,70458,1,0,0:0:0:0:
192,192,70458,1,0,0:0:0:0:
64,192,70458,1,0,0:0:0:0:
192,192,70551,1,0,0:0:0:0:
64,192,70551,1,0,0:0:0:0:
320,192,70643,1,0,0:0:0:0:
448,192,70736,1,0,0:0:0:0:
64,192,70736,1,0,0:0:0:0:
192,192,70828,1,0,0:0:0:0:
64,192,70828,1,0,0:0:0:0:
320,192,70828,1,0,0:0:0:0:
448,192,70828,1,0,0:0:0:0:
320,192,70921,1,0,0:0:0:0:
192,192,71014,1,0,0:0:0:0:
64,192,71014,1,0,0:0:0:0:
192,192,71106,1,0,0:0:0:0:
448,192,71199,1,0,0:0:0:0:
320,192,71199,1,0,0:0:0:0:
192,192,71199,1,0,0:0:0:0:
64,192,71199,1,0,0:0:0:0:
320,192,71291,1,0,0:0:0:0:
448,192,71384,1,0,0:0:0:0:
192,192,71384,1,0,0:0:0:0:
320,192,71477,1,0,0:0:0:0:
448,192,71477,1,0,0:0:0:0:
448,192,71569,1,0,0:0:0:0:
320,192,71569,1,0,0:0:0:0:
192,192,71569,1,0,0:0:0:0:
64,192,71569,1,0,0:0:0:0:
192,192,71662,1,0,0:0:0:0:
64,192,71754,1,0,0:0:0:0:
320,192,71754,1,0,0:0:0:0:
192,192,71847,1,0,0:0:0:0:
448,192,71940,1,0,0:0:0:0:
320,192,71940,1,0,0:0:0:0:
192,192,71940,1,0,0:0:0:0:
64,192,71940,1,0,0:0:0:0:
320,192,72032,1,0,0:0:0:0:
448,192,72032,1,0,0:0:0:0:
192,192,72125,1,0,0:0:0:0:
192,192,72217,1,0,0:0:0:0:
320,192,72217,1,0,0:0:0:0:
320,192,72310,1,0,0:0:0:0:
448,192,72310,1,0,0:0:0:0:
64,192,72310,1,0,0:0:0:0:
192,192,72402,1,0,0:0:0:0:
448,192,72495,1,0,0:0:0:0:
320,192,72495,1,0,0:0:0:0:
320,192,72588,1,0,0:0:0:0:
192,192,72680,1,0,0:0:0:0:
64,192,72680,1,0,0:0:0:0:
448,192,72680,1,0,0:0:0:0:
192,192,72773,1,0,0:0:0:0:
64,192,72865,1,0,0:0:0:0:
448,192,72865,1,0,0:0:0:0:
448,192,72958,1,0,0:0:0:0:
192,192,72958,1,0,0:0:0:0:
320,192,73051,1,0,0:0:0:0:
192,192,73051,1,0,0:0:0:0:
64,192,73051,1,0,0:0:0:0:
320,192,73143,1,0,0:0:0:0:
64,192,73236,1,0,0:0:0:0:
192,192,73236,1,0,0:0:0:0:
320,192,73328,1,0,0:0:0:0:
448,192,73421,1,0,0:0:0:0:
192,192,73421,1,0,0:0:0:0:
64,192,73421,1,0,0:0:0:0:
448,192,73514,1,0,0:0:0:0:
320,192,73514,1,0,0:0:0:0:
64,192,73606,1,0,0:0:0:0:
192,192,73699,1,0,0:0:0:0:
64,192,73699,1,0,0:0:0:0:
448,192,73791,1,0,0:0:0:0:
320,192,73791,1,0,0:0:0:0:
192,192,73791,1,0,0:0:0:0:
320,192,73884,1,0,0:0:0:0:
192,192,73977,1,0,0:0:0:0:
64,192,73977,1,0,0:0:0:0:
64,192,74069,1,0,0:0:0:0:
448,192,74162,1,0,0:0:0:0:
320,192,74162,1,0,0:0:0:0:
192,192,74162,1,0,0:0:0:0:
320,192,74254,1,0,0:0:0:0:
448,192,74347,1,0,0:0:0:0:
192,192,74347,1,0,0:0:0:0:
64,192,74440,1,0,0:0:0:0:
320,192,74440,1,0,0:0:0:0:
192,192,74532,1,0,0:0:0:0:
64,192,74532,1,0,0:0:0:0:
448,192,74532,1,0,0:0:0:0:
320,192,74625,1,0,0:0:0:0:
448,192,74717,1,0,0:0:0:0:
320,192,74717,1,0,0:0:0:0:
192,192,74810,1,0,0:0:0:0:
64,192,74902,1,0,0:0:0:0:
192,192,74902,1,0,0:0:0:0:
320,192,74902,1,0,0:0:0:0:
448,192,74902,1,0,0:0:0:0:
320,192,74995,1,0,0:0:0:0:
64,192,74995,1,0,0:0:0:0:
192,192,75088,1,0,0:0:0:0:
448,192,75180,1,0,0:0:0:0:
320,192,75180,1,0,0:0:0:0:
448,192,75273,1,0,0:0:0:0:
320,192,75273,1,0,0:0:0:0:
64,192,75273,1,0,0:0:0:0:
192,192,75273,1,0,0:0:0:0:
192,192,75365,1,0,0:0:0:0:
64,192,75458,1,0,0:0:0:0:
448,192,75458,1,0,0:0:0:0:
448,192,75551,1,0,0:0:0:0:
320,192,75643,1,0,0:0:0:0:
192,192,75643,1,0,0:0:0:0:
64,192,75643,1,0,0:0:0:0:
192,192,75736,1,0,0:0:0:0:
320,192,75828,1,0,0:0:0:0:
448,192,75828,1,0,0:0:0:0:
192,192,75921,1,0,0:0:0:0:
64,192,75921,1,0,0:0:0:0:
64,192,76014,1,0,0:0:0:0:
320,192,76014,1,0,0:0:0:0:
448,192,76014,1,0,0:0:0:0:
192,192,76014,1,0,0:0:0:0:
320,192,76106,1,0,0:0:0:0:
448,192,76199,1,0,0:0:0:0:
64,192,76199,1,0,0:0:0:0:
192,192,76291,1,0,0:0:0:0:
64,192,76384,1,0,0:0:0:0:
192,192,76384,1,0,0:0:0:0:
320,192,76384,1,0,0:0:0:0:
448,192,76384,1,0,0:0:0:0:
192,192,76477,1,0,0:0:0:0:
448,192,76477,1,0,0:0:0:0:
320,192,76569,1,0,0:0:0:0:
192,192,76662,1,0,0:0:0:0:
64,192,76662,1,0,0:0:0:0:
448,192,76754,1,0,0:0:0:0:
320,192,76754,1,0,0:0:0:0:
64,192,76754,1,0,0:0:0:0:
192,192,76754,1,0,0:0:0:0:
320,192,76847,1,0,0:0:0:0:
448,192,76940,1,0,0:0:0:0:
192,192,76940,1,0,0:0:0:0:
192,192,77032,1,0,0:0:0:0:
448,192,77125,1,0,0:0:0:0:
320,192,77125,1,0,0:0:0:0:
64,192,77125,1,0,0:0:0:0:
192,192,77125,1,0,0:0:0:0:
320,192,77217,1,0,0:0:0:0:
448,192,77310,1,0,0:0:0:0:
192,192,77310,1,0,0:0:0:0:
320,192,77402,1,0,0:0:0:0:
192,192,77402,1,0,0:0:0:0:
64,192,77495,1,0,0:0:0:0:
192,192,77495,1,0,0:0:0:0:
448,192,77495,1,0,0:0:0:0:
320,192,77495,1,0,0:0:0:0:
320,192,77588,1,0,0:0:0:0:
448,192,77680,1,0,0:0:0:0:
192,192,77680,1,0,0:0:0:0:
192,192,77773,1,0,0:0:0:0:
448,192,77865,1,0,0:0:0:0:
320,192,77865,1,0,0:0:0:0:
192,192,77865,1,0,0:0:0:0:
64,192,77865,1,0,0:0:0:0:
64,192,77958,1,0,0:0:0:0:
448,192,77958,1,0,0:0:0:0:
192,192,78051,1,0,0:0:0:0:
448,192,78143,1,0,0:0:0:0:
320,192,78143,1,0,0:0:0:0:
448,192,78236,1,0,0:0:0:0:
320,192,78236,1,0,0:0:0:0:
192,192,78236,1,0,0:0:0:0:
64,192,78236,1,0,0:0:0:0:
192,192,78328,1,0,0:0:0:0:
320,192,78421,1,0,0:0:0:0:
64,192,78421,1,0,0:0:0:0:
192,192,78514,1,0,0:0:0:0:
448,192,78606,1,0,0:0:0:0:
320,192,78606,1,0,0:0:0:0:
192,192,78606,1,0,0:0:0:0:
64,192,78606,1,0,0:0:0:0:
192,192,78699,1,0,0:0:0:0:
64,192,78791,1,0,0:0:0:0:
320,192,78791,1,0,0:0:0:0:
192,192,78884,1,0,0:0:0:0:
448,192,78884,1,0,0:0:0:0:
192,192,78977,1,0,0:0:0:0:
64,192,78977,1,0,0:0:0:0:
320,192,78977,1,0,0:0:0:0:
448,192,78977,1,0,0:0:0:0:
320,192,79069,1,0,0:0:0:0:
448,192,79162,1,0,0:0:0:0:
192,192,79162,1,0,0:0:0:0:
320,192,79254,1,0,0:0:0:0:
448,192,79347,1,0,0:0:0:0:
320,192,79347,1,0,0:0:0:0:
192,192,79347,1,0,0:0:0:0:
64,192,79347,1,0,0:0:0:0:
192,192,79440,1,0,0:0:0:0:
64,192,79440,1,0,0:0:0:0:
192,192,79532,1,0,0:0:0:0:
320,192,79625,1,0,0:0:0:0:
192,192,79625,1,0,0:0:0:0:
320,192,79717,1,0,0:0:0:0:
448,192,79717,1,0,0:0:0:0:
64,192,79717,1,0,0:0:0:0:
448,192,79810,1,0,0:0:0:0:
448,192,79902,1,0,0:0:0:0:
320,192,79902,1,0,0:0:0:0:
320,192,79995,1,0,0:0:0:0:
192,192,80088,1,0,0:0:0:0:
64,192,80088,1,0,0:0:0:0:
448,192,80088,1,0,0:0:0:0:
320,192,80180,1,0,0:0:0:0:
64,192,80273,1,0,0:0:0:0:
448,192,80273,1,0,0:0:0:0:
192,192,80273,1,0,0:0:0:0:
448,192,80365,1,0,0:0:0:0:
320,192,80365,1,0,0:0:0:0:
192,192,80458,1,0,0:0:0:0:
64,192,80458,1,0,0:0:0:0:
320,192,80458,1,0,0:0:0:0:
192,192,80551,1,0,0:0:0:0:
448,192,80551,1,0,0:0:0:0:
448,192,80643,1,0,0:0:0:0:
320,192,80643,1,0,0:0:0:0:
64,192,80643,1,0,0:0:0:0:
192,192,80736,1,0,0:0:0:0:
64,192,80736,1,0,0:0:0:0:
448,192,80828,1,0,0:0:0:0:
320,192,80828,1,0,0:0:0:0:
192,192,80828,1,0,0:0:0:0:
64,192,80828,1,0,0:0:0:0:
320,192,80921,1,0,0:0:0:0:
320,192,81014,1,0,0:0:0:0:
320,192,81106,1,0,0:0:0:0:
64,192,81106,1,0,0:0:0:0:
64,192,81199,1,0,0:0:0:0:
192,192,81199,1,0,0:0:0:0:
448,192,81199,1,0,0:0:0:0:
192,192,81291,1,0,0:0:0:0:
192,192,81384,1,0,0:0:0:0:
448,192,81384,1,0,0:0:0:0:
192,192,81477,1,0,0:0:0:0:
320,192,81569,1,0,0:0:0:0:
64,192,81569,1,0,0:0:0:0:
448,192,81569,1,0,0:0:0:0:
448,192,81662,1,0,0:0:0:0:
448,192,81754,1,0,0:0:0:0:
192,192,81847,1,0,0:0:0:0:
64,192,81847,1,0,0:0:0:0:
64,192,81940,1,0,0:0:0:0:
320,192,81940,1,0,0:0:0:0:
448,192,81940,1,0,0:0:0:0:
192,192,82032,1,0,0:0:0:0:
192,192,82125,1,0,0:0:0:0:
64,192,82125,1,0,0:0:0:0:
192,192,82217,1,0,0:0:0:0:
448,192,82310,1,0,0:0:0:0:
320,192,82310,1,0,0:0:0:0:
64,192,82310,1,0,0:0:0:0:
192,192,82402,1,0,0:0:0:0:
320,192,82402,1,0,0:0:0:0:
448,192,82495,1,0,0:0:0:0:
192,192,82495,1,0,0:0:0:0:
320,192,82588,1,0,0:0:0:0:
448,192,82588,1,0,0:0:0:0:
192,192,82680,1,0,0:0:0:0:
64,192,82680,1,0,0:0:0:0:
448,192,82680,1,0,0:0:0:0:
320,192,82773,1,0,0:0:0:0:
64,192,82773,1,0,0:0:0:0:
192,192,82865,1,0,0:0:0:0:
448,192,82865,1,0,0:0:0:0:
448,192,82958,1,0,0:0:0:0:
320,192,82958,1,0,0:0:0:0:
192,192,83051,1,0,0:0:0:0:
64,192,83051,1,0,0:0:0:0:
320,192,83051,1,0,0:0:0:0:
192,192,83143,1,0,0:0:0:0:
64,192,83143,1,0,0:0:0:0:
448,192,83236,1,0,0:0:0:0:
320,192,83236,1,0,0:0:0:0:
64,192,83328,1,0,0:0:0:0:
320,192,83328,1,0,0:0:0:0:
192,192,83421,1,0,0:0:0:0:
448,192,83421,1,0,0:0:0:0:
64,192,83421,1,0,0:0:0:0:
320,192,83514,1,0,0:0:0:0:
448,192,83514,1,0,0:0:0:0:
64,192,83606,1,0,0:0:0:0:
320,192,83606,1,0,0:0:0:0:
192,192,83699,1,0,0:0:0:0:
64,192,83699,1,0,0:0:0:0:
448,192,83791,1,0,0:0:0:0:
320,192,83791,1,0,0:0:0:0:
192,192,83791,1,0,0:0:0:0:
320,192,83884,1,0,0:0:0:0:
64,192,83884,1,0,0:0:0:0:
320,192,83977,1,0,0:0:0:0:
64,192,84069,1,0,0:0:0:0:
448,192,84069,1,0,0:0:0:0:
192,192,84162,1,0,0:0:0:0:
64,192,84162,1,0,0:0:0:0:
448,192,84162,1,0,0:0:0:0:
192,192,84254,1,0,0:0:0:0:
192,192,84347,1,0,0:0:0:0:
448,192,84347,1,0,0:0:0:0:
320,192,84440,1,0,0:0:0:0:
448,192,84532,1,0,0:0:0:0:
320,192,84532,1,0,0:0:0:0:
64,192,84532,1,0,0:0:0:0:
64,192,84625,1,0,0:0:0:0:
64,192,84717,1,0,0:0:0:0:
448,192,84717,1,0,0:0:0:0:
320,192,84810,1,0,0:0:0:0:
448,192,84902,1,0,0:0:0:0:
192,192,84902,1,0,0:0:0:0:
64,192,84902,1,0,0:0:0:0:
192,192,84995,1,0,0:0:0:0:
448,192,85088,1,0,0:0:0:0:
64,192,85088,1,0,0:0:0:0:
448,192,85180,1,0,0:0:0:0:
320,192,85273,1,0,0:0:0:0:
192,192,85273,1,0,0:0:0:0:
64,192,85273,1,0,0:0:0:0:
320,192,85365,1,0,0:0:0:0:
448,192,85365,1,0,0:0:0:0:
64,192,85458,1,0,0:0:0:0:
192,192,85458,1,0,0:0:0:0:
192,192,85551,1,0,0:0:0:0:
448,192,85551,1,0,0:0:0:0:
448,192,85643,1,0,0:0:0:0:
64,192,85643,1,0,0:0:0:0:
320,192,85643,1,0,0:0:0:0:
192,192,85736,1,0,0:0:0:0:
64,192,85736,1,0,0:0:0:0:
448,192,85828,1,0,0:0:0:0:
320,192,85828,1,0,0:0:0:0:
64,192,85921,1,0,0:0:0:0:
320,192,85921,1,0,0:0:0:0:
64,192,86014,1,0,0:0:0:0:
448,192,86014,1,0,0:0:0:0:
192,192,86014,1,0,0:0:0:0:
320,192,86106,1,0,0:0:0:0:
448,192,86106,1,0,0:0:0:0:
192,192,86199,1,0,0:0:0:0:
64,192,86199,1,0,0:0:0:0:
320,192,86291,1,0,0:0:0:0:
64,192,86291,1,0,0:0:0:0:
448,192,86384,1,0,0:0:0:0:
320,192,86384,1,0,0:0:0:0:
192,192,86384,1,0,0:0:0:0:
64,192,86477,1,0,0:0:0:0:
192,192,86477,1,0,0:0:0:0:
448,192,86569,1,0,0:0:0:0:
64,192,86569,1,0,0:0:0:0:
320,192,86662,1,0,0:0:0:0:
192,192,86662,1,0,0:0:0:0:
448,192,86754,1,0,0:0:0:0:
64,192,86754,1,0,0:0:0:0:
192,192,86754,1,0,0:0:0:0:
448,192,86847,1,0,0:0:0:0:
192,192,86847,1,0,0:0:0:0:
448,192,86940,1,0,0:0:0:0:
320,192,87032,1,0,0:0:0:0:
64,192,87032,1,0,0:0:0:0:
192,192,87125,1,0,0:0:0:0:
64,192,87125,1,0,0:0:0:0:
448,192,87125,1,0,0:0:0:0:
320,192,87217,1,0,0:0:0:0:
320,192,87310,1,0,0:0:0:0:
64,192,87310,1,0,0:0:0:0:
192,192,87402,1,0,0:0:0:0:
320,192,87495,1,0,0:0:0:0:
448,192,87495,1,0,0:0:0:0:
64,192,87495,1,0,0:0:0:0:
64,192,87588,1,0,0:0:0:0:
64,192,87680,1,0,0:0:0:0:
192,192,87773,1,0,0:0:0:0:
448,192,87773,1,0,0:0:0:0:
448,192,87865,1,0,0:0:0:0:
320,192,87865,1,0,0:0:0:0:
64,192,87865,1,0,0:0:0:0:
192,192,87958,1,0,0:0:0:0:
320,192,88051,1,0,0:0:0:0:
448,192,88051,1,0,0:0:0:0:
320,192,88143,1,0,0:0:0:0:
448,192,88236,1,0,0:0:0:0:
64,192,88236,1,0,0:0:0:0:
192,192,88236,1,0,0:0:0:0:
320,192,88328,1,0,0:0:0:0:
192,192,88328,1,0,0:0:0:0:
64,192,88421,1,0,0:0:0:0:
320,192,88514,1,0,0:0:0:0:
448,192,88514,1,0,0:0:0:0:
448,192,88606,1,0,0:0:0:0:
192,192,88606,1,0,0:0:0:0:
64,192,88606,1,0,0:0:0:0:
320,192,88699,1,0,0:0:0:0:
192,192,88791,1,0,0:0:0:0:
448,192,88791,1,0,0:0:0:0:
448,192,88884,1,0,0:0:0:0:
320,192,88977,1,0,0:0:0:0:
192,192,88977,1,0,0:0:0:0:
64,192,88977,1,0,0:0:0:0:
192,192,89069,1,0,0:0:0:0:
64,192,89162,1,0,0:0:0:0:
320,192,89254,1,0,0:0:0:0:
64,192,89254,1,0,0:0:0:0:
448,192,89347,1,0,0:0:0:0:
192,192,89347,1,0,0:0:0:0:
320,192,89347,1,0,0:0:0:0:
192,192,89440,1,0,0:0:0:0:
448,192,89532,1,0,0:0:0:0:
64,192,89532,1,0,0:0:0:0:
320,192,89625,1,0,0:0:0:0:
448,192,89717,1,0,0:0:0:0:
192,192,89717,1,0,0:0:0:0:
64,192,89717,1,0,0:0:0:0:
448,192,89810,1,0,0:0:0:0:
320,192,89810,1,0,0:0:0:0:
192,192,89902,1,0,0:0:0:0:
192,192,89995,1,0,0:0:0:0:
320,192,89995,1,0,0:0:0:0:
448,192,90088,1,0,0:0:0:0:
320,192,90088,1,0,0:0:0:0:
64,192,90088,1,0,0:0:0:0:
192,192,90180,1,0,0:0:0:0:
448,192,90273,1,0,0:0:0:0:
192,192,90273,1,0,0:0:0:0:
320,192,90365,1,0,0:0:0:0:
448,192,90458,1,0,0:0:0:0:
192,192,90458,1,0,0:0:0:0:
64,192,90458,1,0,0:0:0:0:
192,192,90551,1,0,0:0:0:0:
64,192,90643,1,0,0:0:0:0:
192,192,90736,1,0,0:0:0:0:
64,192,90736,1,0,0:0:0:0:
448,192,90828,1,0,0:0:0:0:
320,192,90828,1,0,0:0:0:0:
192,192,90828,1,0,0:0:0:0:
320,192,90921,1,0,0:0:0:0:
448,192,91014,1,0,0:0:0:0:
64,192,91014,1,0,0:0:0:0:
320,192,91106,1,0,0:0:0:0:
192,192,91199,1,0,0:0:0:0:
64,192,91199,1,0,0:0:0:0:
448,192,91199,1,0,0:0:0:0:
192,192,91291,1,0,0:0:0:0:
448,192,91291,1,0,0:0:0:0:
320,192,91384,1,0,0:0:0:0:
192,192,91477,1,0,0:0:0:0:
64,192,91477,1,0,0:0:0:0:
448,192,91569,1,0,0:0:0:0:
320,192,91569,1,0,0:0:0:0:
192,192,91569,1,0,0:0:0:0:
320,192,91662,1,0,0:0:0:0:
64,192,91754,1,0,0:0:0:0:
192,192,91754,1,0,0:0:0:0:
192,192,91847,1,0,0:0:0:0:
448,192,91940,1,0,0:0:0:0:
320,192,91940,1,0,0:0:0:0:
64,192,91940,1,0,0:0:0:0:
192,192,92032,1,0,0:0:0:0:
320,192,92125,1,0,0:0:0:0:
448,192,92217,1,0,0:0:0:0:
192,192,92217,1,0,0:0:0:0:
192,192,92310,1,0,0:0:0:0:
448,192,92310,1,0,0:0:0:0:
320,192,92310,1,0,0:0:0:0:
64,192,92402,1,0,0:0:0:0:
192,192,92495,1,0,0:0:0:0:
448,192,92495,1,0,0:0:0:0:
320,192,92588,1,0,0:0:0:0:
64,192,92588,1,0,0:0:0:0:
192,192,92680,1,0,0:0:0:0:
64,192,92680,1,0,0:0:0:0:
320,192,92680,1,0,0:0:0:0:
448,192,92680,1,0,0:0:0:0:
192,192,92773,1,0,0:0:0:0:
192,192,92865,1,0,0:0:0:0:
320,192,92958,1,0,0:0:0:0:
448,192,92958,1,0,0:0:0:0:
448,192,93051,1,0,0:0:0:0:
64,192,93051,1,0,0:0:0:0:
192,192,93051,1,0,0:0:0:0:
192,192,93143,1,0,0:0:0:0:
192,192,93236,1,0,0:0:0:0:
448,192,93236,1,0,0:0:0:0:
320,192,93328,1,0,0:0:0:0:
448,192,93421,1,0,0:0:0:0:
320,192,93421,1,0,0:0:0:0:
192,192,93421,1,0,0:0:0:0:
64,192,93421,1,0,0:0:0:0:
192,192,93514,1,0,0:0:0:0:
320,192,93606,1,0,0:0:0:0:
448,192,93699,1,0,0:0:0:0:
192,192,93699,1,0,0:0:0:0:
448,192,93791,1,0,0:0:0:0:
320,192,93791,1,0,0:0:0:0:
64,192,93791,1,0,0:0:0:0:
64,192,93884,1,0,0:0:0:0:
64,192,93977,1,0,0:0:0:0:
320,192,93977,1,0,0:0:0:0:
192,192,94069,1,0,0:0:0:0:
448,192,94162,1,0,0:0:0:0:
320,192,94162,1,0,0:0:0:0:
192,192,94162,1,0,0:0:0:0:
64,192,94162,1,0,0:0:0:0:
320,192,94254,1,0,0:0:0:0:
448,192,94254,1,0,0:0:0:0:
192,192,94347,1,0,0:0:0:0:
64,192,94440,1,0,0:0:0:0:
320,192,94440,1,0,0:0:0:0:
448,192,94532,1,0,0:0:0:0:
192,192,94532,1,0,0:0:0:0:
64,192,94532,1,0,0:0:0:0:
320,192,94625,1,0,0:0:0:0:
192,192,94625,1,0,0:0:0:0:
320,192,94717,1,0,0:0:0:0:
448,192,94717,1,0,0:0:0:0:
192,192,94810,1,0,0:0:0:0:
448,192,94902,1,0,0:0:0:0:
320,192,94902,1,0,0:0:0:0:
192,192,94902,1,0,0:0:0:0:
64,192,94902,1,0,0:0:0:0:
320,192,94995,1,0,0:0:0:0:
448,192,94995,1,0,0:0:0:0:
64,192,95088,1,0,0:0:0:0:
192,192,95088,1,0,0:0:0:0:
192,192,95180,1,0,0:0:0:0:
448,192,95180,1,0,0:0:0:0:
448,192,95273,1,0,0:0:0:0:
320,192,95273,1,0,0:0:0:0:
64,192,95273,1,0,0:0:0:0:
320,192,95365,1,0,0:0:0:0:
64,192,95365,1,0,0:0:0:0:
192,192,95458,1,0,0:0:0:0:
448,192,95458,1,0,0:0:0:0:
320,192,95551,1,0,0:0:0:0:
64,192,95551,1,0,0:0:0:0:
320,192,95643,1,0,0:0:0:0:
192,192,95643,1,0,0:0:0:0:
64,192,95643,1,0,0:0:0:0:
448,192,95643,1,0,0:0:0:0:
192,192,95736,1,0,0:0:0:0:
448,192,95736,1,0,0:0:0:0:
320,192,95828,1,0,0:0:0:0:
192,192,95921,1,0,0:0:0:0:
64,192,95921,1,0,0:0:0:0:
64,192,96014,1,0,0:0:0:0:
448,192,96014,1,0,0:0:0:0:
320,192,96014,1,0,0:0:0:0:
320,192,96106,1,0,0:0:0:0:
192,192,96199,1,0,0:0:0:0:
448,192,96199,1,0,0:0:0:0:
320,192,96291,1,0,0:0:0:0:
448,192,96384,1,0,0:0:0:0:
320,192,96384,1,0,0:0:0:0:
192,192,96384,1,0,0:0:0:0:
64,192,96384,1,0,0:0:0:0:
192,192,96477,1,0,0:0:0:0:
64,192,96569,1,0,0:0:0:0:
192,192,96662,1,0,0:0:0:0:
448,192,96662,1,0,0:0:0:0:
320,192,96754,1,0,0:0:0:0:
64,192,96754,1,0,0:0:0:0:
192,192,96754,1,0,0:0:0:0:
320,192,96847,1,0,0:0:0:0:
448,192,96940,1,0,0:0:0:0:
64,192,96940,1,0,0:0:0:0:
192,192,97032,1,0,0:0:0:0:
320,192,97125,1,0,0:0:0:0:
448,192,97125,1,0,0:0:0:0:
192,192,97125,1,0,0:0:0:0:
64,192,97125,1,0,0:0:0:0:
320,192,97217,1,0,0:0:0:0:
448,192,97217,1,0,0:0:0:0:
320,192,97310,1,0,0:0:0:0:
192,192,97402,1,0,0:0:0:0:
64,192,97402,1,0,0:0:0:0:
64,192,97495,1,0,0:0:0:0:
320,192,97495,1,0,0:0:0:0:
448,192,97495,1,0,0:0:0:0:
320,192,97588,1,0,0:0:0:0:
64,192,97680,1,0,0:0:0:0:
192,192,97680,1,0,0:0:0:0:
320,192,97773,1,0,0:0:0:0:
192,192,97865,1,0,0:0:0:0:
448,192,97865,1,0,0:0:0:0:
320,192,97865,1,0,0:0:0:0:
64,192,97865,1,0,0:0:0:0:
192,192,97958,1,0,0:0:0:0:
64,192,98051,1,0,0:0:0:0:
320,192,98051,1,0,0:0:0:0:
448,192,98143,1,0,0:0:0:0:
192,192,98236,1,0,0:0:0:0:
64,192,98236,1,0,0:0:0:0:
448,192,98236,1,0,0:0:0:0:
320,192,98328,1,0,0:0:0:0:
320,192,98421,1,0,0:0:0:0:
64,192,98421,1,0,0:0:0:0:
192,192,98514,1,0,0:0:0:0:
64,192,98606,1,0,0:0:0:0:
192,192,98606,1,0,0:0:0:0:
320,192,98606,1,0,0:0:0:0:
448,192,98606,1,0,0:0:0:0:
320,192,98699,1,0,0:0:0:0:
64,192,98699,1,0,0:0:0:0:
192,192,98791,1,0,0:0:0:0:
320,192,98884,1,0,0:0:0:0:
448,192,98884,1,0,0:0:0:0:
448,192,98977,1,0,0:0:0:0:
320,192,98977,1,0,0:0:0:0:
64,192,98977,1,0,0:0:0:0:
192,192,99069,1,0,0:0:0:0:
64,192,99162,1,0,0:0:0:0:
320,192,99162,1,0,0:0:0:0:
192,192,99254,1,0,0:0:0:0:
448,192,99347,1,0,0:0:0:0:
320,192,99347,1,0,0:0:0:0:
192,192,99347,1,0,0:0:0:0:
64,192,99347,1,0,0:0:0:0:
320,192,99440,1,0,0:0:0:0:
64,192,99532,1,0,0:0:0:0:
320,192,99625,1,0,0:0:0:0:
448,192,99625,1,0,0:0:0:0:
192,192,99717,1,0,0:0:0:0:
64,192,99717,1,0,0:0:0:0:
448,192,99717,1,0,0:0:0:0:
320,192,99810,1,0,0:0:0:0:
192,192,99902,1,0,0:0:0:0:
448,192,99902,1,0,0:0:0:0:
64,192,99995,1,0,0:0:0:0:
64,192,100088,1,0,0:0:0:0:
192,192,100088,1,0,0:0:0:0:
320,192,100088,1,0,0:0:0:0:
448,192,100088,1,0,0:0:0:0:
320,192,100180,1,0,0:0:0:0:
320,192,100273,1,0,0:0:0:0:
192,192,100365,1,0,0:0:0:0:
64,192,100365,1,0,0:0:0:0:
64,192,100458,1,0,0:0:0:0:
192,192,100458,1,0,0:0:0:0:
320,192,100458,1,0,0:0:0:0:
320,192,100551,1,0,0:0:0:0:
448,192,100643,1,0,0:0:0:0:
192,192,100643,1,0,0:0:0:0:
320,192,100736,1,0,0:0:0:0:
320,192,100828,1,0,0:0:0:0:
192,192,100828,1,0,0:0:0:0:
64,192,100828,1,0,0:0:0:0:
448,192,100828,1,0,0:0:0:0:
192,192,100921,1,0,0:0:0:0:
64,192,101014,1,0,0:0:0:0:
64,192,101106,1,0,0:0:0:0:
192,192,101106,1,0,0:0:0:0:
448,192,101199,1,0,0:0:0:0:
320,192,101199,1,0,0:0:0:0:
192,192,101199,1,0,0:0:0:0:
320,192,101291,1,0,0:0:0:0:
448,192,101384,1,0,0:0:0:0:
64,192,101384,1,0,0:0:0:0:
192,192,101477,1,0,0:0:0:0:
192,192,101569,1,0,0:0:0:0:
320,192,101569,1,0,0:0:0:0:
448,192,101569,1,0,0:0:0:0:
64,192,101569,1,0,0:0:0:0:
320,192,101662,1,0,0:0:0:0:
64,192,101754,1,0,0:0:0:0:
192,192,101847,1,0,0:0:0:0:
448,192,101847,1,0,0:0:0:0:
448,192,101940,1,0,0:0:0:0:
320,192,101940,1,0,0:0:0:0:
192,192,101940,1,0,0:0:0:0:
320,192,102032,1,0,0:0:0:0:
64,192,102125,1,0,0:0:0:0:
192,192,102125,1,0,0:0:0:0:
448,192,102217,1,0,0:0:0:0:
448,192,102310,1,0,0:0:0:0:
320,192,102310,1,0,0:0:0:0:
64,192,102310,1,0,0:0:0:0:
192,192,102310,1,0,0:0:0:0:
192,192,102402,1,0,0:0:0:0:
320,192,102495,1,0,0:0:0:0:
448,192,102495,1,0,0:0:0:0:
320,192,102588,1,0,0:0:0:0:
64,192,102680,1,0,0:0:0:0:
192,192,102680,1,0,0:0:0:0:
448,192,102680,1,0,0:0:0:0:
192,192,102773,1,0,0:0:0:0:
64,192,102865,1,0,0:0:0:0:
448,192,102865,1,0,0:0:0:0:
192,192,102958,1,0,0:0:0:0:
448,192,103051,1,0,0:0:0:0:
320,192,103051,1,0,0:0:0:0:
192,192,103051,1,0,0:0:0:0:
64,192,103051,1,0,0:0:0:0:
448,192,103143,1,0,0:0:0:0:
64,192,103143,1,0,0:0:0:0:
192,192,103236,1,0,0:0:0:0:
64,192,103328,1,0,0:0:0:0:
320,192,103328,1,0,0:0:0:0:
448,192,103421,1,0,0:0:0:0:
192,192,103421,1,0,0:0:0:0:
64,192,103421,1,0,0:0:0:0:
320,192,103514,1,0,0:0:0:0:
448,192,103606,1,0,0:0:0:0:
192,192,103606,1,0,0:0:0:0:
64,192,103699,1,0,0:0:0:0:
448,192,103791,1,0,0:0:0:0:
320,192,103791,1,0,0:0:0:0:
64,192,103791,1,0,0:0:0:0:
192,192,103791,1,0,0:0:0:0:
192,192,103884,1,0,0:0:0:0:
448,192,103884,1,0,0:0:0:0:
320,192,103977,1,0,0:0:0:0:
192,192,104069,1,0,0:0:0:0:
448,192,104162,1,0,0:0:0:0:
320,192,104162,1,0,0:0:0:0:
64,192,104162,1,0,0:0:0:0:
192,192,104162,1,0,0:0:0:0:
320,192,104254,1,0,0:0:0:0:
64,192,104347,1,0,0:0:0:0:
192,192,104440,1,0,0:0:0:0:
448,192,104532,1,0,0:0:0:0:
320,192,104532,1,0,0:0:0:0:
64,192,104532,1,0,0:0:0:0:
192,192,104625,1,0,0:0:0:0:
320,192,104717,1,0,0:0:0:0:
320,192,104810,1,0,0:0:0:0:
448,192,104902,1,0,0:0:0:0:
192,192,104902,1,0,0:0:0:0:
64,192,104902,1,0,0:0:0:0:
320,192,104995,1,0,0:0:0:0:
192,192,105088,1,0,0:0:0:0:
192,192,105180,1,0,0:0:0:0:
320,192,105273,1,0,0:0:0:0:
448,192,105273,1,0,0:0:0:0:
64,192,105273,1,0,0:0:0:0:
448,192,105365,1,0,0:0:0:0:
64,192,105458,1,0,0:0:0:0:
64,192,105551,1,0,0:0:0:0:
192,192,105643,1,0,0:0:0:0:
320,192,105643,1,0,0:0:0:0:
448,192,105643,1,0,0:0:0:0:
192,192,105736,1,0,0:0:0:0:
448,192,105828,1,0,0:0:0:0:
448,192,105921,1,0,0:0:0:0:
320,192,106014,1,0,0:0:0:0:
64,192,106014,1,0,0:0:0:0:
448,192,106014,1,0,0:0:0:0:
192,192,106106,1,0,0:0:0:0:
320,192,106199,1,0,0:0:0:0:
320,192,106291,1,0,0:0:0:0:
448,192,106384,1,0,0:0:0:0:
192,192,106384,1,0,0:0:0:0:
64,192,106384,1,0,0:0:0:0:
64,192,106477,1,0,0:0:0:0:
192,192,106569,1,0,0:0:0:0:
192,192,106662,1,0,0:0:0:0:
448,192,106754,1,0,0:0:0:0:
320,192,106754,1,0,0:0:0:0:
64,192,106754,1,0,0:0:0:0:
448,192,106847,1,0,0:0:0:0:
64,192,106940,1,0,0:0:0:0:
64,192,107032,1,0,0:0:0:0:
192,192,107125,1,0,0:0:0:0:
320,192,107125,1,0,0:0:0:0:
448,192,107125,1,0,0:0:0:0:
192,192,107217,1,0,0:0:0:0:
448,192,107310,1,0,0:0:0:0:
448,192,107402,1,0,0:0:0:0:
320,192,107495,1,0,0:0:0:0:
192,192,107495,1,0,0:0:0:0:
64,192,107495,1,0,0:0:0:0:
192,192,107588,1,0,0:0:0:0:
448,192,107588,1,0,0:0:0:0:
320,192,107680,1,0,0:0:0:0:
320,192,107773,1,0,0:0:0:0:
64,192,107773,1,0,0:0:0:0:
192,192,107865,1,0,0:0:0:0:
64,192,107865,1,0,0:0:0:0:
448,192,107865,1,0,0:0:0:0:
320,192,107958,1,0,0:0:0:0:
192,192,108051,1,0,0:0:0:0:
64,192,108051,1,0,0:0:0:0:
192,192,108143,1,0,0:0:0:0:
448,192,108236,1,0,0:0:0:0:
320,192,108236,1,0,0:0:0:0:
64,192,108236,1,0,0:0:0:0:
192,192,108328,1,0,0:0:0:0:
64,192,108328,1,0,0:0:0:0:
192,192,108421,1,0,0:0:0:0:
448,192,108514,1,0,0:0:0:0:
320,192,108514,1,0,0:0:0:0:
448,192,108606,1,0,0:0:0:0:
192,192,108606,1,0,0:0:0:0:
64,192,108606,1,0,0:0:0:0:
320,192,108699,1,0,0:0:0:0:
192,192,108791,1,0,0:0:0:0:
64,192,108791,1,0,0:0:0:0:
192,192,108884,1,0,0:0:0:0:
448,192,108884,1,0,0:0:0:0:
448,192,108977,1,0,0:0:0:0:
320,192,108977,1,0,0:0:0:0:
64,192,108977,1,0,0:0:0:0:
64,192,109069,1,0,0:0:0:0:
320,192,109069,1,0,0:0:0:0:
192,192,109162,1,0,0:0:0:0:
448,192,109254,1,0,0:0:0:0:
320,192,109254,1,0,0:0:0:0:
320,192,109347,1,0,0:0:0:0:
64,192,109347,1,0,0:0:0:0:
192,192,109347,1,0,0:0:0:0:
192,192,109440,1,0,0:0:0:0:
448,192,109532,1,0,0:0:0:0:
320,192,109532,1,0,0:0:0:0:
64,192,109625,1,0,0:0:0:0:
320,192,109625,1,0,0:0:0:0:
192,192,109717,1,0,0:0:0:0:
64,192,109717,1,0,0:0:0:0:
448,192,109717,1,0,0:0:0:0:
320,192,109810,1,0,0:0:0:0:
192,192,109902,1,0,0:0:0:0:
448,192,109902,1,0,0:0:0:0:
320,192,109995,1,0,0:0:0:0:
64,192,109995,1,0,0:0:0:0:
64,192,110088,1,0,0:0:0:0:
192,192,110088,1,0,0:0:0:0:
448,192,110088,1,0,0:0:0:0:
320,192,110180,1,0,0:0:0:0:
192,192,110273,1,0,0:0:0:0:
448,192,110273,1,0,0:0:0:0:
64,192,110365,1,0,0:0:0:0:
448,192,110458,1,0,0:0:0:0:
192,192,110458,1,0,0:0:0:0:
64,192,110458,1,0,0:0:0:0:
320,192,110551,1,0,0:0:0:0:
448,192,110643,1,0,0:0:0:0:
320,192,110643,1,0,0:0:0:0:
192,192,110736,1,0,0:0:0:0:
64,192,110736,1,0,0:0:0:0:
448,192,110828,1,0,0:0:0:0:
320,192,110828,1,0,0:0:0:0:
192,192,110828,1,0,0:0:0:0:
320,192,110921,1,0,0:0:0:0:
192,192,111014,1,0,0:0:0:0:
64,192,111014,1,0,0:0:0:0:
192,192,111106,1,0,0:0:0:0:
448,192,111106,1,0,0:0:0:0:
448,192,111199,1,0,0:0:0:0:
320,192,111199,1,0,0:0:0:0:
64,192,111199,1,0,0:0:0:0:
192,192,111291,1,0,0:0:0:0:
320,192,111384,1,0,0:0:0:0:
192,192,111384,1,0,0:0:0:0:
320,192,111477,1,0,0:0:0:0:
192,192,111569,1,0,0:0:0:0:
64,192,111569,1,0,0:0:0:0:
448,192,111569,1,0,0:0:0:0:
320,192,111662,1,0,0:0:0:0:
192,192,111754,1,0,0:0:0:0:
448,192,111754,1,0,0:0:0:0:
448,192,111847,1,0,0:0:0:0:
64,192,111847,1,0,0:0:0:0:
320,192,111940,1,0,0:0:0:0:
192,192,111940,1,0,0:0:0:0:
64,192,111940,1,0,0:0:0:0:
192,192,112032,1,0,0:0:0:0:
448,192,112125,1,0,0:0:0:0:
64,192,112125,1,0,0:0:0:0:
64,192,112217,1,0,0:0:0:0:
320,192,112217,1,0,0:0:0:0:
192,192,112310,1,0,0:0:0:0:
320,192,112310,1,0,0:0:0:0:
448,192,112310,1,0,0:0:0:0:
192,192,112402,1,0,0:0:0:0:
64,192,112495,1,0,0:0:0:0:
448,192,112495,1,0,0:0:0:0:
320,192,112495,1,0,0:0:0:0:
320,192,112588,1,0,0:0:0:0:
192,192,112680,1,0,0:0:0:0:
64,192,112680,1,0,0:0:0:0:
448,192,112680,1,0,0:0:0:0:
192,192,112773,1,0,0:0:0:0:
320,192,112865,1,0,0:0:0:0:
320,192,112958,1,0,0:0:0:0:
448,192,113051,1,0,0:0:0:0:
192,192,113051,1,0,0:0:0:0:
64,192,113051,1,0,0:0:0:0:
320,192,113143,1,0,0:0:0:0:
192,192,113236,1,0,0:0:0:0:
64,192,113236,1,0,0:0:0:0:
320,192,113328,1,0,0:0:0:0:
448,192,113328,1,0,0:0:0:0:
448,192,113421,1,0,0:0:0:0:
192,192,113421,1,0,0:0:0:0:
64,192,113421,1,0,0:0:0:0:
320,192,113514,1,0,0:0:0:0:
192,192,113606,1,0,0:0:0:0:
64,192,113606,1,0,0:0:0:0:
448,192,113699,1,0,0:0:0:0:
192,192,113699,1,0,0:0:0:0:
448,192,113791,1,0,0:0:0:0:
320,192,113791,1,0,0:0:0:0:
64,192,113791,1,0,0:0:0:0:
192,192,113884,1,0,0:0:0:0:
320,192,113977,1,0,0:0:0:0:
64,192,113977,1,0,0:0:0:0:
64,192,114069,1,0,0:0:0:0:
448,192,114069,1,0,0:0:0:0:
448,192,114162,1,0,0:0:0:0:
320,192,114162,1,0,0:0:0:0:
192,192,114162,1,0,0:0:0:0:
320,192,114254,1,0,0:0:0:0:
192,192,114347,1,0,0:0:0:0:
64,192,114347,1,0,0:0:0:0:
448,192,114440,1,0,0:0:0:0:
320,192,114440,1,0,0:0:0:0:
448,192,114532,1,0,0:0:0:0:
192,192,114532,1,0,0:0:0:0:
64,192,114532,1,0,0:0:0:0:
192,192,114625,1,0,0:0:0:0:
320,192,114717,1,0,0:0:0:0:
448,192,114717,1,0,0:0:0:0:
64,192,114810,1,0,0:0:0:0:
192,192,114810,1,0,0:0:0:0:
192,192,114902,1,0,0:0:0:0:
64,192,114902,1,0,0:0:0:0:
320,192,114902,1,0,0:0:0:0:
320,192,114995,1,0,0:0:0:0:
448,192,115088,1,0,0:0:0:0:
192,192,115088,1,0,0:0:0:0:
320,192,115180,1,0,0:0:0:0:
448,192,115180,1,0,0:0:0:0:
320,192,115273,1,0,0:0:0:0:
192,192,115273,1,0,0:0:0:0:
64,192,115273,1,0,0:0:0:0:
192,192,115365,1,0,0:0:0:0:
448,192,115458,1,0,0:0:0:0:
64,192,115458,1,0,0:0:0:0:
320,192,115551,1,0,0:0:0:0:
192,192,115551,1,0,0:0:0:0:
64,192,115643,1,0,0:0:0:0:
192,192,115643,1,0,0:0:0:0:
448,192,115643,1,0,0:0:0:0:
320,192,115736,1,0,0:0:0:0:
448,192,115736,1,0,0:0:0:0:
192,192,115828,1,0,0:0:0:0:
64,192,115828,1,0,0:0:0:0:
448,192,115874,1,0,0:0:0:0:
320,192,115874,1,0,0:0:0:0:
192,192,115921,1,0,0:0:0:0:
64,192,115921,1,0,0:0:0:0:
320,192,116014,1,0,0:0:0:0:
448,192,116014,1,0,0:0:0:0:
64,192,116014,1,0,0:0:0:0:
192,192,116106,1,0,0:0:0:0:
448,192,116199,1,0,0:0:0:0:
64,192,116199,1,0,0:0:0:0:
192,192,116291,1,0,0:0:0:0:
192,192,116384,1,0,0:0:0:0:
448,192,116384,1,0,0:0:0:0:
64,192,116384,1,0,0:0:0:0:
320,192,116477,1,0,0:0:0:0:
192,192,116569,1,0,0:0:0:0:
320,192,116662,1,0,0:0:0:0:
64,192,116662,1,0,0:0:0:0:
64,192,116754,1,0,0:0:0:0:
448,192,116754,1,0,0:0:0:0:
192,192,116754,1,0,0:0:0:0:
320,192,116754,1,0,0:0:0:0:
192,192,116847,1,0,0:0:0:0:
448,192,116940,1,0,0:0:0:0:
192,192,116940,1,0,0:0:0:0:
320,192,117032,1,0,0:0:0:0:
192,192,117125,1,0,0:0:0:0:
64,192,117125,1,0,0:0:0:0:
448,192,117125,1,0,0:0:0:0:
192,192,117217,1,0,0:0:0:0:
64,192,117310,1,0,0:0:0:0:
64,192,117402,1,0,0:0:0:0:
320,192,117402,1,0,0:0:0:0:
192,192,117495,1,0,0:0:0:0:
448,192,117495,1,0,0:0:0:0:
320,192,117495,1,0,0:0:0:0:
64,192,117495,1,0,0:0:0:0:
192,192,117588,1,0,0:0:0:0:
448,192,117680,1,0,0:0:0:0:
320,192,117680,1,0,0:0:0:0:
320,192,117773,1,0,0:0:0:0:
192,192,117865,1,0,0:0:0:0:
64,192,117865,1,0,0:0:0:0:
448,192,117865,1,0,0:0:0:0:
192,192,117958,1,0,0:0:0:0:
320,192,118051,1,0,0:0:0:0:
192,192,118143,1,0,0:0:0:0:
64,192,118143,1,0,0:0:0:0:
448,192,118236,1,0,0:0:0:0:
320,192,118236,1,0,0:0:0:0:
192,192,118236,1,0,0:0:0:0:
64,192,118236,1,0,0:0:0:0:
320,192,118328,1,0,0:0:0:0:
448,192,118421,1,0,0:0:0:0:
64,192,118421,1,0,0:0:0:0:
320,192,118514,1,0,0:0:0:0:
192,192,118606,1,0,0:0:0:0:
64,192,118606,1,0,0:0:0:0:
320,192,118606,1,0,0:0:0:0:
192,192,118699,1,0,0:0:0:0:
448,192,118791,1,0,0:0:0:0:
320,192,118884,1,0,0:0:0:0:
64,192,118884,1,0,0:0:0:0:
64,192,118977,1,0,0:0:0:0:
192,192,118977,1,0,0:0:0:0:
320,192,118977,1,0,0:0:0:0:
448,192,118977,1,0,0:0:0:0:
192,192,119069,1,0,0:0:0:0:
448,192,119162,1,0,0:0:0:0:
320,192,119162,1,0,0:0:0:0:
320,192,119254,1,0,0:0:0:0:
448,192,119347,1,0,0:0:0:0:
192,192,119347,1,0,0:0:0:0:
64,192,119347,1,0,0:0:0:0:
192,192,119440,1,0,0:0:0:0:
64,192,119532,1,0,0:0:0:0:
448,192,119625,1,0,0:0:0:0:
192,192,119625,1,0,0:0:0:0:
320,192,119717,1,0,0:0:0:0:
64,192,119717,1,0,0:0:0:0:
448,192,119717,1,0,0:0:0:0:
192,192,119717,1,0,0:0:0:0:
320,192,119810,1,0,0:0:0:0:
192,192,119902,1,0,0:0:0:0:
64,192,119902,1,0,0:0:0:0:
192,192,119995,1,0,0:0:0:0:
448,192,120088,1,0,0:0:0:0:
320,192,120088,1,0,0:0:0:0:
192,192,120088,1,0,0:0:0:0:
320,192,120180,1,0,0:0:0:0:
64,192,120273,1,0,0:0:0:0:
192,192,120365,1,0,0:0:0:0:
448,192,120365,1,0,0:0:0:0:
448,192,120458,1,0,0:0:0:0:
320,192,120458,1,0,0:0:0:0:
192,192,120458,1,0,0:0:0:0:
64,192,120458,1,0,0:0:0:0:
320,192,120551,1,0,0:0:0:0:
192,192,120643,1,0,0:0:0:0:
448,192,120643,1,0,0:0:0:0:
192,192,120736,1,0,0:0:0:0:
320,192,120828,1,0,0:0:0:0:
448,192,120828,1,0,0:0:0:0:
64,192,120828,1,0,0:0:0:0:
192,192,120921,1,0,0:0:0:0:
64,192,121014,1,0,0:0:0:0:
192,192,121106,1,0,0:0:0:0:
320,192,121106,1,0,0:0:0:0:
448,192,121199,1,0,0:0:0:0:
320,192,121199,1,0,0:0:0:0:
192,192,121199,1,0,0:0:0:0:
64,192,121199,1,0,0:0:0:0:
64,192,121291,1,0,0:0:0:0:
192,192,121384,1,0,0:0:0:0:
448,192,121384,1,0,0:0:0:0:
448,192,121477,1,0,0:0:0:0:
448,192,121569,1,0,0:0:0:0:
320,192,121569,1,0,0:0:0:0:
192,192,121569,1,0,0:0:0:0:
320,192,121662,1,0,0:0:0:0:
64,192,121754,1,0,0:0:0:0:
192,192,121847,1,0,0:0:0:0:
448,192,121847,1,0,0:0:0:0:
448,192,121940,1,0,0:0:0:0:
320,192,121940,1,0,0:0:0:0:
192,192,121940,1,0,0:0:0:0:
64,192,121940,1,0,0:0:0:0:
320,192,122032,1,0,0:0:0:0:
64,192,122125,1,0,0:0:0:0:
192,192,122125,1,0,0:0:0:0:
192,192,122217,1,0,0:0:0:0:
448,192,122310,1,0,0:0:0:0:
320,192,122310,1,0,0:0:0:0:
64,192,122310,1,0,0:0:0:0:
320,192,122402,1,0,0:0:0:0:
64,192,122495,1,0,0:0:0:0:
64,192,122588,1,0,0:0:0:0:
192,192,122588,1,0,0:0:0:0:
448,192,122680,1,0,0:0:0:0:
320,192,122680,1,0,0:0:0:0:
192,192,122680,1,0,0:0:0:0:
64,192,122680,1,0,0:0:0:0:
320,192,122773,1,0,0:0:0:0:
192,192,122865,1,0,0:0:0:0:
64,192,122865,1,0,0:0:0:0:
192,192,122958,1,0,0:0:0:0:
448,192,123051,1,0,0:0:0:0:
320,192,123051,1,0,0:0:0:0:
64,192,123051,1,0,0:0:0:0:
320,192,123143,1,0,0:0:0:0:
192,192,123236,1,0,0:0:0:0:
320,192,123328,1,0,0:0:0:0:
448,192,123328,1,0,0:0:0:0:
448,192,123421,1,0,0:0:0:0:
320,192,123421,1,0,0:0:0:0:
64,192,123421,1,0,0:0:0:0:
192,192,123421,1,0,0:0:0:0:
192,192,123514,1,0,0:0:0:0:
320,192,123606,1,0,0:0:0:0:
64,192,123606,1,0,0:0:0:0:
192,192,123699,1,0,0:0:0:0:
320,192,123791,1,0,0:0:0:0:
448,192,123791,1,0,0:0:0:0:
192,192,123791,1,0,0:0:0:0:
320,192,123884,1,0,0:0:0:0:
64,192,123977,1,0,0:0:0:0:
64,192,124069,1,0,0:0:0:0:
320,192,124069,1,0,0:0:0:0:
448,192,124162,1,0,0:0:0:0:
320,192,124162,1,0,0:0:0:0:
192,192,124162,1,0,0:0:0:0:
64,192,124162,1,0,0:0:0:0:
192,192,124254,1,0,0:0:0:0:
64,192,124347,1,0,0:0:0:0:
448,192,124347,1,0,0:0:0:0:
448,192,124440,1,0,0:0:0:0:
320,192,124532,1,0,0:0:0:0:
192,192,124532,1,0,0:0:0:0:
64,192,124532,1,0,0:0:0:0:
64,192,124625,1,0,0:0:0:0:
192,192,124717,1,0,0:0:0:0:
448,192,124810,1,0,0:0:0:0:
64,192,124810,1,0,0:0:0:0:
448,192,124902,1,0,0:0:0:0:
320,192,124902,1,0,0:0:0:0:
192,192,124902,1,0,0:0:0:0:
64,192,124902,1,0,0:0:0:0:
192,192,124995,1,0,0:0:0:0:
320,192,125088,1,0,0:0:0:0:
64,192,125088,1,0,0:0:0:0:
320,192,125180,1,0,0:0:0:0:
448,192,125273,1,0,0:0:0:0:
192,192,125273,1,0,0:0:0:0:
64,192,125273,1,0,0:0:0:0:
448,192,125365,1,0,0:0:0:0:
192,192,125458,1,0,0:0:0:0:
448,192,125551,1,0,0:0:0:0:
320,192,125551,1,0,0:0:0:0:
448,192,125643,1,0,0:0:0:0:
320,192,125643,1,0,0:0:0:0:
64,192,125643,1,0,0:0:0:0:
192,192,125643,1,0,0:0:0:0:
192,192,125736,1,0,0:0:0:0:
64,192,125828,1,0,0:0:0:0:
448,192,125828,1,0,0:0:0:0:
192,192,125921,1,0,0:0:0:0:
64,192,126014,1,0,0:0:0:0:
320,192,126014,1,0,0:0:0:0:
192,192,126014,1,0,0:0:0:0:
320,192,126106,1,0,0:0:0:0:
192,192,126199,1,0,0:0:0:0:
448,192,126291,1,0,0:0:0:0:
192,192,126291,1,0,0:0:0:0:
448,192,126384,1,0,0:0:0:0:
320,192,126384,1,0,0:0:0:0:
192,192,126384,1,0,0:0:0:0:
64,192,126384,1,0,0:0:0:0:
320,192,126477,1,0,0:0:0:0:
192,192,126569,1,0,0:0:0:0:
64,192,126569,1,0,0:0:0:0:
192,192,126662,1,0,0:0:0:0:
448,192,126754,1,0,0:0:0:0:
320,192,126754,1,0,0:0:0:0:
64,192,126754,1,0,0:0:0:0:
320,192,126847,1,0,0:0:0:0:
64,192,126940,1,0,0:0:0:0:
448,192,126940,1,0,0:0:0:0:
192,192,127032,1,0,0:0:0:0:
320,192,127032,1,0,0:0:0:0:
448,192,127125,1,0,0:0:0:0:
320,192,127125,1,0,0:0:0:0:
64,192,127125,1,0,0:0:0:0:
192,192,127125,1,0,0:0:0:0:
448,192,127217,1,0,0:0:0:0:
192,192,127310,1,0,0:0:0:0:
64,192,127310,1,0,0:0:0:0:
320,192,127402,1,0,0:0:0:0:
448,192,127495,1,0,0:0:0:0:
192,192,127495,1,0,0:0:0:0:
64,192,127495,1,0,0:0:0:0:
192,192,127588,1,0,0:0:0:0:
320,192,127680,1,0,0:0:0:0:
64,192,127680,1,0,0:0:0:0:
192,192,127773,1,0,0:0:0:0:
448,192,127773,1,0,0:0:0:0:
448,192,127865,1,0,0:0:0:0:
320,192,127865,1,0,0:0:0:0:
192,192,127865,1,0,0:0:0:0:
64,192,127865,1,0,0:0:0:0:
64,192,127958,1,0,0:0:0:0:
192,192,128051,1,0,0:0:0:0:
448,192,128051,1,0,0:0:0:0:
448,192,128143,1,0,0:0:0:0:
320,192,128236,1,0,0:0:0:0:
192,192,128236,1,0,0:0:0:0:
64,192,128236,1,0,0:0:0:0:
448,192,128236,1,0,0:0:0:0:
192,192,128328,1,0,0:0:0:0:
320,192,128421,1,0,0:0:0:0:
448,192,128514,1,0,0:0:0:0:
192,192,128514,1,0,0:0:0:0:
448,192,128606,1,0,0:0:0:0:
320,192,128606,1,0,0:0:0:0:
64,192,128606,1,0,0:0:0:0:
192,192,128606,1,0,0:0:0:0:
320,192,128699,1,0,0:0:0:0:
192,192,128791,1,0,0:0:0:0:
64,192,128791,1,0,0:0:0:0:
192,192,128884,1,0,0:0:0:0:
64,192,128977,1,0,0:0:0:0:
192,192,128977,1,0,0:0:0:0:
320,192,128977,1,0,0:0:0:0:
448,192,128977,1,0,0:0:0:0:
320,192,129069,1,0,0:0:0:0:
64,192,129162,1,0,0:0:0:0:
64,192,129254,1,0,0:0:0:0:
320,192,129254,1,0,0:0:0:0:
448,192,129347,1,0,0:0:0:0:
320,192,129347,1,0,0:0:0:0:
192,192,129347,1,0,0:0:0:0:
64,192,129347,1,0,0:0:0:0:
192,192,129440,1,0,0:0:0:0:
448,192,129532,1,0,0:0:0:0:
64,192,129532,1,0,0:0:0:0:
320,192,129625,1,0,0:0:0:0:
448,192,129717,1,0,0:0:0:0:
320,192,129717,1,0,0:0:0:0:
192,192,129717,1,0,0:0:0:0:
64,192,129717,1,0,0:0:0:0:
192,192,129810,1,0,0:0:0:0:
448,192,129902,1,0,0:0:0:0:
320,192,129995,1,0,0:0:0:0:
448,192,129995,1,0,0:0:0:0:
448,192,130088,1,0,0:0:0:0:
320,192,130088,1,0,0:0:0:0:
192,192,130088,1,0,0:0:0:0:
64,192,130088,1,0,0:0:0:0:
64,192,130180,1,0,0:0:0:0:
64,192,130273,1,0,0:0:0:0:
320,192,130273,1,0,0:0:0:0:
192,192,130365,1,0,0:0:0:0:
448,192,130458,1,0,0:0:0:0:
320,192,130458,1,0,0:0:0:0:
64,192,130458,1,0,0:0:0:0:
192,192,130458,1,0,0:0:0:0:
320,192,130551,1,0,0:0:0:0:
64,192,130643,1,0,0:0:0:0:
192,192,130736,1,0,0:0:0:0:
320,192,130736,1,0,0:0:0:0:
448,192,130828,1,0,0:0:0:0:
320,192,130828,1,0,0:0:0:0:
192,192,130828,1,0,0:0:0:0:
64,192,130828,1,0,0:0:0:0:
448,192,130921,1,0,0:0:0:0:
320,192,131014,1,0,0:0:0:0:
64,192,131014,1,0,0:0:0:0:
192,192,131106,1,0,0:0:0:0:
64,192,131199,1,0,0:0:0:0:
192,192,131199,1,0,0:0:0:0:
320,192,131199,1,0,0:0:0:0:
448,192,131199,1,0,0:0:0:0:
64,192,131291,1,0,0:0:0:0:
320,192,131384,1,0,0:0:0:0:
448,192,131477,1,0,0:0:0:0:
192,192,131477,1,0,0:0:0:0:
448,192,131569,1,0,0:0:0:0:
320,192,131569,1,0,0:0:0:0:
192,192,131569,1,0,0:0:0:0:
64,192,131569,1,0,0:0:0:0:
320,192,131662,1,0,0:0:0:0:
64,192,131754,1,0,0:0:0:0:
192,192,131754,1,0,0:0:0:0:
192,192,131847,1,0,0:0:0:0:
448,192,131940,1,0,0:0:0:0:
320,192,131940,1,0,0:0:0:0:
192,192,131940,1,0,0:0:0:0:
64,192,131940,1,0,0:0:0:0:
320,192,132032,1,0,0:0:0:0:
192,192,132125,1,0,0:0:0:0:
448,192,132217,1,0,0:0:0:0:
64,192,132217,1,0,0:0:0:0:
448,192,132310,1,0,0:0:0:0:
320,192,132310,1,0,0:0:0:0:
192,192,132310,1,0,0:0:0:0:
64,192,132310,1,0,0:0:0:0:
320,192,132402,1,0,0:0:0:0:
192,192,132495,1,0,0:0:0:0:
64,192,132495,1,0,0:0:0:0:
448,192,132588,1,0,0:0:0:0:
448,192,132680,1,0,0:0:0:0:
320,192,132680,1,0,0:0:0:0:
192,192,132680,1,0,0:0:0:0:
64,192,132680,1,0,0:0:0:0:
192,192,132773,1,0,0:0:0:0:
64,192,132865,1,0,0:0:0:0:
320,192,132958,1,0,0:0:0:0:
64,192,132958,1,0,0:0:0:0:
192,192,133051,1,0,0:0:0:0:
448,192,133051,1,0,0:0:0:0:
320,192,133051,1,0,0:0:0:0:
64,192,133051,1,0,0:0:0:0:
192,192,133143,1,0,0:0:0:0:
64,192,133236,1,0,0:0:0:0:
192,192,133236,1,0,0:0:0:0:
320,192,133328,1,0,0:0:0:0:
192,192,133421,1,0,0:0:0:0:
64,192,133421,1,0,0:0:0:0:
320,192,133421,1,0,0:0:0:0:
448,192,133421,1,0,0:0:0:0:
192,192,133514,1,0,0:0:0:0:
64,192,133606,1,0,0:0:0:0:
192,192,133699,1,0,0:0:0:0:
448,192,133699,1,0,0:0:0:0:
448,192,133791,1,0,0:0:0:0:
320,192,133791,1,0,0:0:0:0:
192,192,133791,1,0,0:0:0:0:
64,192,133791,1,0,0:0:0:0:
320,192,133884,1,0,0:0:0:0:
64,192,133977,1,0,0:0:0:0:
448,192,133977,1,0,0:0:0:0:
192,192,134069,1,0,0:0:0:0:
64,192,134162,1,0,0:0:0:0:
192,192,134162,1,0,0:0:0:0:
320,192,134162,1,0,0:0:0:0:
448,192,134162,1,0,0:0:0:0:
320,192,134254,1,0,0:0:0:0:
64,192,134347,1,0,0:0:0:0:
192,192,134440,1,0,0:0:0:0:
320,192,134440,1,0,0:0:0:0:
448,192,134532,1,0,0:0:0:0:
320,192,134532,1,0,0:0:0:0:
192,192,134532,1,0,0:0:0:0:
64,192,134532,1,0,0:0:0:0:
64,192,134625,1,0,0:0:0:0:
448,192,134717,1,0,0:0:0:0:
192,192,134717,1,0,0:0:0:0:
320,192,134810,1,0,0:0:0:0:
448,192,134902,1,0,0:0:0:0:
320,192,134902,1,0,0:0:0:0:
192,192,134902,1,0,0:0:0:0:
64,192,134902,1,0,0:0:0:0:
448,192,134995,1,0,0:0:0:0:
192,192,135088,1,0,0:0:0:0:
64,192,135180,1,0,0:0:0:0:
320,192,135180,1,0,0:0:0:0:
448,192,135273,1,0,0:0:0:0:
192,192,135273,1,0,0:0:0:0:
64,192,135273,1,0,0:0:0:0:
320,192,135273,1,0,0:0:0:0:
192,192,135365,1,0,0:0:0:0:
448,192,135458,1,0,0:0:0:0:
320,192,135458,1,0,0:0:0:0:
320,192,135551,1,0,0:0:0:0:
192,192,135643,1,0,0:0:0:0:
64,192,135643,1,0,0:0:0:0:
320,192,135643,1,0,0:0:0:0:
448,192,135643,1,0,0:0:0:0:
192,192,135736,1,0,0:0:0:0:
320,192,135828,1,0,0:0:0:0:
64,192,135921,1,0,0:0:0:0:
192,192,135921,1,0,0:0:0:0:
64,192,136014,1,0,0:0:0:0:
192,192,136014,1,0,0:0:0:0:
320,192,136014,1,0,0:0:0:0:
448,192,136014,1,0,0:0:0:0:
320,192,136106,1,0,0:0:0:0:
192,192,136199,1,0,0:0:0:0:
64,192,136199,1,0,0:0:0:0:
192,192,136291,1,0,0:0:0:0:
448,192,136384,1,0,0:0:0:0:
320,192,136384,1,0,0:0:0:0:
192,192,136384,1,0,0:0:0:0:
64,192,136384,1,0,0:0:0:0:
320,192,136477,1,0,0:0:0:0:
448,192,136569,1,0,0:0:0:0:
320,192,136662,1,0,0:0:0:0:
192,192,136662,1,0,0:0:0:0:
64,192,136754,1,0,0:0:0:0:
192,192,136754,1,0,0:0:0:0:
320,192,136754,1,0,0:0:0:0:
448,192,136754,1,0,0:0:0:0:
192,192,136847,1,0,0:0:0:0:
64,192,136940,1,0,0:0:0:0:
320,192,136940,1,0,0:0:0:0:
192,192,137032,1,0,0:0:0:0:
448,192,137125,1,0,0:0:0:0:
320,192,137125,1,0,0:0:0:0:
192,192,137125,1,0,0:0:0:0:
64,192,137125,1,0,0:0:0:0:
320,192,137217,1,0,0:0:0:0:
192,192,137310,1,0,0:0:0:0:
64,192,137402,1,0,0:0:0:0:
448,192,137402,1,0,0:0:0:0:
448,192,137495,1,0,0:0:0:0:
320,192,137495,1,0,0:0:0:0:
192,192,137495,1,0,0:0:0:0:
64,192,137495,1,0,0:0:0:0:
192,192,137588,1,0,0:0:0:0:
320,192,137680,1,0,0:0:0:0:
448,192,137680,1,0,0:0:0:0:
320,192,137773,1,0,0:0:0:0:
448,192,137865,1,0,0:0:0:0:
320,192,137865,1,0,0:0:0:0:
192,192,137865,1,0,0:0:0:0:
64,192,137865,1,0,0:0:0:0:
192,192,137958,1,0,0:0:0:0:
64,192,138051,1,0,0:0:0:0:
192,192,138143,1,0,0:0:0:0:
448,192,138143,1,0,0:0:0:0:
448,192,138236,1,0,0:0:0:0:
320,192,138236,1,0,0:0:0:0:
192,192,138236,1,0,0:0:0:0:
64,192,138236,1,0,0:0:0:0:
320,192,138328,1,0,0:0:0:0:
192,192,138421,1,0,0:0:0:0:
64,192,138421,1,0,0:0:0:0:
192,192,138514,1,0,0:0:0:0:
64,192,138606,1,0,0:0:0:0:
192,192,138606,1,0,0:0:0:0:
320,192,138606,1,0,0:0:0:0:
448,192,138606,1,0,0:0:0:0:
64,192,138699,1,0,0:0:0:0:
192,192,138791,1,0,0:0:0:0:
448,192,138791,1,0,0:0:0:0:
320,192,138884,1,0,0:0:0:0:
64,192,138884,1,0,0:0:0:0:
448,192,138977,1,0,0:0:0:0:
320,192,138977,1,0,0:0:0:0:
192,192,138977,1,0,0:0:0:0:
64,192,138977,1,0,0:0:0:0:
192,192,139069,1,0,0:0:0:0:
448,192,139069,1,0,0:0:0:0:
320,192,139162,1,0,0:0:0:0:
64,192,139162,1,0,0:0:0:0:
192,192,139254,1,0,0:0:0:0:
448,192,139347,1,0,0:0:0:0:
320,192,139347,1,0,0:0:0:0:
192,192,139347,1,0,0:0:0:0:
64,192,139347,1,0,0:0:0:0:
320,192,139440,1,0,0:0:0:0:
192,192,139532,1,0,0:0:0:0:
64,192,139532,1,0,0:0:0:0:
320,192,139625,1,0,0:0:0:0:
448,192,139717,1,0,0:0:0:0:
320,192,139717,1,0,0:0:0:0:
192,192,139717,1,0,0:0:0:0:
64,192,139717,1,0,0:0:0:0:
192,192,139810,1,0,0:0:0:0:
448,192,139902,1,0,0:0:0:0:
320,192,139902,1,0,0:0:0:0:
320,192,139995,1,0,0:0:0:0:
64,192,140088,1,0,0:0:0:0:
192,192,140088,1,0,0:0:0:0:
448,192,140088,1,0,0:0:0:0:
320,192,140088,1,0,0:0:0:0:
192,192,140180,1,0,0:0:0:0:
448,192,140180,1,0,0:0:0:0:
64,192,140273,1,0,0:0:0:0:
192,192,140365,1,0,0:0:0:0:
320,192,140365,1,0,0:0:0:0:
448,192,140458,1,0,0:0:0:0:
320,192,140458,1,0,0:0:0:0:
192,192,140458,1,0,0:0:0:0:
64,192,140458,1,0,0:0:0:0:
448,192,140551,1,0,0:0:0:0:
320,192,140643,1,0,0:0:0:0:
64,192,140643,1,0,0:0:0:0:
64,192,140736,1,0,0:0:0:0:
64,192,140828,1,0,0:0:0:0:
192,192,140828,1,0,0:0:0:0:
320,192,140828,1,0,0:0:0:0:
448,192,140828,1,0,0:0:0:0:
320,192,140921,1,0,0:0:0:0:
192,192,141014,1,0,0:0:0:0:
64,192,141014,1,0,0:0:0:0:
448,192,141106,1,0,0:0:0:0:
320,192,141106,1,0,0:0:0:0:
448,192,141199,1,0,0:0:0:0:
320,192,141199,1,0,0:0:0:0:
192,192,141199,1,0,0:0:0:0:
64,192,141199,1,0,0:0:0:0:
192,192,141291,1,0,0:0:0:0:
448,192,141384,1,0,0:0:0:0:
320,192,141384,1,0,0:0:0:0:
320,192,141477,1,0,0:0:0:0:
448,192,141569,1,0,0:0:0:0:
192,192,141569,1,0,0:0:0:0:
64,192,141569,1,0,0:0:0:0:
320,192,141569,1,0,0:0:0:0:
192,192,141662,1,0,0:0:0:0:
64,192,141662,1,0,0:0:0:0:
320,192,141754,1,0,0:0:0:0:
448,192,141847,1,0,0:0:0:0:
64,192,141847,1,0,0:0:0:0:
64,192,141940,1,0,0:0:0:0:
192,192,141940,1,0,0:0:0:0:
320,192,141940,1,0,0:0:0:0:
448,192,141940,1,0,0:0:0:0:
320,192,142032,1,0,0:0:0:0:
192,192,142125,1,0,0:0:0:0:
64,192,142125,1,0,0:0:0:0:
320,192,142217,1,0,0:0:0:0:
448,192,142310,1,0,0:0:0:0:
320,192,142310,1,0,0:0:0:0:
192,192,142310,1,0,0:0:0:0:
64,192,142310,1,0,0:0:0:0:
192,192,142402,1,0,0:0:0:0:
64,192,142495,1,0,0:0:0:0:
448,192,142495,1,0,0:0:0:0:
320,192,142588,1,0,0:0:0:0:
64,192,142588,1,0,0:0:0:0:
192,192,142680,1,0,0:0:0:0:
64,192,142680,1,0,0:0:0:0:
320,192,142680,1,0,0:0:0:0:
448,192,142680,1,0,0:0:0:0:
192,192,142773,1,0,0:0:0:0:
320,192,142865,1,0,0:0:0:0:
448,192,142865,1,0,0:0:0:0:
448,192,142958,1,0,0:0:0:0:
448,192,143051,1,0,0:0:0:0:
320,192,143051,1,0,0:0:0:0:
192,192,143051,1,0,0:0:0:0:
64,192,143051,1,0,0:0:0:0:
192,192,143143,1,0,0:0:0:0:
320,192,143143,1,0,0:0:0:0:
64,192,143236,1,0,0:0:0:0:
192,192,143328,1,0,0:0:0:0:
448,192,143328,1,0,0:0:0:0:
448,192,143421,1,0,0:0:0:0:
320,192,143421,1,0,0:0:0:0:
192,192,143421,1,0,0:0:0:0:
64,192,143421,1,0,0:0:0:0:
320,192,143514,1,0,0:0:0:0:
192,192,143606,1,0,0:0:0:0:
448,192,143606,1,0,0:0:0:0:
64,192,143699,1,0,0:0:0:0:
448,192,143791,1,0,0:0:0:0:
320,192,143791,1,0,0:0:0:0:
192,192,143791,1,0,0:0:0:0:
64,192,143791,1,0,0:0:0:0:
192,192,143884,1,0,0:0:0:0:
448,192,143977,1,0,0:0:0:0:
320,192,143977,1,0,0:0:0:0:
192,192,144069,1,0,0:0:0:0:
320,192,144069,1,0,0:0:0:0:
448,192,144162,1,0,0:0:0:0:
192,192,144162,1,0,0:0:0:0:
64,192,144162,1,0,0:0:0:0:
320,192,144162,1,0,0:0:0:0:
64,192,144254,1,0,0:0:0:0:
192,192,144347,1,0,0:0:0:0:
448,192,144347,1,0,0:0:0:0:
448,192,144440,1,0,0:0:0:0:
448,192,144532,1,0,0:0:0:0:
320,192,144532,1,0,0:0:0:0:
192,192,144532,1,0,0:0:0:0:
64,192,144532,1,0,0:0:0:0:
192,192,144625,1,0,0:0:0:0:
64,192,144625,1,0,0:0:0:0:
320,192,144717,1,0,0:0:0:0:
448,192,144810,1,0,0:0:0:0:
192,192,144810,1,0,0:0:0:0:
448,192,144902,1,0,0:0:0:0:
320,192,144902,1,0,0:0:0:0:
192,192,144902,1,0,0:0:0:0:
64,192,144902,1,0,0:0:0:0:
320,192,144995,1,0,0:0:0:0:
64,192,145088,1,0,0:0:0:0:
192,192,145088,1,0,0:0:0:0:
192,192,145180,1,0,0:0:0:0:
64,192,145273,1,0,0:0:0:0:
192,192,145273,1,0,0:0:0:0:
320,192,145273,1,0,0:0:0:0:
448,192,145273,1,0,0:0:0:0:
320,192,145365,1,0,0:0:0:0:
192,192,145458,1,0,0:0:0:0:
64,192,145458,1,0,0:0:0:0:
192,192,145551,1,0,0:0:0:0:
448,192,145551,1,0,0:0:0:0:
448,192,145643,1,0,0:0:0:0:
320,192,145643,1,0,0:0:0:0:
192,192,145643,1,0,0:0:0:0:
64,192,145643,1,0,0:0:0:0:
320,192,145736,1,0,0:0:0:0:
64,192,145828,1,0,0:0:0:0:
192,192,145828,1,0,0:0:0:0:
448,192,145921,1,0,0:0:0:0:
64,192,146014,1,0,0:0:0:0:
192,192,146014,1,0,0:0:0:0:
320,192,146014,1,0,0:0:0:0:
448,192,146014,1,0,0:0:0:0:
64,192,146106,1,0,0:0:0:0:
320,192,146106,1,0,0:0:0:0:
192,192,146199,1,0,0:0:0:0:
448,192,146291,1,0,0:0:0:0:
192,192,146291,1,0,0:0:0:0:
448,192,146384,1,0,0:0:0:0:
320,192,146384,1,0,0:0:0:0:
192,192,146384,1,0,0:0:0:0:
64,192,146384,1,0,0:0:0:0:
320,192,146477,1,0,0:0:0:0:
64,192,146569,1,0,0:0:0:0:
448,192,146569,1,0,0:0:0:0:
192,192,146662,1,0,0:0:0:0:
64,192,146754,1,0,0:0:0:0:
192,192,146754,1,0,0:0:0:0:
448,192,146754,1,0,0:0:0:0:
320,192,146754,1,0,0:0:0:0:
320,192,146847,1,0,0:0:0:0:
192,192,146940,1,0,0:0:0:0:
448,192,146940,1,0,0:0:0:0:
448,192,147032,1,0,0:0:0:0:
320,192,147032,1,0,0:0:0:0:
448,192,147125,1,0,0:0:0:0:
320,192,147125,1,0,0:0:0:0:
192,192,147125,1,0,0:0:0:0:
64,192,147125,1,0,0:0:0:0:
192,192,147217,1,0,0:0:0:0:
64,192,147310,1,0,0:0:0:0:
448,192,147310,1,0,0:0:0:0:
320,192,147402,1,0,0:0:0:0:
448,192,147495,1,0,0:0:0:0:
192,192,147495,1,0,0:0:0:0:
320,192,147495,1,0,0:0:0:0:
64,192,147495,1,0,0:0:0:0:
64,192,147588,1,0,0:0:0:0:
192,192,147588,1,0,0:0:0:0:
320,192,147680,1,0,0:0:0:0:
64,192,147773,1,0,0:0:0:0:
192,192,147773,1,0,0:0:0:0:
64,192,147865,1,0,0:0:0:0:
192,192,147865,1,0,0:0:0:0:
320,192,147865,1,0,0:0:0:0:
448,192,147865,1,0,0:0:0:0:
320,192,147958,1,0,0:0:0:0:
448,192,148051,1,0,0:0:0:0:
64,192,148051,1,0,0:0:0:0:
192,192,148143,1,0,0:0:0:0:
320,192,148236,1,0,0:0:0:0:
448,192,148236,1,0,0:0:0:0:
64,192,148236,1,0,0:0:0:0:
192,192,148236,1,0,0:0:0:0:
320,192,148328,1,0,0:0:0:0:
448,192,148421,1,0,0:0:0:0:
192,192,148421,1,0,0:0:0:0:
320,192,148514,1,0,0:0:0:0:
64,192,148514,1,0,0:0:0:0:
64,192,148606,1,0,0:0:0:0:
192,192,148606,1,0,0:0:0:0:
320,192,148606,1,0,0:0:0:0:
448,192,148606,1,0,0:0:0:0:
192,192,148699,1,0,0:0:0:0:
448,192,148791,1,0,0:0:0:0:
320,192,148791,1,0,0:0:0:0:
192,192,148884,1,0,0:0:0:0:
64,192,148977,1,0,0:0:0:0:
192,192,148977,1,0,0:0:0:0:
320,192,148977,1,0,0:0:0:0:
448,192,148977,1,0,0:0:0:0:
320,192,149069,1,0,0:0:0:0:
448,192,149069,1,0,0:0:0:0:
192,192,149162,1,0,0:0:0:0:
320,192,149254,1,0,0:0:0:0:
448,192,149254,1,0,0:0:0:0:
448,192,149347,1,0,0:0:0:0:
320,192,149347,1,0,0:0:0:0:
192,192,149347,1,0,0:0:0:0:
64,192,149347,1,0,0:0:0:0:
192,192,149440,1,0,0:0:0:0:
64,192,149532,1,0,0:0:0:0:
448,192,149532,1,0,0:0:0:0:
320,192,149625,1,0,0:0:0:0:
192,192,149717,1,0,0:0:0:0:
64,192,149717,1,0,0:0:0:0:
448,192,149717,1,0,0:0:0:0:
320,192,149717,1,0,0:0:0:0:
192,192,149810,1,0,0:0:0:0:
64,192,149902,1,0,0:0:0:0:
320,192,149902,1,0,0:0:0:0:
192,192,149995,1,0,0:0:0:0:
320,192,149995,1,0,0:0:0:0:
448,192,150088,1,0,0:0:0:0:
320,192,150088,1,0,0:0:0:0:
192,192,150088,1,0,0:0:0:0:
64,192,150088,1,0,0:0:0:0:
64,192,150180,1,0,0:0:0:0:
192,192,150273,1,0,0:0:0:0:
448,192,150273,1,0,0:0:0:0:
320,192,150365,1,0,0:0:0:0:
448,192,150458,1,0,0:0:0:0:
320,192,150458,1,0,0:0:0:0:
192,192,150458,1,0,0:0:0:0:
64,192,150458,1,0,0:0:0:0:
192,192,150551,1,0,0:0:0:0:
64,192,150551,1,0,0:0:0:0:
192,192,150643,1,0,0:0:0:0:
448,192,150736,1,0,0:0:0:0:
320,192,150736,1,0,0:0:0:0:
448,192,150828,1,0,0:0:0:0:
320,192,150828,1,0,0:0:0:0:
192,192,150828,1,0,0:0:0:0:
64,192,150828,1,0,0:0:0:0:
192,192,151014,1,0,0:0:0:0:
64,192,151014,1,0,0:0:0:0:
192,192,151106,1,0,0:0:0:0:
320,192,151199,1,0,0:0:0:0:
448,192,151199,1,0,0:0:0:0:
192,192,151199,1,0,0:0:0:0:
64,192,151199,1,0,0:0:0:0:
320,192,151337,1,0,0:0:0:0:
448,192,151337,1,0,0:0:0:0:
64,192,151384,1,0,0:0:0:0:
192,192,151384,1,0,0:0:0:0:
320,192,151430,1,0,0:0:0:0:
448,192,151430,1,0,0:0:0:0:
192,192,151477,1,0,0:0:0:0:
64,192,151477,1,0,0:0:0:0:
448,192,151569,1,0,0:0:0:0:
320,192,151569,1,0,0:0:0:0:
192,192,151569,1,0,0:0:0:0:
64,192,151569,1,0,0:0:0:0:
320,192,151662,1,0,0:0:0:0:
192,192,151754,1,0,0:0:0:0:
64,192,151754,1,0,0:0:0:0:
192,192,151847,1,0,0:0:0:0:
448,192,151940,1,0,0:0:0:0:
320,192,151940,1,0,0:0:0:0:
64,192,151940,1,0,0:0:0:0:
320,192,152032,1,0,0:0:0:0:
320,192,152125,1,0,0:0:0:0:
64,192,152125,1,0,0:0:0:0:
192,192,152217,1,0,0:0:0:0:
448,192,152217,1,0,0:0:0:0:
64,192,152310,1,0,0:0:0:0:
320,192,152310,1,0,0:0:0:0:
192,192,152402,1,0,0:0:0:0:
192,192,152495,1,0,0:0:0:0:
448,192,152495,1,0,0:0:0:0:
320,192,152588,1,0,0:0:0:0:
448,192,152588,1,0,0:0:0:0:
192,192,152680,1,0,0:0:0:0:
64,192,152680,1,0,0:0:0:0:
192,192,152773,1,0,0:0:0:0:
448,192,152865,1,0,0:0:0:0:
64,192,152865,1,0,0:0:0:0:
320,192,152958,1,0,0:0:0:0:
448,192,152958,1,0,0:0:0:0:
192,192,153051,1,0,0:0:0:0:
64,192,153051,1,0,0:0:0:0:
192,192,153143,1,0,0:0:0:0:
64,192,153236,1,0,0:0:0:0:
320,192,153236,1,0,0:0:0:0:
192,192,153328,1,0,0:0:0:0:
448,192,153328,1,0,0:0:0:0:
64,192,153421,1,0,0:0:0:0:
448,192,153421,1,0,0:0:0:0:
320,192,153514,1,0,0:0:0:0:
320,192,153606,1,0,0:0:0:0:
64,192,153606,1,0,0:0:0:0:
192,192,153699,1,0,0:0:0:0:
64,192,153699,1,0,0:0:0:0:
448,192,153791,1,0,0:0:0:0:
192,192,153791,1,0,0:0:0:0:
320,192,153884,1,0,0:0:0:0:
192,192,153977,1,0,0:0:0:0:
448,192,153977,1,0,0:0:0:0:
64,192,154069,1,0,0:0:0:0:
320,192,154069,1,0,0:0:0:0:
192,192,154162,1,0,0:0:0:0:
64,192,154162,1,0,0:0:0:0:
320,192,154254,1,0,0:0:0:0:
192,192,154347,1,0,0:0:0:0:
448,192,154347,1,0,0:0:0:0:
320,192,154440,1,0,0:0:0:0:
64,192,154440,1,0,0:0:0:0:
192,192,154532,1,0,0:0:0:0:
448,192,154532,1,0,0:0:0:0:
448,192,154625,1,0,0:0:0:0:
64,192,154717,1,0,0:0:0:0:
192,192,154717,1,0,0:0:0:0:
320,192,154810,1,0,0:0:0:0:
448,192,154810,1,0,0:0:0:0:
192,192,154902,1,0,0:0:0:0:
64,192,154902,1,0,0:0:0:0:
320,192,154995,1,0,0:0:0:0:
448,192,155088,1,0,0:0:0:0:
64,192,155088,1,0,0:0:0:0:
192,192,155180,1,0,0:0:0:0:
320,192,155180,1,0,0:0:0:0:
448,192,155273,1,0,0:0:0:0:
64,192,155273,1,0,0:0:0:0:
320,192,155365,1,0,0:0:0:0:
64,192,155458,1,0,0:0:0:0:
192,192,155458,1,0,0:0:0:0:
320,192,155551,1,0,0:0:0:0:
448,192,155551,1,0,0:0:0:0:
64,192,155643,1,0,0:0:0:0:
192,192,155643,1,0,0:0:0:0:
320,192,155736,1,0,0:0:0:0:
448,192,155828,1,0,0:0:0:0:
192,192,155828,1,0,0:0:0:0:
192,192,155921,1,0,0:0:0:0:
64,192,155921,1,0,0:0:0:0:
64,192,156014,1,0,0:0:0:0:
448,192,156014,1,0,0:0:0:0:
320,192,156106,1,0,0:0:0:0:
192,192,156199,1,0,0:0:0:0:
64,192,156199,1,0,0:0:0:0:
192,192,156291,1,0,0:0:0:0:
448,192,156291,1,0,0:0:0:0:
448,192,156384,1,0,0:0:0:0:
320,192,156384,1,0,0:0:0:0:
192,192,156477,1,0,0:0:0:0:
64,192,156569,1,0,0:0:0:0:
320,192,156569,1,0,0:0:0:0:
448,192,156662,1,0,0:0:0:0:
192,192,156662,1,0,0:0:0:0:
320,192,156754,1,0,0:0:0:0:
192,192,156754,1,0,0:0:0:0:
64,192,156847,1,0,0:0:0:0:
64,192,156940,1,0,0:0:0:0:
448,192,156940,1,0,0:0:0:0:
320,192,157032,1,0,0:0:0:0:
192,192,157032,1,0,0:0:0:0:
448,192,157125,1,0,0:0:0:0:
320,192,157125,1,0,0:0:0:0:
192,192,157217,1,0,0:0:0:0:
64,192,157310,1,0,0:0:0:0:
320,192,157310,1,0,0:0:0:0:
448,192,157402,1,0,0:0:0:0:
320,192,157402,1,0,0:0:0:0:
192,192,157495,1,0,0:0:0:0:
64,192,157495,1,0,0:0:0:0:
192,192,157588,1,0,0:0:0:0:
448,192,157680,1,0,0:0:0:0:
64,192,157680,1,0,0:0:0:0:
320,192,157773,1,0,0:0:0:0:
192,192,157773,1,0,0:0:0:0:
64,192,157865,1,0,0:0:0:0:
448,192,157865,1,0,0:0:0:0:
192,192,157865,1,0,0:0:0:0:
320,192,157958,1,0,0:0:0:0:
192,192,158051,1,0,0:0:0:0:
64,192,158051,1,0,0:0:0:0:
320,192,158143,1,0,0:0:0:0:
448,192,158143,1,0,0:0:0:0:
64,192,158236,1,0,0:0:0:0:
192,192,158236,1,0,0:0:0:0:
192,192,158328,1,0,0:0:0:0:
448,192,158421,1,0,0:0:0:0:
64,192,158421,1,0,0:0:0:0:
192,192,158514,1,0,0:0:0:0:
320,192,158514,1,0,0:0:0:0:
448,192,158606,1,0,0:0:0:0:
64,192,158606,1,0,0:0:0:0:
192,192,158699,1,0,0:0:0:0:
320,192,158791,1,0,0:0:0:0:
448,192,158791,1,0,0:0:0:0:
192,192,158884,1,0,0:0:0:0:
64,192,158884,1,0,0:0:0:0:
448,192,158977,1,0,0:0:0:0:
320,192,158977,1,0,0:0:0:0:
192,192,159069,1,0,0:0:0:0:
64,192,159162,1,0,0:0:0:0:
320,192,159162,1,0,0:0:0:0:
192,192,159254,1,0,0:0:0:0:
448,192,159254,1,0,0:0:0:0:
64,192,159347,1,0,0:0:0:0:
320,192,159347,1,0,0:0:0:0:
448,192,159347,1,0,0:0:0:0:
192,192,159440,1,0,0:0:0:0:
320,192,159532,1,0,0:0:0:0:
448,192,159532,1,0,0:0:0:0:
192,192,159625,1,0,0:0:0:0:
64,192,159625,1,0,0:0:0:0:
448,192,159717,1,0,0:0:0:0:
64,192,159717,1,0,0:0:0:0:
192,192,159810,1,0,0:0:0:0:
320,192,159902,1,0,0:0:0:0:
448,192,159902,1,0,0:0:0:0:
320,192,159995,1,0,0:0:0:0:
64,192,159995,1,0,0:0:0:0:
448,192,160088,1,0,0:0:0:0:
192,192,160088,1,0,0:0:0:0:
192,192,160180,1,0,0:0:0:0:
64,192,160273,1,0,0:0:0:0:
448,192,160273,1,0,0:0:0:0:
320,192,160365,1,0,0:0:0:0:
192,192,160365,1,0,0:0:0:0:
64,192,160458,1,0,0:0:0:0:
192,192,160458,1,0,0:0:0:0:
320,192,160551,1,0,0:0:0:0:
64,192,160643,1,0,0:0:0:0:
192,192,160643,1,0,0:0:0:0:
320,192,160736,1,0,0:0:0:0:
448,192,160736,1,0,0:0:0:0:
192,192,160828,1,0,0:0:0:0:
64,192,160828,1,0,0:0:0:0:
448,192,160828,1,0,0:0:0:0:
320,192,160921,1,0,0:0:0:0:
192,192,161014,1,0,0:0:0:0:
448,192,161014,1,0,0:0:0:0:
64,192,161106,1,0,0:0:0:0:
320,192,161106,1,0,0:0:0:0:
448,192,161199,1,0,0:0:0:0:
192,192,161199,1,0,0:0:0:0:
320,192,161291,1,0,0:0:0:0:
64,192,161384,1,0,0:0:0:0:
192,192,161384,1,0,0:0:0:0:
192,192,161477,1,0,0:0:0:0:
320,192,161477,1,0,0:0:0:0:
448,192,161569,1,0,0:0:0:0:
64,192,161569,1,0,0:0:0:0:
192,192,161662,1,0,0:0:0:0:
448,192,161754,1,0,0:0:0:0:
64,192,161754,1,0,0:0:0:0:
320,192,161847,1,0,0:0:0:0:
64,192,161847,1,0,0:0:0:0:
192,192,161940,1,0,0:0:0:0:
448,192,161940,1,0,0:0:0:0:
192,192,162032,1,0,0:0:0:0:
64,192,162125,1,0,0:0:0:0:
320,192,162125,1,0,0:0:0:0:
448,192,162217,1,0,0:0:0:0:
192,192,162217,1,0,0:0:0:0:
448,192,162310,1,0,0:0:0:0:
320,192,162310,1,0,0:0:0:0:
64,192,162310,1,0,0:0:0:0:
192,192,162402,1,0,0:0:0:0:
64,192,162402,1,0,0:0:0:0:
320,192,162495,1,0,0:0:0:0:
320,192,162588,1,0,0:0:0:0:
64,192,162588,1,0,0:0:0:0:
192,192,162588,1,0,0:0:0:0:
192,192,162680,1,0,0:0:0:0:
320,192,162773,1,0,0:0:0:0:
64,192,162773,1,0,0:0:0:0:
448,192,162773,1,0,0:0:0:0:
320,192,162865,1,0,0:0:0:0:
192,192,162865,1,0,0:0:0:0:
192,192,162958,1,0,0:0:0:0:
64,192,163051,1,0,0:0:0:0:
448,192,163051,1,0,0:0:0:0:
320,192,163143,1,0,0:0:0:0:
448,192,163236,1,0,0:0:0:0:
192,192,163236,1,0,0:0:0:0:
64,192,163236,1,0,0:0:0:0:
320,192,163328,1,0,0:0:0:0:
192,192,163421,1,0,0:0:0:0:
64,192,163421,1,0,0:0:0:0:
320,192,163421,1,0,0:0:0:0:
192,192,163514,1,0,0:0:0:0:
448,192,163606,1,0,0:0:0:0:
64,192,163606,1,0,0:0:0:0:
192,192,163699,1,0,0:0:0:0:
320,192,163699,1,0,0:0:0:0:
448,192,163699,1,0,0:0:0:0:
64,192,163791,1,0,0:0:0:0:
192,192,163791,1,0,0:0:0:0:
320,192,163791,1,0,0:0:0:0:
448,192,163791,1,0,0:0:0:0:
