osu file format v14

[General]
AudioFilename: audio 1.250x.mp3
AudioLeadIn: 0
PreviewTime: 0
Countdown: 0
SampleSet: None
StackLeniency: 0.7
Mode: 3
LetterboxInBreaks: 0
SpecialStyle: 0
WidescreenStoryboard: 1

[Editor]
DistanceSpacing: 0.6
BeatDivisor: 4
GridSize: 4
TimelineZoom: 2.1

[Metadata]
Title:Nina Bonita
TitleUnicode:NiƱa Bonita
Artist:Chino y Nacho
ArtistUnicode:Chino y Nacho
Creator:Mieruosu
Version:Jacks 1.25x (150bpm)
Source:
Tags:osutrainer
BeatmapID:4537580
BeatmapSetID:2153513

[Difficulty]
HPDrainRate:7
CircleSize:4
OverallDifficulty:9
ApproachRate:5.4
SliderMultiplier:1.4
SliderTickRate:1

[Events]
//Background and Video events
0,0,"ea7f9d3f86856e47333e9cfc12963ab5.jpg",0,0
//Break Periods
//Storyboard Layer 0 (Background)
//Storyboard Layer 1 (Fail)
//Storyboard Layer 2 (Pass)
//Storyboard Layer 3 (Foreground)
//Storyboard Layer 4 (Overlay)
//Storyboard Sound Samples

[TimingPoints]
10495,400,4,1,0,100,1,0

[HitObjects]
64,192,9494,5,0,0:0:0:0:
192,192,9495,1,0,0:0:0:0:
320,192,9595,1,0,0:0:0:0:
448,192,9595,1,0,0:0:0:0:
192,192,9695,1,0,0:0:0:0:
64,192,9695,1,0,0:0:0:0:
192,192,9795,1,0,0:0:0:0:
320,192,9895,1,0,0:0:0:0:
448,192,9895,1,0,0:0:0:0:
320,192,9995,1,0,0:0:0:0:
64,192,9995,1,0,0:0:0:0:
192,192,10095,1,0,0:0:0:0:
64,192,10095,1,0,0:0:0:0:
448,192,10095,1,0,0:0:0:0:
192,192,10195,1,0,0:0:0:0:
320,192,10295,1,0,0:0:0:0:
448,192,10295,1,0,0:0:0:0:
64,192,10295,1,0,0:0:0:0:
192,192,10395,1,0,0:0:0:0:
192,192,10494,1,0,0:0:0:0:
64,192,10494,1,0,0:0:0:0:
320,192,10494,1,0,0:0:0:0:
448,192,10494,1,0,0:0:0:0:
448,192,10595,1,0,0:0:0:0:
448,192,10695,1,0,0:0:0:0:
320,192,10795,1,0,0:0:0:0:
192,192,10795,1,0,0:0:0:0:
448,192,10895,1,0,0:0:0:0:
64,192,10895,1,0,0:0:0:0:
192,192,10895,1,0,0:0:0:0:
320,192,10895,1,0,0:0:0:0:
192,192,10995,1,0,0:0:0:0:
64,192,11095,1,0,0:0:0:0:
320,192,11095,1,0,0:0:0:0:
192,192,11195,1,0,0:0:0:0:
448,192,11295,1,0,0:0:0:0:
320,192,11295,1,0,0:0:0:0:
64,192,11295,1,0,0:0:0:0:
320,192,11395,1,0,0:0:0:0:
320,192,11495,1,0,0:0:0:0:
64,192,11595,1,0,0:0:0:0:
192,192,11595,1,0,0:0:0:0:
64,192,11695,1,0,0:0:0:0:
320,192,11695,1,0,0:0:0:0:
448,192,11695,1,0,0:0:0:0:
192,192,11695,1,0,0:0:0:0:
320,192,11795,1,0,0:0:0:0:
64,192,11895,1,0,0:0:0:0:
448,192,11895,1,0,0:0:0:0:
192,192,11995,1,0,0:0:0:0:
64,192,12095,1,0,0:0:0:0:
320,192,12095,1,0,0:0:0:0:
448,192,12095,1,0,0:0:0:0:
64,192,12195,1,0,0:0:0:0:
64,192,12295,1,0,0:0:0:0:
320,192,12395,1,0,0:0:0:0:
448,192,12395,1,0,0:0:0:0:
320,192,12495,1,0,0:0:0:0:
192,192,12495,1,0,0:0:0:0:
64,192,12495,1,0,0:0:0:0:
448,192,12495,1,0,0:0:0:0:
192,192,12595,1,0,0:0:0:0:
64,192,12695,1,0,0:0:0:0:
320,192,12695,1,0,0:0:0:0:
448,192,12795,1,0,0:0:0:0:
320,192,12895,1,0,0:0:0:0:
448,192,12895,1,0,0:0:0:0:
64,192,12895,1,0,0:0:0:0:
320,192,12995,1,0,0:0:0:0:
320,192,13095,1,0,0:0:0:0:
64,192,13195,1,0,0:0:0:0:
448,192,13195,1,0,0:0:0:0:
448,192,13295,1,0,0:0:0:0:
192,192,13295,1,0,0:0:0:0:
64,192,13295,1,0,0:0:0:0:
320,192,13295,1,0,0:0:0:0:
192,192,13395,1,0,0:0:0:0:
320,192,13495,1,0,0:0:0:0:
448,192,13495,1,0,0:0:0:0:
64,192,13595,1,0,0:0:0:0:
64,192,13695,1,0,0:0:0:0:
320,192,13695,1,0,0:0:0:0:
448,192,13695,1,0,0:0:0:0:
320,192,13795,1,0,0:0:0:0:
192,192,13895,1,0,0:0:0:0:
64,192,13995,1,0,0:0:0:0:
320,192,13995,1,0,0:0:0:0:
448,192,14095,1,0,0:0:0:0:
320,192,14095,1,0,0:0:0:0:
192,192,14095,1,0,0:0:0:0:
64,192,14095,1,0,0:0:0:0:
192,192,14195,1,0,0:0:0:0:
448,192,14295,1,0,0:0:0:0:
64,192,14295,1,0,0:0:0:0:
320,192,14395,1,0,0:0:0:0:
448,192,14495,1,0,0:0:0:0:
192,192,14495,1,0,0:0:0:0:
64,192,14495,1,0,0:0:0:0:
192,192,14595,1,0,0:0:0:0:
192,192,14695,1,0,0:0:0:0:
64,192,14795,1,0,0:0:0:0:
320,192,14795,1,0,0:0:0:0:
64,192,14895,1,0,0:0:0:0:
192,192,14895,1,0,0:0:0:0:
320,192,14895,1,0,0:0:0:0:
448,192,14895,1,0,0:0:0:0:
192,192,14995,1,0,0:0:0:0:
448,192,15095,1,0,0:0:0:0:
320,192,15095,1,0,0:0:0:0:
192,192,15195,1,0,0:0:0:0:
64,192,15295,1,0,0:0:0:0:
192,192,15295,1,0,0:0:0:0:
448,192,15295,1,0,0:0:0:0:
64,192,15395,1,0,0:0:0:0:
64,192,15495,1,0,0:0:0:0:
448,192,15595,1,0,0:0:0:0:
192,192,15595,1,0,0:0:0:0:
448,192,15695,1,0,0:0:0:0:
320,192,15695,1,0,0:0:0:0:
192,192,15695,1,0,0:0:0:0:
64,192,15695,1,0,0:0:0:0:
320,192,15795,1,0,0:0:0:0:
64,192,15895,1,0,0:0:0:0:
448,192,15895,1,0,0:0:0:0:
192,192,15995,1,0,0:0:0:0:
320,192,16095,1,0,0:0:0:0:
192,192,16095,1,0,0:0:0:0:
64,192,16095,1,0,0:0:0:0:
320,192,16195,1,0,0:0:0:0:
320,192,16295,1,0,0:0:0:0:
192,192,16395,1,0,0:0:0:0:
64,192,16395,1,0,0:0:0:0:
64,192,16495,1,0,0:0:0:0:
192,192,16495,1,0,0:0:0:0:
320,192,16495,1,0,0:0:0:0:
448,192,16495,1,0,0:0:0:0:
320,192,16595,1,0,0:0:0:0:
64,192,16695,1,0,0:0:0:0:
192,192,16695,1,0,0:0:0:0:
320,192,16795,1,0,0:0:0:0:
448,192,16895,1,0,0:0:0:0:
320,192,16895,1,0,0:0:0:0:
192,192,16895,1,0,0:0:0:0:
192,192,16995,1,0,0:0:0:0:
192,192,17095,1,0,0:0:0:0:
64,192,17195,1,0,0:0:0:0:
320,192,17195,1,0,0:0:0:0:
448,192,17295,1,0,0:0:0:0:
320,192,17295,1,0,0:0:0:0:
192,192,17295,1,0,0:0:0:0:
64,192,17295,1,0,0:0:0:0:
192,192,17395,1,0,0:0:0:0:
448,192,17495,1,0,0:0:0:0:
320,192,17495,1,0,0:0:0:0:
64,192,17595,1,0,0:0:0:0:
320,192,17695,1,0,0:0:0:0:
448,192,17695,1,0,0:0:0:0:
64,192,17695,1,0,0:0:0:0:
320,192,17795,1,0,0:0:0:0:
320,192,17895,1,0,0:0:0:0:
192,192,17995,1,0,0:0:0:0:
448,192,17995,1,0,0:0:0:0:
448,192,18095,1,0,0:0:0:0:
320,192,18095,1,0,0:0:0:0:
192,192,18095,1,0,0:0:0:0:
64,192,18095,1,0,0:0:0:0:
64,192,18195,1,0,0:0:0:0:
64,192,18295,1,0,0:0:0:0:
320,192,18295,1,0,0:0:0:0:
192,192,18395,1,0,0:0:0:0:
448,192,18495,1,0,0:0:0:0:
64,192,18495,1,0,0:0:0:0:
320,192,18495,1,0,0:0:0:0:
320,192,18595,1,0,0:0:0:0:
320,192,18695,1,0,0:0:0:0:
192,192,18795,1,0,0:0:0:0:
64,192,18795,1,0,0:0:0:0:
64,192,18895,1,0,0:0:0:0:
320,192,18895,1,0,0:0:0:0:
448,192,18895,1,0,0:0:0:0:
192,192,18895,1,0,0:0:0:0:
448,192,18995,1,0,0:0:0:0:
448,192,19095,1,0,0:0:0:0:
192,192,19095,1,0,0:0:0:0:
320,192,19195,1,0,0:0:0:0:
192,192,19295,1,0,0:0:0:0:
64,192,19295,1,0,0:0:0:0:
320,192,19295,1,0,0:0:0:0:
192,192,19395,1,0,0:0:0:0:
192,192,19495,1,0,0:0:0:0:
320,192,19595,1,0,0:0:0:0:
448,192,19595,1,0,0:0:0:0:
448,192,19695,1,0,0:0:0:0:
320,192,19695,1,0,0:0:0:0:
192,192,19695,1,0,0:0:0:0:
64,192,19695,1,0,0:0:0:0:
64,192,19795,1,0,0:0:0:0:
64,192,19895,1,0,0:0:0:0:
320,192,19895,1,0,0:0:0:0:
448,192,19995,1,0,0:0:0:0:
448,192,20095,1,0,0:0:0:0:
320,192,20095,1,0,0:0:0:0:
64,192,20095,1,0,0:0:0:0:
192,192,20195,1,0,0:0:0:0:
192,192,20295,1,0,0:0:0:0:
320,192,20395,1,0,0:0:0:0:
64,192,20395,1,0,0:0:0:0:
64,192,20495,1,0,0:0:0:0:
192,192,20495,1,0,0:0:0:0:
320,192,20495,1,0,0:0:0:0:
448,192,20495,1,0,0:0:0:0:
320,192,20595,1,0,0:0:0:0:
448,192,20695,1,0,0:0:0:0:
192,192,20695,1,0,0:0:0:0:
320,192,20795,1,0,0:0:0:0:
448,192,20895,1,0,0:0:0:0:
192,192,20895,1,0,0:0:0:0:
64,192,20895,1,0,0:0:0:0:
192,192,20995,1,0,0:0:0:0:
192,192,21095,1,0,0:0:0:0:
320,192,21195,1,0,0:0:0:0:
448,192,21195,1,0,0:0:0:0:
448,192,21295,1,0,0:0:0:0:
320,192,21295,1,0,0:0:0:0:
192,192,21295,1,0,0:0:0:0:
64,192,21295,1,0,0:0:0:0:
192,192,21395,1,0,0:0:0:0:
320,192,21495,1,0,0:0:0:0:
64,192,21495,1,0,0:0:0:0:
192,192,21595,1,0,0:0:0:0:
320,192,21695,1,0,0:0:0:0:
192,192,21695,1,0,0:0:0:0:
448,192,21695,1,0,0:0:0:0:
320,192,21795,1,0,0:0:0:0:
320,192,21895,1,0,0:0:0:0:
64,192,21995,1,0,0:0:0:0:
448,192,21995,1,0,0:0:0:0:
448,192,22095,1,0,0:0:0:0:
320,192,22095,1,0,0:0:0:0:
192,192,22095,1,0,0:0:0:0:
64,192,22095,1,0,0:0:0:0:
192,192,22195,1,0,0:0:0:0:
320,192,22295,1,0,0:0:0:0:
448,192,22295,1,0,0:0:0:0:
320,192,22395,1,0,0:0:0:0:
448,192,22495,1,0,0:0:0:0:
192,192,22495,1,0,0:0:0:0:
64,192,22495,1,0,0:0:0:0:
192,192,22595,1,0,0:0:0:0:
192,192,22695,1,0,0:0:0:0:
320,192,22795,1,0,0:0:0:0:
448,192,22795,1,0,0:0:0:0:
192,192,22844,1,0,0:0:0:0:
64,192,22844,1,0,0:0:0:0:
320,192,22895,1,0,0:0:0:0:
448,192,22895,1,0,0:0:0:0:
192,192,22995,1,0,0:0:0:0:
64,192,22995,1,0,0:0:0:0:
64,192,23095,1,0,0:0:0:0:
320,192,23095,1,0,0:0:0:0:
192,192,23195,1,0,0:0:0:0:
448,192,23195,1,0,0:0:0:0:
448,192,23295,1,0,0:0:0:0:
320,192,23295,1,0,0:0:0:0:
192,192,23295,1,0,0:0:0:0:
64,192,23295,1,0,0:0:0:0:
64,192,23395,1,0,0:0:0:0:
64,192,23495,1,0,0:0:0:0:
320,192,23595,1,0,0:0:0:0:
448,192,23595,1,0,0:0:0:0:
448,192,23695,1,0,0:0:0:0:
192,192,23695,1,0,0:0:0:0:
64,192,23695,1,0,0:0:0:0:
192,192,23795,1,0,0:0:0:0:
192,192,23895,1,0,0:0:0:0:
64,192,23995,1,0,0:0:0:0:
448,192,23995,1,0,0:0:0:0:
448,192,24095,1,0,0:0:0:0:
192,192,24095,1,0,0:0:0:0:
64,192,24095,1,0,0:0:0:0:
192,192,24195,1,0,0:0:0:0:
192,192,24295,1,0,0:0:0:0:
448,192,24395,1,0,0:0:0:0:
64,192,24395,1,0,0:0:0:0:
448,192,24495,1,0,0:0:0:0:
64,192,24495,1,0,0:0:0:0:
320,192,24495,1,0,0:0:0:0:
320,192,24595,1,0,0:0:0:0:
320,192,24695,1,0,0:0:0:0:
64,192,24695,1,0,0:0:0:0:
192,192,24795,1,0,0:0:0:0:
320,192,24895,1,0,0:0:0:0:
448,192,24895,1,0,0:0:0:0:
192,192,24895,1,0,0:0:0:0:
64,192,24895,1,0,0:0:0:0:
320,192,24995,1,0,0:0:0:0:
320,192,25095,1,0,0:0:0:0:
192,192,25195,1,0,0:0:0:0:
64,192,25195,1,0,0:0:0:0:
64,192,25295,1,0,0:0:0:0:
192,192,25295,1,0,0:0:0:0:
448,192,25295,1,0,0:0:0:0:
448,192,25395,1,0,0:0:0:0:
192,192,25495,1,0,0:0:0:0:
448,192,25495,1,0,0:0:0:0:
320,192,25595,1,0,0:0:0:0:
448,192,25695,1,0,0:0:0:0:
192,192,25695,1,0,0:0:0:0:
64,192,25695,1,0,0:0:0:0:
64,192,25795,1,0,0:0:0:0:
64,192,25895,1,0,0:0:0:0:
192,192,25995,1,0,0:0:0:0:
320,192,25995,1,0,0:0:0:0:
448,192,26095,1,0,0:0:0:0:
320,192,26095,1,0,0:0:0:0:
64,192,26095,1,0,0:0:0:0:
448,192,26195,1,0,0:0:0:0:
64,192,26295,1,0,0:0:0:0:
320,192,26295,1,0,0:0:0:0:
192,192,26395,1,0,0:0:0:0:
448,192,26495,1,0,0:0:0:0:
320,192,26495,1,0,0:0:0:0:
192,192,26495,1,0,0:0:0:0:
64,192,26495,1,0,0:0:0:0:
320,192,26595,1,0,0:0:0:0:
320,192,26695,1,0,0:0:0:0:
192,192,26795,1,0,0:0:0:0:
64,192,26795,1,0,0:0:0:0:
192,192,26895,1,0,0:0:0:0:
448,192,26895,1,0,0:0:0:0:
320,192,26895,1,0,0:0:0:0:
320,192,26995,1,0,0:0:0:0:
192,192,27095,1,0,0:0:0:0:
448,192,27095,1,0,0:0:0:0:
320,192,27195,1,0,0:0:0:0:
192,192,27295,1,0,0:0:0:0:
64,192,27295,1,0,0:0:0:0:
448,192,27295,1,0,0:0:0:0:
192,192,27395,1,0,0:0:0:0:
192,192,27495,1,0,0:0:0:0:
320,192,27595,1,0,0:0:0:0:
448,192,27595,1,0,0:0:0:0:
448,192,27695,1,0,0:0:0:0:
320,192,27695,1,0,0:0:0:0:
64,192,27695,1,0,0:0:0:0:
192,192,27795,1,0,0:0:0:0:
64,192,27895,1,0,0:0:0:0:
320,192,27895,1,0,0:0:0:0:
448,192,27995,1,0,0:0:0:0:
448,192,28095,1,0,0:0:0:0:
320,192,28095,1,0,0:0:0:0:
192,192,28095,1,0,0:0:0:0:
64,192,28095,1,0,0:0:0:0:
192,192,28195,1,0,0:0:0:0:
64,192,28295,1,0,0:0:0:0:
64,192,28395,1,0,0:0:0:0:
192,192,28395,1,0,0:0:0:0:
64,192,28495,1,0,0:0:0:0:
192,192,28495,1,0,0:0:0:0:
448,192,28495,1,0,0:0:0:0:
320,192,28595,1,0,0:0:0:0:
192,192,28695,1,0,0:0:0:0:
448,192,28695,1,0,0:0:0:0:
448,192,28795,1,0,0:0:0:0:
320,192,28895,1,0,0:0:0:0:
64,192,28895,1,0,0:0:0:0:
192,192,28895,1,0,0:0:0:0:
192,192,28995,1,0,0:0:0:0:
192,192,29095,1,0,0:0:0:0:
320,192,29195,1,0,0:0:0:0:
448,192,29195,1,0,0:0:0:0:
448,192,29295,1,0,0:0:0:0:
320,192,29295,1,0,0:0:0:0:
64,192,29295,1,0,0:0:0:0:
64,192,29395,1,0,0:0:0:0:
64,192,29495,1,0,0:0:0:0:
320,192,29595,1,0,0:0:0:0:
192,192,29595,1,0,0:0:0:0:
448,192,29695,1,0,0:0:0:0:
320,192,29695,1,0,0:0:0:0:
64,192,29695,1,0,0:0:0:0:
192,192,29695,1,0,0:0:0:0:
448,192,29795,1,0,0:0:0:0:
448,192,29895,1,0,0:0:0:0:
64,192,29995,1,0,0:0:0:0:
320,192,29995,1,0,0:0:0:0:
320,192,30095,1,0,0:0:0:0:
64,192,30095,1,0,0:0:0:0:
448,192,30095,1,0,0:0:0:0:
320,192,30195,1,0,0:0:0:0:
64,192,30295,1,0,0:0:0:0:
448,192,30295,1,0,0:0:0:0:
320,192,30395,1,0,0:0:0:0:
192,192,30495,1,0,0:0:0:0:
64,192,30495,1,0,0:0:0:0:
448,192,30495,1,0,0:0:0:0:
192,192,30595,1,0,0:0:0:0:
320,192,30695,1,0,0:0:0:0:
192,192,30795,1,0,0:0:0:0:
448,192,30795,1,0,0:0:0:0:
448,192,30895,1,0,0:0:0:0:
64,192,30895,1,0,0:0:0:0:
320,192,30895,1,0,0:0:0:0:
192,192,30995,1,0,0:0:0:0:
64,192,31095,1,0,0:0:0:0:
320,192,31095,1,0,0:0:0:0:
192,192,31195,1,0,0:0:0:0:
192,192,31295,1,0,0:0:0:0:
64,192,31295,1,0,0:0:0:0:
320,192,31295,1,0,0:0:0:0:
448,192,31295,1,0,0:0:0:0:
64,192,31395,1,0,0:0:0:0:
192,192,31495,1,0,0:0:0:0:
64,192,31595,1,0,0:0:0:0:
320,192,31595,1,0,0:0:0:0:
448,192,31695,1,0,0:0:0:0:
192,192,31695,1,0,0:0:0:0:
64,192,31695,1,0,0:0:0:0:
320,192,31795,1,0,0:0:0:0:
320,192,31895,1,0,0:0:0:0:
64,192,31895,1,0,0:0:0:0:
192,192,31995,1,0,0:0:0:0:
64,192,32095,1,0,0:0:0:0:
192,192,32095,1,0,0:0:0:0:
320,192,32095,1,0,0:0:0:0:
448,192,32095,1,0,0:0:0:0:
320,192,32195,1,0,0:0:0:0:
320,192,32295,1,0,0:0:0:0:
64,192,32395,1,0,0:0:0:0:
192,192,32395,1,0,0:0:0:0:
448,192,32495,1,0,0:0:0:0:
320,192,32495,1,0,0:0:0:0:
64,192,32495,1,0,0:0:0:0:
192,192,32595,1,0,0:0:0:0:
320,192,32695,1,0,0:0:0:0:
64,192,32695,1,0,0:0:0:0:
320,192,32795,1,0,0:0:0:0:
448,192,32895,1,0,0:0:0:0:
192,192,32895,1,0,0:0:0:0:
64,192,32895,1,0,0:0:0:0:
320,192,32895,1,0,0:0:0:0:
448,192,32995,1,0,0:0:0:0:
448,192,33095,1,0,0:0:0:0:
320,192,33195,1,0,0:0:0:0:
192,192,33195,1,0,0:0:0:0:
448,192,33295,1,0,0:0:0:0:
192,192,33295,1,0,0:0:0:0:
64,192,33295,1,0,0:0:0:0:
320,192,33395,1,0,0:0:0:0:
64,192,33495,1,0,0:0:0:0:
320,192,33495,1,0,0:0:0:0:
192,192,33595,1,0,0:0:0:0:
448,192,33695,1,0,0:0:0:0:
320,192,33695,1,0,0:0:0:0:
64,192,33695,1,0,0:0:0:0:
192,192,33795,1,0,0:0:0:0:
192,192,33895,1,0,0:0:0:0:
64,192,33995,1,0,0:0:0:0:
320,192,33995,1,0,0:0:0:0:
320,192,34095,1,0,0:0:0:0:
192,192,34095,1,0,0:0:0:0:
64,192,34095,1,0,0:0:0:0:
192,192,34195,1,0,0:0:0:0:
64,192,34295,1,0,0:0:0:0:
320,192,34295,1,0,0:0:0:0:
64,192,34395,1,0,0:0:0:0:
192,192,34495,1,0,0:0:0:0:
64,192,34495,1,0,0:0:0:0:
320,192,34495,1,0,0:0:0:0:
448,192,34495,1,0,0:0:0:0:
192,192,34595,1,0,0:0:0:0:
320,192,34695,1,0,0:0:0:0:
448,192,34795,1,0,0:0:0:0:
64,192,34795,1,0,0:0:0:0:
448,192,34895,1,0,0:0:0:0:
192,192,34895,1,0,0:0:0:0:
64,192,34895,1,0,0:0:0:0:
320,192,34995,1,0,0:0:0:0:
192,192,35095,1,0,0:0:0:0:
64,192,35095,1,0,0:0:0:0:
192,192,35195,1,0,0:0:0:0:
448,192,35295,1,0,0:0:0:0:
320,192,35295,1,0,0:0:0:0:
64,192,35295,1,0,0:0:0:0:
320,192,35395,1,0,0:0:0:0:
192,192,35495,1,0,0:0:0:0:
320,192,35595,1,0,0:0:0:0:
64,192,35595,1,0,0:0:0:0:
320,192,35695,1,0,0:0:0:0:
192,192,35695,1,0,0:0:0:0:
64,192,35695,1,0,0:0:0:0:
448,192,35695,1,0,0:0:0:0:
192,192,35795,1,0,0:0:0:0:
448,192,35895,1,0,0:0:0:0:
64,192,35895,1,0,0:0:0:0:
192,192,35995,1,0,0:0:0:0:
64,192,36095,1,0,0:0:0:0:
192,192,36095,1,0,0:0:0:0:
320,192,36095,1,0,0:0:0:0:
448,192,36095,1,0,0:0:0:0:
320,192,36195,1,0,0:0:0:0:
320,192,36295,1,0,0:0:0:0:
192,192,36395,1,0,0:0:0:0:
64,192,36395,1,0,0:0:0:0:
64,192,36495,1,0,0:0:0:0:
192,192,36495,1,0,0:0:0:0:
320,192,36495,1,0,0:0:0:0:
448,192,36495,1,0,0:0:0:0:
320,192,36595,1,0,0:0:0:0:
192,192,36695,1,0,0:0:0:0:
448,192,36695,1,0,0:0:0:0:
192,192,36795,1,0,0:0:0:0:
448,192,36895,1,0,0:0:0:0:
320,192,36895,1,0,0:0:0:0:
192,192,36895,1,0,0:0:0:0:
64,192,36895,1,0,0:0:0:0:
64,192,36995,1,0,0:0:0:0:
64,192,37095,1,0,0:0:0:0:
448,192,37195,1,0,0:0:0:0:
320,192,37195,1,0,0:0:0:0:
320,192,37295,1,0,0:0:0:0:
192,192,37295,1,0,0:0:0:0:
64,192,37295,1,0,0:0:0:0:
448,192,37295,1,0,0:0:0:0:
192,192,37395,1,0,0:0:0:0:
448,192,37495,1,0,0:0:0:0:
64,192,37495,1,0,0:0:0:0:
320,192,37595,1,0,0:0:0:0:
448,192,37695,1,0,0:0:0:0:
320,192,37695,1,0,0:0:0:0:
192,192,37695,1,0,0:0:0:0:
64,192,37695,1,0,0:0:0:0:
192,192,37795,1,0,0:0:0:0:
192,192,37895,1,0,0:0:0:0:
448,192,37995,1,0,0:0:0:0:
64,192,37995,1,0,0:0:0:0:
64,192,38095,1,0,0:0:0:0:
192,192,38095,1,0,0:0:0:0:
320,192,38095,1,0,0:0:0:0:
448,192,38095,1,0,0:0:0:0:
320,192,38195,1,0,0:0:0:0:
192,192,38295,1,0,0:0:0:0:
448,192,38295,1,0,0:0:0:0:
320,192,38395,1,0,0:0:0:0:
448,192,38495,1,0,0:0:0:0:
320,192,38495,1,0,0:0:0:0:
192,192,38495,1,0,0:0:0:0:
64,192,38495,1,0,0:0:0:0:
64,192,38595,1,0,0:0:0:0:
192,192,38695,1,0,0:0:0:0:
320,192,38795,1,0,0:0:0:0:
64,192,38795,1,0,0:0:0:0:
64,192,38895,1,0,0:0:0:0:
320,192,38895,1,0,0:0:0:0:
448,192,38895,1,0,0:0:0:0:
192,192,38895,1,0,0:0:0:0:
448,192,38995,1,0,0:0:0:0:
448,192,39095,1,0,0:0:0:0:
192,192,39095,1,0,0:0:0:0:
320,192,39195,1,0,0:0:0:0:
192,192,39295,1,0,0:0:0:0:
64,192,39295,1,0,0:0:0:0:
320,192,39295,1,0,0:0:0:0:
448,192,39295,1,0,0:0:0:0:
192,192,39395,1,0,0:0:0:0:
192,192,39495,1,0,0:0:0:0:
448,192,39595,1,0,0:0:0:0:
320,192,39595,1,0,0:0:0:0:
448,192,39695,1,0,0:0:0:0:
320,192,39695,1,0,0:0:0:0:
64,192,39695,1,0,0:0:0:0:
192,192,39695,1,0,0:0:0:0:
64,192,39795,1,0,0:0:0:0:
64,192,39895,1,0,0:0:0:0:
448,192,39895,1,0,0:0:0:0:
320,192,39995,1,0,0:0:0:0:
448,192,40095,1,0,0:0:0:0:
320,192,40095,1,0,0:0:0:0:
192,192,40095,1,0,0:0:0:0:
64,192,40095,1,0,0:0:0:0:
448,192,40195,1,0,0:0:0:0:
448,192,40295,1,0,0:0:0:0:
192,192,40395,1,0,0:0:0:0:
64,192,40395,1,0,0:0:0:0:
64,192,40495,1,0,0:0:0:0:
192,192,40495,1,0,0:0:0:0:
320,192,40495,1,0,0:0:0:0:
448,192,40495,1,0,0:0:0:0:
320,192,40595,1,0,0:0:0:0:
64,192,40695,1,0,0:0:0:0:
448,192,40695,1,0,0:0:0:0:
192,192,40795,1,0,0:0:0:0:
448,192,40895,1,0,0:0:0:0:
320,192,40895,1,0,0:0:0:0:
64,192,40895,1,0,0:0:0:0:
192,192,40895,1,0,0:0:0:0:
320,192,40995,1,0,0:0:0:0:
320,192,41095,1,0,0:0:0:0:
192,192,41195,1,0,0:0:0:0:
448,192,41195,1,0,0:0:0:0:
448,192,41295,1,0,0:0:0:0:
320,192,41295,1,0,0:0:0:0:
192,192,41295,1,0,0:0:0:0:
64,192,41295,1,0,0:0:0:0:
64,192,41395,1,0,0:0:0:0:
64,192,41495,1,0,0:0:0:0:
320,192,41495,1,0,0:0:0:0:
192,192,41595,1,0,0:0:0:0:
448,192,41695,1,0,0:0:0:0:
320,192,41695,1,0,0:0:0:0:
192,192,41695,1,0,0:0:0:0:
64,192,41695,1,0,0:0:0:0:
320,192,41795,1,0,0:0:0:0:
320,192,41895,1,0,0:0:0:0:
192,192,41895,1,0,0:0:0:0:
64,192,41995,1,0,0:0:0:0:
448,192,41995,1,0,0:0:0:0:
64,192,42095,1,0,0:0:0:0:
192,192,42095,1,0,0:0:0:0:
320,192,42095,1,0,0:0:0:0:
448,192,42095,1,0,0:0:0:0:
192,192,42195,1,0,0:0:0:0:
320,192,42195,1,0,0:0:0:0:
448,192,42295,1,0,0:0:0:0:
64,192,42295,1,0,0:0:0:0:
192,192,42395,1,0,0:0:0:0:
64,192,42395,1,0,0:0:0:0:
64,192,42495,1,0,0:0:0:0:
192,192,42495,1,0,0:0:0:0:
320,192,42495,1,0,0:0:0:0:
448,192,42495,1,0,0:0:0:0:
192,192,42595,1,0,0:0:0:0:
192,192,42695,1,0,0:0:0:0:
448,192,42795,1,0,0:0:0:0:
320,192,42795,1,0,0:0:0:0:
448,192,42895,1,0,0:0:0:0:
320,192,42895,1,0,0:0:0:0:
192,192,42895,1,0,0:0:0:0:
64,192,42895,1,0,0:0:0:0:
64,192,42995,1,0,0:0:0:0:
64,192,43095,1,0,0:0:0:0:
320,192,43095,1,0,0:0:0:0:
320,192,43195,1,0,0:0:0:0:
448,192,43295,1,0,0:0:0:0:
320,192,43295,1,0,0:0:0:0:
192,192,43295,1,0,0:0:0:0:
64,192,43295,1,0,0:0:0:0:
192,192,43395,1,0,0:0:0:0:
192,192,43495,1,0,0:0:0:0:
448,192,43595,1,0,0:0:0:0:
64,192,43595,1,0,0:0:0:0:
64,192,43695,1,0,0:0:0:0:
192,192,43695,1,0,0:0:0:0:
320,192,43695,1,0,0:0:0:0:
448,192,43695,1,0,0:0:0:0:
320,192,43795,1,0,0:0:0:0:
192,192,43895,1,0,0:0:0:0:
64,192,43895,1,0,0:0:0:0:
64,192,43995,1,0,0:0:0:0:
64,192,44095,1,0,0:0:0:0:
192,192,44095,1,0,0:0:0:0:
320,192,44095,1,0,0:0:0:0:
448,192,44095,1,0,0:0:0:0:
192,192,44195,1,0,0:0:0:0:
192,192,44295,1,0,0:0:0:0:
448,192,44395,1,0,0:0:0:0:
320,192,44395,1,0,0:0:0:0:
448,192,44495,1,0,0:0:0:0:
320,192,44495,1,0,0:0:0:0:
192,192,44495,1,0,0:0:0:0:
64,192,44495,1,0,0:0:0:0:
192,192,44595,1,0,0:0:0:0:
64,192,44695,1,0,0:0:0:0:
320,192,44695,1,0,0:0:0:0:
448,192,44795,1,0,0:0:0:0:
448,192,44895,1,0,0:0:0:0:
320,192,44895,1,0,0:0:0:0:
192,192,44895,1,0,0:0:0:0:
64,192,44895,1,0,0:0:0:0:
320,192,44995,1,0,0:0:0:0:
320,192,45095,1,0,0:0:0:0:
192,192,45095,1,0,0:0:0:0:
192,192,45195,1,0,0:0:0:0:
64,192,45195,1,0,0:0:0:0:
192,192,45295,1,0,0:0:0:0:
64,192,45295,1,0,0:0:0:0:
320,192,45295,1,0,0:0:0:0:
448,192,45295,1,0,0:0:0:0:
448,192,45395,1,0,0:0:0:0:
320,192,45395,1,0,0:0:0:0:
320,192,45495,1,0,0:0:0:0:
192,192,45495,1,0,0:0:0:0:
192,192,45595,1,0,0:0:0:0:
64,192,45595,1,0,0:0:0:0:
448,192,45695,1,0,0:0:0:0:
320,192,45695,1,0,0:0:0:0:
192,192,45695,1,0,0:0:0:0:
64,192,45695,1,0,0:0:0:0:
448,192,45795,1,0,0:0:0:0:
448,192,45895,1,0,0:0:0:0:
192,192,45995,1,0,0:0:0:0:
64,192,45995,1,0,0:0:0:0:
64,192,46095,1,0,0:0:0:0:
192,192,46095,1,0,0:0:0:0:
320,192,46095,1,0,0:0:0:0:
448,192,46095,1,0,0:0:0:0:
320,192,46195,1,0,0:0:0:0:
64,192,46295,1,0,0:0:0:0:
448,192,46295,1,0,0:0:0:0:
64,192,46395,1,0,0:0:0:0:
64,192,46495,1,0,0:0:0:0:
192,192,46495,1,0,0:0:0:0:
320,192,46495,1,0,0:0:0:0:
448,192,46495,1,0,0:0:0:0:
320,192,46595,1,0,0:0:0:0:
192,192,46695,1,0,0:0:0:0:
192,192,46795,1,0,0:0:0:0:
448,192,46795,1,0,0:0:0:0:
448,192,46895,1,0,0:0:0:0:
320,192,46895,1,0,0:0:0:0:
192,192,46895,1,0,0:0:0:0:
64,192,46895,1,0,0:0:0:0:
320,192,46995,1,0,0:0:0:0:
64,192,47095,1,0,0:0:0:0:
192,192,47095,1,0,0:0:0:0:
448,192,47195,1,0,0:0:0:0:
448,192,47295,1,0,0:0:0:0:
320,192,47295,1,0,0:0:0:0:
192,192,47295,1,0,0:0:0:0:
64,192,47295,1,0,0:0:0:0:
192,192,47395,1,0,0:0:0:0:
192,192,47495,1,0,0:0:0:0:
192,192,47595,1,0,0:0:0:0:
320,192,47595,1,0,0:0:0:0:
448,192,47695,1,0,0:0:0:0:
320,192,47695,1,0,0:0:0:0:
192,192,47695,1,0,0:0:0:0:
64,192,47695,1,0,0:0:0:0:
448,192,47795,1,0,0:0:0:0:
448,192,47895,1,0,0:0:0:0:
192,192,47895,1,0,0:0:0:0:
320,192,47995,1,0,0:0:0:0:
320,192,48095,1,0,0:0:0:0:
192,192,48095,1,0,0:0:0:0:
64,192,48095,1,0,0:0:0:0:
448,192,48095,1,0,0:0:0:0:
448,192,48195,1,0,0:0:0:0:
320,192,48295,1,0,0:0:0:0:
192,192,48395,1,0,0:0:0:0:
64,192,48395,1,0,0:0:0:0:
64,192,48495,1,0,0:0:0:0:
192,192,48495,1,0,0:0:0:0:
320,192,48495,1,0,0:0:0:0:
448,192,48495,1,0,0:0:0:0:
192,192,48595,1,0,0:0:0:0:
320,192,48695,1,0,0:0:0:0:
64,192,48695,1,0,0:0:0:0:
64,192,48795,1,0,0:0:0:0:
64,192,48895,1,0,0:0:0:0:
192,192,48895,1,0,0:0:0:0:
320,192,48895,1,0,0:0:0:0:
448,192,48895,1,0,0:0:0:0:
320,192,48995,1,0,0:0:0:0:
448,192,48995,1,0,0:0:0:0:
64,192,49095,1,0,0:0:0:0:
192,192,49195,1,0,0:0:0:0:
448,192,49195,1,0,0:0:0:0:
448,192,49295,1,0,0:0:0:0:
320,192,49295,1,0,0:0:0:0:
192,192,49295,1,0,0:0:0:0:
64,192,49295,1,0,0:0:0:0:
320,192,49395,1,0,0:0:0:0:
192,192,49495,1,0,0:0:0:0:
64,192,49495,1,0,0:0:0:0:
320,192,49595,1,0,0:0:0:0:
448,192,49695,1,0,0:0:0:0:
64,192,49695,1,0,0:0:0:0:
192,192,49695,1,0,0:0:0:0:
192,192,49795,1,0,0:0:0:0:
320,192,49795,1,0,0:0:0:0:
64,192,49895,1,0,0:0:0:0:
192,192,49995,1,0,0:0:0:0:
448,192,49995,1,0,0:0:0:0:
448,192,50095,1,0,0:0:0:0:
320,192,50095,1,0,0:0:0:0:
192,192,50095,1,0,0:0:0:0:
64,192,50095,1,0,0:0:0:0:
64,192,50195,1,0,0:0:0:0:
192,192,50295,1,0,0:0:0:0:
448,192,50295,1,0,0:0:0:0:
448,192,50395,1,0,0:0:0:0:
320,192,50495,1,0,0:0:0:0:
192,192,50495,1,0,0:0:0:0:
64,192,50495,1,0,0:0:0:0:
192,192,50595,1,0,0:0:0:0:
192,192,50695,1,0,0:0:0:0:
320,192,50795,1,0,0:0:0:0:
64,192,50795,1,0,0:0:0:0:
448,192,50895,1,0,0:0:0:0:
320,192,50895,1,0,0:0:0:0:
192,192,50895,1,0,0:0:0:0:
64,192,50895,1,0,0:0:0:0:
192,192,50995,1,0,0:0:0:0:
320,192,51095,1,0,0:0:0:0:
64,192,51095,1,0,0:0:0:0:
320,192,51195,1,0,0:0:0:0:
192,192,51295,1,0,0:0:0:0:
64,192,51295,1,0,0:0:0:0:
448,192,51295,1,0,0:0:0:0:
192,192,51395,1,0,0:0:0:0:
192,192,51495,1,0,0:0:0:0:
448,192,51595,1,0,0:0:0:0:
320,192,51595,1,0,0:0:0:0:
448,192,51695,1,0,0:0:0:0:
320,192,51695,1,0,0:0:0:0:
64,192,51695,1,0,0:0:0:0:
192,192,51695,1,0,0:0:0:0:
192,192,51795,1,0,0:0:0:0:
320,192,51895,1,0,0:0:0:0:
448,192,51895,1,0,0:0:0:0:
320,192,51995,1,0,0:0:0:0:
192,192,52095,1,0,0:0:0:0:
64,192,52095,1,0,0:0:0:0:
448,192,52095,1,0,0:0:0:0:
192,192,52195,1,0,0:0:0:0:
320,192,52295,1,0,0:0:0:0:
192,192,52395,1,0,0:0:0:0:
448,192,52395,1,0,0:0:0:0:
448,192,52495,1,0,0:0:0:0:
192,192,52495,1,0,0:0:0:0:
64,192,52495,1,0,0:0:0:0:
320,192,52495,1,0,0:0:0:0:
64,192,52595,1,0,0:0:0:0:
64,192,52695,1,0,0:0:0:0:
320,192,52695,1,0,0:0:0:0:
192,192,52795,1,0,0:0:0:0:
448,192,52895,1,0,0:0:0:0:
320,192,52895,1,0,0:0:0:0:
64,192,52895,1,0,0:0:0:0:
192,192,52995,1,0,0:0:0:0:
320,192,53095,1,0,0:0:0:0:
192,192,53195,1,0,0:0:0:0:
64,192,53195,1,0,0:0:0:0:
448,192,53295,1,0,0:0:0:0:
64,192,53295,1,0,0:0:0:0:
192,192,53295,1,0,0:0:0:0:
320,192,53295,1,0,0:0:0:0:
448,192,53395,1,0,0:0:0:0:
64,192,53495,1,0,0:0:0:0:
320,192,53495,1,0,0:0:0:0:
64,192,53595,1,0,0:0:0:0:
192,192,53695,1,0,0:0:0:0:
320,192,53695,1,0,0:0:0:0:
448,192,53695,1,0,0:0:0:0:
320,192,53795,1,0,0:0:0:0:
64,192,53895,1,0,0:0:0:0:
192,192,53995,1,0,0:0:0:0:
320,192,53995,1,0,0:0:0:0:
448,192,54095,1,0,0:0:0:0:
320,192,54095,1,0,0:0:0:0:
192,192,54095,1,0,0:0:0:0:
64,192,54095,1,0,0:0:0:0:
320,192,54195,1,0,0:0:0:0:
448,192,54295,1,0,0:0:0:0:
64,192,54295,1,0,0:0:0:0:
192,192,54395,1,0,0:0:0:0:
448,192,54495,1,0,0:0:0:0:
320,192,54495,1,0,0:0:0:0:
64,192,54495,1,0,0:0:0:0:
192,192,54595,1,0,0:0:0:0:
64,192,54595,1,0,0:0:0:0:
320,192,54695,1,0,0:0:0:0:
64,192,54795,1,0,0:0:0:0:
192,192,54795,1,0,0:0:0:0:
64,192,54895,1,0,0:0:0:0:
192,192,54895,1,0,0:0:0:0:
320,192,54895,1,0,0:0:0:0:
448,192,54895,1,0,0:0:0:0:
320,192,54995,1,0,0:0:0:0:
448,192,54995,1,0,0:0:0:0:
64,192,55095,1,0,0:0:0:0:
192,192,55095,1,0,0:0:0:0:
320,192,55195,1,0,0:0:0:0:
448,192,55195,1,0,0:0:0:0:
448,192,55295,1,0,0:0:0:0:
320,192,55295,1,0,0:0:0:0:
192,192,55295,1,0,0:0:0:0:
64,192,55295,1,0,0:0:0:0:
192,192,55395,1,0,0:0:0:0:
192,192,55495,1,0,0:0:0:0:
320,192,55595,1,0,0:0:0:0:
448,192,55595,1,0,0:0:0:0:
448,192,55695,1,0,0:0:0:0:
192,192,55695,1,0,0:0:0:0:
64,192,55695,1,0,0:0:0:0:
320,192,55695,1,0,0:0:0:0:
192,192,55795,1,0,0:0:0:0:
192,192,55895,1,0,0:0:0:0:
64,192,55895,1,0,0:0:0:0:
64,192,55995,1,0,0:0:0:0:
192,192,56095,1,0,0:0:0:0:
320,192,56095,1,0,0:0:0:0:
448,192,56095,1,0,0:0:0:0:
320,192,56195,1,0,0:0:0:0:
64,192,56295,1,0,0:0:0:0:
448,192,56395,1,0,0:0:0:0:
192,192,56395,1,0,0:0:0:0:
448,192,56495,1,0,0:0:0:0:
192,192,56495,1,0,0:0:0:0:
64,192,56495,1,0,0:0:0:0:
320,192,56595,1,0,0:0:0:0:
448,192,56695,1,0,0:0:0:0:
192,192,56695,1,0,0:0:0:0:
192,192,56795,1,0,0:0:0:0:
448,192,56895,1,0,0:0:0:0:
192,192,56895,1,0,0:0:0:0:
64,192,56895,1,0,0:0:0:0:
320,192,56995,1,0,0:0:0:0:
448,192,57095,1,0,0:0:0:0:
320,192,57195,1,0,0:0:0:0:
192,192,57195,1,0,0:0:0:0:
448,192,57295,1,0,0:0:0:0:
320,192,57295,1,0,0:0:0:0:
64,192,57295,1,0,0:0:0:0:
192,192,57295,1,0,0:0:0:0:
64,192,57395,1,0,0:0:0:0:
64,192,57495,1,0,0:0:0:0:
320,192,57495,1,0,0:0:0:0:
320,192,57595,1,0,0:0:0:0:
448,192,57695,1,0,0:0:0:0:
192,192,57695,1,0,0:0:0:0:
64,192,57695,1,0,0:0:0:0:
448,192,57795,1,0,0:0:0:0:
192,192,57895,1,0,0:0:0:0:
448,192,57995,1,0,0:0:0:0:
320,192,57995,1,0,0:0:0:0:
64,192,58095,1,0,0:0:0:0:
192,192,58095,1,0,0:0:0:0:
320,192,58095,1,0,0:0:0:0:
448,192,58095,1,0,0:0:0:0:
192,192,58195,1,0,0:0:0:0:
64,192,58295,1,0,0:0:0:0:
320,192,58295,1,0,0:0:0:0:
64,192,58395,1,0,0:0:0:0:
192,192,58495,1,0,0:0:0:0:
448,192,58495,1,0,0:0:0:0:
64,192,58495,1,0,0:0:0:0:
320,192,58595,1,0,0:0:0:0:
448,192,58695,1,0,0:0:0:0:
64,192,58795,1,0,0:0:0:0:
320,192,58795,1,0,0:0:0:0:
448,192,58895,1,0,0:0:0:0:
320,192,58895,1,0,0:0:0:0:
64,192,58895,1,0,0:0:0:0:
448,192,58995,1,0,0:0:0:0:
192,192,59095,1,0,0:0:0:0:
64,192,59095,1,0,0:0:0:0:
192,192,59195,1,0,0:0:0:0:
448,192,59295,1,0,0:0:0:0:
320,192,59295,1,0,0:0:0:0:
64,192,59295,1,0,0:0:0:0:
320,192,59395,1,0,0:0:0:0:
192,192,59495,1,0,0:0:0:0:
64,192,59595,1,0,0:0:0:0:
320,192,59595,1,0,0:0:0:0:
448,192,59695,1,0,0:0:0:0:
192,192,59695,1,0,0:0:0:0:
64,192,59695,1,0,0:0:0:0:
320,192,59695,1,0,0:0:0:0:
320,192,59795,1,0,0:0:0:0:
448,192,59895,1,0,0:0:0:0:
64,192,59895,1,0,0:0:0:0:
64,192,59995,1,0,0:0:0:0:
192,192,60095,1,0,0:0:0:0:
320,192,60095,1,0,0:0:0:0:
448,192,60095,1,0,0:0:0:0:
64,192,60195,1,0,0:0:0:0:
192,192,60195,1,0,0:0:0:0:
320,192,60295,1,0,0:0:0:0:
448,192,60295,1,0,0:0:0:0:
64,192,60395,1,0,0:0:0:0:
320,192,60395,1,0,0:0:0:0:
448,192,60495,1,0,0:0:0:0:
192,192,60495,1,0,0:0:0:0:
64,192,60495,1,0,0:0:0:0:
320,192,60595,1,0,0:0:0:0:
448,192,60595,1,0,0:0:0:0:
192,192,60695,1,0,0:0:0:0:
64,192,60695,1,0,0:0:0:0:
320,192,60695,1,0,0:0:0:0:
64,192,60795,1,0,0:0:0:0:
448,192,60795,1,0,0:0:0:0:
448,192,60895,1,0,0:0:0:0:
320,192,60895,1,0,0:0:0:0:
192,192,60895,1,0,0:0:0:0:
192,192,60995,1,0,0:0:0:0:
64,192,61095,1,0,0:0:0:0:
320,192,61095,1,0,0:0:0:0:
448,192,61095,1,0,0:0:0:0:
320,192,61195,1,0,0:0:0:0:
192,192,61195,1,0,0:0:0:0:
192,192,61295,1,0,0:0:0:0:
64,192,61295,1,0,0:0:0:0:
448,192,61295,1,0,0:0:0:0:
64,192,61395,1,0,0:0:0:0:
320,192,61495,1,0,0:0:0:0:
192,192,61495,1,0,0:0:0:0:
448,192,61495,1,0,0:0:0:0:
320,192,61595,1,0,0:0:0:0:
192,192,61695,1,0,0:0:0:0:
64,192,61695,1,0,0:0:0:0:
448,192,61695,1,0,0:0:0:0:
320,192,61695,1,0,0:0:0:0:
64,192,61795,1,0,0:0:0:0:
64,192,61895,1,0,0:0:0:0:
192,192,61995,1,0,0:0:0:0:
448,192,61995,1,0,0:0:0:0:
448,192,62095,1,0,0:0:0:0:
192,192,62095,1,0,0:0:0:0:
64,192,62095,1,0,0:0:0:0:
320,192,62095,1,0,0:0:0:0:
448,192,62195,1,0,0:0:0:0:
320,192,62295,1,0,0:0:0:0:
64,192,62295,1,0,0:0:0:0:
192,192,62395,1,0,0:0:0:0:
448,192,62495,1,0,0:0:0:0:
320,192,62495,1,0,0:0:0:0:
192,192,62495,1,0,0:0:0:0:
64,192,62495,1,0,0:0:0:0:
320,192,62595,1,0,0:0:0:0:
192,192,62695,1,0,0:0:0:0:
192,192,62795,1,0,0:0:0:0:
448,192,62795,1,0,0:0:0:0:
448,192,62895,1,0,0:0:0:0:
320,192,62895,1,0,0:0:0:0:
192,192,62895,1,0,0:0:0:0:
64,192,62895,1,0,0:0:0:0:
320,192,62995,1,0,0:0:0:0:
192,192,63095,1,0,0:0:0:0:
448,192,63095,1,0,0:0:0:0:
64,192,63195,1,0,0:0:0:0:
64,192,63295,1,0,0:0:0:0:
192,192,63295,1,0,0:0:0:0:
320,192,63295,1,0,0:0:0:0:
448,192,63295,1,0,0:0:0:0:
320,192,63395,1,0,0:0:0:0:
192,192,63495,1,0,0:0:0:0:
192,192,63595,1,0,0:0:0:0:
320,192,63595,1,0,0:0:0:0:
448,192,63695,1,0,0:0:0:0:
320,192,63695,1,0,0:0:0:0:
192,192,63695,1,0,0:0:0:0:
64,192,63695,1,0,0:0:0:0:
448,192,63795,1,0,0:0:0:0:
320,192,63895,1,0,0:0:0:0:
192,192,63895,1,0,0:0:0:0:
192,192,63995,1,0,0:0:0:0:
448,192,64095,1,0,0:0:0:0:
320,192,64095,1,0,0:0:0:0:
192,192,64095,1,0,0:0:0:0:
64,192,64095,1,0,0:0:0:0:
320,192,64195,1,0,0:0:0:0:
64,192,64295,1,0,0:0:0:0:
192,192,64295,1,0,0:0:0:0:
320,192,64395,1,0,0:0:0:0:
448,192,64395,1,0,0:0:0:0:
448,192,64495,1,0,0:0:0:0:
320,192,64495,1,0,0:0:0:0:
192,192,64495,1,0,0:0:0:0:
64,192,64495,1,0,0:0:0:0:
192,192,64595,1,0,0:0:0:0:
64,192,64695,1,0,0:0:0:0:
320,192,64695,1,0,0:0:0:0:
448,192,64795,1,0,0:0:0:0:
192,192,64795,1,0,0:0:0:0:
448,192,64895,1,0,0:0:0:0:
320,192,64895,1,0,0:0:0:0:
192,192,64895,1,0,0:0:0:0:
64,192,64895,1,0,0:0:0:0:
320,192,64995,1,0,0:0:0:0:
64,192,65095,1,0,0:0:0:0:
192,192,65195,1,0,0:0:0:0:
64,192,65195,1,0,0:0:0:0:
448,192,65295,1,0,0:0:0:0:
320,192,65295,1,0,0:0:0:0:
192,192,65295,1,0,0:0:0:0:
64,192,65295,1,0,0:0:0:0:
320,192,65395,1,0,0:0:0:0:
192,192,65495,1,0,0:0:0:0:
448,192,65495,1,0,0:0:0:0:
448,192,65595,1,0,0:0:0:0:
448,192,65695,1,0,0:0:0:0:
320,192,65695,1,0,0:0:0:0:
192,192,65695,1,0,0:0:0:0:
64,192,65695,1,0,0:0:0:0:
192,192,65795,1,0,0:0:0:0:
320,192,65895,1,0,0:0:0:0:
448,192,65995,1,0,0:0:0:0:
320,192,65995,1,0,0:0:0:0:
448,192,66095,1,0,0:0:0:0:
320,192,66095,1,0,0:0:0:0:
64,192,66095,1,0,0:0:0:0:
192,192,66095,1,0,0:0:0:0:
192,192,66195,1,0,0:0:0:0:
64,192,66295,1,0,0:0:0:0:
448,192,66295,1,0,0:0:0:0:
192,192,66395,1,0,0:0:0:0:
320,192,66495,1,0,0:0:0:0:
64,192,66495,1,0,0:0:0:0:
192,192,66495,1,0,0:0:0:0:
448,192,66495,1,0,0:0:0:0:
320,192,66595,1,0,0:0:0:0:
192,192,66695,1,0,0:0:0:0:
64,192,66795,1,0,0:0:0:0:
320,192,66795,1,0,0:0:0:0:
448,192,66895,1,0,0:0:0:0:
320,192,66895,1,0,0:0:0:0:
192,192,66895,1,0,0:0:0:0:
64,192,66895,1,0,0:0:0:0:
192,192,66995,1,0,0:0:0:0:
192,192,67095,1,0,0:0:0:0:
448,192,67095,1,0,0:0:0:0:
320,192,67195,1,0,0:0:0:0:
448,192,67295,1,0,0:0:0:0:
320,192,67295,1,0,0:0:0:0:
192,192,67295,1,0,0:0:0:0:
64,192,67295,1,0,0:0:0:0:
192,192,67395,1,0,0:0:0:0:
448,192,67395,1,0,0:0:0:0:
320,192,67495,1,0,0:0:0:0:
64,192,67495,1,0,0:0:0:0:
192,192,67595,1,0,0:0:0:0:
448,192,67595,1,0,0:0:0:0:
320,192,67595,1,0,0:0:0:0:
448,192,67695,1,0,0:0:0:0:
320,192,67695,1,0,0:0:0:0:
192,192,67695,1,0,0:0:0:0:
64,192,67695,1,0,0:0:0:0:
64,192,67795,1,0,0:0:0:0:
320,192,67795,1,0,0:0:0:0:
192,192,67895,1,0,0:0:0:0:
64,192,67895,1,0,0:0:0:0:
448,192,67995,1,0,0:0:0:0:
320,192,67995,1,0,0:0:0:0:
192,192,67995,1,0,0:0:0:0:
448,192,68095,1,0,0:0:0:0:
320,192,68095,1,0,0:0:0:0:
192,192,68095,1,0,0:0:0:0:
64,192,68095,1,0,0:0:0:0:
192,192,68195,1,0,0:0:0:0:
64,192,68295,1,0,0:0:0:0:
320,192,68395,1,0,0:0:0:0:
64,192,68395,1,0,0:0:0:0:
448,192,68495,1,0,0:0:0:0:
320,192,68495,1,0,0:0:0:0:
64,192,68495,1,0,0:0:0:0:
192,192,68495,1,0,0:0:0:0:
192,192,68595,1,0,0:0:0:0:
320,192,68695,1,0,0:0:0:0:
448,192,68695,1,0,0:0:0:0:
320,192,68795,1,0,0:0:0:0:
448,192,68895,1,0,0:0:0:0:
320,192,68895,1,0,0:0:0:0:
192,192,68895,1,0,0:0:0:0:
64,192,68895,1,0,0:0:0:0:
192,192,68995,1,0,0:0:0:0:
192,192,69095,1,0,0:0:0:0:
320,192,69195,1,0,0:0:0:0:
448,192,69195,1,0,0:0:0:0:
448,192,69295,1,0,0:0:0:0:
320,192,69295,1,0,0:0:0:0:
64,192,69295,1,0,0:0:0:0:
192,192,69295,1,0,0:0:0:0:
192,192,69395,1,0,0:0:0:0:
448,192,69495,1,0,0:0:0:0:
64,192,69495,1,0,0:0:0:0:
448,192,69595,1,0,0:0:0:0:
448,192,69695,1,0,0:0:0:0:
320,192,69695,1,0,0:0:0:0:
192,192,69695,1,0,0:0:0:0:
64,192,69695,1,0,0:0:0:0:
64,192,69795,1,0,0:0:0:0:
192,192,69895,1,0,0:0:0:0:
320,192,69995,1,0,0:0:0:0:
64,192,69995,1,0,0:0:0:0:
448,192,70095,1,0,0:0:0:0:
320,192,70095,1,0,0:0:0:0:
192,192,70095,1,0,0:0:0:0:
64,192,70095,1,0,0:0:0:0:
448,192,70195,1,0,0:0:0:0:
320,192,70295,1,0,0:0:0:0:
64,192,70295,1,0,0:0:0:0:
192,192,70395,1,0,0:0:0:0:
448,192,70495,1,0,0:0:0:0:
320,192,70495,1,0,0:0:0:0:
64,192,70495,1,0,0:0:0:0:
192,192,70495,1,0,0:0:0:0:
320,192,70595,1,0,0:0:0:0:
192,192,70695,1,0,0:0:0:0:
64,192,70795,1,0,0:0:0:0:
192,192,70795,1,0,0:0:0:0:
448,192,70895,1,0,0:0:0:0:
320,192,70895,1,0,0:0:0:0:
192,192,70895,1,0,0:0:0:0:
64,192,70895,1,0,0:0:0:0:
320,192,70995,1,0,0:0:0:0:
448,192,71095,1,0,0:0:0:0:
192,192,71095,1,0,0:0:0:0:
448,192,71195,1,0,0:0:0:0:
448,192,71295,1,0,0:0:0:0:
320,192,71295,1,0,0:0:0:0:
192,192,71295,1,0,0:0:0:0:
64,192,71295,1,0,0:0:0:0:
192,192,71395,1,0,0:0:0:0:
64,192,71495,1,0,0:0:0:0:
192,192,71595,1,0,0:0:0:0:
320,192,71595,1,0,0:0:0:0:
448,192,71695,1,0,0:0:0:0:
320,192,71695,1,0,0:0:0:0:
192,192,71695,1,0,0:0:0:0:
64,192,71695,1,0,0:0:0:0:
448,192,71795,1,0,0:0:0:0:
320,192,71895,1,0,0:0:0:0:
64,192,71895,1,0,0:0:0:0:
192,192,71995,1,0,0:0:0:0:
448,192,72095,1,0,0:0:0:0:
320,192,72095,1,0,0:0:0:0:
192,192,72095,1,0,0:0:0:0:
64,192,72095,1,0,0:0:0:0:
64,192,72195,1,0,0:0:0:0:
192,192,72295,1,0,0:0:0:0:
448,192,72395,1,0,0:0:0:0:
320,192,72395,1,0,0:0:0:0:
448,192,72495,1,0,0:0:0:0:
320,192,72495,1,0,0:0:0:0:
192,192,72495,1,0,0:0:0:0:
64,192,72495,1,0,0:0:0:0:
192,192,72595,1,0,0:0:0:0:
448,192,72695,1,0,0:0:0:0:
64,192,72695,1,0,0:0:0:0:
320,192,72795,1,0,0:0:0:0:
192,192,72895,1,0,0:0:0:0:
64,192,72895,1,0,0:0:0:0:
320,192,72895,1,0,0:0:0:0:
448,192,72895,1,0,0:0:0:0:
192,192,72995,1,0,0:0:0:0:
64,192,73095,1,0,0:0:0:0:
448,192,73095,1,0,0:0:0:0:
64,192,73195,1,0,0:0:0:0:
192,192,73195,1,0,0:0:0:0:
448,192,73295,1,0,0:0:0:0:
320,192,73295,1,0,0:0:0:0:
192,192,73295,1,0,0:0:0:0:
320,192,73395,1,0,0:0:0:0:
64,192,73395,1,0,0:0:0:0:
192,192,73495,1,0,0:0:0:0:
64,192,73495,1,0,0:0:0:0:
320,192,73595,1,0,0:0:0:0:
448,192,73595,1,0,0:0:0:0:
448,192,73695,1,0,0:0:0:0:
192,192,73695,1,0,0:0:0:0:
64,192,73695,1,0,0:0:0:0:
320,192,73795,1,0,0:0:0:0:
192,192,73795,1,0,0:0:0:0:
64,192,73895,1,0,0:0:0:0:
320,192,73895,1,0,0:0:0:0:
448,192,73995,1,0,0:0:0:0:
192,192,73995,1,0,0:0:0:0:
448,192,74095,1,0,0:0:0:0:
320,192,74095,1,0,0:0:0:0:
64,192,74095,1,0,0:0:0:0:
192,192,74195,1,0,0:0:0:0:
64,192,74195,1,0,0:0:0:0:
192,192,74295,1,0,0:0:0:0:
320,192,74295,1,0,0:0:0:0:
320,192,74395,1,0,0:0:0:0:
64,192,74395,1,0,0:0:0:0:
448,192,74495,1,0,0:0:0:0:
192,192,74495,1,0,0:0:0:0:
64,192,74495,1,0,0:0:0:0:
320,192,74495,1,0,0:0:0:0:
448,192,74595,1,0,0:0:0:0:
192,192,74595,1,0,0:0:0:0:
320,192,74695,1,0,0:0:0:0:
192,192,74795,1,0,0:0:0:0:
64,192,74795,1,0,0:0:0:0:
448,192,74895,1,0,0:0:0:0:
320,192,74895,1,0,0:0:0:0:
64,192,74895,1,0,0:0:0:0:
192,192,74995,1,0,0:0:0:0:
448,192,75095,1,0,0:0:0:0:
320,192,75095,1,0,0:0:0:0:
192,192,75195,1,0,0:0:0:0:
448,192,75295,1,0,0:0:0:0:
320,192,75295,1,0,0:0:0:0:
64,192,75295,1,0,0:0:0:0:
192,192,75295,1,0,0:0:0:0:
320,192,75395,1,0,0:0:0:0:
192,192,75495,1,0,0:0:0:0:
448,192,75495,1,0,0:0:0:0:
320,192,75595,1,0,0:0:0:0:
64,192,75595,1,0,0:0:0:0:
64,192,75695,1,0,0:0:0:0:
192,192,75695,1,0,0:0:0:0:
320,192,75695,1,0,0:0:0:0:
448,192,75695,1,0,0:0:0:0:
192,192,75795,1,0,0:0:0:0:
320,192,75895,1,0,0:0:0:0:
448,192,75895,1,0,0:0:0:0:
320,192,75995,1,0,0:0:0:0:
448,192,76095,1,0,0:0:0:0:
320,192,76095,1,0,0:0:0:0:
192,192,76095,1,0,0:0:0:0:
64,192,76095,1,0,0:0:0:0:
192,192,76195,1,0,0:0:0:0:
64,192,76195,1,0,0:0:0:0:
320,192,76295,1,0,0:0:0:0:
448,192,76395,1,0,0:0:0:0:
64,192,76395,1,0,0:0:0:0:
192,192,76495,1,0,0:0:0:0:
64,192,76495,1,0,0:0:0:0:
320,192,76495,1,0,0:0:0:0:
448,192,76495,1,0,0:0:0:0:
320,192,76595,1,0,0:0:0:0:
192,192,76695,1,0,0:0:0:0:
64,192,76695,1,0,0:0:0:0:
192,192,76795,1,0,0:0:0:0:
448,192,76895,1,0,0:0:0:0:
320,192,76895,1,0,0:0:0:0:
192,192,76895,1,0,0:0:0:0:
64,192,76895,1,0,0:0:0:0:
320,192,76995,1,0,0:0:0:0:
448,192,77095,1,0,0:0:0:0:
192,192,77095,1,0,0:0:0:0:
320,192,77195,1,0,0:0:0:0:
448,192,77195,1,0,0:0:0:0:
448,192,77295,1,0,0:0:0:0:
320,192,77295,1,0,0:0:0:0:
192,192,77295,1,0,0:0:0:0:
64,192,77295,1,0,0:0:0:0:
192,192,77395,1,0,0:0:0:0:
64,192,77495,1,0,0:0:0:0:
320,192,77495,1,0,0:0:0:0:
192,192,77595,1,0,0:0:0:0:
448,192,77695,1,0,0:0:0:0:
320,192,77695,1,0,0:0:0:0:
192,192,77695,1,0,0:0:0:0:
64,192,77695,1,0,0:0:0:0:
320,192,77795,1,0,0:0:0:0:
448,192,77795,1,0,0:0:0:0:
192,192,77895,1,0,0:0:0:0:
192,192,77995,1,0,0:0:0:0:
320,192,77995,1,0,0:0:0:0:
320,192,78095,1,0,0:0:0:0:
448,192,78095,1,0,0:0:0:0:
64,192,78095,1,0,0:0:0:0:
192,192,78195,1,0,0:0:0:0:
448,192,78295,1,0,0:0:0:0:
320,192,78295,1,0,0:0:0:0:
320,192,78395,1,0,0:0:0:0:
192,192,78495,1,0,0:0:0:0:
64,192,78495,1,0,0:0:0:0:
448,192,78495,1,0,0:0:0:0:
192,192,78595,1,0,0:0:0:0:
64,192,78695,1,0,0:0:0:0:
448,192,78695,1,0,0:0:0:0:
448,192,78795,1,0,0:0:0:0:
192,192,78795,1,0,0:0:0:0:
320,192,78895,1,0,0:0:0:0:
192,192,78895,1,0,0:0:0:0:
64,192,78895,1,0,0:0:0:0:
320,192,78995,1,0,0:0:0:0:
64,192,79095,1,0,0:0:0:0:
192,192,79095,1,0,0:0:0:0:
320,192,79195,1,0,0:0:0:0:
448,192,79295,1,0,0:0:0:0:
192,192,79295,1,0,0:0:0:0:
64,192,79295,1,0,0:0:0:0:
448,192,79395,1,0,0:0:0:0:
320,192,79395,1,0,0:0:0:0:
64,192,79495,1,0,0:0:0:0:
192,192,79595,1,0,0:0:0:0:
64,192,79595,1,0,0:0:0:0:
448,192,79695,1,0,0:0:0:0:
320,192,79695,1,0,0:0:0:0:
192,192,79695,1,0,0:0:0:0:
320,192,79795,1,0,0:0:0:0:
192,192,79895,1,0,0:0:0:0:
64,192,79895,1,0,0:0:0:0:
64,192,79995,1,0,0:0:0:0:
448,192,80095,1,0,0:0:0:0:
320,192,80095,1,0,0:0:0:0:
192,192,80095,1,0,0:0:0:0:
320,192,80195,1,0,0:0:0:0:
448,192,80295,1,0,0:0:0:0:
192,192,80295,1,0,0:0:0:0:
64,192,80395,1,0,0:0:0:0:
320,192,80395,1,0,0:0:0:0:
192,192,80495,1,0,0:0:0:0:
64,192,80495,1,0,0:0:0:0:
448,192,80495,1,0,0:0:0:0:
320,192,80595,1,0,0:0:0:0:
448,192,80695,1,0,0:0:0:0:
320,192,80695,1,0,0:0:0:0:
192,192,80795,1,0,0:0:0:0:
64,192,80895,1,0,0:0:0:0:
192,192,80895,1,0,0:0:0:0:
320,192,80895,1,0,0:0:0:0:
448,192,80895,1,0,0:0:0:0:
320,192,80995,1,0,0:0:0:0:
64,192,80995,1,0,0:0:0:0:
192,192,81095,1,0,0:0:0:0:
448,192,81195,1,0,0:0:0:0:
320,192,81195,1,0,0:0:0:0:
448,192,81295,1,0,0:0:0:0:
320,192,81295,1,0,0:0:0:0:
64,192,81295,1,0,0:0:0:0:
192,192,81295,1,0,0:0:0:0:
192,192,81395,1,0,0:0:0:0:
64,192,81495,1,0,0:0:0:0:
448,192,81495,1,0,0:0:0:0:
448,192,81595,1,0,0:0:0:0:
320,192,81695,1,0,0:0:0:0:
192,192,81695,1,0,0:0:0:0:
64,192,81695,1,0,0:0:0:0:
192,192,81795,1,0,0:0:0:0:
320,192,81895,1,0,0:0:0:0:
448,192,81895,1,0,0:0:0:0:
192,192,81995,1,0,0:0:0:0:
64,192,81995,1,0,0:0:0:0:
64,192,82095,1,0,0:0:0:0:
320,192,82095,1,0,0:0:0:0:
448,192,82095,1,0,0:0:0:0:
192,192,82095,1,0,0:0:0:0:
320,192,82195,1,0,0:0:0:0:
448,192,82295,1,0,0:0:0:0:
64,192,82295,1,0,0:0:0:0:
192,192,82395,1,0,0:0:0:0:
64,192,82495,1,0,0:0:0:0:
192,192,82495,1,0,0:0:0:0:
320,192,82495,1,0,0:0:0:0:
448,192,82495,1,0,0:0:0:0:
192,192,82595,1,0,0:0:0:0:
448,192,82595,1,0,0:0:0:0:
320,192,82695,1,0,0:0:0:0:
192,192,82795,1,0,0:0:0:0:
64,192,82795,1,0,0:0:0:0:
448,192,82895,1,0,0:0:0:0:
320,192,82895,1,0,0:0:0:0:
64,192,82895,1,0,0:0:0:0:
192,192,82895,1,0,0:0:0:0:
320,192,82995,1,0,0:0:0:0:
448,192,83095,1,0,0:0:0:0:
192,192,83095,1,0,0:0:0:0:
192,192,83195,1,0,0:0:0:0:
448,192,83295,1,0,0:0:0:0:
320,192,83295,1,0,0:0:0:0:
64,192,83295,1,0,0:0:0:0:
192,192,83295,1,0,0:0:0:0:
320,192,83395,1,0,0:0:0:0:
448,192,83495,1,0,0:0:0:0:
192,192,83495,1,0,0:0:0:0:
320,192,83595,1,0,0:0:0:0:
192,192,83595,1,0,0:0:0:0:
64,192,83695,1,0,0:0:0:0:
192,192,83695,1,0,0:0:0:0:
448,192,83695,1,0,0:0:0:0:
320,192,83695,1,0,0:0:0:0:
320,192,83795,1,0,0:0:0:0:
448,192,83895,1,0,0:0:0:0:
192,192,83895,1,0,0:0:0:0:
192,192,83995,1,0,0:0:0:0:
448,192,84095,1,0,0:0:0:0:
320,192,84095,1,0,0:0:0:0:
192,192,84095,1,0,0:0:0:0:
64,192,84095,1,0,0:0:0:0:
64,192,84195,1,0,0:0:0:0:
448,192,84195,1,0,0:0:0:0:
192,192,84295,1,0,0:0:0:0:
448,192,84395,1,0,0:0:0:0:
320,192,84395,1,0,0:0:0:0:
448,192,84495,1,0,0:0:0:0:
320,192,84495,1,0,0:0:0:0:
192,192,84495,1,0,0:0:0:0:
64,192,84495,1,0,0:0:0:0:
192,192,84595,1,0,0:0:0:0:
320,192,84695,1,0,0:0:0:0:
64,192,84695,1,0,0:0:0:0:
192,192,84795,1,0,0:0:0:0:
448,192,84895,1,0,0:0:0:0:
320,192,84895,1,0,0:0:0:0:
192,192,84895,1,0,0:0:0:0:
64,192,84895,1,0,0:0:0:0:
192,192,84995,1,0,0:0:0:0:
64,192,85095,1,0,0:0:0:0:
320,192,85095,1,0,0:0:0:0:
192,192,85195,1,0,0:0:0:0:
448,192,85195,1,0,0:0:0:0:
192,192,85295,1,0,0:0:0:0:
64,192,85295,1,0,0:0:0:0:
320,192,85295,1,0,0:0:0:0:
448,192,85295,1,0,0:0:0:0:
320,192,85395,1,0,0:0:0:0:
448,192,85495,1,0,0:0:0:0:
192,192,85495,1,0,0:0:0:0:
320,192,85595,1,0,0:0:0:0:
448,192,85695,1,0,0:0:0:0:
320,192,85695,1,0,0:0:0:0:
192,192,85695,1,0,0:0:0:0:
64,192,85695,1,0,0:0:0:0:
192,192,85795,1,0,0:0:0:0:
64,192,85795,1,0,0:0:0:0:
192,192,85895,1,0,0:0:0:0:
320,192,85995,1,0,0:0:0:0:
192,192,85995,1,0,0:0:0:0:
320,192,86095,1,0,0:0:0:0:
448,192,86095,1,0,0:0:0:0:
64,192,86095,1,0,0:0:0:0:
448,192,86195,1,0,0:0:0:0:
448,192,86295,1,0,0:0:0:0:
320,192,86295,1,0,0:0:0:0:
320,192,86395,1,0,0:0:0:0:
192,192,86495,1,0,0:0:0:0:
64,192,86495,1,0,0:0:0:0:
448,192,86495,1,0,0:0:0:0:
320,192,86595,1,0,0:0:0:0:
64,192,86695,1,0,0:0:0:0:
448,192,86695,1,0,0:0:0:0:
192,192,86695,1,0,0:0:0:0:
448,192,86795,1,0,0:0:0:0:
320,192,86795,1,0,0:0:0:0:
192,192,86895,1,0,0:0:0:0:
64,192,86895,1,0,0:0:0:0:
320,192,86895,1,0,0:0:0:0:
192,192,86995,1,0,0:0:0:0:
448,192,86995,1,0,0:0:0:0:
448,192,87095,1,0,0:0:0:0:
320,192,87095,1,0,0:0:0:0:
64,192,87095,1,0,0:0:0:0:
192,192,87195,1,0,0:0:0:0:
64,192,87195,1,0,0:0:0:0:
448,192,87295,1,0,0:0:0:0:
320,192,87295,1,0,0:0:0:0:
192,192,87295,1,0,0:0:0:0:
64,192,87295,1,0,0:0:0:0:
320,192,87395,1,0,0:0:0:0:
320,192,87495,1,0,0:0:0:0:
320,192,87595,1,0,0:0:0:0:
64,192,87595,1,0,0:0:0:0:
64,192,87695,1,0,0:0:0:0:
192,192,87695,1,0,0:0:0:0:
448,192,87695,1,0,0:0:0:0:
192,192,87795,1,0,0:0:0:0:
192,192,87895,1,0,0:0:0:0:
448,192,87895,1,0,0:0:0:0:
192,192,87995,1,0,0:0:0:0:
320,192,88095,1,0,0:0:0:0:
64,192,88095,1,0,0:0:0:0:
448,192,88095,1,0,0:0:0:0:
448,192,88195,1,0,0:0:0:0:
448,192,88295,1,0,0:0:0:0:
192,192,88395,1,0,0:0:0:0:
64,192,88395,1,0,0:0:0:0:
64,192,88495,1,0,0:0:0:0:
320,192,88495,1,0,0:0:0:0:
448,192,88495,1,0,0:0:0:0:
192,192,88595,1,0,0:0:0:0:
192,192,88695,1,0,0:0:0:0:
64,192,88695,1,0,0:0:0:0:
192,192,88795,1,0,0:0:0:0:
448,192,88895,1,0,0:0:0:0:
320,192,88895,1,0,0:0:0:0:
64,192,88895,1,0,0:0:0:0:
192,192,88995,1,0,0:0:0:0:
320,192,88995,1,0,0:0:0:0:
448,192,89095,1,0,0:0:0:0:
192,192,89095,1,0,0:0:0:0:
320,192,89195,1,0,0:0:0:0:
448,192,89195,1,0,0:0:0:0:
192,192,89295,1,0,0:0:0:0:
64,192,89295,1,0,0:0:0:0:
448,192,89295,1,0,0:0:0:0:
320,192,89395,1,0,0:0:0:0:
64,192,89395,1,0,0:0:0:0:
192,192,89495,1,0,0:0:0:0:
448,192,89495,1,0,0:0:0:0:
448,192,89595,1,0,0:0:0:0:
320,192,89595,1,0,0:0:0:0:
192,192,89695,1,0,0:0:0:0:
64,192,89695,1,0,0:0:0:0:
320,192,89695,1,0,0:0:0:0:
192,192,89795,1,0,0:0:0:0:
64,192,89795,1,0,0:0:0:0:
448,192,89895,1,0,0:0:0:0:
320,192,89895,1,0,0:0:0:0:
64,192,89995,1,0,0:0:0:0:
320,192,89995,1,0,0:0:0:0:
192,192,90095,1,0,0:0:0:0:
448,192,90095,1,0,0:0:0:0:
64,192,90095,1,0,0:0:0:0:
320,192,90195,1,0,0:0:0:0:
448,192,90195,1,0,0:0:0:0:
64,192,90295,1,0,0:0:0:0:
320,192,90295,1,0,0:0:0:0:
192,192,90395,1,0,0:0:0:0:
64,192,90395,1,0,0:0:0:0:
448,192,90495,1,0,0:0:0:0:
320,192,90495,1,0,0:0:0:0:
192,192,90495,1,0,0:0:0:0:
320,192,90595,1,0,0:0:0:0:
64,192,90595,1,0,0:0:0:0:
320,192,90695,1,0,0:0:0:0:
64,192,90795,1,0,0:0:0:0:
448,192,90795,1,0,0:0:0:0:
192,192,90895,1,0,0:0:0:0:
64,192,90895,1,0,0:0:0:0:
448,192,90895,1,0,0:0:0:0:
192,192,90995,1,0,0:0:0:0:
192,192,91095,1,0,0:0:0:0:
448,192,91095,1,0,0:0:0:0:
320,192,91195,1,0,0:0:0:0:
448,192,91295,1,0,0:0:0:0:
320,192,91295,1,0,0:0:0:0:
64,192,91295,1,0,0:0:0:0:
64,192,91395,1,0,0:0:0:0:
64,192,91495,1,0,0:0:0:0:
448,192,91495,1,0,0:0:0:0:
320,192,91595,1,0,0:0:0:0:
448,192,91695,1,0,0:0:0:0:
192,192,91695,1,0,0:0:0:0:
64,192,91695,1,0,0:0:0:0:
192,192,91795,1,0,0:0:0:0:
448,192,91895,1,0,0:0:0:0:
64,192,91895,1,0,0:0:0:0:
448,192,91995,1,0,0:0:0:0:
320,192,92095,1,0,0:0:0:0:
192,192,92095,1,0,0:0:0:0:
64,192,92095,1,0,0:0:0:0:
320,192,92195,1,0,0:0:0:0:
448,192,92195,1,0,0:0:0:0:
64,192,92295,1,0,0:0:0:0:
192,192,92295,1,0,0:0:0:0:
192,192,92395,1,0,0:0:0:0:
448,192,92395,1,0,0:0:0:0:
448,192,92495,1,0,0:0:0:0:
64,192,92495,1,0,0:0:0:0:
320,192,92495,1,0,0:0:0:0:
192,192,92595,1,0,0:0:0:0:
64,192,92595,1,0,0:0:0:0:
448,192,92695,1,0,0:0:0:0:
320,192,92695,1,0,0:0:0:0:
64,192,92795,1,0,0:0:0:0:
320,192,92795,1,0,0:0:0:0:
64,192,92895,1,0,0:0:0:0:
448,192,92895,1,0,0:0:0:0:
192,192,92895,1,0,0:0:0:0:
320,192,92995,1,0,0:0:0:0:
448,192,92995,1,0,0:0:0:0:
192,192,93095,1,0,0:0:0:0:
64,192,93095,1,0,0:0:0:0:
320,192,93195,1,0,0:0:0:0:
64,192,93195,1,0,0:0:0:0:
448,192,93295,1,0,0:0:0:0:
320,192,93295,1,0,0:0:0:0:
192,192,93295,1,0,0:0:0:0:
64,192,93395,1,0,0:0:0:0:
192,192,93395,1,0,0:0:0:0:
448,192,93495,1,0,0:0:0:0:
64,192,93495,1,0,0:0:0:0:
320,192,93595,1,0,0:0:0:0:
192,192,93595,1,0,0:0:0:0:
448,192,93695,1,0,0:0:0:0:
64,192,93695,1,0,0:0:0:0:
192,192,93695,1,0,0:0:0:0:
448,192,93795,1,0,0:0:0:0:
192,192,93795,1,0,0:0:0:0:
448,192,93895,1,0,0:0:0:0:
320,192,93995,1,0,0:0:0:0:
64,192,93995,1,0,0:0:0:0:
192,192,94095,1,0,0:0:0:0:
64,192,94095,1,0,0:0:0:0:
448,192,94095,1,0,0:0:0:0:
320,192,94195,1,0,0:0:0:0:
320,192,94295,1,0,0:0:0:0:
64,192,94295,1,0,0:0:0:0:
192,192,94395,1,0,0:0:0:0:
320,192,94495,1,0,0:0:0:0:
448,192,94495,1,0,0:0:0:0:
64,192,94495,1,0,0:0:0:0:
64,192,94595,1,0,0:0:0:0:
64,192,94695,1,0,0:0:0:0:
192,192,94795,1,0,0:0:0:0:
448,192,94795,1,0,0:0:0:0:
448,192,94895,1,0,0:0:0:0:
320,192,94895,1,0,0:0:0:0:
64,192,94895,1,0,0:0:0:0:
192,192,94995,1,0,0:0:0:0:
320,192,95095,1,0,0:0:0:0:
448,192,95095,1,0,0:0:0:0:
320,192,95195,1,0,0:0:0:0:
448,192,95295,1,0,0:0:0:0:
64,192,95295,1,0,0:0:0:0:
192,192,95295,1,0,0:0:0:0:
320,192,95395,1,0,0:0:0:0:
192,192,95395,1,0,0:0:0:0:
64,192,95495,1,0,0:0:0:0:
320,192,95595,1,0,0:0:0:0:
448,192,95595,1,0,0:0:0:0:
448,192,95695,1,0,0:0:0:0:
192,192,95695,1,0,0:0:0:0:
64,192,95695,1,0,0:0:0:0:
320,192,95795,1,0,0:0:0:0:
192,192,95895,1,0,0:0:0:0:
448,192,95895,1,0,0:0:0:0:
448,192,95995,1,0,0:0:0:0:
320,192,96095,1,0,0:0:0:0:
192,192,96095,1,0,0:0:0:0:
64,192,96095,1,0,0:0:0:0:
192,192,96195,1,0,0:0:0:0:
64,192,96295,1,0,0:0:0:0:
320,192,96395,1,0,0:0:0:0:
64,192,96395,1,0,0:0:0:0:
448,192,96495,1,0,0:0:0:0:
192,192,96495,1,0,0:0:0:0:
320,192,96495,1,0,0:0:0:0:
192,192,96595,1,0,0:0:0:0:
448,192,96695,1,0,0:0:0:0:
64,192,96695,1,0,0:0:0:0:
320,192,96795,1,0,0:0:0:0:
448,192,96895,1,0,0:0:0:0:
192,192,96895,1,0,0:0:0:0:
64,192,96895,1,0,0:0:0:0:
448,192,96995,1,0,0:0:0:0:
320,192,96995,1,0,0:0:0:0:
192,192,97095,1,0,0:0:0:0:
192,192,97195,1,0,0:0:0:0:
320,192,97195,1,0,0:0:0:0:
448,192,97295,1,0,0:0:0:0:
320,192,97295,1,0,0:0:0:0:
64,192,97295,1,0,0:0:0:0:
192,192,97395,1,0,0:0:0:0:
448,192,97495,1,0,0:0:0:0:
192,192,97495,1,0,0:0:0:0:
320,192,97595,1,0,0:0:0:0:
448,192,97695,1,0,0:0:0:0:
192,192,97695,1,0,0:0:0:0:
64,192,97695,1,0,0:0:0:0:
192,192,97795,1,0,0:0:0:0:
64,192,97895,1,0,0:0:0:0:
192,192,97995,1,0,0:0:0:0:
64,192,97995,1,0,0:0:0:0:
448,192,98095,1,0,0:0:0:0:
320,192,98095,1,0,0:0:0:0:
192,192,98095,1,0,0:0:0:0:
320,192,98195,1,0,0:0:0:0:
448,192,98295,1,0,0:0:0:0:
64,192,98295,1,0,0:0:0:0:
320,192,98395,1,0,0:0:0:0:
192,192,98495,1,0,0:0:0:0:
64,192,98495,1,0,0:0:0:0:
448,192,98495,1,0,0:0:0:0:
192,192,98595,1,0,0:0:0:0:
448,192,98595,1,0,0:0:0:0:
320,192,98695,1,0,0:0:0:0:
192,192,98795,1,0,0:0:0:0:
64,192,98795,1,0,0:0:0:0:
448,192,98895,1,0,0:0:0:0:
320,192,98895,1,0,0:0:0:0:
192,192,98895,1,0,0:0:0:0:
320,192,98995,1,0,0:0:0:0:
64,192,99095,1,0,0:0:0:0:
192,192,99095,1,0,0:0:0:0:
192,192,99195,1,0,0:0:0:0:
448,192,99295,1,0,0:0:0:0:
320,192,99295,1,0,0:0:0:0:
64,192,99295,1,0,0:0:0:0:
192,192,99395,1,0,0:0:0:0:
320,192,99495,1,0,0:0:0:0:
448,192,99595,1,0,0:0:0:0:
192,192,99595,1,0,0:0:0:0:
192,192,99695,1,0,0:0:0:0:
448,192,99695,1,0,0:0:0:0:
320,192,99695,1,0,0:0:0:0:
64,192,99795,1,0,0:0:0:0:
192,192,99895,1,0,0:0:0:0:
448,192,99895,1,0,0:0:0:0:
320,192,99995,1,0,0:0:0:0:
64,192,99995,1,0,0:0:0:0:
192,192,100095,1,0,0:0:0:0:
64,192,100095,1,0,0:0:0:0:
320,192,100095,1,0,0:0:0:0:
448,192,100095,1,0,0:0:0:0:
192,192,100195,1,0,0:0:0:0:
192,192,100295,1,0,0:0:0:0:
320,192,100395,1,0,0:0:0:0:
448,192,100395,1,0,0:0:0:0:
448,192,100495,1,0,0:0:0:0:
64,192,100495,1,0,0:0:0:0:
192,192,100495,1,0,0:0:0:0:
192,192,100595,1,0,0:0:0:0:
192,192,100695,1,0,0:0:0:0:
448,192,100695,1,0,0:0:0:0:
320,192,100795,1,0,0:0:0:0:
448,192,100895,1,0,0:0:0:0:
320,192,100895,1,0,0:0:0:0:
192,192,100895,1,0,0:0:0:0:
64,192,100895,1,0,0:0:0:0:
192,192,100995,1,0,0:0:0:0:
320,192,101095,1,0,0:0:0:0:
448,192,101195,1,0,0:0:0:0:
192,192,101195,1,0,0:0:0:0:
448,192,101295,1,0,0:0:0:0:
320,192,101295,1,0,0:0:0:0:
64,192,101295,1,0,0:0:0:0:
64,192,101395,1,0,0:0:0:0:
64,192,101495,1,0,0:0:0:0:
320,192,101495,1,0,0:0:0:0:
192,192,101595,1,0,0:0:0:0:
448,192,101695,1,0,0:0:0:0:
320,192,101695,1,0,0:0:0:0:
192,192,101695,1,0,0:0:0:0:
64,192,101695,1,0,0:0:0:0:
320,192,101795,1,0,0:0:0:0:
448,192,101795,1,0,0:0:0:0:
192,192,101895,1,0,0:0:0:0:
64,192,101995,1,0,0:0:0:0:
320,192,101995,1,0,0:0:0:0:
448,192,102095,1,0,0:0:0:0:
192,192,102095,1,0,0:0:0:0:
64,192,102095,1,0,0:0:0:0:
320,192,102195,1,0,0:0:0:0:
192,192,102195,1,0,0:0:0:0:
320,192,102295,1,0,0:0:0:0:
448,192,102295,1,0,0:0:0:0:
192,192,102395,1,0,0:0:0:0:
448,192,102495,1,0,0:0:0:0:
320,192,102495,1,0,0:0:0:0:
192,192,102495,1,0,0:0:0:0:
64,192,102495,1,0,0:0:0:0:
320,192,102595,1,0,0:0:0:0:
448,192,102595,1,0,0:0:0:0:
64,192,102695,1,0,0:0:0:0:
192,192,102695,1,0,0:0:0:0:
192,192,102795,1,0,0:0:0:0:
448,192,102795,1,0,0:0:0:0:
448,192,102895,1,0,0:0:0:0:
320,192,102895,1,0,0:0:0:0:
64,192,102895,1,0,0:0:0:0:
320,192,102995,1,0,0:0:0:0:
64,192,102995,1,0,0:0:0:0:
192,192,103095,1,0,0:0:0:0:
448,192,103095,1,0,0:0:0:0:
320,192,103195,1,0,0:0:0:0:
64,192,103195,1,0,0:0:0:0:
320,192,103295,1,0,0:0:0:0:
192,192,103295,1,0,0:0:0:0:
64,192,103295,1,0,0:0:0:0:
448,192,103295,1,0,0:0:0:0:
192,192,103395,1,0,0:0:0:0:
448,192,103395,1,0,0:0:0:0:
320,192,103495,1,0,0:0:0:0:
192,192,103595,1,0,0:0:0:0:
64,192,103595,1,0,0:0:0:0:
64,192,103695,1,0,0:0:0:0:
448,192,103695,1,0,0:0:0:0:
320,192,103695,1,0,0:0:0:0:
320,192,103795,1,0,0:0:0:0:
192,192,103895,1,0,0:0:0:0:
448,192,103895,1,0,0:0:0:0:
320,192,103995,1,0,0:0:0:0:
448,192,104095,1,0,0:0:0:0:
320,192,104095,1,0,0:0:0:0:
192,192,104095,1,0,0:0:0:0:
64,192,104095,1,0,0:0:0:0:
192,192,104195,1,0,0:0:0:0:
64,192,104295,1,0,0:0:0:0:
192,192,104395,1,0,0:0:0:0:
448,192,104395,1,0,0:0:0:0:
320,192,104495,1,0,0:0:0:0:
64,192,104495,1,0,0:0:0:0:
192,192,104495,1,0,0:0:0:0:
320,192,104595,1,0,0:0:0:0:
448,192,104695,1,0,0:0:0:0:
64,192,104695,1,0,0:0:0:0:
192,192,104795,1,0,0:0:0:0:
320,192,104895,1,0,0:0:0:0:
448,192,104895,1,0,0:0:0:0:
192,192,104895,1,0,0:0:0:0:
64,192,104895,1,0,0:0:0:0:
320,192,104995,1,0,0:0:0:0:
448,192,104995,1,0,0:0:0:0:
320,192,105095,1,0,0:0:0:0:
192,192,105195,1,0,0:0:0:0:
64,192,105195,1,0,0:0:0:0:
64,192,105295,1,0,0:0:0:0:
320,192,105295,1,0,0:0:0:0:
448,192,105295,1,0,0:0:0:0:
320,192,105395,1,0,0:0:0:0:
64,192,105495,1,0,0:0:0:0:
192,192,105495,1,0,0:0:0:0:
320,192,105595,1,0,0:0:0:0:
192,192,105695,1,0,0:0:0:0:
448,192,105695,1,0,0:0:0:0:
320,192,105695,1,0,0:0:0:0:
64,192,105695,1,0,0:0:0:0:
192,192,105795,1,0,0:0:0:0:
64,192,105895,1,0,0:0:0:0:
320,192,105895,1,0,0:0:0:0:
448,192,105995,1,0,0:0:0:0:
192,192,106095,1,0,0:0:0:0:
64,192,106095,1,0,0:0:0:0:
448,192,106095,1,0,0:0:0:0:
320,192,106195,1,0,0:0:0:0:
320,192,106295,1,0,0:0:0:0:
64,192,106295,1,0,0:0:0:0:
192,192,106395,1,0,0:0:0:0:
64,192,106495,1,0,0:0:0:0:
192,192,106495,1,0,0:0:0:0:
320,192,106495,1,0,0:0:0:0:
448,192,106495,1,0,0:0:0:0:
320,192,106595,1,0,0:0:0:0:
64,192,106595,1,0,0:0:0:0:
192,192,106695,1,0,0:0:0:0:
320,192,106795,1,0,0:0:0:0:
448,192,106795,1,0,0:0:0:0:
448,192,106895,1,0,0:0:0:0:
320,192,106895,1,0,0:0:0:0:
64,192,106895,1,0,0:0:0:0:
192,192,106995,1,0,0:0:0:0:
64,192,107095,1,0,0:0:0:0:
320,192,107095,1,0,0:0:0:0:
192,192,107195,1,0,0:0:0:0:
448,192,107295,1,0,0:0:0:0:
320,192,107295,1,0,0:0:0:0:
192,192,107295,1,0,0:0:0:0:
64,192,107295,1,0,0:0:0:0:
320,192,107395,1,0,0:0:0:0:
64,192,107495,1,0,0:0:0:0:
320,192,107595,1,0,0:0:0:0:
448,192,107595,1,0,0:0:0:0:
192,192,107695,1,0,0:0:0:0:
64,192,107695,1,0,0:0:0:0:
448,192,107695,1,0,0:0:0:0:
320,192,107795,1,0,0:0:0:0:
192,192,107895,1,0,0:0:0:0:
448,192,107895,1,0,0:0:0:0:
64,192,107995,1,0,0:0:0:0:
64,192,108095,1,0,0:0:0:0:
192,192,108095,1,0,0:0:0:0:
320,192,108095,1,0,0:0:0:0:
448,192,108095,1,0,0:0:0:0:
320,192,108195,1,0,0:0:0:0:
320,192,108295,1,0,0:0:0:0:
192,192,108395,1,0,0:0:0:0:
64,192,108395,1,0,0:0:0:0:
64,192,108495,1,0,0:0:0:0:
192,192,108495,1,0,0:0:0:0:
320,192,108495,1,0,0:0:0:0:
320,192,108595,1,0,0:0:0:0:
448,192,108695,1,0,0:0:0:0:
192,192,108695,1,0,0:0:0:0:
320,192,108795,1,0,0:0:0:0:
320,192,108895,1,0,0:0:0:0:
192,192,108895,1,0,0:0:0:0:
64,192,108895,1,0,0:0:0:0:
448,192,108895,1,0,0:0:0:0:
192,192,108995,1,0,0:0:0:0:
64,192,109095,1,0,0:0:0:0:
64,192,109195,1,0,0:0:0:0:
192,192,109195,1,0,0:0:0:0:
448,192,109295,1,0,0:0:0:0:
320,192,109295,1,0,0:0:0:0:
192,192,109295,1,0,0:0:0:0:
320,192,109395,1,0,0:0:0:0:
448,192,109495,1,0,0:0:0:0:
64,192,109495,1,0,0:0:0:0:
192,192,109595,1,0,0:0:0:0:
192,192,109695,1,0,0:0:0:0:
320,192,109695,1,0,0:0:0:0:
448,192,109695,1,0,0:0:0:0:
64,192,109695,1,0,0:0:0:0:
320,192,109795,1,0,0:0:0:0:
64,192,109895,1,0,0:0:0:0:
192,192,109995,1,0,0:0:0:0:
448,192,109995,1,0,0:0:0:0:
448,192,110095,1,0,0:0:0:0:
320,192,110095,1,0,0:0:0:0:
192,192,110095,1,0,0:0:0:0:
320,192,110195,1,0,0:0:0:0:
64,192,110295,1,0,0:0:0:0:
192,192,110295,1,0,0:0:0:0:
448,192,110395,1,0,0:0:0:0:
448,192,110495,1,0,0:0:0:0:
320,192,110495,1,0,0:0:0:0:
64,192,110495,1,0,0:0:0:0:
192,192,110495,1,0,0:0:0:0:
192,192,110595,1,0,0:0:0:0:
320,192,110695,1,0,0:0:0:0:
448,192,110695,1,0,0:0:0:0:
320,192,110795,1,0,0:0:0:0:
64,192,110895,1,0,0:0:0:0:
192,192,110895,1,0,0:0:0:0:
448,192,110895,1,0,0:0:0:0:
192,192,110995,1,0,0:0:0:0:
64,192,111095,1,0,0:0:0:0:
448,192,111095,1,0,0:0:0:0:
192,192,111195,1,0,0:0:0:0:
448,192,111295,1,0,0:0:0:0:
320,192,111295,1,0,0:0:0:0:
192,192,111295,1,0,0:0:0:0:
64,192,111295,1,0,0:0:0:0:
448,192,111395,1,0,0:0:0:0:
64,192,111395,1,0,0:0:0:0:
192,192,111495,1,0,0:0:0:0:
64,192,111595,1,0,0:0:0:0:
320,192,111595,1,0,0:0:0:0:
448,192,111695,1,0,0:0:0:0:
192,192,111695,1,0,0:0:0:0:
64,192,111695,1,0,0:0:0:0:
320,192,111795,1,0,0:0:0:0:
448,192,111895,1,0,0:0:0:0:
192,192,111895,1,0,0:0:0:0:
64,192,111995,1,0,0:0:0:0:
448,192,112095,1,0,0:0:0:0:
320,192,112095,1,0,0:0:0:0:
64,192,112095,1,0,0:0:0:0:
192,192,112095,1,0,0:0:0:0:
192,192,112195,1,0,0:0:0:0:
448,192,112195,1,0,0:0:0:0:
320,192,112295,1,0,0:0:0:0:
192,192,112395,1,0,0:0:0:0:
448,192,112495,1,0,0:0:0:0:
320,192,112495,1,0,0:0:0:0:
64,192,112495,1,0,0:0:0:0:
192,192,112495,1,0,0:0:0:0:
320,192,112595,1,0,0:0:0:0:
64,192,112695,1,0,0:0:0:0:
192,192,112795,1,0,0:0:0:0:
448,192,112895,1,0,0:0:0:0:
320,192,112895,1,0,0:0:0:0:
64,192,112895,1,0,0:0:0:0:
192,192,112995,1,0,0:0:0:0:
320,192,113095,1,0,0:0:0:0:
320,192,113195,1,0,0:0:0:0:
448,192,113295,1,0,0:0:0:0:
192,192,113295,1,0,0:0:0:0:
64,192,113295,1,0,0:0:0:0:
320,192,113395,1,0,0:0:0:0:
192,192,113495,1,0,0:0:0:0:
192,192,113595,1,0,0:0:0:0:
320,192,113695,1,0,0:0:0:0:
448,192,113695,1,0,0:0:0:0:
64,192,113695,1,0,0:0:0:0:
448,192,113795,1,0,0:0:0:0:
64,192,113895,1,0,0:0:0:0:
64,192,113995,1,0,0:0:0:0:
192,192,114095,1,0,0:0:0:0:
320,192,114095,1,0,0:0:0:0:
448,192,114095,1,0,0:0:0:0:
192,192,114195,1,0,0:0:0:0:
448,192,114295,1,0,0:0:0:0:
448,192,114395,1,0,0:0:0:0:
320,192,114495,1,0,0:0:0:0:
64,192,114495,1,0,0:0:0:0:
448,192,114495,1,0,0:0:0:0:
192,192,114595,1,0,0:0:0:0:
320,192,114695,1,0,0:0:0:0:
320,192,114795,1,0,0:0:0:0:
448,192,114895,1,0,0:0:0:0:
192,192,114895,1,0,0:0:0:0:
64,192,114895,1,0,0:0:0:0:
64,192,114995,1,0,0:0:0:0:
192,192,115095,1,0,0:0:0:0:
192,192,115195,1,0,0:0:0:0:
448,192,115295,1,0,0:0:0:0:
320,192,115295,1,0,0:0:0:0:
64,192,115295,1,0,0:0:0:0:
448,192,115395,1,0,0:0:0:0:
64,192,115495,1,0,0:0:0:0:
64,192,115595,1,0,0:0:0:0:
192,192,115695,1,0,0:0:0:0:
320,192,115695,1,0,0:0:0:0:
448,192,115695,1,0,0:0:0:0:
192,192,115795,1,0,0:0:0:0:
448,192,115895,1,0,0:0:0:0:
448,192,115995,1,0,0:0:0:0:
320,192,116095,1,0,0:0:0:0:
192,192,116095,1,0,0:0:0:0:
64,192,116095,1,0,0:0:0:0:
192,192,116195,1,0,0:0:0:0:
448,192,116195,1,0,0:0:0:0:
320,192,116295,1,0,0:0:0:0:
320,192,116395,1,0,0:0:0:0:
64,192,116395,1,0,0:0:0:0:
192,192,116495,1,0,0:0:0:0:
64,192,116495,1,0,0:0:0:0:
448,192,116495,1,0,0:0:0:0:
320,192,116595,1,0,0:0:0:0:
192,192,116695,1,0,0:0:0:0:
64,192,116695,1,0,0:0:0:0:
192,192,116795,1,0,0:0:0:0:
448,192,116895,1,0,0:0:0:0:
320,192,116895,1,0,0:0:0:0:
64,192,116895,1,0,0:0:0:0:
192,192,116995,1,0,0:0:0:0:
64,192,116995,1,0,0:0:0:0:
192,192,117095,1,0,0:0:0:0:
448,192,117195,1,0,0:0:0:0:
320,192,117195,1,0,0:0:0:0:
448,192,117295,1,0,0:0:0:0:
192,192,117295,1,0,0:0:0:0:
64,192,117295,1,0,0:0:0:0:
320,192,117395,1,0,0:0:0:0:
192,192,117495,1,0,0:0:0:0:
64,192,117495,1,0,0:0:0:0:
192,192,117595,1,0,0:0:0:0:
448,192,117595,1,0,0:0:0:0:
448,192,117695,1,0,0:0:0:0:
320,192,117695,1,0,0:0:0:0:
64,192,117695,1,0,0:0:0:0:
64,192,117795,1,0,0:0:0:0:
320,192,117795,1,0,0:0:0:0:
192,192,117895,1,0,0:0:0:0:
448,192,117995,1,0,0:0:0:0:
320,192,117995,1,0,0:0:0:0:
320,192,118095,1,0,0:0:0:0:
64,192,118095,1,0,0:0:0:0:
192,192,118095,1,0,0:0:0:0:
192,192,118195,1,0,0:0:0:0:
448,192,118295,1,0,0:0:0:0:
320,192,118295,1,0,0:0:0:0:
64,192,118395,1,0,0:0:0:0:
320,192,118395,1,0,0:0:0:0:
192,192,118495,1,0,0:0:0:0:
64,192,118495,1,0,0:0:0:0:
448,192,118495,1,0,0:0:0:0:
320,192,118595,1,0,0:0:0:0:
192,192,118695,1,0,0:0:0:0:
448,192,118695,1,0,0:0:0:0:
320,192,118795,1,0,0:0:0:0:
64,192,118795,1,0,0:0:0:0:
64,192,118895,1,0,0:0:0:0:
192,192,118895,1,0,0:0:0:0:
448,192,118895,1,0,0:0:0:0:
320,192,118995,1,0,0:0:0:0:
192,192,119095,1,0,0:0:0:0:
448,192,119095,1,0,0:0:0:0:
64,192,119195,1,0,0:0:0:0:
448,192,119295,1,0,0:0:0:0:
192,192,119295,1,0,0:0:0:0:
64,192,119295,1,0,0:0:0:0:
320,192,119395,1,0,0:0:0:0:
448,192,119495,1,0,0:0:0:0:
320,192,119495,1,0,0:0:0:0:
192,192,119595,1,0,0:0:0:0:
64,192,119595,1,0,0:0:0:0:
448,192,119695,1,0,0:0:0:0:
320,192,119695,1,0,0:0:0:0:
192,192,119695,1,0,0:0:0:0:
320,192,119795,1,0,0:0:0:0:
192,192,119895,1,0,0:0:0:0:
64,192,119895,1,0,0:0:0:0:
192,192,119995,1,0,0:0:0:0:
448,192,119995,1,0,0:0:0:0:
448,192,120095,1,0,0:0:0:0:
320,192,120095,1,0,0:0:0:0:
64,192,120095,1,0,0:0:0:0:
192,192,120195,1,0,0:0:0:0:
320,192,120295,1,0,0:0:0:0:
192,192,120295,1,0,0:0:0:0:
320,192,120395,1,0,0:0:0:0:
192,192,120495,1,0,0:0:0:0:
64,192,120495,1,0,0:0:0:0:
448,192,120495,1,0,0:0:0:0:
320,192,120595,1,0,0:0:0:0:
192,192,120695,1,0,0:0:0:0:
448,192,120695,1,0,0:0:0:0:
448,192,120795,1,0,0:0:0:0:
64,192,120795,1,0,0:0:0:0:
320,192,120895,1,0,0:0:0:0:
192,192,120895,1,0,0:0:0:0:
64,192,120895,1,0,0:0:0:0:
192,192,120995,1,0,0:0:0:0:
448,192,121095,1,0,0:0:0:0:
64,192,121095,1,0,0:0:0:0:
64,192,121195,1,0,0:0:0:0:
320,192,121195,1,0,0:0:0:0:
192,192,121295,1,0,0:0:0:0:
320,192,121295,1,0,0:0:0:0:
448,192,121295,1,0,0:0:0:0:
192,192,121395,1,0,0:0:0:0:
64,192,121495,1,0,0:0:0:0:
448,192,121495,1,0,0:0:0:0:
320,192,121495,1,0,0:0:0:0:
320,192,121595,1,0,0:0:0:0:
192,192,121695,1,0,0:0:0:0:
64,192,121695,1,0,0:0:0:0:
448,192,121695,1,0,0:0:0:0:
192,192,121795,1,0,0:0:0:0:
320,192,121895,1,0,0:0:0:0:
320,192,121995,1,0,0:0:0:0:
448,192,122095,1,0,0:0:0:0:
192,192,122095,1,0,0:0:0:0:
64,192,122095,1,0,0:0:0:0:
320,192,122195,1,0,0:0:0:0:
192,192,122295,1,0,0:0:0:0:
64,192,122295,1,0,0:0:0:0:
320,192,122395,1,0,0:0:0:0:
448,192,122395,1,0,0:0:0:0:
448,192,122495,1,0,0:0:0:0:
192,192,122495,1,0,0:0:0:0:
64,192,122495,1,0,0:0:0:0:
320,192,122595,1,0,0:0:0:0:
192,192,122695,1,0,0:0:0:0:
64,192,122695,1,0,0:0:0:0:
448,192,122795,1,0,0:0:0:0:
192,192,122795,1,0,0:0:0:0:
448,192,122895,1,0,0:0:0:0:
320,192,122895,1,0,0:0:0:0:
64,192,122895,1,0,0:0:0:0:
192,192,122995,1,0,0:0:0:0:
320,192,123095,1,0,0:0:0:0:
64,192,123095,1,0,0:0:0:0:
64,192,123195,1,0,0:0:0:0:
448,192,123195,1,0,0:0:0:0:
448,192,123295,1,0,0:0:0:0:
320,192,123295,1,0,0:0:0:0:
192,192,123295,1,0,0:0:0:0:
320,192,123395,1,0,0:0:0:0:
192,192,123495,1,0,0:0:0:0:
64,192,123495,1,0,0:0:0:0:
448,192,123595,1,0,0:0:0:0:
320,192,123595,1,0,0:0:0:0:
448,192,123695,1,0,0:0:0:0:
192,192,123695,1,0,0:0:0:0:
64,192,123695,1,0,0:0:0:0:
192,192,123795,1,0,0:0:0:0:
320,192,123895,1,0,0:0:0:0:
448,192,123895,1,0,0:0:0:0:
64,192,123995,1,0,0:0:0:0:
192,192,123995,1,0,0:0:0:0:
192,192,124095,1,0,0:0:0:0:
64,192,124095,1,0,0:0:0:0:
320,192,124095,1,0,0:0:0:0:
320,192,124195,1,0,0:0:0:0:
448,192,124295,1,0,0:0:0:0:
192,192,124295,1,0,0:0:0:0:
320,192,124395,1,0,0:0:0:0:
448,192,124395,1,0,0:0:0:0:
320,192,124495,1,0,0:0:0:0:
192,192,124495,1,0,0:0:0:0:
64,192,124495,1,0,0:0:0:0:
192,192,124595,1,0,0:0:0:0:
448,192,124695,1,0,0:0:0:0:
64,192,124695,1,0,0:0:0:0:
320,192,124795,1,0,0:0:0:0:
192,192,124795,1,0,0:0:0:0:
64,192,124895,1,0,0:0:0:0:
192,192,124895,1,0,0:0:0:0:
448,192,124895,1,0,0:0:0:0:
320,192,124995,1,0,0:0:0:0:
448,192,124995,1,0,0:0:0:0:
192,192,125095,1,0,0:0:0:0:
64,192,125095,1,0,0:0:0:0:
448,192,125144,1,0,0:0:0:0:
320,192,125144,1,0,0:0:0:0:
192,192,125195,1,0,0:0:0:0:
64,192,125195,1,0,0:0:0:0:
320,192,125295,1,0,0:0:0:0:
448,192,125295,1,0,0:0:0:0:
64,192,125295,1,0,0:0:0:0:
192,192,125395,1,0,0:0:0:0:
448,192,125495,1,0,0:0:0:0:
64,192,125495,1,0,0:0:0:0:
192,192,125595,1,0,0:0:0:0:
192,192,125695,1,0,0:0:0:0:
448,192,125695,1,0,0:0:0:0:
64,192,125695,1,0,0:0:0:0:
320,192,125795,1,0,0:0:0:0:
192,192,125895,1,0,0:0:0:0:
320,192,125995,1,0,0:0:0:0:
64,192,125995,1,0,0:0:0:0:
64,192,126095,1,0,0:0:0:0:
448,192,126095,1,0,0:0:0:0:
192,192,126095,1,0,0:0:0:0:
320,192,126095,1,0,0:0:0:0:
192,192,126195,1,0,0:0:0:0:
448,192,126295,1,0,0:0:0:0:
192,192,126295,1,0,0:0:0:0:
320,192,126395,1,0,0:0:0:0:
192,192,126495,1,0,0:0:0:0:
64,192,126495,1,0,0:0:0:0:
448,192,126495,1,0,0:0:0:0:
192,192,126595,1,0,0:0:0:0:
64,192,126695,1,0,0:0:0:0:
64,192,126795,1,0,0:0:0:0:
320,192,126795,1,0,0:0:0:0:
192,192,126895,1,0,0:0:0:0:
448,192,126895,1,0,0:0:0:0:
320,192,126895,1,0,0:0:0:0:
64,192,126895,1,0,0:0:0:0:
192,192,126995,1,0,0:0:0:0:
448,192,127095,1,0,0:0:0:0:
320,192,127095,1,0,0:0:0:0:
320,192,127195,1,0,0:0:0:0:
192,192,127295,1,0,0:0:0:0:
64,192,127295,1,0,0:0:0:0:
448,192,127295,1,0,0:0:0:0:
192,192,127395,1,0,0:0:0:0:
320,192,127495,1,0,0:0:0:0:
192,192,127595,1,0,0:0:0:0:
64,192,127595,1,0,0:0:0:0:
448,192,127695,1,0,0:0:0:0:
320,192,127695,1,0,0:0:0:0:
192,192,127695,1,0,0:0:0:0:
64,192,127695,1,0,0:0:0:0:
320,192,127795,1,0,0:0:0:0:
448,192,127895,1,0,0:0:0:0:
64,192,127895,1,0,0:0:0:0:
320,192,127995,1,0,0:0:0:0:
192,192,128095,1,0,0:0:0:0:
64,192,128095,1,0,0:0:0:0:
320,192,128095,1,0,0:0:0:0:
192,192,128195,1,0,0:0:0:0:
448,192,128295,1,0,0:0:0:0:
320,192,128395,1,0,0:0:0:0:
64,192,128395,1,0,0:0:0:0:
64,192,128495,1,0,0:0:0:0:
192,192,128495,1,0,0:0:0:0:
320,192,128495,1,0,0:0:0:0:
448,192,128495,1,0,0:0:0:0:
192,192,128595,1,0,0:0:0:0:
448,192,128695,1,0,0:0:0:0:
320,192,128695,1,0,0:0:0:0:
320,192,128795,1,0,0:0:0:0:
448,192,128895,1,0,0:0:0:0:
192,192,128895,1,0,0:0:0:0:
64,192,128895,1,0,0:0:0:0:
192,192,128995,1,0,0:0:0:0:
64,192,129095,1,0,0:0:0:0:
448,192,129195,1,0,0:0:0:0:
192,192,129195,1,0,0:0:0:0:
320,192,129295,1,0,0:0:0:0:
64,192,129295,1,0,0:0:0:0:
448,192,129295,1,0,0:0:0:0:
192,192,129295,1,0,0:0:0:0:
320,192,129395,1,0,0:0:0:0:
192,192,129495,1,0,0:0:0:0:
64,192,129495,1,0,0:0:0:0:
192,192,129595,1,0,0:0:0:0:
448,192,129695,1,0,0:0:0:0:
320,192,129695,1,0,0:0:0:0:
192,192,129695,1,0,0:0:0:0:
320,192,129795,1,0,0:0:0:0:
64,192,129895,1,0,0:0:0:0:
192,192,129995,1,0,0:0:0:0:
448,192,129995,1,0,0:0:0:0:
448,192,130095,1,0,0:0:0:0:
320,192,130095,1,0,0:0:0:0:
192,192,130095,1,0,0:0:0:0:
64,192,130095,1,0,0:0:0:0:
320,192,130195,1,0,0:0:0:0:
192,192,130295,1,0,0:0:0:0:
448,192,130295,1,0,0:0:0:0:
192,192,130395,1,0,0:0:0:0:
320,192,130495,1,0,0:0:0:0:
448,192,130495,1,0,0:0:0:0:
64,192,130495,1,0,0:0:0:0:
192,192,130595,1,0,0:0:0:0:
64,192,130695,1,0,0:0:0:0:
192,192,130795,1,0,0:0:0:0:
320,192,130795,1,0,0:0:0:0:
448,192,130895,1,0,0:0:0:0:
320,192,130895,1,0,0:0:0:0:
192,192,130895,1,0,0:0:0:0:
64,192,130895,1,0,0:0:0:0:
64,192,130995,1,0,0:0:0:0:
192,192,131095,1,0,0:0:0:0:
448,192,131095,1,0,0:0:0:0:
448,192,131195,1,0,0:0:0:0:
448,192,131295,1,0,0:0:0:0:
320,192,131295,1,0,0:0:0:0:
192,192,131295,1,0,0:0:0:0:
320,192,131395,1,0,0:0:0:0:
64,192,131495,1,0,0:0:0:0:
192,192,131595,1,0,0:0:0:0:
448,192,131595,1,0,0:0:0:0:
448,192,131695,1,0,0:0:0:0:
320,192,131695,1,0,0:0:0:0:
192,192,131695,1,0,0:0:0:0:
64,192,131695,1,0,0:0:0:0:
320,192,131795,1,0,0:0:0:0:
64,192,131895,1,0,0:0:0:0:
192,192,131895,1,0,0:0:0:0:
192,192,131995,1,0,0:0:0:0:
448,192,132095,1,0,0:0:0:0:
320,192,132095,1,0,0:0:0:0:
64,192,132095,1,0,0:0:0:0:
320,192,132195,1,0,0:0:0:0:
64,192,132295,1,0,0:0:0:0:
64,192,132395,1,0,0:0:0:0:
192,192,132395,1,0,0:0:0:0:
448,192,132495,1,0,0:0:0:0:
320,192,132495,1,0,0:0:0:0:
192,192,132495,1,0,0:0:0:0:
64,192,132495,1,0,0:0:0:0:
320,192,132595,1,0,0:0:0:0:
192,192,132695,1,0,0:0:0:0:
64,192,132695,1,0,0:0:0:0:
192,192,132795,1,0,0:0:0:0:
448,192,132895,1,0,0:0:0:0:
320,192,132895,1,0,0:0:0:0:
64,192,132895,1,0,0:0:0:0:
320,192,132995,1,0,0:0:0:0:
192,192,133095,1,0,0:0:0:0:
320,192,133195,1,0,0:0:0:0:
448,192,133195,1,0,0:0:0:0:
448,192,133295,1,0,0:0:0:0:
320,192,133295,1,0,0:0:0:0:
64,192,133295,1,0,0:0:0:0:
192,192,133295,1,0,0:0:0:0:
192,192,133395,1,0,0:0:0:0:
320,192,133495,1,0,0:0:0:0:
64,192,133495,1,0,0:0:0:0:
192,192,133595,1,0,0:0:0:0:
320,192,133695,1,0,0:0:0:0:
448,192,133695,1,0,0:0:0:0:
192,192,133695,1,0,0:0:0:0:
320,192,133795,1,0,0:0:0:0:
64,192,133895,1,0,0:0:0:0:
64,192,133995,1,0,0:0:0:0:
320,192,133995,1,0,0:0:0:0:
448,192,134095,1,0,0:0:0:0:
320,192,134095,1,0,0:0:0:0:
192,192,134095,1,0,0:0:0:0:
64,192,134095,1,0,0:0:0:0:
192,192,134195,1,0,0:0:0:0:
64,192,134295,1,0,0:0:0:0:
448,192,134295,1,0,0:0:0:0:
448,192,134395,1,0,0:0:0:0:
320,192,134495,1,0,0:0:0:0:
192,192,134495,1,0,0:0:0:0:
64,192,134495,1,0,0:0:0:0:
64,192,134595,1,0,0:0:0:0:
192,192,134695,1,0,0:0:0:0:
448,192,134795,1,0,0:0:0:0:
64,192,134795,1,0,0:0:0:0:
448,192,134895,1,0,0:0:0:0:
320,192,134895,1,0,0:0:0:0:
192,192,134895,1,0,0:0:0:0:
64,192,134895,1,0,0:0:0:0:
192,192,134995,1,0,0:0:0:0:
320,192,135095,1,0,0:0:0:0:
64,192,135095,1,0,0:0:0:0:
320,192,135195,1,0,0:0:0:0:
448,192,135295,1,0,0:0:0:0:
192,192,135295,1,0,0:0:0:0:
64,192,135295,1,0,0:0:0:0:
448,192,135395,1,0,0:0:0:0:
192,192,135495,1,0,0:0:0:0:
448,192,135595,1,0,0:0:0:0:
320,192,135595,1,0,0:0:0:0:
448,192,135695,1,0,0:0:0:0:
320,192,135695,1,0,0:0:0:0:
64,192,135695,1,0,0:0:0:0:
192,192,135695,1,0,0:0:0:0:
192,192,135795,1,0,0:0:0:0:
64,192,135895,1,0,0:0:0:0:
448,192,135895,1,0,0:0:0:0:
192,192,135995,1,0,0:0:0:0:
64,192,136095,1,0,0:0:0:0:
320,192,136095,1,0,0:0:0:0:
192,192,136095,1,0,0:0:0:0:
320,192,136195,1,0,0:0:0:0:
192,192,136295,1,0,0:0:0:0:
448,192,136395,1,0,0:0:0:0:
192,192,136395,1,0,0:0:0:0:
448,192,136495,1,0,0:0:0:0:
320,192,136495,1,0,0:0:0:0:
192,192,136495,1,0,0:0:0:0:
64,192,136495,1,0,0:0:0:0:
320,192,136595,1,0,0:0:0:0:
192,192,136695,1,0,0:0:0:0:
64,192,136695,1,0,0:0:0:0:
192,192,136795,1,0,0:0:0:0:
448,192,136895,1,0,0:0:0:0:
320,192,136895,1,0,0:0:0:0:
64,192,136895,1,0,0:0:0:0:
320,192,136995,1,0,0:0:0:0:
64,192,137095,1,0,0:0:0:0:
448,192,137095,1,0,0:0:0:0:
192,192,137195,1,0,0:0:0:0:
320,192,137195,1,0,0:0:0:0:
448,192,137295,1,0,0:0:0:0:
320,192,137295,1,0,0:0:0:0:
64,192,137295,1,0,0:0:0:0:
192,192,137295,1,0,0:0:0:0:
448,192,137395,1,0,0:0:0:0:
192,192,137495,1,0,0:0:0:0:
64,192,137495,1,0,0:0:0:0:
320,192,137595,1,0,0:0:0:0:
448,192,137695,1,0,0:0:0:0:
192,192,137695,1,0,0:0:0:0:
64,192,137695,1,0,0:0:0:0:
192,192,137795,1,0,0:0:0:0:
320,192,137895,1,0,0:0:0:0:
64,192,137895,1,0,0:0:0:0:
192,192,137995,1,0,0:0:0:0:
448,192,137995,1,0,0:0:0:0:
448,192,138095,1,0,0:0:0:0:
320,192,138095,1,0,0:0:0:0:
192,192,138095,1,0,0:0:0:0:
64,192,138095,1,0,0:0:0:0:
64,192,138195,1,0,0:0:0:0:
192,192,138295,1,0,0:0:0:0:
448,192,138295,1,0,0:0:0:0:
448,192,138395,1,0,0:0:0:0:
320,192,138495,1,0,0:0:0:0:
192,192,138495,1,0,0:0:0:0:
64,192,138495,1,0,0:0:0:0:
448,192,138495,1,0,0:0:0:0:
192,192,138595,1,0,0:0:0:0:
320,192,138695,1,0,0:0:0:0:
448,192,138795,1,0,0:0:0:0:
192,192,138795,1,0,0:0:0:0:
448,192,138895,1,0,0:0:0:0:
320,192,138895,1,0,0:0:0:0:
64,192,138895,1,0,0:0:0:0:
192,192,138895,1,0,0:0:0:0:
320,192,138995,1,0,0:0:0:0:
192,192,139095,1,0,0:0:0:0:
64,192,139095,1,0,0:0:0:0:
192,192,139195,1,0,0:0:0:0:
64,192,139295,1,0,0:0:0:0:
192,192,139295,1,0,0:0:0:0:
320,192,139295,1,0,0:0:0:0:
448,192,139295,1,0,0:0:0:0:
320,192,139395,1,0,0:0:0:0:
64,192,139495,1,0,0:0:0:0:
64,192,139595,1,0,0:0:0:0:
320,192,139595,1,0,0:0:0:0:
448,192,139695,1,0,0:0:0:0:
320,192,139695,1,0,0:0:0:0:
192,192,139695,1,0,0:0:0:0:
64,192,139695,1,0,0:0:0:0:
192,192,139795,1,0,0:0:0:0:
448,192,139895,1,0,0:0:0:0:
64,192,139895,1,0,0:0:0:0:
320,192,139995,1,0,0:0:0:0:
448,192,140095,1,0,0:0:0:0:
320,192,140095,1,0,0:0:0:0:
192,192,140095,1,0,0:0:0:0:
64,192,140095,1,0,0:0:0:0:
192,192,140195,1,0,0:0:0:0:
448,192,140295,1,0,0:0:0:0:
320,192,140395,1,0,0:0:0:0:
448,192,140395,1,0,0:0:0:0:
448,192,140495,1,0,0:0:0:0:
320,192,140495,1,0,0:0:0:0:
192,192,140495,1,0,0:0:0:0:
64,192,140495,1,0,0:0:0:0:
64,192,140595,1,0,0:0:0:0:
64,192,140695,1,0,0:0:0:0:
320,192,140695,1,0,0:0:0:0:
192,192,140795,1,0,0:0:0:0:
448,192,140895,1,0,0:0:0:0:
320,192,140895,1,0,0:0:0:0:
64,192,140895,1,0,0:0:0:0:
192,192,140895,1,0,0:0:0:0:
320,192,140995,1,0,0:0:0:0:
64,192,141095,1,0,0:0:0:0:
192,192,141195,1,0,0:0:0:0:
320,192,141195,1,0,0:0:0:0:
448,192,141295,1,0,0:0:0:0:
320,192,141295,1,0,0:0:0:0:
192,192,141295,1,0,0:0:0:0:
64,192,141295,1,0,0:0:0:0:
448,192,141395,1,0,0:0:0:0:
320,192,141495,1,0,0:0:0:0:
64,192,141495,1,0,0:0:0:0:
192,192,141595,1,0,0:0:0:0:
64,192,141695,1,0,0:0:0:0:
192,192,141695,1,0,0:0:0:0:
320,192,141695,1,0,0:0:0:0:
448,192,141695,1,0,0:0:0:0:
64,192,141795,1,0,0:0:0:0:
320,192,141895,1,0,0:0:0:0:
448,192,141995,1,0,0:0:0:0:
192,192,141995,1,0,0:0:0:0:
448,192,142095,1,0,0:0:0:0:
320,192,142095,1,0,0:0:0:0:
192,192,142095,1,0,0:0:0:0:
64,192,142095,1,0,0:0:0:0:
320,192,142195,1,0,0:0:0:0:
64,192,142295,1,0,0:0:0:0:
192,192,142295,1,0,0:0:0:0:
192,192,142395,1,0,0:0:0:0:
448,192,142495,1,0,0:0:0:0:
320,192,142495,1,0,0:0:0:0:
192,192,142495,1,0,0:0:0:0:
64,192,142495,1,0,0:0:0:0:
320,192,142595,1,0,0:0:0:0:
192,192,142695,1,0,0:0:0:0:
448,192,142795,1,0,0:0:0:0:
64,192,142795,1,0,0:0:0:0:
448,192,142895,1,0,0:0:0:0:
320,192,142895,1,0,0:0:0:0:
192,192,142895,1,0,0:0:0:0:
64,192,142895,1,0,0:0:0:0:
320,192,142995,1,0,0:0:0:0:
192,192,143095,1,0,0:0:0:0:
64,192,143095,1,0,0:0:0:0:
448,192,143195,1,0,0:0:0:0:
448,192,143295,1,0,0:0:0:0:
320,192,143295,1,0,0:0:0:0:
192,192,143295,1,0,0:0:0:0:
64,192,143295,1,0,0:0:0:0:
192,192,143395,1,0,0:0:0:0:
64,192,143495,1,0,0:0:0:0:
320,192,143595,1,0,0:0:0:0:
64,192,143595,1,0,0:0:0:0:
192,192,143695,1,0,0:0:0:0:
448,192,143695,1,0,0:0:0:0:
320,192,143695,1,0,0:0:0:0:
64,192,143695,1,0,0:0:0:0:
192,192,143795,1,0,0:0:0:0:
64,192,143895,1,0,0:0:0:0:
192,192,143895,1,0,0:0:0:0:
320,192,143995,1,0,0:0:0:0:
192,192,144095,1,0,0:0:0:0:
64,192,144095,1,0,0:0:0:0:
320,192,144095,1,0,0:0:0:0:
448,192,144095,1,0,0:0:0:0:
192,192,144195,1,0,0:0:0:0:
64,192,144295,1,0,0:0:0:0:
192,192,144395,1,0,0:0:0:0:
448,192,144395,1,0,0:0:0:0:
448,192,144495,1,0,0:0:0:0:
320,192,144495,1,0,0:0:0:0:
192,192,144495,1,0,0:0:0:0:
64,192,144495,1,0,0:0:0:0:
320,192,144595,1,0,0:0:0:0:
64,192,144695,1,0,0:0:0:0:
448,192,144695,1,0,0:0:0:0:
192,192,144795,1,0,0:0:0:0:
64,192,144895,1,0,0:0:0:0:
192,192,144895,1,0,0:0:0:0:
320,192,144895,1,0,0:0:0:0:
448,192,144895,1,0,0:0:0:0:
320,192,144995,1,0,0:0:0:0:
64,192,145095,1,0,0:0:0:0:
192,192,145195,1,0,0:0:0:0:
320,192,145195,1,0,0:0:0:0:
448,192,145295,1,0,0:0:0:0:
320,192,145295,1,0,0:0:0:0:
192,192,145295,1,0,0:0:0:0:
64,192,145295,1,0,0:0:0:0:
64,192,145395,1,0,0:0:0:0:
448,192,145495,1,0,0:0:0:0:
192,192,145495,1,0,0:0:0:0:
320,192,145595,1,0,0:0:0:0:
448,192,145695,1,0,0:0:0:0:
320,192,145695,1,0,0:0:0:0:
192,192,145695,1,0,0:0:0:0:
64,192,145695,1,0,0:0:0:0:
448,192,145795,1,0,0:0:0:0:
192,192,145895,1,0,0:0:0:0:
64,192,145995,1,0,0:0:0:0:
320,192,145995,1,0,0:0:0:0:
448,192,146095,1,0,0:0:0:0:
192,192,146095,1,0,0:0:0:0:
64,192,146095,1,0,0:0:0:0:
320,192,146095,1,0,0:0:0:0:
192,192,146195,1,0,0:0:0:0:
448,192,146295,1,0,0:0:0:0:
320,192,146295,1,0,0:0:0:0:
320,192,146395,1,0,0:0:0:0:
192,192,146495,1,0,0:0:0:0:
64,192,146495,1,0,0:0:0:0:
320,192,146495,1,0,0:0:0:0:
448,192,146495,1,0,0:0:0:0:
192,192,146595,1,0,0:0:0:0:
320,192,146695,1,0,0:0:0:0:
64,192,146795,1,0,0:0:0:0:
192,192,146795,1,0,0:0:0:0:
64,192,146895,1,0,0:0:0:0:
192,192,146895,1,0,0:0:0:0:
320,192,146895,1,0,0:0:0:0:
448,192,146895,1,0,0:0:0:0:
320,192,146995,1,0,0:0:0:0:
192,192,147095,1,0,0:0:0:0:
64,192,147095,1,0,0:0:0:0:
192,192,147195,1,0,0:0:0:0:
448,192,147295,1,0,0:0:0:0:
320,192,147295,1,0,0:0:0:0:
192,192,147295,1,0,0:0:0:0:
64,192,147295,1,0,0:0:0:0:
320,192,147395,1,0,0:0:0:0:
448,192,147495,1,0,0:0:0:0:
320,192,147595,1,0,0:0:0:0:
192,192,147595,1,0,0:0:0:0:
64,192,147695,1,0,0:0:0:0:
192,192,147695,1,0,0:0:0:0:
320,192,147695,1,0,0:0:0:0:
448,192,147695,1,0,0:0:0:0:
192,192,147795,1,0,0:0:0:0:
64,192,147895,1,0,0:0:0:0:
320,192,147895,1,0,0:0:0:0:
192,192,147995,1,0,0:0:0:0:
448,192,148095,1,0,0:0:0:0:
320,192,148095,1,0,0:0:0:0:
192,192,148095,1,0,0:0:0:0:
64,192,148095,1,0,0:0:0:0:
320,192,148195,1,0,0:0:0:0:
192,192,148295,1,0,0:0:0:0:
64,192,148395,1,0,0:0:0:0:
448,192,148395,1,0,0:0:0:0:
448,192,148495,1,0,0:0:0:0:
320,192,148495,1,0,0:0:0:0:
192,192,148495,1,0,0:0:0:0:
64,192,148495,1,0,0:0:0:0:
192,192,148595,1,0,0:0:0:0:
320,192,148695,1,0,0:0:0:0:
448,192,148695,1,0,0:0:0:0:
320,192,148795,1,0,0:0:0:0:
448,192,148895,1,0,0:0:0:0:
320,192,148895,1,0,0:0:0:0:
192,192,148895,1,0,0:0:0:0:
64,192,148895,1,0,0:0:0:0:
192,192,148995,1,0,0:0:0:0:
64,192,149095,1,0,0:0:0:0:
192,192,149195,1,0,0:0:0:0:
448,192,149195,1,0,0:0:0:0:
448,192,149295,1,0,0:0:0:0:
320,192,149295,1,0,0:0:0:0:
192,192,149295,1,0,0:0:0:0:
64,192,149295,1,0,0:0:0:0:
320,192,149395,1,0,0:0:0:0:
192,192,149495,1,0,0:0:0:0:
64,192,149495,1,0,0:0:0:0:
192,192,149595,1,0,0:0:0:0:
64,192,149695,1,0,0:0:0:0:
192,192,149695,1,0,0:0:0:0:
320,192,149695,1,0,0:0:0:0:
448,192,149695,1,0,0:0:0:0:
64,192,149795,1,0,0:0:0:0:
192,192,149895,1,0,0:0:0:0:
448,192,149895,1,0,0:0:0:0:
320,192,149995,1,0,0:0:0:0:
64,192,149995,1,0,0:0:0:0:
448,192,150095,1,0,0:0:0:0:
320,192,150095,1,0,0:0:0:0:
192,192,150095,1,0,0:0:0:0:
64,192,150095,1,0,0:0:0:0:
192,192,150195,1,0,0:0:0:0:
448,192,150195,1,0,0:0:0:0:
320,192,150295,1,0,0:0:0:0:
64,192,150295,1,0,0:0:0:0:
192,192,150395,1,0,0:0:0:0:
448,192,150495,1,0,0:0:0:0:
320,192,150495,1,0,0:0:0:0:
192,192,150495,1,0,0:0:0:0:
64,192,150495,1,0,0:0:0:0:
320,192,150595,1,0,0:0:0:0:
192,192,150695,1,0,0:0:0:0:
64,192,150695,1,0,0:0:0:0:
320,192,150795,1,0,0:0:0:0:
448,192,150895,1,0,0:0:0:0:
320,192,150895,1,0,0:0:0:0:
192,192,150895,1,0,0:0:0:0:
64,192,150895,1,0,0:0:0:0:
192,192,150995,1,0,0:0:0:0:
448,192,151095,1,0,0:0:0:0:
320,192,151095,1,0,0:0:0:0:
320,192,151195,1,0,0:0:0:0:
64,192,151295,1,0,0:0:0:0:
192,192,151295,1,0,0:0:0:0:
448,192,151295,1,0,0:0:0:0:
320,192,151295,1,0,0:0:0:0:
192,192,151395,1,0,0:0:0:0:
448,192,151395,1,0,0:0:0:0:
64,192,151495,1,0,0:0:0:0:
192,192,151595,1,0,0:0:0:0:
320,192,151595,1,0,0:0:0:0:
448,192,151695,1,0,0:0:0:0:
320,192,151695,1,0,0:0:0:0:
192,192,151695,1,0,0:0:0:0:
64,192,151695,1,0,0:0:0:0:
448,192,151795,1,0,0:0:0:0:
320,192,151895,1,0,0:0:0:0:
64,192,151895,1,0,0:0:0:0:
64,192,151995,1,0,0:0:0:0:
64,192,152095,1,0,0:0:0:0:
192,192,152095,1,0,0:0:0:0:
320,192,152095,1,0,0:0:0:0:
448,192,152095,1,0,0:0:0:0:
320,192,152195,1,0,0:0:0:0:
192,192,152295,1,0,0:0:0:0:
64,192,152295,1,0,0:0:0:0:
448,192,152395,1,0,0:0:0:0:
320,192,152395,1,0,0:0:0:0:
448,192,152495,1,0,0:0:0:0:
320,192,152495,1,0,0:0:0:0:
192,192,152495,1,0,0:0:0:0:
64,192,152495,1,0,0:0:0:0:
192,192,152595,1,0,0:0:0:0:
448,192,152695,1,0,0:0:0:0:
320,192,152695,1,0,0:0:0:0:
320,192,152795,1,0,0:0:0:0:
448,192,152895,1,0,0:0:0:0:
192,192,152895,1,0,0:0:0:0:
64,192,152895,1,0,0:0:0:0:
320,192,152895,1,0,0:0:0:0:
192,192,152995,1,0,0:0:0:0:
64,192,152995,1,0,0:0:0:0:
320,192,153095,1,0,0:0:0:0:
448,192,153195,1,0,0:0:0:0:
64,192,153195,1,0,0:0:0:0:
64,192,153295,1,0,0:0:0:0:
192,192,153295,1,0,0:0:0:0:
320,192,153295,1,0,0:0:0:0:
448,192,153295,1,0,0:0:0:0:
320,192,153395,1,0,0:0:0:0:
192,192,153495,1,0,0:0:0:0:
64,192,153495,1,0,0:0:0:0:
320,192,153595,1,0,0:0:0:0:
448,192,153695,1,0,0:0:0:0:
320,192,153695,1,0,0:0:0:0:
192,192,153695,1,0,0:0:0:0:
64,192,153695,1,0,0:0:0:0:
192,192,153795,1,0,0:0:0:0:
64,192,153895,1,0,0:0:0:0:
448,192,153895,1,0,0:0:0:0:
320,192,153995,1,0,0:0:0:0:
64,192,153995,1,0,0:0:0:0:
192,192,154095,1,0,0:0:0:0:
64,192,154095,1,0,0:0:0:0:
320,192,154095,1,0,0:0:0:0:
448,192,154095,1,0,0:0:0:0:
192,192,154195,1,0,0:0:0:0:
320,192,154295,1,0,0:0:0:0:
448,192,154295,1,0,0:0:0:0:
448,192,154395,1,0,0:0:0:0:
448,192,154495,1,0,0:0:0:0:
320,192,154495,1,0,0:0:0:0:
192,192,154495,1,0,0:0:0:0:
64,192,154495,1,0,0:0:0:0:
192,192,154595,1,0,0:0:0:0:
320,192,154595,1,0,0:0:0:0:
64,192,154695,1,0,0:0:0:0:
192,192,154795,1,0,0:0:0:0:
448,192,154795,1,0,0:0:0:0:
448,192,154895,1,0,0:0:0:0:
320,192,154895,1,0,0:0:0:0:
192,192,154895,1,0,0:0:0:0:
64,192,154895,1,0,0:0:0:0:
320,192,154995,1,0,0:0:0:0:
192,192,155095,1,0,0:0:0:0:
448,192,155095,1,0,0:0:0:0:
64,192,155195,1,0,0:0:0:0:
448,192,155295,1,0,0:0:0:0:
320,192,155295,1,0,0:0:0:0:
192,192,155295,1,0,0:0:0:0:
64,192,155295,1,0,0:0:0:0:
192,192,155395,1,0,0:0:0:0:
448,192,155495,1,0,0:0:0:0:
320,192,155495,1,0,0:0:0:0:
192,192,155595,1,0,0:0:0:0:
320,192,155595,1,0,0:0:0:0:
448,192,155695,1,0,0:0:0:0:
192,192,155695,1,0,0:0:0:0:
64,192,155695,1,0,0:0:0:0:
320,192,155695,1,0,0:0:0:0:
64,192,155795,1,0,0:0:0:0:
192,192,155895,1,0,0:0:0:0:
448,192,155895,1,0,0:0:0:0:
448,192,155995,1,0,0:0:0:0:
448,192,156095,1,0,0:0:0:0:
320,192,156095,1,0,0:0:0:0:
192,192,156095,1,0,0:0:0:0:
64,192,156095,1,0,0:0:0:0:
192,192,156195,1,0,0:0:0:0:
64,192,156195,1,0,0:0:0:0:
320,192,156295,1,0,0:0:0:0:
448,192,156395,1,0,0:0:0:0:
192,192,156395,1,0,0:0:0:0:
448,192,156495,1,0,0:0:0:0:
320,192,156495,1,0,0:0:0:0:
192,192,156495,1,0,0:0:0:0:
64,192,156495,1,0,0:0:0:0:
320,192,156595,1,0,0:0:0:0:
64,192,156695,1,0,0:0:0:0:
192,192,156695,1,0,0:0:0:0:
192,192,156795,1,0,0:0:0:0:
64,192,156895,1,0,0:0:0:0:
192,192,156895,1,0,0:0:0:0:
320,192,156895,1,0,0:0:0:0:
448,192,156895,1,0,0:0:0:0:
320,192,156995,1,0,0:0:0:0:
192,192,157095,1,0,0:0:0:0:
64,192,157095,1,0,0:0:0:0:
192,192,157195,1,0,0:0:0:0:
448,192,157195,1,0,0:0:0:0:
448,192,157295,1,0,0:0:0:0:
320,192,157295,1,0,0:0:0:0:
192,192,157295,1,0,0:0:0:0:
64,192,157295,1,0,0:0:0:0:
320,192,157395,1,0,0:0:0:0:
64,192,157495,1,0,0:0:0:0:
192,192,157495,1,0,0:0:0:0:
448,192,157595,1,0,0:0:0:0:
64,192,157695,1,0,0:0:0:0:
192,192,157695,1,0,0:0:0:0:
320,192,157695,1,0,0:0:0:0:
448,192,157695,1,0,0:0:0:0:
64,192,157795,1,0,0:0:0:0:
320,192,157795,1,0,0:0:0:0:
192,192,157895,1,0,0:0:0:0:
448,192,157995,1,0,0:0:0:0:
192,192,157995,1,0,0:0:0:0:
448,192,158095,1,0,0:0:0:0:
320,192,158095,1,0,0:0:0:0:
192,192,158095,1,0,0:0:0:0:
64,192,158095,1,0,0:0:0:0:
320,192,158195,1,0,0:0:0:0:
64,192,158295,1,0,0:0:0:0:
448,192,158295,1,0,0:0:0:0:
192,192,158395,1,0,0:0:0:0:
64,192,158495,1,0,0:0:0:0:
192,192,158495,1,0,0:0:0:0:
448,192,158495,1,0,0:0:0:0:
320,192,158495,1,0,0:0:0:0:
320,192,158595,1,0,0:0:0:0:
192,192,158695,1,0,0:0:0:0:
448,192,158695,1,0,0:0:0:0:
448,192,158795,1,0,0:0:0:0:
320,192,158795,1,0,0:0:0:0:
448,192,158895,1,0,0:0:0:0:
320,192,158895,1,0,0:0:0:0:
192,192,158895,1,0,0:0:0:0:
64,192,158895,1,0,0:0:0:0:
192,192,158995,1,0,0:0:0:0:
64,192,159095,1,0,0:0:0:0:
448,192,159095,1,0,0:0:0:0:
320,192,159195,1,0,0:0:0:0:
448,192,159295,1,0,0:0:0:0:
192,192,159295,1,0,0:0:0:0:
320,192,159295,1,0,0:0:0:0:
64,192,159295,1,0,0:0:0:0:
64,192,159395,1,0,0:0:0:0:
192,192,159395,1,0,0:0:0:0:
320,192,159495,1,0,0:0:0:0:
64,192,159595,1,0,0:0:0:0:
192,192,159595,1,0,0:0:0:0:
64,192,159695,1,0,0:0:0:0:
192,192,159695,1,0,0:0:0:0:
320,192,159695,1,0,0:0:0:0:
448,192,159695,1,0,0:0:0:0:
320,192,159795,1,0,0:0:0:0:
448,192,159895,1,0,0:0:0:0:
64,192,159895,1,0,0:0:0:0:
192,192,159995,1,0,0:0:0:0:
320,192,160095,1,0,0:0:0:0:
448,192,160095,1,0,0:0:0:0:
64,192,160095,1,0,0:0:0:0:
192,192,160095,1,0,0:0:0:0:
320,192,160195,1,0,0:0:0:0:
448,192,160295,1,0,0:0:0:0:
192,192,160295,1,0,0:0:0:0:
320,192,160395,1,0,0:0:0:0:
64,192,160395,1,0,0:0:0:0:
64,192,160495,1,0,0:0:0:0:
192,192,160495,1,0,0:0:0:0:
320,192,160495,1,0,0:0:0:0:
448,192,160495,1,0,0:0:0:0:
192,192,160595,1,0,0:0:0:0:
448,192,160695,1,0,0:0:0:0:
320,192,160695,1,0,0:0:0:0:
192,192,160795,1,0,0:0:0:0:
64,192,160895,1,0,0:0:0:0:
192,192,160895,1,0,0:0:0:0:
320,192,160895,1,0,0:0:0:0:
448,192,160895,1,0,0:0:0:0:
320,192,160995,1,0,0:0:0:0:
448,192,160995,1,0,0:0:0:0:
192,192,161095,1,0,0:0:0:0:
320,192,161195,1,0,0:0:0:0:
448,192,161195,1,0,0:0:0:0:
448,192,161295,1,0,0:0:0:0:
320,192,161295,1,0,0:0:0:0:
192,192,161295,1,0,0:0:0:0:
64,192,161295,1,0,0:0:0:0:
192,192,161395,1,0,0:0:0:0:
64,192,161495,1,0,0:0:0:0:
448,192,161495,1,0,0:0:0:0:
320,192,161595,1,0,0:0:0:0:
192,192,161695,1,0,0:0:0:0:
64,192,161695,1,0,0:0:0:0:
448,192,161695,1,0,0:0:0:0:
320,192,161695,1,0,0:0:0:0:
192,192,161795,1,0,0:0:0:0:
64,192,161895,1,0,0:0:0:0:
320,192,161895,1,0,0:0:0:0:
192,192,161995,1,0,0:0:0:0:
320,192,161995,1,0,0:0:0:0:
448,192,162095,1,0,0:0:0:0:
320,192,162095,1,0,0:0:0:0:
192,192,162095,1,0,0:0:0:0:
64,192,162095,1,0,0:0:0:0:
64,192,162195,1,0,0:0:0:0:
192,192,162295,1,0,0:0:0:0:
448,192,162295,1,0,0:0:0:0:
320,192,162395,1,0,0:0:0:0:
448,192,162495,1,0,0:0:0:0:
320,192,162495,1,0,0:0:0:0:
192,192,162495,1,0,0:0:0:0:
64,192,162495,1,0,0:0:0:0:
192,192,162595,1,0,0:0:0:0:
64,192,162595,1,0,0:0:0:0:
192,192,162695,1,0,0:0:0:0:
448,192,162795,1,0,0:0:0:0:
320,192,162795,1,0,0:0:0:0:
448,192,162895,1,0,0:0:0:0:
320,192,162895,1,0,0:0:0:0:
192,192,162895,1,0,0:0:0:0:
64,192,162895,1,0,0:0:0:0:
192,192,163095,1,0,0:0:0:0:
64,192,163095,1,0,0:0:0:0:
192,192,163195,1,0,0:0:0:0:
320,192,163295,1,0,0:0:0:0:
448,192,163295,1,0,0:0:0:0:
192,192,163295,1,0,0:0:0:0:
64,192,163295,1,0,0:0:0:0:
320,192,163444,1,0,0:0:0:0:
448,192,163444,1,0,0:0:0:0:
64,192,163495,1,0,0:0:0:0:
192,192,163495,1,0,0:0:0:0:
320,192,163544,1,0,0:0:0:0:
448,192,163544,1,0,0:0:0:0:
192,192,163595,1,0,0:0:0:0:
64,192,163595,1,0,0:0:0:0:
448,192,163695,1,0,0:0:0:0:
320,192,163695,1,0,0:0:0:0:
192,192,163695,1,0,0:0:0:0:
64,192,163695,1,0,0:0:0:0:
320,192,163795,1,0,0:0:0:0:
192,192,163895,1,0,0:0:0:0:
64,192,163895,1,0,0:0:0:0:
192,192,163995,1,0,0:0:0:0:
448,192,164095,1,0,0:0:0:0:
320,192,164095,1,0,0:0:0:0:
64,192,164095,1,0,0:0:0:0:
320,192,164195,1,0,0:0:0:0:
320,192,164295,1,0,0:0:0:0:
64,192,164295,1,0,0:0:0:0:
192,192,164395,1,0,0:0:0:0:
448,192,164395,1,0,0:0:0:0:
64,192,164495,1,0,0:0:0:0:
320,192,164495,1,0,0:0:0:0:
192,192,164595,1,0,0:0:0:0:
192,192,164695,1,0,0:0:0:0:
448,192,164695,1,0,0:0:0:0:
320,192,164795,1,0,0:0:0:0:
448,192,164795,1,0,0:0:0:0:
192,192,164895,1,0,0:0:0:0:
64,192,164895,1,0,0:0:0:0:
192,192,164995,1,0,0:0:0:0:
448,192,165095,1,0,0:0:0:0:
64,192,165095,1,0,0:0:0:0:
320,192,165195,1,0,0:0:0:0:
448,192,165195,1,0,0:0:0:0:
192,192,165295,1,0,0:0:0:0:
64,192,165295,1,0,0:0:0:0:
192,192,165395,1,0,0:0:0:0:
64,192,165495,1,0,0:0:0:0:
320,192,165495,1,0,0:0:0:0:
192,192,165595,1,0,0:0:0:0:
448,192,165595,1,0,0:0:0:0:
64,192,165695,1,0,0:0:0:0:
448,192,165695,1,0,0:0:0:0:
320,192,165795,1,0,0:0:0:0:
320,192,165895,1,0,0:0:0:0:
64,192,165895,1,0,0:0:0:0:
192,192,165995,1,0,0:0:0:0:
64,192,165995,1,0,0:0:0:0:
448,192,166095,1,0,0:0:0:0:
192,192,166095,1,0,0:0:0:0:
320,192,166195,1,0,0:0:0:0:
192,192,166295,1,0,0:0:0:0:
448,192,166295,1,0,0:0:0:0:
64,192,166395,1,0,0:0:0:0:
320,192,166395,1,0,0:0:0:0:
192,192,166495,1,0,0:0:0:0:
64,192,166495,1,0,0:0:0:0:
320,192,166595,1,0,0:0:0:0:
192,192,166695,1,0,0:0:0:0:
448,192,166695,1,0,0:0:0:0:
320,192,166795,1,0,0:0:0:0:
64,192,166795,1,0,0:0:0:0:
192,192,166895,1,0,0:0:0:0:
448,192,166895,1,0,0:0:0:0:
448,192,166995,1,0,0:0:0:0:
64,192,167095,1,0,0:0:0:0:
192,192,167095,1,0,0:0:0:0:
320,192,167195,1,0,0:0:0:0:
448,192,167195,1,0,0:0:0:0:
192,192,167295,1,0,0:0:0:0:
64,192,167295,1,0,0:0:0:0:
320,192,167395,1,0,0:0:0:0:
448,192,167495,1,0,0:0:0:0:
64,192,167495,1,0,0:0:0:0:
192,192,167595,1,0,0:0:0:0:
320,192,167595,1,0,0:0:0:0:
448,192,167695,1,0,0:0:0:0:
64,192,167695,1,0,0:0:0:0:
320,192,167795,1,0,0:0:0:0:
64,192,167895,1,0,0:0:0:0:
192,192,167895,1,0,0:0:0:0:
320,192,167995,1,0,0:0:0:0:
448,192,167995,1,0,0:0:0:0:
64,192,168095,1,0,0:0:0:0:
192,192,168095,1,0,0:0:0:0:
320,192,168195,1,0,0:0:0:0:
448,192,168295,1,0,0:0:0:0:
192,192,168295,1,0,0:0:0:0:
192,192,168395,1,0,0:0:0:0:
64,192,168395,1,0,0:0:0:0:
64,192,168495,1,0,0:0:0:0:
448,192,168495,1,0,0:0:0:0:
320,192,168595,1,0,0:0:0:0:
192,192,168695,1,0,0:0:0:0:
64,192,168695,1,0,0:0:0:0:
192,192,168795,1,0,0:0:0:0:
448,192,168795,1,0,0:0:0:0:
448,192,168895,1,0,0:0:0:0:
320,192,168895,1,0,0:0:0:0:
192,192,168995,1,0,0:0:0:0:
64,192,169095,1,0,0:0:0:0:
320,192,169095,1,0,0:0:0:0:
448,192,169195,1,0,0:0:0:0:
192,192,169195,1,0,0:0:0:0:
320,192,169295,1,0,0:0:0:0:
192,192,169295,1,0,0:0:0:0:
64,192,169395,1,0,0:0:0:0:
64,192,169495,1,0,0:0:0:0:
448,192,169495,1,0,0:0:0:0:
320,192,169595,1,0,0:0:0:0:
192,192,169595,1,0,0:0:0:0:
448,192,169695,1,0,0:0:0:0:
320,192,169695,1,0,0:0:0:0:
192,192,169795,1,0,0:0:0:0:
64,192,169895,1,0,0:0:0:0:
320,192,169895,1,0,0:0:0:0:
448,192,169995,1,0,0:0:0:0:
320,192,169995,1,0,0:0:0:0:
192,192,170095,1,0,0:0:0:0:
64,192,170095,1,0,0:0:0:0:
192,192,170195,1,0,0:0:0:0:
448,192,170295,1,0,0:0:0:0:
64,192,170295,1,0,0:0:0:0:
320,192,170395,1,0,0:0:0:0:
192,192,170395,1,0,0:0:0:0:
64,192,170495,1,0,0:0:0:0:
448,192,170495,1,0,0:0:0:0:
192,192,170495,1,0,0:0:0:0:
320,192,170595,1,0,0:0:0:0:
192,192,170695,1,0,0:0:0:0:
64,192,170695,1,0,0:0:0:0:
320,192,170795,1,0,0:0:0:0:
448,192,170795,1,0,0:0:0:0:
64,192,170895,1,0,0:0:0:0:
192,192,170895,1,0,0:0:0:0:
192,192,170995,1,0,0:0:0:0:
448,192,171095,1,0,0:0:0:0:
64,192,171095,1,0,0:0:0:0:
192,192,171195,1,0,0:0:0:0:
320,192,171195,1,0,0:0:0:0:
448,192,171295,1,0,0:0:0:0:
64,192,171295,1,0,0:0:0:0:
192,192,171395,1,0,0:0:0:0:
320,192,171495,1,0,0:0:0:0:
448,192,171495,1,0,0:0:0:0:
192,192,171595,1,0,0:0:0:0:
64,192,171595,1,0,0:0:0:0:
448,192,171695,1,0,0:0:0:0:
320,192,171695,1,0,0:0:0:0:
192,192,171795,1,0,0:0:0:0:
64,192,171895,1,0,0:0:0:0:
320,192,171895,1,0,0:0:0:0:
192,192,171995,1,0,0:0:0:0:
448,192,171995,1,0,0:0:0:0:
64,192,172095,1,0,0:0:0:0:
320,192,172095,1,0,0:0:0:0:
448,192,172095,1,0,0:0:0:0:
192,192,172195,1,0,0:0:0:0:
320,192,172295,1,0,0:0:0:0:
448,192,172295,1,0,0:0:0:0:
192,192,172395,1,0,0:0:0:0:
64,192,172395,1,0,0:0:0:0:
448,192,172495,1,0,0:0:0:0:
64,192,172495,1,0,0:0:0:0:
192,192,172595,1,0,0:0:0:0:
320,192,172695,1,0,0:0:0:0:
448,192,172695,1,0,0:0:0:0:
320,192,172795,1,0,0:0:0:0:
64,192,172795,1,0,0:0:0:0:
448,192,172895,1,0,0:0:0:0:
192,192,172895,1,0,0:0:0:0:
192,192,172995,1,0,0:0:0:0:
64,192,173095,1,0,0:0:0:0:
448,192,173095,1,0,0:0:0:0:
320,192,173195,1,0,0:0:0:0:
192,192,173195,1,0,0:0:0:0:
64,192,173295,1,0,0:0:0:0:
192,192,173295,1,0,0:0:0:0:
320,192,173395,1,0,0:0:0:0:
64,192,173495,1,0,0:0:0:0:
192,192,173495,1,0,0:0:0:0:
320,192,173595,1,0,0:0:0:0:
448,192,173595,1,0,0:0:0:0:
192,192,173695,1,0,0:0:0:0:
64,192,173695,1,0,0:0:0:0:
448,192,173695,1,0,0:0:0:0:
320,192,173795,1,0,0:0:0:0:
192,192,173895,1,0,0:0:0:0:
448,192,173895,1,0,0:0:0:0:
64,192,173995,1,0,0:0:0:0:
320,192,173995,1,0,0:0:0:0:
448,192,174095,1,0,0:0:0:0:
192,192,174095,1,0,0:0:0:0:
320,192,174195,1,0,0:0:0:0:
64,192,174295,1,0,0:0:0:0:
192,192,174295,1,0,0:0:0:0:
192,192,174395,1,0,0:0:0:0:
320,192,174395,1,0,0:0:0:0:
448,192,174495,1,0,0:0:0:0:
64,192,174495,1,0,0:0:0:0:
192,192,174595,1,0,0:0:0:0:
448,192,174695,1,0,0:0:0:0:
64,192,174695,1,0,0:0:0:0:
320,192,174795,1,0,0:0:0:0:
64,192,174795,1,0,0:0:0:0:
192,192,174895,1,0,0:0:0:0:
448,192,174895,1,0,0:0:0:0:
192,192,174995,1,0,0:0:0:0:
64,192,175095,1,0,0:0:0:0:
320,192,175095,1,0,0:0:0:0:
448,192,175195,1,0,0:0:0:0:
192,192,175195,1,0,0:0:0:0:
448,192,175295,1,0,0:0:0:0:
320,192,175295,1,0,0:0:0:0:
64,192,175295,1,0,0:0:0:0:
192,192,175395,1,0,0:0:0:0:
64,192,175395,1,0,0:0:0:0:
320,192,175495,1,0,0:0:0:0:
320,192,175595,1,0,0:0:0:0:
64,192,175595,1,0,0:0:0:0:
192,192,175595,1,0,0:0:0:0:
192,192,175695,1,0,0:0:0:0:
320,192,175795,1,0,0:0:0:0:
64,192,175795,1,0,0:0:0:0:
448,192,175795,1,0,0:0:0:0:
320,192,175895,1,0,0:0:0:0:
192,192,175895,1,0,0:0:0:0:
192,192,175995,1,0,0:0:0:0:
64,192,176095,1,0,0:0:0:0:
448,192,176095,1,0,0:0:0:0:
320,192,176195,1,0,0:0:0:0:
448,192,176295,1,0,0:0:0:0:
192,192,176295,1,0,0:0:0:0:
64,192,176295,1,0,0:0:0:0:
320,192,176395,1,0,0:0:0:0:
192,192,176495,1,0,0:0:0:0:
64,192,176495,1,0,0:0:0:0:
320,192,176495,1,0,0:0:0:0:
192,192,176595,1,0,0:0:0:0:
448,192,176695,1,0,0:0:0:0:
64,192,176695,1,0,0:0:0:0:
192,192,176795,1,0,0:0:0:0:
320,192,176795,1,0,0:0:0:0:
448,192,176795,1,0,0:0:0:0:
64,192,176895,1,0,0:0:0:0:
192,192,176895,1,0,0:0:0:0:
320,192,176895,1,0,0:0:0:0:
448,192,176895,1,0,0:0:0:0:
