osu file format v14

[General]
AudioFilename: audio 1.100x.mp3
AudioLeadIn: 0
PreviewTime: 0
Countdown: 0
SampleSet: None
StackLeniency: 0.7
Mode: 3
LetterboxInBreaks: 0
SpecialStyle: 0
WidescreenStoryboard: 1

[Editor]
DistanceSpacing: 0.6
BeatDivisor: 4
GridSize: 4
TimelineZoom: 2.1

[Metadata]
Title:Nina Bonita
TitleUnicode:NiƱa Bonita
Artist:Chino y Nacho
ArtistUnicode:Chino y Nacho
Creator:Mieruosu
Version:Jacks 1.1x (132bpm)
Source:
Tags:osutrainer
BeatmapID:4537579
BeatmapSetID:2153513

[Difficulty]
HPDrainRate:7
CircleSize:4
OverallDifficulty:8.5
ApproachRate:5
SliderMultiplier:1.4
SliderTickRate:1

[Events]
//Background and Video events
0,0,"ea7f9d3f86856e47333e9cfc12963ab5.jpg",0,0
//Break Periods
//Storyboard Layer 0 (Background)
//Storyboard Layer 1 (Fail)
//Storyboard Layer 2 (Pass)
//Storyboard Layer 3 (Foreground)
//Storyboard Layer 4 (Overlay)
//Storyboard Sound Samples

[TimingPoints]
11926,454.545454545455,4,1,0,100,1,0

[HitObjects]
64,192,10789,5,0,0:0:0:0:
192,192,10790,1,0,0:0:0:0:
320,192,10903,1,0,0:0:0:0:
448,192,10903,1,0,0:0:0:0:
192,192,11017,1,0,0:0:0:0:
64,192,11017,1,0,0:0:0:0:
192,192,11130,1,0,0:0:0:0:
320,192,11244,1,0,0:0:0:0:
448,192,11244,1,0,0:0:0:0:
320,192,11358,1,0,0:0:0:0:
64,192,11358,1,0,0:0:0:0:
192,192,11471,1,0,0:0:0:0:
64,192,11471,1,0,0:0:0:0:
448,192,11471,1,0,0:0:0:0:
192,192,11585,1,0,0:0:0:0:
320,192,11699,1,0,0:0:0:0:
448,192,11699,1,0,0:0:0:0:
64,192,11699,1,0,0:0:0:0:
192,192,11812,1,0,0:0:0:0:
192,192,11925,1,0,0:0:0:0:
64,192,11925,1,0,0:0:0:0:
320,192,11925,1,0,0:0:0:0:
448,192,11925,1,0,0:0:0:0:
448,192,12040,1,0,0:0:0:0:
448,192,12153,1,0,0:0:0:0:
320,192,12267,1,0,0:0:0:0:
192,192,12267,1,0,0:0:0:0:
448,192,12380,1,0,0:0:0:0:
64,192,12380,1,0,0:0:0:0:
192,192,12380,1,0,0:0:0:0:
320,192,12380,1,0,0:0:0:0:
192,192,12494,1,0,0:0:0:0:
64,192,12608,1,0,0:0:0:0:
320,192,12608,1,0,0:0:0:0:
192,192,12721,1,0,0:0:0:0:
448,192,12835,1,0,0:0:0:0:
320,192,12835,1,0,0:0:0:0:
64,192,12835,1,0,0:0:0:0:
320,192,12949,1,0,0:0:0:0:
320,192,13062,1,0,0:0:0:0:
64,192,13176,1,0,0:0:0:0:
192,192,13176,1,0,0:0:0:0:
64,192,13290,1,0,0:0:0:0:
320,192,13290,1,0,0:0:0:0:
448,192,13290,1,0,0:0:0:0:
192,192,13290,1,0,0:0:0:0:
320,192,13403,1,0,0:0:0:0:
64,192,13517,1,0,0:0:0:0:
448,192,13517,1,0,0:0:0:0:
192,192,13630,1,0,0:0:0:0:
64,192,13744,1,0,0:0:0:0:
320,192,13744,1,0,0:0:0:0:
448,192,13744,1,0,0:0:0:0:
64,192,13858,1,0,0:0:0:0:
64,192,13971,1,0,0:0:0:0:
320,192,14085,1,0,0:0:0:0:
448,192,14085,1,0,0:0:0:0:
320,192,14199,1,0,0:0:0:0:
192,192,14199,1,0,0:0:0:0:
64,192,14199,1,0,0:0:0:0:
448,192,14199,1,0,0:0:0:0:
192,192,14312,1,0,0:0:0:0:
64,192,14426,1,0,0:0:0:0:
320,192,14426,1,0,0:0:0:0:
448,192,14540,1,0,0:0:0:0:
320,192,14653,1,0,0:0:0:0:
448,192,14653,1,0,0:0:0:0:
64,192,14653,1,0,0:0:0:0:
320,192,14767,1,0,0:0:0:0:
320,192,14880,1,0,0:0:0:0:
64,192,14994,1,0,0:0:0:0:
448,192,14994,1,0,0:0:0:0:
448,192,15108,1,0,0:0:0:0:
192,192,15108,1,0,0:0:0:0:
64,192,15108,1,0,0:0:0:0:
320,192,15108,1,0,0:0:0:0:
192,192,15221,1,0,0:0:0:0:
320,192,15335,1,0,0:0:0:0:
448,192,15335,1,0,0:0:0:0:
64,192,15449,1,0,0:0:0:0:
64,192,15562,1,0,0:0:0:0:
320,192,15562,1,0,0:0:0:0:
448,192,15562,1,0,0:0:0:0:
320,192,15676,1,0,0:0:0:0:
192,192,15790,1,0,0:0:0:0:
64,192,15903,1,0,0:0:0:0:
320,192,15903,1,0,0:0:0:0:
448,192,16017,1,0,0:0:0:0:
320,192,16017,1,0,0:0:0:0:
192,192,16017,1,0,0:0:0:0:
64,192,16017,1,0,0:0:0:0:
192,192,16130,1,0,0:0:0:0:
448,192,16244,1,0,0:0:0:0:
64,192,16244,1,0,0:0:0:0:
320,192,16358,1,0,0:0:0:0:
448,192,16471,1,0,0:0:0:0:
192,192,16471,1,0,0:0:0:0:
64,192,16471,1,0,0:0:0:0:
192,192,16585,1,0,0:0:0:0:
192,192,16699,1,0,0:0:0:0:
64,192,16812,1,0,0:0:0:0:
320,192,16812,1,0,0:0:0:0:
64,192,16926,1,0,0:0:0:0:
192,192,16926,1,0,0:0:0:0:
320,192,16926,1,0,0:0:0:0:
448,192,16926,1,0,0:0:0:0:
192,192,17040,1,0,0:0:0:0:
448,192,17153,1,0,0:0:0:0:
320,192,17153,1,0,0:0:0:0:
192,192,17267,1,0,0:0:0:0:
64,192,17380,1,0,0:0:0:0:
192,192,17380,1,0,0:0:0:0:
448,192,17380,1,0,0:0:0:0:
64,192,17494,1,0,0:0:0:0:
64,192,17608,1,0,0:0:0:0:
448,192,17721,1,0,0:0:0:0:
192,192,17721,1,0,0:0:0:0:
448,192,17835,1,0,0:0:0:0:
320,192,17835,1,0,0:0:0:0:
192,192,17835,1,0,0:0:0:0:
64,192,17835,1,0,0:0:0:0:
320,192,17949,1,0,0:0:0:0:
64,192,18062,1,0,0:0:0:0:
448,192,18062,1,0,0:0:0:0:
192,192,18176,1,0,0:0:0:0:
320,192,18290,1,0,0:0:0:0:
192,192,18290,1,0,0:0:0:0:
64,192,18290,1,0,0:0:0:0:
320,192,18403,1,0,0:0:0:0:
320,192,18517,1,0,0:0:0:0:
192,192,18630,1,0,0:0:0:0:
64,192,18630,1,0,0:0:0:0:
64,192,18744,1,0,0:0:0:0:
192,192,18744,1,0,0:0:0:0:
320,192,18744,1,0,0:0:0:0:
448,192,18744,1,0,0:0:0:0:
320,192,18858,1,0,0:0:0:0:
64,192,18971,1,0,0:0:0:0:
192,192,18971,1,0,0:0:0:0:
320,192,19085,1,0,0:0:0:0:
448,192,19199,1,0,0:0:0:0:
320,192,19199,1,0,0:0:0:0:
192,192,19199,1,0,0:0:0:0:
192,192,19312,1,0,0:0:0:0:
192,192,19426,1,0,0:0:0:0:
64,192,19540,1,0,0:0:0:0:
320,192,19540,1,0,0:0:0:0:
448,192,19653,1,0,0:0:0:0:
320,192,19653,1,0,0:0:0:0:
192,192,19653,1,0,0:0:0:0:
64,192,19653,1,0,0:0:0:0:
192,192,19767,1,0,0:0:0:0:
448,192,19880,1,0,0:0:0:0:
320,192,19880,1,0,0:0:0:0:
64,192,19994,1,0,0:0:0:0:
320,192,20108,1,0,0:0:0:0:
448,192,20108,1,0,0:0:0:0:
64,192,20108,1,0,0:0:0:0:
320,192,20221,1,0,0:0:0:0:
320,192,20335,1,0,0:0:0:0:
192,192,20449,1,0,0:0:0:0:
448,192,20449,1,0,0:0:0:0:
448,192,20562,1,0,0:0:0:0:
320,192,20562,1,0,0:0:0:0:
192,192,20562,1,0,0:0:0:0:
64,192,20562,1,0,0:0:0:0:
64,192,20676,1,0,0:0:0:0:
64,192,20790,1,0,0:0:0:0:
320,192,20790,1,0,0:0:0:0:
192,192,20903,1,0,0:0:0:0:
448,192,21017,1,0,0:0:0:0:
64,192,21017,1,0,0:0:0:0:
320,192,21017,1,0,0:0:0:0:
320,192,21130,1,0,0:0:0:0:
320,192,21244,1,0,0:0:0:0:
192,192,21358,1,0,0:0:0:0:
64,192,21358,1,0,0:0:0:0:
64,192,21471,1,0,0:0:0:0:
320,192,21471,1,0,0:0:0:0:
448,192,21471,1,0,0:0:0:0:
192,192,21471,1,0,0:0:0:0:
448,192,21585,1,0,0:0:0:0:
448,192,21699,1,0,0:0:0:0:
192,192,21699,1,0,0:0:0:0:
320,192,21812,1,0,0:0:0:0:
192,192,21926,1,0,0:0:0:0:
64,192,21926,1,0,0:0:0:0:
320,192,21926,1,0,0:0:0:0:
192,192,22040,1,0,0:0:0:0:
192,192,22153,1,0,0:0:0:0:
320,192,22267,1,0,0:0:0:0:
448,192,22267,1,0,0:0:0:0:
448,192,22380,1,0,0:0:0:0:
320,192,22380,1,0,0:0:0:0:
192,192,22380,1,0,0:0:0:0:
64,192,22380,1,0,0:0:0:0:
64,192,22494,1,0,0:0:0:0:
64,192,22608,1,0,0:0:0:0:
320,192,22608,1,0,0:0:0:0:
448,192,22721,1,0,0:0:0:0:
448,192,22835,1,0,0:0:0:0:
320,192,22835,1,0,0:0:0:0:
64,192,22835,1,0,0:0:0:0:
192,192,22949,1,0,0:0:0:0:
192,192,23062,1,0,0:0:0:0:
320,192,23176,1,0,0:0:0:0:
64,192,23176,1,0,0:0:0:0:
64,192,23290,1,0,0:0:0:0:
192,192,23290,1,0,0:0:0:0:
320,192,23290,1,0,0:0:0:0:
448,192,23290,1,0,0:0:0:0:
320,192,23403,1,0,0:0:0:0:
448,192,23517,1,0,0:0:0:0:
192,192,23517,1,0,0:0:0:0:
320,192,23630,1,0,0:0:0:0:
448,192,23744,1,0,0:0:0:0:
192,192,23744,1,0,0:0:0:0:
64,192,23744,1,0,0:0:0:0:
192,192,23858,1,0,0:0:0:0:
192,192,23971,1,0,0:0:0:0:
320,192,24085,1,0,0:0:0:0:
448,192,24085,1,0,0:0:0:0:
448,192,24199,1,0,0:0:0:0:
320,192,24199,1,0,0:0:0:0:
192,192,24199,1,0,0:0:0:0:
64,192,24199,1,0,0:0:0:0:
192,192,24312,1,0,0:0:0:0:
320,192,24426,1,0,0:0:0:0:
64,192,24426,1,0,0:0:0:0:
192,192,24540,1,0,0:0:0:0:
320,192,24653,1,0,0:0:0:0:
192,192,24653,1,0,0:0:0:0:
448,192,24653,1,0,0:0:0:0:
320,192,24767,1,0,0:0:0:0:
320,192,24880,1,0,0:0:0:0:
64,192,24994,1,0,0:0:0:0:
448,192,24994,1,0,0:0:0:0:
448,192,25108,1,0,0:0:0:0:
320,192,25108,1,0,0:0:0:0:
192,192,25108,1,0,0:0:0:0:
64,192,25108,1,0,0:0:0:0:
192,192,25221,1,0,0:0:0:0:
320,192,25335,1,0,0:0:0:0:
448,192,25335,1,0,0:0:0:0:
320,192,25449,1,0,0:0:0:0:
448,192,25562,1,0,0:0:0:0:
192,192,25562,1,0,0:0:0:0:
64,192,25562,1,0,0:0:0:0:
192,192,25676,1,0,0:0:0:0:
192,192,25790,1,0,0:0:0:0:
320,192,25903,1,0,0:0:0:0:
448,192,25903,1,0,0:0:0:0:
192,192,25960,1,0,0:0:0:0:
64,192,25960,1,0,0:0:0:0:
320,192,26017,1,0,0:0:0:0:
448,192,26017,1,0,0:0:0:0:
192,192,26130,1,0,0:0:0:0:
64,192,26130,1,0,0:0:0:0:
64,192,26244,1,0,0:0:0:0:
320,192,26244,1,0,0:0:0:0:
192,192,26358,1,0,0:0:0:0:
448,192,26358,1,0,0:0:0:0:
448,192,26471,1,0,0:0:0:0:
320,192,26471,1,0,0:0:0:0:
192,192,26471,1,0,0:0:0:0:
64,192,26471,1,0,0:0:0:0:
64,192,26585,1,0,0:0:0:0:
64,192,26699,1,0,0:0:0:0:
320,192,26812,1,0,0:0:0:0:
448,192,26812,1,0,0:0:0:0:
448,192,26926,1,0,0:0:0:0:
192,192,26926,1,0,0:0:0:0:
64,192,26926,1,0,0:0:0:0:
192,192,27040,1,0,0:0:0:0:
192,192,27153,1,0,0:0:0:0:
64,192,27267,1,0,0:0:0:0:
448,192,27267,1,0,0:0:0:0:
448,192,27380,1,0,0:0:0:0:
192,192,27380,1,0,0:0:0:0:
64,192,27380,1,0,0:0:0:0:
192,192,27494,1,0,0:0:0:0:
192,192,27608,1,0,0:0:0:0:
448,192,27721,1,0,0:0:0:0:
64,192,27721,1,0,0:0:0:0:
448,192,27835,1,0,0:0:0:0:
64,192,27835,1,0,0:0:0:0:
320,192,27835,1,0,0:0:0:0:
320,192,27949,1,0,0:0:0:0:
320,192,28062,1,0,0:0:0:0:
64,192,28062,1,0,0:0:0:0:
192,192,28176,1,0,0:0:0:0:
320,192,28290,1,0,0:0:0:0:
448,192,28290,1,0,0:0:0:0:
192,192,28290,1,0,0:0:0:0:
64,192,28290,1,0,0:0:0:0:
320,192,28403,1,0,0:0:0:0:
320,192,28517,1,0,0:0:0:0:
192,192,28630,1,0,0:0:0:0:
64,192,28630,1,0,0:0:0:0:
64,192,28744,1,0,0:0:0:0:
192,192,28744,1,0,0:0:0:0:
448,192,28744,1,0,0:0:0:0:
448,192,28858,1,0,0:0:0:0:
192,192,28971,1,0,0:0:0:0:
448,192,28971,1,0,0:0:0:0:
320,192,29085,1,0,0:0:0:0:
448,192,29199,1,0,0:0:0:0:
192,192,29199,1,0,0:0:0:0:
64,192,29199,1,0,0:0:0:0:
64,192,29312,1,0,0:0:0:0:
64,192,29426,1,0,0:0:0:0:
192,192,29540,1,0,0:0:0:0:
320,192,29540,1,0,0:0:0:0:
448,192,29653,1,0,0:0:0:0:
320,192,29653,1,0,0:0:0:0:
64,192,29653,1,0,0:0:0:0:
448,192,29767,1,0,0:0:0:0:
64,192,29880,1,0,0:0:0:0:
320,192,29880,1,0,0:0:0:0:
192,192,29994,1,0,0:0:0:0:
448,192,30108,1,0,0:0:0:0:
320,192,30108,1,0,0:0:0:0:
192,192,30108,1,0,0:0:0:0:
64,192,30108,1,0,0:0:0:0:
320,192,30221,1,0,0:0:0:0:
320,192,30335,1,0,0:0:0:0:
192,192,30449,1,0,0:0:0:0:
64,192,30449,1,0,0:0:0:0:
192,192,30562,1,0,0:0:0:0:
448,192,30562,1,0,0:0:0:0:
320,192,30562,1,0,0:0:0:0:
320,192,30676,1,0,0:0:0:0:
192,192,30790,1,0,0:0:0:0:
448,192,30790,1,0,0:0:0:0:
320,192,30903,1,0,0:0:0:0:
192,192,31017,1,0,0:0:0:0:
64,192,31017,1,0,0:0:0:0:
448,192,31017,1,0,0:0:0:0:
192,192,31130,1,0,0:0:0:0:
192,192,31244,1,0,0:0:0:0:
320,192,31358,1,0,0:0:0:0:
448,192,31358,1,0,0:0:0:0:
448,192,31471,1,0,0:0:0:0:
320,192,31471,1,0,0:0:0:0:
64,192,31471,1,0,0:0:0:0:
192,192,31585,1,0,0:0:0:0:
64,192,31699,1,0,0:0:0:0:
320,192,31699,1,0,0:0:0:0:
448,192,31812,1,0,0:0:0:0:
448,192,31926,1,0,0:0:0:0:
320,192,31926,1,0,0:0:0:0:
192,192,31926,1,0,0:0:0:0:
64,192,31926,1,0,0:0:0:0:
192,192,32040,1,0,0:0:0:0:
64,192,32153,1,0,0:0:0:0:
64,192,32267,1,0,0:0:0:0:
192,192,32267,1,0,0:0:0:0:
64,192,32380,1,0,0:0:0:0:
192,192,32380,1,0,0:0:0:0:
448,192,32380,1,0,0:0:0:0:
320,192,32494,1,0,0:0:0:0:
192,192,32608,1,0,0:0:0:0:
448,192,32608,1,0,0:0:0:0:
448,192,32721,1,0,0:0:0:0:
320,192,32835,1,0,0:0:0:0:
64,192,32835,1,0,0:0:0:0:
192,192,32835,1,0,0:0:0:0:
192,192,32949,1,0,0:0:0:0:
192,192,33062,1,0,0:0:0:0:
320,192,33176,1,0,0:0:0:0:
448,192,33176,1,0,0:0:0:0:
448,192,33290,1,0,0:0:0:0:
320,192,33290,1,0,0:0:0:0:
64,192,33290,1,0,0:0:0:0:
64,192,33403,1,0,0:0:0:0:
64,192,33517,1,0,0:0:0:0:
320,192,33630,1,0,0:0:0:0:
192,192,33630,1,0,0:0:0:0:
448,192,33744,1,0,0:0:0:0:
320,192,33744,1,0,0:0:0:0:
64,192,33744,1,0,0:0:0:0:
192,192,33744,1,0,0:0:0:0:
448,192,33858,1,0,0:0:0:0:
448,192,33971,1,0,0:0:0:0:
64,192,34085,1,0,0:0:0:0:
320,192,34085,1,0,0:0:0:0:
320,192,34199,1,0,0:0:0:0:
64,192,34199,1,0,0:0:0:0:
448,192,34199,1,0,0:0:0:0:
320,192,34312,1,0,0:0:0:0:
64,192,34426,1,0,0:0:0:0:
448,192,34426,1,0,0:0:0:0:
320,192,34540,1,0,0:0:0:0:
192,192,34653,1,0,0:0:0:0:
64,192,34653,1,0,0:0:0:0:
448,192,34653,1,0,0:0:0:0:
192,192,34767,1,0,0:0:0:0:
320,192,34880,1,0,0:0:0:0:
192,192,34994,1,0,0:0:0:0:
448,192,34994,1,0,0:0:0:0:
448,192,35108,1,0,0:0:0:0:
64,192,35108,1,0,0:0:0:0:
320,192,35108,1,0,0:0:0:0:
192,192,35221,1,0,0:0:0:0:
64,192,35335,1,0,0:0:0:0:
320,192,35335,1,0,0:0:0:0:
192,192,35449,1,0,0:0:0:0:
192,192,35562,1,0,0:0:0:0:
64,192,35562,1,0,0:0:0:0:
320,192,35562,1,0,0:0:0:0:
448,192,35562,1,0,0:0:0:0:
64,192,35676,1,0,0:0:0:0:
192,192,35790,1,0,0:0:0:0:
64,192,35903,1,0,0:0:0:0:
320,192,35903,1,0,0:0:0:0:
448,192,36017,1,0,0:0:0:0:
192,192,36017,1,0,0:0:0:0:
64,192,36017,1,0,0:0:0:0:
320,192,36130,1,0,0:0:0:0:
320,192,36244,1,0,0:0:0:0:
64,192,36244,1,0,0:0:0:0:
192,192,36358,1,0,0:0:0:0:
64,192,36471,1,0,0:0:0:0:
192,192,36471,1,0,0:0:0:0:
320,192,36471,1,0,0:0:0:0:
448,192,36471,1,0,0:0:0:0:
320,192,36585,1,0,0:0:0:0:
320,192,36699,1,0,0:0:0:0:
64,192,36812,1,0,0:0:0:0:
192,192,36812,1,0,0:0:0:0:
448,192,36926,1,0,0:0:0:0:
320,192,36926,1,0,0:0:0:0:
64,192,36926,1,0,0:0:0:0:
192,192,37040,1,0,0:0:0:0:
320,192,37153,1,0,0:0:0:0:
64,192,37153,1,0,0:0:0:0:
320,192,37267,1,0,0:0:0:0:
448,192,37380,1,0,0:0:0:0:
192,192,37380,1,0,0:0:0:0:
64,192,37380,1,0,0:0:0:0:
320,192,37380,1,0,0:0:0:0:
448,192,37494,1,0,0:0:0:0:
448,192,37608,1,0,0:0:0:0:
320,192,37721,1,0,0:0:0:0:
192,192,37721,1,0,0:0:0:0:
448,192,37835,1,0,0:0:0:0:
192,192,37835,1,0,0:0:0:0:
64,192,37835,1,0,0:0:0:0:
320,192,37949,1,0,0:0:0:0:
64,192,38062,1,0,0:0:0:0:
320,192,38062,1,0,0:0:0:0:
192,192,38176,1,0,0:0:0:0:
448,192,38290,1,0,0:0:0:0:
320,192,38290,1,0,0:0:0:0:
64,192,38290,1,0,0:0:0:0:
192,192,38403,1,0,0:0:0:0:
192,192,38517,1,0,0:0:0:0:
64,192,38630,1,0,0:0:0:0:
320,192,38630,1,0,0:0:0:0:
320,192,38744,1,0,0:0:0:0:
192,192,38744,1,0,0:0:0:0:
64,192,38744,1,0,0:0:0:0:
192,192,38858,1,0,0:0:0:0:
64,192,38971,1,0,0:0:0:0:
320,192,38971,1,0,0:0:0:0:
64,192,39085,1,0,0:0:0:0:
192,192,39199,1,0,0:0:0:0:
64,192,39199,1,0,0:0:0:0:
320,192,39199,1,0,0:0:0:0:
448,192,39199,1,0,0:0:0:0:
192,192,39312,1,0,0:0:0:0:
320,192,39426,1,0,0:0:0:0:
448,192,39540,1,0,0:0:0:0:
64,192,39540,1,0,0:0:0:0:
448,192,39653,1,0,0:0:0:0:
192,192,39653,1,0,0:0:0:0:
64,192,39653,1,0,0:0:0:0:
320,192,39767,1,0,0:0:0:0:
192,192,39880,1,0,0:0:0:0:
64,192,39880,1,0,0:0:0:0:
192,192,39994,1,0,0:0:0:0:
448,192,40108,1,0,0:0:0:0:
320,192,40108,1,0,0:0:0:0:
64,192,40108,1,0,0:0:0:0:
320,192,40221,1,0,0:0:0:0:
192,192,40335,1,0,0:0:0:0:
320,192,40449,1,0,0:0:0:0:
64,192,40449,1,0,0:0:0:0:
320,192,40562,1,0,0:0:0:0:
192,192,40562,1,0,0:0:0:0:
64,192,40562,1,0,0:0:0:0:
448,192,40562,1,0,0:0:0:0:
192,192,40676,1,0,0:0:0:0:
448,192,40790,1,0,0:0:0:0:
64,192,40790,1,0,0:0:0:0:
192,192,40903,1,0,0:0:0:0:
64,192,41017,1,0,0:0:0:0:
192,192,41017,1,0,0:0:0:0:
320,192,41017,1,0,0:0:0:0:
448,192,41017,1,0,0:0:0:0:
320,192,41130,1,0,0:0:0:0:
320,192,41244,1,0,0:0:0:0:
192,192,41358,1,0,0:0:0:0:
64,192,41358,1,0,0:0:0:0:
64,192,41471,1,0,0:0:0:0:
192,192,41471,1,0,0:0:0:0:
320,192,41471,1,0,0:0:0:0:
448,192,41471,1,0,0:0:0:0:
320,192,41585,1,0,0:0:0:0:
192,192,41699,1,0,0:0:0:0:
448,192,41699,1,0,0:0:0:0:
192,192,41812,1,0,0:0:0:0:
448,192,41926,1,0,0:0:0:0:
320,192,41926,1,0,0:0:0:0:
192,192,41926,1,0,0:0:0:0:
64,192,41926,1,0,0:0:0:0:
64,192,42040,1,0,0:0:0:0:
64,192,42153,1,0,0:0:0:0:
448,192,42267,1,0,0:0:0:0:
320,192,42267,1,0,0:0:0:0:
320,192,42380,1,0,0:0:0:0:
192,192,42380,1,0,0:0:0:0:
64,192,42380,1,0,0:0:0:0:
448,192,42380,1,0,0:0:0:0:
192,192,42494,1,0,0:0:0:0:
448,192,42608,1,0,0:0:0:0:
64,192,42608,1,0,0:0:0:0:
320,192,42721,1,0,0:0:0:0:
448,192,42835,1,0,0:0:0:0:
320,192,42835,1,0,0:0:0:0:
192,192,42835,1,0,0:0:0:0:
64,192,42835,1,0,0:0:0:0:
192,192,42949,1,0,0:0:0:0:
192,192,43062,1,0,0:0:0:0:
448,192,43176,1,0,0:0:0:0:
64,192,43176,1,0,0:0:0:0:
64,192,43290,1,0,0:0:0:0:
192,192,43290,1,0,0:0:0:0:
320,192,43290,1,0,0:0:0:0:
448,192,43290,1,0,0:0:0:0:
320,192,43403,1,0,0:0:0:0:
192,192,43517,1,0,0:0:0:0:
448,192,43517,1,0,0:0:0:0:
320,192,43630,1,0,0:0:0:0:
448,192,43744,1,0,0:0:0:0:
320,192,43744,1,0,0:0:0:0:
192,192,43744,1,0,0:0:0:0:
64,192,43744,1,0,0:0:0:0:
64,192,43858,1,0,0:0:0:0:
192,192,43971,1,0,0:0:0:0:
320,192,44085,1,0,0:0:0:0:
64,192,44085,1,0,0:0:0:0:
64,192,44199,1,0,0:0:0:0:
320,192,44199,1,0,0:0:0:0:
448,192,44199,1,0,0:0:0:0:
192,192,44199,1,0,0:0:0:0:
448,192,44312,1,0,0:0:0:0:
448,192,44426,1,0,0:0:0:0:
192,192,44426,1,0,0:0:0:0:
320,192,44540,1,0,0:0:0:0:
192,192,44653,1,0,0:0:0:0:
64,192,44653,1,0,0:0:0:0:
320,192,44653,1,0,0:0:0:0:
448,192,44653,1,0,0:0:0:0:
192,192,44767,1,0,0:0:0:0:
192,192,44880,1,0,0:0:0:0:
448,192,44994,1,0,0:0:0:0:
320,192,44994,1,0,0:0:0:0:
448,192,45108,1,0,0:0:0:0:
320,192,45108,1,0,0:0:0:0:
64,192,45108,1,0,0:0:0:0:
192,192,45108,1,0,0:0:0:0:
64,192,45221,1,0,0:0:0:0:
64,192,45335,1,0,0:0:0:0:
448,192,45335,1,0,0:0:0:0:
320,192,45449,1,0,0:0:0:0:
448,192,45562,1,0,0:0:0:0:
320,192,45562,1,0,0:0:0:0:
192,192,45562,1,0,0:0:0:0:
64,192,45562,1,0,0:0:0:0:
448,192,45676,1,0,0:0:0:0:
448,192,45790,1,0,0:0:0:0:
192,192,45903,1,0,0:0:0:0:
64,192,45903,1,0,0:0:0:0:
64,192,46017,1,0,0:0:0:0:
192,192,46017,1,0,0:0:0:0:
320,192,46017,1,0,0:0:0:0:
448,192,46017,1,0,0:0:0:0:
320,192,46130,1,0,0:0:0:0:
64,192,46244,1,0,0:0:0:0:
448,192,46244,1,0,0:0:0:0:
192,192,46358,1,0,0:0:0:0:
448,192,46471,1,0,0:0:0:0:
320,192,46471,1,0,0:0:0:0:
64,192,46471,1,0,0:0:0:0:
192,192,46471,1,0,0:0:0:0:
320,192,46585,1,0,0:0:0:0:
320,192,46699,1,0,0:0:0:0:
192,192,46812,1,0,0:0:0:0:
448,192,46812,1,0,0:0:0:0:
448,192,46926,1,0,0:0:0:0:
320,192,46926,1,0,0:0:0:0:
192,192,46926,1,0,0:0:0:0:
64,192,46926,1,0,0:0:0:0:
64,192,47040,1,0,0:0:0:0:
64,192,47153,1,0,0:0:0:0:
320,192,47153,1,0,0:0:0:0:
192,192,47267,1,0,0:0:0:0:
448,192,47380,1,0,0:0:0:0:
320,192,47380,1,0,0:0:0:0:
192,192,47380,1,0,0:0:0:0:
64,192,47380,1,0,0:0:0:0:
320,192,47494,1,0,0:0:0:0:
320,192,47608,1,0,0:0:0:0:
192,192,47608,1,0,0:0:0:0:
64,192,47721,1,0,0:0:0:0:
448,192,47721,1,0,0:0:0:0:
64,192,47835,1,0,0:0:0:0:
192,192,47835,1,0,0:0:0:0:
320,192,47835,1,0,0:0:0:0:
448,192,47835,1,0,0:0:0:0:
192,192,47949,1,0,0:0:0:0:
320,192,47949,1,0,0:0:0:0:
448,192,48062,1,0,0:0:0:0:
64,192,48062,1,0,0:0:0:0:
192,192,48176,1,0,0:0:0:0:
64,192,48176,1,0,0:0:0:0:
64,192,48290,1,0,0:0:0:0:
192,192,48290,1,0,0:0:0:0:
320,192,48290,1,0,0:0:0:0:
448,192,48290,1,0,0:0:0:0:
192,192,48403,1,0,0:0:0:0:
192,192,48517,1,0,0:0:0:0:
448,192,48630,1,0,0:0:0:0:
320,192,48630,1,0,0:0:0:0:
448,192,48744,1,0,0:0:0:0:
320,192,48744,1,0,0:0:0:0:
192,192,48744,1,0,0:0:0:0:
64,192,48744,1,0,0:0:0:0:
64,192,48858,1,0,0:0:0:0:
64,192,48971,1,0,0:0:0:0:
320,192,48971,1,0,0:0:0:0:
320,192,49085,1,0,0:0:0:0:
448,192,49199,1,0,0:0:0:0:
320,192,49199,1,0,0:0:0:0:
192,192,49199,1,0,0:0:0:0:
64,192,49199,1,0,0:0:0:0:
192,192,49312,1,0,0:0:0:0:
192,192,49426,1,0,0:0:0:0:
448,192,49540,1,0,0:0:0:0:
64,192,49540,1,0,0:0:0:0:
64,192,49653,1,0,0:0:0:0:
192,192,49653,1,0,0:0:0:0:
320,192,49653,1,0,0:0:0:0:
448,192,49653,1,0,0:0:0:0:
320,192,49767,1,0,0:0:0:0:
192,192,49880,1,0,0:0:0:0:
64,192,49880,1,0,0:0:0:0:
64,192,49994,1,0,0:0:0:0:
64,192,50108,1,0,0:0:0:0:
192,192,50108,1,0,0:0:0:0:
320,192,50108,1,0,0:0:0:0:
448,192,50108,1,0,0:0:0:0:
192,192,50221,1,0,0:0:0:0:
192,192,50335,1,0,0:0:0:0:
448,192,50449,1,0,0:0:0:0:
320,192,50449,1,0,0:0:0:0:
448,192,50562,1,0,0:0:0:0:
320,192,50562,1,0,0:0:0:0:
192,192,50562,1,0,0:0:0:0:
64,192,50562,1,0,0:0:0:0:
192,192,50676,1,0,0:0:0:0:
64,192,50790,1,0,0:0:0:0:
320,192,50790,1,0,0:0:0:0:
448,192,50903,1,0,0:0:0:0:
448,192,51017,1,0,0:0:0:0:
320,192,51017,1,0,0:0:0:0:
192,192,51017,1,0,0:0:0:0:
64,192,51017,1,0,0:0:0:0:
320,192,51130,1,0,0:0:0:0:
320,192,51244,1,0,0:0:0:0:
192,192,51244,1,0,0:0:0:0:
192,192,51358,1,0,0:0:0:0:
64,192,51358,1,0,0:0:0:0:
192,192,51471,1,0,0:0:0:0:
64,192,51471,1,0,0:0:0:0:
320,192,51471,1,0,0:0:0:0:
448,192,51471,1,0,0:0:0:0:
448,192,51585,1,0,0:0:0:0:
320,192,51585,1,0,0:0:0:0:
320,192,51699,1,0,0:0:0:0:
192,192,51699,1,0,0:0:0:0:
192,192,51812,1,0,0:0:0:0:
64,192,51812,1,0,0:0:0:0:
448,192,51926,1,0,0:0:0:0:
320,192,51926,1,0,0:0:0:0:
192,192,51926,1,0,0:0:0:0:
64,192,51926,1,0,0:0:0:0:
448,192,52040,1,0,0:0:0:0:
448,192,52153,1,0,0:0:0:0:
192,192,52267,1,0,0:0:0:0:
64,192,52267,1,0,0:0:0:0:
64,192,52380,1,0,0:0:0:0:
192,192,52380,1,0,0:0:0:0:
320,192,52380,1,0,0:0:0:0:
448,192,52380,1,0,0:0:0:0:
320,192,52494,1,0,0:0:0:0:
64,192,52608,1,0,0:0:0:0:
448,192,52608,1,0,0:0:0:0:
64,192,52721,1,0,0:0:0:0:
64,192,52835,1,0,0:0:0:0:
192,192,52835,1,0,0:0:0:0:
320,192,52835,1,0,0:0:0:0:
448,192,52835,1,0,0:0:0:0:
320,192,52949,1,0,0:0:0:0:
192,192,53062,1,0,0:0:0:0:
192,192,53176,1,0,0:0:0:0:
448,192,53176,1,0,0:0:0:0:
448,192,53290,1,0,0:0:0:0:
320,192,53290,1,0,0:0:0:0:
192,192,53290,1,0,0:0:0:0:
64,192,53290,1,0,0:0:0:0:
320,192,53403,1,0,0:0:0:0:
64,192,53517,1,0,0:0:0:0:
192,192,53517,1,0,0:0:0:0:
448,192,53630,1,0,0:0:0:0:
448,192,53744,1,0,0:0:0:0:
320,192,53744,1,0,0:0:0:0:
192,192,53744,1,0,0:0:0:0:
64,192,53744,1,0,0:0:0:0:
192,192,53858,1,0,0:0:0:0:
192,192,53971,1,0,0:0:0:0:
192,192,54085,1,0,0:0:0:0:
320,192,54085,1,0,0:0:0:0:
448,192,54199,1,0,0:0:0:0:
320,192,54199,1,0,0:0:0:0:
192,192,54199,1,0,0:0:0:0:
64,192,54199,1,0,0:0:0:0:
448,192,54312,1,0,0:0:0:0:
448,192,54426,1,0,0:0:0:0:
192,192,54426,1,0,0:0:0:0:
320,192,54540,1,0,0:0:0:0:
320,192,54653,1,0,0:0:0:0:
192,192,54653,1,0,0:0:0:0:
64,192,54653,1,0,0:0:0:0:
448,192,54653,1,0,0:0:0:0:
448,192,54767,1,0,0:0:0:0:
320,192,54880,1,0,0:0:0:0:
192,192,54994,1,0,0:0:0:0:
64,192,54994,1,0,0:0:0:0:
64,192,55108,1,0,0:0:0:0:
192,192,55108,1,0,0:0:0:0:
320,192,55108,1,0,0:0:0:0:
448,192,55108,1,0,0:0:0:0:
192,192,55221,1,0,0:0:0:0:
320,192,55335,1,0,0:0:0:0:
64,192,55335,1,0,0:0:0:0:
64,192,55449,1,0,0:0:0:0:
64,192,55562,1,0,0:0:0:0:
192,192,55562,1,0,0:0:0:0:
320,192,55562,1,0,0:0:0:0:
448,192,55562,1,0,0:0:0:0:
320,192,55676,1,0,0:0:0:0:
448,192,55676,1,0,0:0:0:0:
64,192,55790,1,0,0:0:0:0:
192,192,55903,1,0,0:0:0:0:
448,192,55903,1,0,0:0:0:0:
448,192,56017,1,0,0:0:0:0:
320,192,56017,1,0,0:0:0:0:
192,192,56017,1,0,0:0:0:0:
64,192,56017,1,0,0:0:0:0:
320,192,56130,1,0,0:0:0:0:
192,192,56244,1,0,0:0:0:0:
64,192,56244,1,0,0:0:0:0:
320,192,56358,1,0,0:0:0:0:
448,192,56471,1,0,0:0:0:0:
64,192,56471,1,0,0:0:0:0:
192,192,56471,1,0,0:0:0:0:
192,192,56585,1,0,0:0:0:0:
320,192,56585,1,0,0:0:0:0:
64,192,56699,1,0,0:0:0:0:
192,192,56812,1,0,0:0:0:0:
448,192,56812,1,0,0:0:0:0:
448,192,56926,1,0,0:0:0:0:
320,192,56926,1,0,0:0:0:0:
192,192,56926,1,0,0:0:0:0:
64,192,56926,1,0,0:0:0:0:
64,192,57040,1,0,0:0:0:0:
192,192,57153,1,0,0:0:0:0:
448,192,57153,1,0,0:0:0:0:
448,192,57267,1,0,0:0:0:0:
320,192,57380,1,0,0:0:0:0:
192,192,57380,1,0,0:0:0:0:
64,192,57380,1,0,0:0:0:0:
192,192,57494,1,0,0:0:0:0:
192,192,57608,1,0,0:0:0:0:
320,192,57721,1,0,0:0:0:0:
64,192,57721,1,0,0:0:0:0:
448,192,57835,1,0,0:0:0:0:
320,192,57835,1,0,0:0:0:0:
192,192,57835,1,0,0:0:0:0:
64,192,57835,1,0,0:0:0:0:
192,192,57949,1,0,0:0:0:0:
320,192,58062,1,0,0:0:0:0:
64,192,58062,1,0,0:0:0:0:
320,192,58176,1,0,0:0:0:0:
192,192,58290,1,0,0:0:0:0:
64,192,58290,1,0,0:0:0:0:
448,192,58290,1,0,0:0:0:0:
192,192,58403,1,0,0:0:0:0:
192,192,58517,1,0,0:0:0:0:
448,192,58630,1,0,0:0:0:0:
320,192,58630,1,0,0:0:0:0:
448,192,58744,1,0,0:0:0:0:
320,192,58744,1,0,0:0:0:0:
64,192,58744,1,0,0:0:0:0:
192,192,58744,1,0,0:0:0:0:
192,192,58858,1,0,0:0:0:0:
320,192,58971,1,0,0:0:0:0:
448,192,58971,1,0,0:0:0:0:
320,192,59085,1,0,0:0:0:0:
192,192,59199,1,0,0:0:0:0:
64,192,59199,1,0,0:0:0:0:
448,192,59199,1,0,0:0:0:0:
192,192,59312,1,0,0:0:0:0:
320,192,59426,1,0,0:0:0:0:
192,192,59540,1,0,0:0:0:0:
448,192,59540,1,0,0:0:0:0:
448,192,59653,1,0,0:0:0:0:
192,192,59653,1,0,0:0:0:0:
64,192,59653,1,0,0:0:0:0:
320,192,59653,1,0,0:0:0:0:
64,192,59767,1,0,0:0:0:0:
64,192,59880,1,0,0:0:0:0:
320,192,59880,1,0,0:0:0:0:
192,192,59994,1,0,0:0:0:0:
448,192,60108,1,0,0:0:0:0:
320,192,60108,1,0,0:0:0:0:
64,192,60108,1,0,0:0:0:0:
192,192,60221,1,0,0:0:0:0:
320,192,60335,1,0,0:0:0:0:
192,192,60449,1,0,0:0:0:0:
64,192,60449,1,0,0:0:0:0:
448,192,60562,1,0,0:0:0:0:
64,192,60562,1,0,0:0:0:0:
192,192,60562,1,0,0:0:0:0:
320,192,60562,1,0,0:0:0:0:
448,192,60676,1,0,0:0:0:0:
64,192,60790,1,0,0:0:0:0:
320,192,60790,1,0,0:0:0:0:
64,192,60903,1,0,0:0:0:0:
192,192,61017,1,0,0:0:0:0:
320,192,61017,1,0,0:0:0:0:
448,192,61017,1,0,0:0:0:0:
320,192,61130,1,0,0:0:0:0:
64,192,61244,1,0,0:0:0:0:
192,192,61358,1,0,0:0:0:0:
320,192,61358,1,0,0:0:0:0:
448,192,61471,1,0,0:0:0:0:
320,192,61471,1,0,0:0:0:0:
192,192,61471,1,0,0:0:0:0:
64,192,61471,1,0,0:0:0:0:
320,192,61585,1,0,0:0:0:0:
448,192,61699,1,0,0:0:0:0:
64,192,61699,1,0,0:0:0:0:
192,192,61812,1,0,0:0:0:0:
448,192,61926,1,0,0:0:0:0:
320,192,61926,1,0,0:0:0:0:
64,192,61926,1,0,0:0:0:0:
192,192,62040,1,0,0:0:0:0:
64,192,62040,1,0,0:0:0:0:
320,192,62153,1,0,0:0:0:0:
64,192,62267,1,0,0:0:0:0:
192,192,62267,1,0,0:0:0:0:
64,192,62380,1,0,0:0:0:0:
192,192,62380,1,0,0:0:0:0:
320,192,62380,1,0,0:0:0:0:
448,192,62380,1,0,0:0:0:0:
320,192,62494,1,0,0:0:0:0:
448,192,62494,1,0,0:0:0:0:
64,192,62608,1,0,0:0:0:0:
192,192,62608,1,0,0:0:0:0:
320,192,62721,1,0,0:0:0:0:
448,192,62721,1,0,0:0:0:0:
448,192,62835,1,0,0:0:0:0:
320,192,62835,1,0,0:0:0:0:
192,192,62835,1,0,0:0:0:0:
64,192,62835,1,0,0:0:0:0:
192,192,62949,1,0,0:0:0:0:
192,192,63062,1,0,0:0:0:0:
320,192,63176,1,0,0:0:0:0:
448,192,63176,1,0,0:0:0:0:
448,192,63290,1,0,0:0:0:0:
192,192,63290,1,0,0:0:0:0:
64,192,63290,1,0,0:0:0:0:
320,192,63290,1,0,0:0:0:0:
192,192,63403,1,0,0:0:0:0:
192,192,63517,1,0,0:0:0:0:
64,192,63517,1,0,0:0:0:0:
64,192,63630,1,0,0:0:0:0:
192,192,63744,1,0,0:0:0:0:
320,192,63744,1,0,0:0:0:0:
448,192,63744,1,0,0:0:0:0:
320,192,63858,1,0,0:0:0:0:
64,192,63971,1,0,0:0:0:0:
448,192,64085,1,0,0:0:0:0:
192,192,64085,1,0,0:0:0:0:
448,192,64199,1,0,0:0:0:0:
192,192,64199,1,0,0:0:0:0:
64,192,64199,1,0,0:0:0:0:
320,192,64312,1,0,0:0:0:0:
448,192,64426,1,0,0:0:0:0:
192,192,64426,1,0,0:0:0:0:
192,192,64540,1,0,0:0:0:0:
448,192,64653,1,0,0:0:0:0:
192,192,64653,1,0,0:0:0:0:
64,192,64653,1,0,0:0:0:0:
320,192,64767,1,0,0:0:0:0:
448,192,64880,1,0,0:0:0:0:
320,192,64994,1,0,0:0:0:0:
192,192,64994,1,0,0:0:0:0:
448,192,65108,1,0,0:0:0:0:
320,192,65108,1,0,0:0:0:0:
64,192,65108,1,0,0:0:0:0:
192,192,65108,1,0,0:0:0:0:
64,192,65221,1,0,0:0:0:0:
64,192,65335,1,0,0:0:0:0:
320,192,65335,1,0,0:0:0:0:
320,192,65449,1,0,0:0:0:0:
448,192,65562,1,0,0:0:0:0:
192,192,65562,1,0,0:0:0:0:
64,192,65562,1,0,0:0:0:0:
448,192,65676,1,0,0:0:0:0:
192,192,65790,1,0,0:0:0:0:
448,192,65903,1,0,0:0:0:0:
320,192,65903,1,0,0:0:0:0:
64,192,66017,1,0,0:0:0:0:
192,192,66017,1,0,0:0:0:0:
320,192,66017,1,0,0:0:0:0:
448,192,66017,1,0,0:0:0:0:
192,192,66130,1,0,0:0:0:0:
64,192,66244,1,0,0:0:0:0:
320,192,66244,1,0,0:0:0:0:
64,192,66358,1,0,0:0:0:0:
192,192,66471,1,0,0:0:0:0:
448,192,66471,1,0,0:0:0:0:
64,192,66471,1,0,0:0:0:0:
320,192,66585,1,0,0:0:0:0:
448,192,66699,1,0,0:0:0:0:
64,192,66812,1,0,0:0:0:0:
320,192,66812,1,0,0:0:0:0:
448,192,66926,1,0,0:0:0:0:
320,192,66926,1,0,0:0:0:0:
64,192,66926,1,0,0:0:0:0:
448,192,67040,1,0,0:0:0:0:
192,192,67153,1,0,0:0:0:0:
64,192,67153,1,0,0:0:0:0:
192,192,67267,1,0,0:0:0:0:
448,192,67380,1,0,0:0:0:0:
320,192,67380,1,0,0:0:0:0:
64,192,67380,1,0,0:0:0:0:
320,192,67494,1,0,0:0:0:0:
192,192,67608,1,0,0:0:0:0:
64,192,67721,1,0,0:0:0:0:
320,192,67721,1,0,0:0:0:0:
448,192,67835,1,0,0:0:0:0:
192,192,67835,1,0,0:0:0:0:
64,192,67835,1,0,0:0:0:0:
320,192,67835,1,0,0:0:0:0:
320,192,67949,1,0,0:0:0:0:
448,192,68062,1,0,0:0:0:0:
64,192,68062,1,0,0:0:0:0:
64,192,68176,1,0,0:0:0:0:
192,192,68290,1,0,0:0:0:0:
320,192,68290,1,0,0:0:0:0:
448,192,68290,1,0,0:0:0:0:
64,192,68403,1,0,0:0:0:0:
192,192,68403,1,0,0:0:0:0:
320,192,68517,1,0,0:0:0:0:
448,192,68517,1,0,0:0:0:0:
64,192,68630,1,0,0:0:0:0:
320,192,68630,1,0,0:0:0:0:
448,192,68744,1,0,0:0:0:0:
192,192,68744,1,0,0:0:0:0:
64,192,68744,1,0,0:0:0:0:
320,192,68858,1,0,0:0:0:0:
448,192,68858,1,0,0:0:0:0:
192,192,68971,1,0,0:0:0:0:
64,192,68971,1,0,0:0:0:0:
320,192,68971,1,0,0:0:0:0:
64,192,69085,1,0,0:0:0:0:
448,192,69085,1,0,0:0:0:0:
448,192,69199,1,0,0:0:0:0:
320,192,69199,1,0,0:0:0:0:
192,192,69199,1,0,0:0:0:0:
192,192,69312,1,0,0:0:0:0:
64,192,69426,1,0,0:0:0:0:
320,192,69426,1,0,0:0:0:0:
448,192,69426,1,0,0:0:0:0:
320,192,69540,1,0,0:0:0:0:
192,192,69540,1,0,0:0:0:0:
192,192,69653,1,0,0:0:0:0:
64,192,69653,1,0,0:0:0:0:
448,192,69653,1,0,0:0:0:0:
64,192,69767,1,0,0:0:0:0:
320,192,69880,1,0,0:0:0:0:
192,192,69880,1,0,0:0:0:0:
448,192,69880,1,0,0:0:0:0:
320,192,69994,1,0,0:0:0:0:
192,192,70108,1,0,0:0:0:0:
64,192,70108,1,0,0:0:0:0:
448,192,70108,1,0,0:0:0:0:
320,192,70108,1,0,0:0:0:0:
64,192,70221,1,0,0:0:0:0:
64,192,70335,1,0,0:0:0:0:
192,192,70449,1,0,0:0:0:0:
448,192,70449,1,0,0:0:0:0:
448,192,70562,1,0,0:0:0:0:
192,192,70562,1,0,0:0:0:0:
64,192,70562,1,0,0:0:0:0:
320,192,70562,1,0,0:0:0:0:
448,192,70676,1,0,0:0:0:0:
320,192,70790,1,0,0:0:0:0:
64,192,70790,1,0,0:0:0:0:
192,192,70903,1,0,0:0:0:0:
448,192,71017,1,0,0:0:0:0:
320,192,71017,1,0,0:0:0:0:
192,192,71017,1,0,0:0:0:0:
64,192,71017,1,0,0:0:0:0:
320,192,71130,1,0,0:0:0:0:
192,192,71244,1,0,0:0:0:0:
192,192,71358,1,0,0:0:0:0:
448,192,71358,1,0,0:0:0:0:
448,192,71471,1,0,0:0:0:0:
320,192,71471,1,0,0:0:0:0:
192,192,71471,1,0,0:0:0:0:
64,192,71471,1,0,0:0:0:0:
320,192,71585,1,0,0:0:0:0:
192,192,71699,1,0,0:0:0:0:
448,192,71699,1,0,0:0:0:0:
64,192,71812,1,0,0:0:0:0:
64,192,71926,1,0,0:0:0:0:
192,192,71926,1,0,0:0:0:0:
320,192,71926,1,0,0:0:0:0:
448,192,71926,1,0,0:0:0:0:
320,192,72040,1,0,0:0:0:0:
192,192,72153,1,0,0:0:0:0:
192,192,72267,1,0,0:0:0:0:
320,192,72267,1,0,0:0:0:0:
448,192,72380,1,0,0:0:0:0:
320,192,72380,1,0,0:0:0:0:
192,192,72380,1,0,0:0:0:0:
64,192,72380,1,0,0:0:0:0:
448,192,72494,1,0,0:0:0:0:
320,192,72608,1,0,0:0:0:0:
192,192,72608,1,0,0:0:0:0:
192,192,72721,1,0,0:0:0:0:
448,192,72835,1,0,0:0:0:0:
320,192,72835,1,0,0:0:0:0:
192,192,72835,1,0,0:0:0:0:
64,192,72835,1,0,0:0:0:0:
320,192,72949,1,0,0:0:0:0:
64,192,73062,1,0,0:0:0:0:
192,192,73062,1,0,0:0:0:0:
320,192,73176,1,0,0:0:0:0:
448,192,73176,1,0,0:0:0:0:
448,192,73290,1,0,0:0:0:0:
320,192,73290,1,0,0:0:0:0:
192,192,73290,1,0,0:0:0:0:
64,192,73290,1,0,0:0:0:0:
192,192,73403,1,0,0:0:0:0:
64,192,73517,1,0,0:0:0:0:
320,192,73517,1,0,0:0:0:0:
448,192,73630,1,0,0:0:0:0:
192,192,73630,1,0,0:0:0:0:
448,192,73744,1,0,0:0:0:0:
320,192,73744,1,0,0:0:0:0:
192,192,73744,1,0,0:0:0:0:
64,192,73744,1,0,0:0:0:0:
320,192,73858,1,0,0:0:0:0:
64,192,73971,1,0,0:0:0:0:
192,192,74085,1,0,0:0:0:0:
64,192,74085,1,0,0:0:0:0:
448,192,74199,1,0,0:0:0:0:
320,192,74199,1,0,0:0:0:0:
192,192,74199,1,0,0:0:0:0:
64,192,74199,1,0,0:0:0:0:
320,192,74312,1,0,0:0:0:0:
192,192,74426,1,0,0:0:0:0:
448,192,74426,1,0,0:0:0:0:
448,192,74540,1,0,0:0:0:0:
448,192,74653,1,0,0:0:0:0:
320,192,74653,1,0,0:0:0:0:
192,192,74653,1,0,0:0:0:0:
64,192,74653,1,0,0:0:0:0:
192,192,74767,1,0,0:0:0:0:
320,192,74880,1,0,0:0:0:0:
448,192,74994,1,0,0:0:0:0:
320,192,74994,1,0,0:0:0:0:
448,192,75108,1,0,0:0:0:0:
320,192,75108,1,0,0:0:0:0:
64,192,75108,1,0,0:0:0:0:
192,192,75108,1,0,0:0:0:0:
192,192,75221,1,0,0:0:0:0:
64,192,75335,1,0,0:0:0:0:
448,192,75335,1,0,0:0:0:0:
192,192,75449,1,0,0:0:0:0:
320,192,75562,1,0,0:0:0:0:
64,192,75562,1,0,0:0:0:0:
192,192,75562,1,0,0:0:0:0:
448,192,75562,1,0,0:0:0:0:
320,192,75676,1,0,0:0:0:0:
192,192,75790,1,0,0:0:0:0:
64,192,75903,1,0,0:0:0:0:
320,192,75903,1,0,0:0:0:0:
448,192,76017,1,0,0:0:0:0:
320,192,76017,1,0,0:0:0:0:
192,192,76017,1,0,0:0:0:0:
64,192,76017,1,0,0:0:0:0:
192,192,76130,1,0,0:0:0:0:
192,192,76244,1,0,0:0:0:0:
448,192,76244,1,0,0:0:0:0:
320,192,76358,1,0,0:0:0:0:
448,192,76471,1,0,0:0:0:0:
320,192,76471,1,0,0:0:0:0:
192,192,76471,1,0,0:0:0:0:
64,192,76471,1,0,0:0:0:0:
192,192,76585,1,0,0:0:0:0:
448,192,76585,1,0,0:0:0:0:
320,192,76699,1,0,0:0:0:0:
64,192,76699,1,0,0:0:0:0:
192,192,76812,1,0,0:0:0:0:
448,192,76812,1,0,0:0:0:0:
320,192,76812,1,0,0:0:0:0:
448,192,76926,1,0,0:0:0:0:
320,192,76926,1,0,0:0:0:0:
192,192,76926,1,0,0:0:0:0:
64,192,76926,1,0,0:0:0:0:
64,192,77040,1,0,0:0:0:0:
320,192,77040,1,0,0:0:0:0:
192,192,77153,1,0,0:0:0:0:
64,192,77153,1,0,0:0:0:0:
448,192,77267,1,0,0:0:0:0:
320,192,77267,1,0,0:0:0:0:
192,192,77267,1,0,0:0:0:0:
448,192,77380,1,0,0:0:0:0:
320,192,77380,1,0,0:0:0:0:
192,192,77380,1,0,0:0:0:0:
64,192,77380,1,0,0:0:0:0:
192,192,77494,1,0,0:0:0:0:
64,192,77608,1,0,0:0:0:0:
320,192,77721,1,0,0:0:0:0:
64,192,77721,1,0,0:0:0:0:
448,192,77835,1,0,0:0:0:0:
320,192,77835,1,0,0:0:0:0:
64,192,77835,1,0,0:0:0:0:
192,192,77835,1,0,0:0:0:0:
192,192,77949,1,0,0:0:0:0:
320,192,78062,1,0,0:0:0:0:
448,192,78062,1,0,0:0:0:0:
320,192,78176,1,0,0:0:0:0:
448,192,78290,1,0,0:0:0:0:
320,192,78290,1,0,0:0:0:0:
192,192,78290,1,0,0:0:0:0:
64,192,78290,1,0,0:0:0:0:
192,192,78403,1,0,0:0:0:0:
192,192,78517,1,0,0:0:0:0:
320,192,78630,1,0,0:0:0:0:
448,192,78630,1,0,0:0:0:0:
448,192,78744,1,0,0:0:0:0:
320,192,78744,1,0,0:0:0:0:
64,192,78744,1,0,0:0:0:0:
192,192,78744,1,0,0:0:0:0:
192,192,78858,1,0,0:0:0:0:
448,192,78971,1,0,0:0:0:0:
64,192,78971,1,0,0:0:0:0:
448,192,79085,1,0,0:0:0:0:
448,192,79199,1,0,0:0:0:0:
320,192,79199,1,0,0:0:0:0:
192,192,79199,1,0,0:0:0:0:
64,192,79199,1,0,0:0:0:0:
64,192,79312,1,0,0:0:0:0:
192,192,79426,1,0,0:0:0:0:
320,192,79540,1,0,0:0:0:0:
64,192,79540,1,0,0:0:0:0:
448,192,79653,1,0,0:0:0:0:
320,192,79653,1,0,0:0:0:0:
192,192,79653,1,0,0:0:0:0:
64,192,79653,1,0,0:0:0:0:
448,192,79767,1,0,0:0:0:0:
320,192,79880,1,0,0:0:0:0:
64,192,79880,1,0,0:0:0:0:
192,192,79994,1,0,0:0:0:0:
448,192,80108,1,0,0:0:0:0:
320,192,80108,1,0,0:0:0:0:
64,192,80108,1,0,0:0:0:0:
192,192,80108,1,0,0:0:0:0:
320,192,80221,1,0,0:0:0:0:
192,192,80335,1,0,0:0:0:0:
64,192,80449,1,0,0:0:0:0:
192,192,80449,1,0,0:0:0:0:
448,192,80562,1,0,0:0:0:0:
320,192,80562,1,0,0:0:0:0:
192,192,80562,1,0,0:0:0:0:
64,192,80562,1,0,0:0:0:0:
320,192,80676,1,0,0:0:0:0:
448,192,80790,1,0,0:0:0:0:
192,192,80790,1,0,0:0:0:0:
448,192,80903,1,0,0:0:0:0:
448,192,81017,1,0,0:0:0:0:
320,192,81017,1,0,0:0:0:0:
192,192,81017,1,0,0:0:0:0:
64,192,81017,1,0,0:0:0:0:
192,192,81130,1,0,0:0:0:0:
64,192,81244,1,0,0:0:0:0:
192,192,81358,1,0,0:0:0:0:
320,192,81358,1,0,0:0:0:0:
448,192,81471,1,0,0:0:0:0:
320,192,81471,1,0,0:0:0:0:
192,192,81471,1,0,0:0:0:0:
64,192,81471,1,0,0:0:0:0:
448,192,81585,1,0,0:0:0:0:
320,192,81699,1,0,0:0:0:0:
64,192,81699,1,0,0:0:0:0:
192,192,81812,1,0,0:0:0:0:
448,192,81926,1,0,0:0:0:0:
320,192,81926,1,0,0:0:0:0:
192,192,81926,1,0,0:0:0:0:
64,192,81926,1,0,0:0:0:0:
64,192,82040,1,0,0:0:0:0:
192,192,82153,1,0,0:0:0:0:
448,192,82267,1,0,0:0:0:0:
320,192,82267,1,0,0:0:0:0:
448,192,82380,1,0,0:0:0:0:
320,192,82380,1,0,0:0:0:0:
192,192,82380,1,0,0:0:0:0:
64,192,82380,1,0,0:0:0:0:
192,192,82494,1,0,0:0:0:0:
448,192,82608,1,0,0:0:0:0:
64,192,82608,1,0,0:0:0:0:
320,192,82721,1,0,0:0:0:0:
192,192,82835,1,0,0:0:0:0:
64,192,82835,1,0,0:0:0:0:
320,192,82835,1,0,0:0:0:0:
448,192,82835,1,0,0:0:0:0:
192,192,82949,1,0,0:0:0:0:
64,192,83062,1,0,0:0:0:0:
448,192,83062,1,0,0:0:0:0:
64,192,83176,1,0,0:0:0:0:
192,192,83176,1,0,0:0:0:0:
448,192,83290,1,0,0:0:0:0:
320,192,83290,1,0,0:0:0:0:
192,192,83290,1,0,0:0:0:0:
320,192,83403,1,0,0:0:0:0:
64,192,83403,1,0,0:0:0:0:
192,192,83517,1,0,0:0:0:0:
64,192,83517,1,0,0:0:0:0:
320,192,83630,1,0,0:0:0:0:
448,192,83630,1,0,0:0:0:0:
448,192,83744,1,0,0:0:0:0:
192,192,83744,1,0,0:0:0:0:
64,192,83744,1,0,0:0:0:0:
320,192,83858,1,0,0:0:0:0:
192,192,83858,1,0,0:0:0:0:
64,192,83971,1,0,0:0:0:0:
320,192,83971,1,0,0:0:0:0:
448,192,84085,1,0,0:0:0:0:
192,192,84085,1,0,0:0:0:0:
448,192,84199,1,0,0:0:0:0:
320,192,84199,1,0,0:0:0:0:
64,192,84199,1,0,0:0:0:0:
192,192,84312,1,0,0:0:0:0:
64,192,84312,1,0,0:0:0:0:
192,192,84426,1,0,0:0:0:0:
320,192,84426,1,0,0:0:0:0:
320,192,84540,1,0,0:0:0:0:
64,192,84540,1,0,0:0:0:0:
448,192,84653,1,0,0:0:0:0:
192,192,84653,1,0,0:0:0:0:
64,192,84653,1,0,0:0:0:0:
320,192,84653,1,0,0:0:0:0:
448,192,84767,1,0,0:0:0:0:
192,192,84767,1,0,0:0:0:0:
320,192,84880,1,0,0:0:0:0:
192,192,84994,1,0,0:0:0:0:
64,192,84994,1,0,0:0:0:0:
448,192,85108,1,0,0:0:0:0:
320,192,85108,1,0,0:0:0:0:
64,192,85108,1,0,0:0:0:0:
192,192,85221,1,0,0:0:0:0:
448,192,85335,1,0,0:0:0:0:
320,192,85335,1,0,0:0:0:0:
192,192,85449,1,0,0:0:0:0:
448,192,85562,1,0,0:0:0:0:
320,192,85562,1,0,0:0:0:0:
64,192,85562,1,0,0:0:0:0:
192,192,85562,1,0,0:0:0:0:
320,192,85676,1,0,0:0:0:0:
192,192,85790,1,0,0:0:0:0:
448,192,85790,1,0,0:0:0:0:
320,192,85903,1,0,0:0:0:0:
64,192,85903,1,0,0:0:0:0:
64,192,86017,1,0,0:0:0:0:
192,192,86017,1,0,0:0:0:0:
320,192,86017,1,0,0:0:0:0:
448,192,86017,1,0,0:0:0:0:
192,192,86130,1,0,0:0:0:0:
320,192,86244,1,0,0:0:0:0:
448,192,86244,1,0,0:0:0:0:
320,192,86358,1,0,0:0:0:0:
448,192,86471,1,0,0:0:0:0:
320,192,86471,1,0,0:0:0:0:
192,192,86471,1,0,0:0:0:0:
64,192,86471,1,0,0:0:0:0:
192,192,86585,1,0,0:0:0:0:
64,192,86585,1,0,0:0:0:0:
320,192,86699,1,0,0:0:0:0:
448,192,86812,1,0,0:0:0:0:
64,192,86812,1,0,0:0:0:0:
192,192,86926,1,0,0:0:0:0:
64,192,86926,1,0,0:0:0:0:
320,192,86926,1,0,0:0:0:0:
448,192,86926,1,0,0:0:0:0:
320,192,87040,1,0,0:0:0:0:
192,192,87153,1,0,0:0:0:0:
64,192,87153,1,0,0:0:0:0:
192,192,87267,1,0,0:0:0:0:
448,192,87380,1,0,0:0:0:0:
320,192,87380,1,0,0:0:0:0:
192,192,87380,1,0,0:0:0:0:
64,192,87380,1,0,0:0:0:0:
320,192,87494,1,0,0:0:0:0:
448,192,87608,1,0,0:0:0:0:
192,192,87608,1,0,0:0:0:0:
320,192,87721,1,0,0:0:0:0:
448,192,87721,1,0,0:0:0:0:
448,192,87835,1,0,0:0:0:0:
320,192,87835,1,0,0:0:0:0:
192,192,87835,1,0,0:0:0:0:
64,192,87835,1,0,0:0:0:0:
192,192,87949,1,0,0:0:0:0:
64,192,88062,1,0,0:0:0:0:
320,192,88062,1,0,0:0:0:0:
192,192,88176,1,0,0:0:0:0:
448,192,88290,1,0,0:0:0:0:
320,192,88290,1,0,0:0:0:0:
192,192,88290,1,0,0:0:0:0:
64,192,88290,1,0,0:0:0:0:
320,192,88403,1,0,0:0:0:0:
448,192,88403,1,0,0:0:0:0:
192,192,88517,1,0,0:0:0:0:
192,192,88630,1,0,0:0:0:0:
320,192,88630,1,0,0:0:0:0:
320,192,88744,1,0,0:0:0:0:
448,192,88744,1,0,0:0:0:0:
64,192,88744,1,0,0:0:0:0:
192,192,88858,1,0,0:0:0:0:
448,192,88971,1,0,0:0:0:0:
320,192,88971,1,0,0:0:0:0:
320,192,89085,1,0,0:0:0:0:
192,192,89199,1,0,0:0:0:0:
64,192,89199,1,0,0:0:0:0:
448,192,89199,1,0,0:0:0:0:
192,192,89312,1,0,0:0:0:0:
64,192,89426,1,0,0:0:0:0:
448,192,89426,1,0,0:0:0:0:
448,192,89540,1,0,0:0:0:0:
192,192,89540,1,0,0:0:0:0:
320,192,89653,1,0,0:0:0:0:
192,192,89653,1,0,0:0:0:0:
64,192,89653,1,0,0:0:0:0:
320,192,89767,1,0,0:0:0:0:
64,192,89880,1,0,0:0:0:0:
192,192,89880,1,0,0:0:0:0:
320,192,89994,1,0,0:0:0:0:
448,192,90108,1,0,0:0:0:0:
192,192,90108,1,0,0:0:0:0:
64,192,90108,1,0,0:0:0:0:
448,192,90221,1,0,0:0:0:0:
320,192,90221,1,0,0:0:0:0:
64,192,90335,1,0,0:0:0:0:
192,192,90449,1,0,0:0:0:0:
64,192,90449,1,0,0:0:0:0:
448,192,90562,1,0,0:0:0:0:
320,192,90562,1,0,0:0:0:0:
192,192,90562,1,0,0:0:0:0:
320,192,90676,1,0,0:0:0:0:
192,192,90790,1,0,0:0:0:0:
64,192,90790,1,0,0:0:0:0:
64,192,90903,1,0,0:0:0:0:
448,192,91017,1,0,0:0:0:0:
320,192,91017,1,0,0:0:0:0:
192,192,91017,1,0,0:0:0:0:
320,192,91130,1,0,0:0:0:0:
448,192,91244,1,0,0:0:0:0:
192,192,91244,1,0,0:0:0:0:
64,192,91358,1,0,0:0:0:0:
320,192,91358,1,0,0:0:0:0:
192,192,91471,1,0,0:0:0:0:
64,192,91471,1,0,0:0:0:0:
448,192,91471,1,0,0:0:0:0:
320,192,91585,1,0,0:0:0:0:
448,192,91699,1,0,0:0:0:0:
320,192,91699,1,0,0:0:0:0:
192,192,91812,1,0,0:0:0:0:
64,192,91926,1,0,0:0:0:0:
192,192,91926,1,0,0:0:0:0:
320,192,91926,1,0,0:0:0:0:
448,192,91926,1,0,0:0:0:0:
320,192,92040,1,0,0:0:0:0:
64,192,92040,1,0,0:0:0:0:
192,192,92153,1,0,0:0:0:0:
448,192,92267,1,0,0:0:0:0:
320,192,92267,1,0,0:0:0:0:
448,192,92380,1,0,0:0:0:0:
320,192,92380,1,0,0:0:0:0:
64,192,92380,1,0,0:0:0:0:
192,192,92380,1,0,0:0:0:0:
192,192,92494,1,0,0:0:0:0:
64,192,92608,1,0,0:0:0:0:
448,192,92608,1,0,0:0:0:0:
448,192,92721,1,0,0:0:0:0:
320,192,92835,1,0,0:0:0:0:
192,192,92835,1,0,0:0:0:0:
64,192,92835,1,0,0:0:0:0:
192,192,92949,1,0,0:0:0:0:
320,192,93062,1,0,0:0:0:0:
448,192,93062,1,0,0:0:0:0:
192,192,93176,1,0,0:0:0:0:
64,192,93176,1,0,0:0:0:0:
64,192,93290,1,0,0:0:0:0:
320,192,93290,1,0,0:0:0:0:
448,192,93290,1,0,0:0:0:0:
192,192,93290,1,0,0:0:0:0:
320,192,93403,1,0,0:0:0:0:
448,192,93517,1,0,0:0:0:0:
64,192,93517,1,0,0:0:0:0:
192,192,93630,1,0,0:0:0:0:
64,192,93744,1,0,0:0:0:0:
192,192,93744,1,0,0:0:0:0:
320,192,93744,1,0,0:0:0:0:
448,192,93744,1,0,0:0:0:0:
192,192,93858,1,0,0:0:0:0:
448,192,93858,1,0,0:0:0:0:
320,192,93971,1,0,0:0:0:0:
192,192,94085,1,0,0:0:0:0:
64,192,94085,1,0,0:0:0:0:
448,192,94199,1,0,0:0:0:0:
320,192,94199,1,0,0:0:0:0:
64,192,94199,1,0,0:0:0:0:
192,192,94199,1,0,0:0:0:0:
320,192,94312,1,0,0:0:0:0:
448,192,94426,1,0,0:0:0:0:
192,192,94426,1,0,0:0:0:0:
192,192,94540,1,0,0:0:0:0:
448,192,94653,1,0,0:0:0:0:
320,192,94653,1,0,0:0:0:0:
64,192,94653,1,0,0:0:0:0:
192,192,94653,1,0,0:0:0:0:
320,192,94767,1,0,0:0:0:0:
448,192,94880,1,0,0:0:0:0:
192,192,94880,1,0,0:0:0:0:
320,192,94994,1,0,0:0:0:0:
192,192,94994,1,0,0:0:0:0:
64,192,95108,1,0,0:0:0:0:
192,192,95108,1,0,0:0:0:0:
448,192,95108,1,0,0:0:0:0:
320,192,95108,1,0,0:0:0:0:
320,192,95221,1,0,0:0:0:0:
448,192,95335,1,0,0:0:0:0:
192,192,95335,1,0,0:0:0:0:
192,192,95449,1,0,0:0:0:0:
448,192,95562,1,0,0:0:0:0:
320,192,95562,1,0,0:0:0:0:
192,192,95562,1,0,0:0:0:0:
64,192,95562,1,0,0:0:0:0:
64,192,95676,1,0,0:0:0:0:
448,192,95676,1,0,0:0:0:0:
192,192,95790,1,0,0:0:0:0:
448,192,95903,1,0,0:0:0:0:
320,192,95903,1,0,0:0:0:0:
448,192,96017,1,0,0:0:0:0:
320,192,96017,1,0,0:0:0:0:
192,192,96017,1,0,0:0:0:0:
64,192,96017,1,0,0:0:0:0:
192,192,96130,1,0,0:0:0:0:
320,192,96244,1,0,0:0:0:0:
64,192,96244,1,0,0:0:0:0:
192,192,96358,1,0,0:0:0:0:
448,192,96471,1,0,0:0:0:0:
320,192,96471,1,0,0:0:0:0:
192,192,96471,1,0,0:0:0:0:
64,192,96471,1,0,0:0:0:0:
192,192,96585,1,0,0:0:0:0:
64,192,96699,1,0,0:0:0:0:
320,192,96699,1,0,0:0:0:0:
192,192,96812,1,0,0:0:0:0:
448,192,96812,1,0,0:0:0:0:
192,192,96926,1,0,0:0:0:0:
64,192,96926,1,0,0:0:0:0:
320,192,96926,1,0,0:0:0:0:
448,192,96926,1,0,0:0:0:0:
320,192,97040,1,0,0:0:0:0:
448,192,97153,1,0,0:0:0:0:
192,192,97153,1,0,0:0:0:0:
320,192,97267,1,0,0:0:0:0:
448,192,97380,1,0,0:0:0:0:
320,192,97380,1,0,0:0:0:0:
192,192,97380,1,0,0:0:0:0:
64,192,97380,1,0,0:0:0:0:
192,192,97494,1,0,0:0:0:0:
64,192,97494,1,0,0:0:0:0:
192,192,97608,1,0,0:0:0:0:
320,192,97721,1,0,0:0:0:0:
192,192,97721,1,0,0:0:0:0:
320,192,97835,1,0,0:0:0:0:
448,192,97835,1,0,0:0:0:0:
64,192,97835,1,0,0:0:0:0:
448,192,97949,1,0,0:0:0:0:
448,192,98062,1,0,0:0:0:0:
320,192,98062,1,0,0:0:0:0:
320,192,98176,1,0,0:0:0:0:
192,192,98290,1,0,0:0:0:0:
64,192,98290,1,0,0:0:0:0:
448,192,98290,1,0,0:0:0:0:
320,192,98403,1,0,0:0:0:0:
64,192,98517,1,0,0:0:0:0:
448,192,98517,1,0,0:0:0:0:
192,192,98517,1,0,0:0:0:0:
448,192,98630,1,0,0:0:0:0:
320,192,98630,1,0,0:0:0:0:
192,192,98744,1,0,0:0:0:0:
64,192,98744,1,0,0:0:0:0:
320,192,98744,1,0,0:0:0:0:
192,192,98858,1,0,0:0:0:0:
448,192,98858,1,0,0:0:0:0:
448,192,98971,1,0,0:0:0:0:
320,192,98971,1,0,0:0:0:0:
64,192,98971,1,0,0:0:0:0:
192,192,99085,1,0,0:0:0:0:
64,192,99085,1,0,0:0:0:0:
448,192,99199,1,0,0:0:0:0:
320,192,99199,1,0,0:0:0:0:
192,192,99199,1,0,0:0:0:0:
64,192,99199,1,0,0:0:0:0:
320,192,99312,1,0,0:0:0:0:
320,192,99426,1,0,0:0:0:0:
320,192,99540,1,0,0:0:0:0:
64,192,99540,1,0,0:0:0:0:
64,192,99653,1,0,0:0:0:0:
192,192,99653,1,0,0:0:0:0:
448,192,99653,1,0,0:0:0:0:
192,192,99767,1,0,0:0:0:0:
192,192,99880,1,0,0:0:0:0:
448,192,99880,1,0,0:0:0:0:
192,192,99994,1,0,0:0:0:0:
320,192,100108,1,0,0:0:0:0:
64,192,100108,1,0,0:0:0:0:
448,192,100108,1,0,0:0:0:0:
448,192,100221,1,0,0:0:0:0:
448,192,100335,1,0,0:0:0:0:
192,192,100449,1,0,0:0:0:0:
64,192,100449,1,0,0:0:0:0:
64,192,100562,1,0,0:0:0:0:
320,192,100562,1,0,0:0:0:0:
448,192,100562,1,0,0:0:0:0:
192,192,100676,1,0,0:0:0:0:
192,192,100790,1,0,0:0:0:0:
64,192,100790,1,0,0:0:0:0:
192,192,100903,1,0,0:0:0:0:
448,192,101017,1,0,0:0:0:0:
320,192,101017,1,0,0:0:0:0:
64,192,101017,1,0,0:0:0:0:
192,192,101130,1,0,0:0:0:0:
320,192,101130,1,0,0:0:0:0:
448,192,101244,1,0,0:0:0:0:
192,192,101244,1,0,0:0:0:0:
320,192,101358,1,0,0:0:0:0:
448,192,101358,1,0,0:0:0:0:
192,192,101471,1,0,0:0:0:0:
64,192,101471,1,0,0:0:0:0:
448,192,101471,1,0,0:0:0:0:
320,192,101585,1,0,0:0:0:0:
64,192,101585,1,0,0:0:0:0:
192,192,101699,1,0,0:0:0:0:
448,192,101699,1,0,0:0:0:0:
448,192,101812,1,0,0:0:0:0:
320,192,101812,1,0,0:0:0:0:
192,192,101926,1,0,0:0:0:0:
64,192,101926,1,0,0:0:0:0:
320,192,101926,1,0,0:0:0:0:
192,192,102040,1,0,0:0:0:0:
64,192,102040,1,0,0:0:0:0:
448,192,102153,1,0,0:0:0:0:
320,192,102153,1,0,0:0:0:0:
64,192,102267,1,0,0:0:0:0:
320,192,102267,1,0,0:0:0:0:
192,192,102380,1,0,0:0:0:0:
448,192,102380,1,0,0:0:0:0:
64,192,102380,1,0,0:0:0:0:
320,192,102494,1,0,0:0:0:0:
448,192,102494,1,0,0:0:0:0:
64,192,102608,1,0,0:0:0:0:
320,192,102608,1,0,0:0:0:0:
192,192,102721,1,0,0:0:0:0:
64,192,102721,1,0,0:0:0:0:
448,192,102835,1,0,0:0:0:0:
320,192,102835,1,0,0:0:0:0:
192,192,102835,1,0,0:0:0:0:
320,192,102949,1,0,0:0:0:0:
64,192,102949,1,0,0:0:0:0:
320,192,103062,1,0,0:0:0:0:
64,192,103176,1,0,0:0:0:0:
448,192,103176,1,0,0:0:0:0:
192,192,103290,1,0,0:0:0:0:
64,192,103290,1,0,0:0:0:0:
448,192,103290,1,0,0:0:0:0:
192,192,103403,1,0,0:0:0:0:
192,192,103517,1,0,0:0:0:0:
448,192,103517,1,0,0:0:0:0:
320,192,103630,1,0,0:0:0:0:
448,192,103744,1,0,0:0:0:0:
320,192,103744,1,0,0:0:0:0:
64,192,103744,1,0,0:0:0:0:
64,192,103858,1,0,0:0:0:0:
64,192,103971,1,0,0:0:0:0:
448,192,103971,1,0,0:0:0:0:
320,192,104085,1,0,0:0:0:0:
448,192,104199,1,0,0:0:0:0:
192,192,104199,1,0,0:0:0:0:
64,192,104199,1,0,0:0:0:0:
192,192,104312,1,0,0:0:0:0:
448,192,104426,1,0,0:0:0:0:
64,192,104426,1,0,0:0:0:0:
448,192,104540,1,0,0:0:0:0:
320,192,104653,1,0,0:0:0:0:
192,192,104653,1,0,0:0:0:0:
64,192,104653,1,0,0:0:0:0:
320,192,104767,1,0,0:0:0:0:
448,192,104767,1,0,0:0:0:0:
64,192,104880,1,0,0:0:0:0:
192,192,104880,1,0,0:0:0:0:
192,192,104994,1,0,0:0:0:0:
448,192,104994,1,0,0:0:0:0:
448,192,105108,1,0,0:0:0:0:
64,192,105108,1,0,0:0:0:0:
320,192,105108,1,0,0:0:0:0:
192,192,105221,1,0,0:0:0:0:
64,192,105221,1,0,0:0:0:0:
448,192,105335,1,0,0:0:0:0:
320,192,105335,1,0,0:0:0:0:
64,192,105449,1,0,0:0:0:0:
320,192,105449,1,0,0:0:0:0:
64,192,105562,1,0,0:0:0:0:
448,192,105562,1,0,0:0:0:0:
192,192,105562,1,0,0:0:0:0:
320,192,105676,1,0,0:0:0:0:
448,192,105676,1,0,0:0:0:0:
192,192,105790,1,0,0:0:0:0:
64,192,105790,1,0,0:0:0:0:
320,192,105903,1,0,0:0:0:0:
64,192,105903,1,0,0:0:0:0:
448,192,106017,1,0,0:0:0:0:
320,192,106017,1,0,0:0:0:0:
192,192,106017,1,0,0:0:0:0:
64,192,106130,1,0,0:0:0:0:
192,192,106130,1,0,0:0:0:0:
448,192,106244,1,0,0:0:0:0:
64,192,106244,1,0,0:0:0:0:
320,192,106358,1,0,0:0:0:0:
192,192,106358,1,0,0:0:0:0:
448,192,106471,1,0,0:0:0:0:
64,192,106471,1,0,0:0:0:0:
192,192,106471,1,0,0:0:0:0:
448,192,106585,1,0,0:0:0:0:
192,192,106585,1,0,0:0:0:0:
448,192,106699,1,0,0:0:0:0:
320,192,106812,1,0,0:0:0:0:
64,192,106812,1,0,0:0:0:0:
192,192,106926,1,0,0:0:0:0:
64,192,106926,1,0,0:0:0:0:
448,192,106926,1,0,0:0:0:0:
320,192,107040,1,0,0:0:0:0:
320,192,107153,1,0,0:0:0:0:
64,192,107153,1,0,0:0:0:0:
192,192,107267,1,0,0:0:0:0:
320,192,107380,1,0,0:0:0:0:
448,192,107380,1,0,0:0:0:0:
64,192,107380,1,0,0:0:0:0:
64,192,107494,1,0,0:0:0:0:
64,192,107608,1,0,0:0:0:0:
192,192,107721,1,0,0:0:0:0:
448,192,107721,1,0,0:0:0:0:
448,192,107835,1,0,0:0:0:0:
320,192,107835,1,0,0:0:0:0:
64,192,107835,1,0,0:0:0:0:
192,192,107949,1,0,0:0:0:0:
320,192,108062,1,0,0:0:0:0:
448,192,108062,1,0,0:0:0:0:
320,192,108176,1,0,0:0:0:0:
448,192,108290,1,0,0:0:0:0:
64,192,108290,1,0,0:0:0:0:
192,192,108290,1,0,0:0:0:0:
320,192,108403,1,0,0:0:0:0:
192,192,108403,1,0,0:0:0:0:
64,192,108517,1,0,0:0:0:0:
320,192,108630,1,0,0:0:0:0:
448,192,108630,1,0,0:0:0:0:
448,192,108744,1,0,0:0:0:0:
192,192,108744,1,0,0:0:0:0:
64,192,108744,1,0,0:0:0:0:
320,192,108858,1,0,0:0:0:0:
192,192,108971,1,0,0:0:0:0:
448,192,108971,1,0,0:0:0:0:
448,192,109085,1,0,0:0:0:0:
320,192,109199,1,0,0:0:0:0:
192,192,109199,1,0,0:0:0:0:
64,192,109199,1,0,0:0:0:0:
192,192,109312,1,0,0:0:0:0:
64,192,109426,1,0,0:0:0:0:
320,192,109540,1,0,0:0:0:0:
64,192,109540,1,0,0:0:0:0:
448,192,109653,1,0,0:0:0:0:
192,192,109653,1,0,0:0:0:0:
320,192,109653,1,0,0:0:0:0:
192,192,109767,1,0,0:0:0:0:
448,192,109880,1,0,0:0:0:0:
64,192,109880,1,0,0:0:0:0:
320,192,109994,1,0,0:0:0:0:
448,192,110108,1,0,0:0:0:0:
192,192,110108,1,0,0:0:0:0:
64,192,110108,1,0,0:0:0:0:
448,192,110221,1,0,0:0:0:0:
320,192,110221,1,0,0:0:0:0:
192,192,110335,1,0,0:0:0:0:
192,192,110449,1,0,0:0:0:0:
320,192,110449,1,0,0:0:0:0:
448,192,110562,1,0,0:0:0:0:
320,192,110562,1,0,0:0:0:0:
64,192,110562,1,0,0:0:0:0:
192,192,110676,1,0,0:0:0:0:
448,192,110790,1,0,0:0:0:0:
192,192,110790,1,0,0:0:0:0:
320,192,110903,1,0,0:0:0:0:
448,192,111017,1,0,0:0:0:0:
192,192,111017,1,0,0:0:0:0:
64,192,111017,1,0,0:0:0:0:
192,192,111130,1,0,0:0:0:0:
64,192,111244,1,0,0:0:0:0:
192,192,111358,1,0,0:0:0:0:
64,192,111358,1,0,0:0:0:0:
448,192,111471,1,0,0:0:0:0:
320,192,111471,1,0,0:0:0:0:
192,192,111471,1,0,0:0:0:0:
320,192,111585,1,0,0:0:0:0:
448,192,111699,1,0,0:0:0:0:
64,192,111699,1,0,0:0:0:0:
320,192,111812,1,0,0:0:0:0:
192,192,111926,1,0,0:0:0:0:
64,192,111926,1,0,0:0:0:0:
448,192,111926,1,0,0:0:0:0:
192,192,112040,1,0,0:0:0:0:
448,192,112040,1,0,0:0:0:0:
320,192,112153,1,0,0:0:0:0:
192,192,112267,1,0,0:0:0:0:
64,192,112267,1,0,0:0:0:0:
448,192,112380,1,0,0:0:0:0:
320,192,112380,1,0,0:0:0:0:
192,192,112380,1,0,0:0:0:0:
320,192,112494,1,0,0:0:0:0:
64,192,112608,1,0,0:0:0:0:
192,192,112608,1,0,0:0:0:0:
192,192,112721,1,0,0:0:0:0:
448,192,112835,1,0,0:0:0:0:
320,192,112835,1,0,0:0:0:0:
64,192,112835,1,0,0:0:0:0:
192,192,112949,1,0,0:0:0:0:
320,192,113062,1,0,0:0:0:0:
448,192,113176,1,0,0:0:0:0:
192,192,113176,1,0,0:0:0:0:
192,192,113290,1,0,0:0:0:0:
448,192,113290,1,0,0:0:0:0:
320,192,113290,1,0,0:0:0:0:
64,192,113403,1,0,0:0:0:0:
192,192,113517,1,0,0:0:0:0:
448,192,113517,1,0,0:0:0:0:
320,192,113630,1,0,0:0:0:0:
64,192,113630,1,0,0:0:0:0:
192,192,113744,1,0,0:0:0:0:
64,192,113744,1,0,0:0:0:0:
320,192,113744,1,0,0:0:0:0:
448,192,113744,1,0,0:0:0:0:
192,192,113858,1,0,0:0:0:0:
192,192,113971,1,0,0:0:0:0:
320,192,114085,1,0,0:0:0:0:
448,192,114085,1,0,0:0:0:0:
448,192,114199,1,0,0:0:0:0:
64,192,114199,1,0,0:0:0:0:
192,192,114199,1,0,0:0:0:0:
192,192,114312,1,0,0:0:0:0:
192,192,114426,1,0,0:0:0:0:
448,192,114426,1,0,0:0:0:0:
320,192,114540,1,0,0:0:0:0:
448,192,114653,1,0,0:0:0:0:
320,192,114653,1,0,0:0:0:0:
192,192,114653,1,0,0:0:0:0:
64,192,114653,1,0,0:0:0:0:
192,192,114767,1,0,0:0:0:0:
320,192,114880,1,0,0:0:0:0:
448,192,114994,1,0,0:0:0:0:
192,192,114994,1,0,0:0:0:0:
448,192,115108,1,0,0:0:0:0:
320,192,115108,1,0,0:0:0:0:
64,192,115108,1,0,0:0:0:0:
64,192,115221,1,0,0:0:0:0:
64,192,115335,1,0,0:0:0:0:
320,192,115335,1,0,0:0:0:0:
192,192,115449,1,0,0:0:0:0:
448,192,115562,1,0,0:0:0:0:
320,192,115562,1,0,0:0:0:0:
192,192,115562,1,0,0:0:0:0:
64,192,115562,1,0,0:0:0:0:
320,192,115676,1,0,0:0:0:0:
448,192,115676,1,0,0:0:0:0:
192,192,115790,1,0,0:0:0:0:
64,192,115903,1,0,0:0:0:0:
320,192,115903,1,0,0:0:0:0:
448,192,116017,1,0,0:0:0:0:
192,192,116017,1,0,0:0:0:0:
64,192,116017,1,0,0:0:0:0:
320,192,116130,1,0,0:0:0:0:
192,192,116130,1,0,0:0:0:0:
320,192,116244,1,0,0:0:0:0:
448,192,116244,1,0,0:0:0:0:
192,192,116358,1,0,0:0:0:0:
448,192,116471,1,0,0:0:0:0:
320,192,116471,1,0,0:0:0:0:
192,192,116471,1,0,0:0:0:0:
64,192,116471,1,0,0:0:0:0:
320,192,116585,1,0,0:0:0:0:
448,192,116585,1,0,0:0:0:0:
64,192,116699,1,0,0:0:0:0:
192,192,116699,1,0,0:0:0:0:
192,192,116812,1,0,0:0:0:0:
448,192,116812,1,0,0:0:0:0:
448,192,116926,1,0,0:0:0:0:
320,192,116926,1,0,0:0:0:0:
64,192,116926,1,0,0:0:0:0:
320,192,117040,1,0,0:0:0:0:
64,192,117040,1,0,0:0:0:0:
192,192,117153,1,0,0:0:0:0:
448,192,117153,1,0,0:0:0:0:
320,192,117267,1,0,0:0:0:0:
64,192,117267,1,0,0:0:0:0:
320,192,117380,1,0,0:0:0:0:
192,192,117380,1,0,0:0:0:0:
64,192,117380,1,0,0:0:0:0:
448,192,117380,1,0,0:0:0:0:
192,192,117494,1,0,0:0:0:0:
448,192,117494,1,0,0:0:0:0:
320,192,117608,1,0,0:0:0:0:
192,192,117721,1,0,0:0:0:0:
64,192,117721,1,0,0:0:0:0:
64,192,117835,1,0,0:0:0:0:
448,192,117835,1,0,0:0:0:0:
320,192,117835,1,0,0:0:0:0:
320,192,117949,1,0,0:0:0:0:
192,192,118062,1,0,0:0:0:0:
448,192,118062,1,0,0:0:0:0:
320,192,118176,1,0,0:0:0:0:
448,192,118290,1,0,0:0:0:0:
320,192,118290,1,0,0:0:0:0:
192,192,118290,1,0,0:0:0:0:
64,192,118290,1,0,0:0:0:0:
192,192,118403,1,0,0:0:0:0:
64,192,118517,1,0,0:0:0:0:
192,192,118630,1,0,0:0:0:0:
448,192,118630,1,0,0:0:0:0:
320,192,118744,1,0,0:0:0:0:
64,192,118744,1,0,0:0:0:0:
192,192,118744,1,0,0:0:0:0:
320,192,118858,1,0,0:0:0:0:
448,192,118971,1,0,0:0:0:0:
64,192,118971,1,0,0:0:0:0:
192,192,119085,1,0,0:0:0:0:
320,192,119199,1,0,0:0:0:0:
448,192,119199,1,0,0:0:0:0:
192,192,119199,1,0,0:0:0:0:
64,192,119199,1,0,0:0:0:0:
320,192,119312,1,0,0:0:0:0:
448,192,119312,1,0,0:0:0:0:
320,192,119426,1,0,0:0:0:0:
192,192,119540,1,0,0:0:0:0:
64,192,119540,1,0,0:0:0:0:
64,192,119653,1,0,0:0:0:0:
320,192,119653,1,0,0:0:0:0:
448,192,119653,1,0,0:0:0:0:
320,192,119767,1,0,0:0:0:0:
64,192,119880,1,0,0:0:0:0:
192,192,119880,1,0,0:0:0:0:
320,192,119994,1,0,0:0:0:0:
192,192,120108,1,0,0:0:0:0:
448,192,120108,1,0,0:0:0:0:
320,192,120108,1,0,0:0:0:0:
64,192,120108,1,0,0:0:0:0:
192,192,120221,1,0,0:0:0:0:
64,192,120335,1,0,0:0:0:0:
320,192,120335,1,0,0:0:0:0:
448,192,120449,1,0,0:0:0:0:
192,192,120562,1,0,0:0:0:0:
64,192,120562,1,0,0:0:0:0:
448,192,120562,1,0,0:0:0:0:
320,192,120676,1,0,0:0:0:0:
320,192,120790,1,0,0:0:0:0:
64,192,120790,1,0,0:0:0:0:
192,192,120903,1,0,0:0:0:0:
64,192,121017,1,0,0:0:0:0:
192,192,121017,1,0,0:0:0:0:
320,192,121017,1,0,0:0:0:0:
448,192,121017,1,0,0:0:0:0:
320,192,121130,1,0,0:0:0:0:
64,192,121130,1,0,0:0:0:0:
192,192,121244,1,0,0:0:0:0:
320,192,121358,1,0,0:0:0:0:
448,192,121358,1,0,0:0:0:0:
448,192,121471,1,0,0:0:0:0:
320,192,121471,1,0,0:0:0:0:
64,192,121471,1,0,0:0:0:0:
192,192,121585,1,0,0:0:0:0:
64,192,121699,1,0,0:0:0:0:
320,192,121699,1,0,0:0:0:0:
192,192,121812,1,0,0:0:0:0:
448,192,121926,1,0,0:0:0:0:
320,192,121926,1,0,0:0:0:0:
192,192,121926,1,0,0:0:0:0:
64,192,121926,1,0,0:0:0:0:
320,192,122040,1,0,0:0:0:0:
64,192,122153,1,0,0:0:0:0:
320,192,122267,1,0,0:0:0:0:
448,192,122267,1,0,0:0:0:0:
192,192,122380,1,0,0:0:0:0:
64,192,122380,1,0,0:0:0:0:
448,192,122380,1,0,0:0:0:0:
320,192,122494,1,0,0:0:0:0:
192,192,122608,1,0,0:0:0:0:
448,192,122608,1,0,0:0:0:0:
64,192,122721,1,0,0:0:0:0:
64,192,122835,1,0,0:0:0:0:
192,192,122835,1,0,0:0:0:0:
320,192,122835,1,0,0:0:0:0:
448,192,122835,1,0,0:0:0:0:
320,192,122949,1,0,0:0:0:0:
320,192,123062,1,0,0:0:0:0:
192,192,123176,1,0,0:0:0:0:
64,192,123176,1,0,0:0:0:0:
64,192,123290,1,0,0:0:0:0:
192,192,123290,1,0,0:0:0:0:
320,192,123290,1,0,0:0:0:0:
320,192,123403,1,0,0:0:0:0:
448,192,123517,1,0,0:0:0:0:
192,192,123517,1,0,0:0:0:0:
320,192,123630,1,0,0:0:0:0:
320,192,123744,1,0,0:0:0:0:
192,192,123744,1,0,0:0:0:0:
64,192,123744,1,0,0:0:0:0:
448,192,123744,1,0,0:0:0:0:
192,192,123858,1,0,0:0:0:0:
64,192,123971,1,0,0:0:0:0:
64,192,124085,1,0,0:0:0:0:
192,192,124085,1,0,0:0:0:0:
448,192,124199,1,0,0:0:0:0:
320,192,124199,1,0,0:0:0:0:
192,192,124199,1,0,0:0:0:0:
320,192,124312,1,0,0:0:0:0:
448,192,124426,1,0,0:0:0:0:
64,192,124426,1,0,0:0:0:0:
192,192,124540,1,0,0:0:0:0:
192,192,124653,1,0,0:0:0:0:
320,192,124653,1,0,0:0:0:0:
448,192,124653,1,0,0:0:0:0:
64,192,124653,1,0,0:0:0:0:
320,192,124767,1,0,0:0:0:0:
64,192,124880,1,0,0:0:0:0:
192,192,124994,1,0,0:0:0:0:
448,192,124994,1,0,0:0:0:0:
448,192,125108,1,0,0:0:0:0:
320,192,125108,1,0,0:0:0:0:
192,192,125108,1,0,0:0:0:0:
320,192,125221,1,0,0:0:0:0:
64,192,125335,1,0,0:0:0:0:
192,192,125335,1,0,0:0:0:0:
448,192,125449,1,0,0:0:0:0:
448,192,125562,1,0,0:0:0:0:
320,192,125562,1,0,0:0:0:0:
64,192,125562,1,0,0:0:0:0:
192,192,125562,1,0,0:0:0:0:
192,192,125676,1,0,0:0:0:0:
320,192,125790,1,0,0:0:0:0:
448,192,125790,1,0,0:0:0:0:
320,192,125903,1,0,0:0:0:0:
64,192,126017,1,0,0:0:0:0:
192,192,126017,1,0,0:0:0:0:
448,192,126017,1,0,0:0:0:0:
192,192,126130,1,0,0:0:0:0:
64,192,126244,1,0,0:0:0:0:
448,192,126244,1,0,0:0:0:0:
192,192,126358,1,0,0:0:0:0:
448,192,126471,1,0,0:0:0:0:
320,192,126471,1,0,0:0:0:0:
192,192,126471,1,0,0:0:0:0:
64,192,126471,1,0,0:0:0:0:
448,192,126585,1,0,0:0:0:0:
64,192,126585,1,0,0:0:0:0:
192,192,126699,1,0,0:0:0:0:
64,192,126812,1,0,0:0:0:0:
320,192,126812,1,0,0:0:0:0:
448,192,126926,1,0,0:0:0:0:
192,192,126926,1,0,0:0:0:0:
64,192,126926,1,0,0:0:0:0:
320,192,127040,1,0,0:0:0:0:
448,192,127153,1,0,0:0:0:0:
192,192,127153,1,0,0:0:0:0:
64,192,127267,1,0,0:0:0:0:
448,192,127380,1,0,0:0:0:0:
320,192,127380,1,0,0:0:0:0:
64,192,127380,1,0,0:0:0:0:
192,192,127380,1,0,0:0:0:0:
192,192,127494,1,0,0:0:0:0:
448,192,127494,1,0,0:0:0:0:
320,192,127608,1,0,0:0:0:0:
192,192,127721,1,0,0:0:0:0:
448,192,127835,1,0,0:0:0:0:
320,192,127835,1,0,0:0:0:0:
64,192,127835,1,0,0:0:0:0:
192,192,127835,1,0,0:0:0:0:
320,192,127949,1,0,0:0:0:0:
64,192,128062,1,0,0:0:0:0:
192,192,128176,1,0,0:0:0:0:
448,192,128290,1,0,0:0:0:0:
320,192,128290,1,0,0:0:0:0:
64,192,128290,1,0,0:0:0:0:
192,192,128403,1,0,0:0:0:0:
320,192,128517,1,0,0:0:0:0:
320,192,128630,1,0,0:0:0:0:
448,192,128744,1,0,0:0:0:0:
192,192,128744,1,0,0:0:0:0:
64,192,128744,1,0,0:0:0:0:
320,192,128858,1,0,0:0:0:0:
192,192,128971,1,0,0:0:0:0:
192,192,129085,1,0,0:0:0:0:
320,192,129199,1,0,0:0:0:0:
448,192,129199,1,0,0:0:0:0:
64,192,129199,1,0,0:0:0:0:
448,192,129312,1,0,0:0:0:0:
64,192,129426,1,0,0:0:0:0:
64,192,129540,1,0,0:0:0:0:
192,192,129653,1,0,0:0:0:0:
320,192,129653,1,0,0:0:0:0:
448,192,129653,1,0,0:0:0:0:
192,192,129767,1,0,0:0:0:0:
448,192,129880,1,0,0:0:0:0:
448,192,129994,1,0,0:0:0:0:
320,192,130108,1,0,0:0:0:0:
64,192,130108,1,0,0:0:0:0:
448,192,130108,1,0,0:0:0:0:
192,192,130221,1,0,0:0:0:0:
320,192,130335,1,0,0:0:0:0:
320,192,130449,1,0,0:0:0:0:
448,192,130562,1,0,0:0:0:0:
192,192,130562,1,0,0:0:0:0:
64,192,130562,1,0,0:0:0:0:
64,192,130676,1,0,0:0:0:0:
192,192,130790,1,0,0:0:0:0:
192,192,130903,1,0,0:0:0:0:
448,192,131017,1,0,0:0:0:0:
320,192,131017,1,0,0:0:0:0:
64,192,131017,1,0,0:0:0:0:
448,192,131130,1,0,0:0:0:0:
64,192,131244,1,0,0:0:0:0:
64,192,131358,1,0,0:0:0:0:
192,192,131471,1,0,0:0:0:0:
320,192,131471,1,0,0:0:0:0:
448,192,131471,1,0,0:0:0:0:
192,192,131585,1,0,0:0:0:0:
448,192,131699,1,0,0:0:0:0:
448,192,131812,1,0,0:0:0:0:
320,192,131926,1,0,0:0:0:0:
192,192,131926,1,0,0:0:0:0:
64,192,131926,1,0,0:0:0:0:
192,192,132040,1,0,0:0:0:0:
448,192,132040,1,0,0:0:0:0:
320,192,132153,1,0,0:0:0:0:
320,192,132267,1,0,0:0:0:0:
64,192,132267,1,0,0:0:0:0:
192,192,132380,1,0,0:0:0:0:
64,192,132380,1,0,0:0:0:0:
448,192,132380,1,0,0:0:0:0:
320,192,132494,1,0,0:0:0:0:
192,192,132608,1,0,0:0:0:0:
64,192,132608,1,0,0:0:0:0:
192,192,132721,1,0,0:0:0:0:
448,192,132835,1,0,0:0:0:0:
320,192,132835,1,0,0:0:0:0:
64,192,132835,1,0,0:0:0:0:
192,192,132949,1,0,0:0:0:0:
64,192,132949,1,0,0:0:0:0:
192,192,133062,1,0,0:0:0:0:
448,192,133176,1,0,0:0:0:0:
320,192,133176,1,0,0:0:0:0:
448,192,133290,1,0,0:0:0:0:
192,192,133290,1,0,0:0:0:0:
64,192,133290,1,0,0:0:0:0:
320,192,133403,1,0,0:0:0:0:
192,192,133517,1,0,0:0:0:0:
64,192,133517,1,0,0:0:0:0:
192,192,133630,1,0,0:0:0:0:
448,192,133630,1,0,0:0:0:0:
448,192,133744,1,0,0:0:0:0:
320,192,133744,1,0,0:0:0:0:
64,192,133744,1,0,0:0:0:0:
64,192,133858,1,0,0:0:0:0:
320,192,133858,1,0,0:0:0:0:
192,192,133971,1,0,0:0:0:0:
448,192,134085,1,0,0:0:0:0:
320,192,134085,1,0,0:0:0:0:
320,192,134199,1,0,0:0:0:0:
64,192,134199,1,0,0:0:0:0:
192,192,134199,1,0,0:0:0:0:
192,192,134312,1,0,0:0:0:0:
448,192,134426,1,0,0:0:0:0:
320,192,134426,1,0,0:0:0:0:
64,192,134540,1,0,0:0:0:0:
320,192,134540,1,0,0:0:0:0:
192,192,134653,1,0,0:0:0:0:
64,192,134653,1,0,0:0:0:0:
448,192,134653,1,0,0:0:0:0:
320,192,134767,1,0,0:0:0:0:
192,192,134880,1,0,0:0:0:0:
448,192,134880,1,0,0:0:0:0:
320,192,134994,1,0,0:0:0:0:
64,192,134994,1,0,0:0:0:0:
64,192,135108,1,0,0:0:0:0:
192,192,135108,1,0,0:0:0:0:
448,192,135108,1,0,0:0:0:0:
320,192,135221,1,0,0:0:0:0:
192,192,135335,1,0,0:0:0:0:
448,192,135335,1,0,0:0:0:0:
64,192,135449,1,0,0:0:0:0:
448,192,135562,1,0,0:0:0:0:
192,192,135562,1,0,0:0:0:0:
64,192,135562,1,0,0:0:0:0:
320,192,135676,1,0,0:0:0:0:
448,192,135790,1,0,0:0:0:0:
320,192,135790,1,0,0:0:0:0:
192,192,135903,1,0,0:0:0:0:
64,192,135903,1,0,0:0:0:0:
448,192,136017,1,0,0:0:0:0:
320,192,136017,1,0,0:0:0:0:
192,192,136017,1,0,0:0:0:0:
320,192,136130,1,0,0:0:0:0:
192,192,136244,1,0,0:0:0:0:
64,192,136244,1,0,0:0:0:0:
192,192,136358,1,0,0:0:0:0:
448,192,136358,1,0,0:0:0:0:
448,192,136471,1,0,0:0:0:0:
320,192,136471,1,0,0:0:0:0:
64,192,136471,1,0,0:0:0:0:
192,192,136585,1,0,0:0:0:0:
320,192,136699,1,0,0:0:0:0:
192,192,136699,1,0,0:0:0:0:
320,192,136812,1,0,0:0:0:0:
192,192,136926,1,0,0:0:0:0:
64,192,136926,1,0,0:0:0:0:
448,192,136926,1,0,0:0:0:0:
320,192,137040,1,0,0:0:0:0:
192,192,137153,1,0,0:0:0:0:
448,192,137153,1,0,0:0:0:0:
448,192,137267,1,0,0:0:0:0:
64,192,137267,1,0,0:0:0:0:
320,192,137380,1,0,0:0:0:0:
192,192,137380,1,0,0:0:0:0:
64,192,137380,1,0,0:0:0:0:
192,192,137494,1,0,0:0:0:0:
448,192,137608,1,0,0:0:0:0:
64,192,137608,1,0,0:0:0:0:
64,192,137721,1,0,0:0:0:0:
320,192,137721,1,0,0:0:0:0:
192,192,137835,1,0,0:0:0:0:
320,192,137835,1,0,0:0:0:0:
448,192,137835,1,0,0:0:0:0:
192,192,137949,1,0,0:0:0:0:
64,192,138062,1,0,0:0:0:0:
448,192,138062,1,0,0:0:0:0:
320,192,138062,1,0,0:0:0:0:
320,192,138176,1,0,0:0:0:0:
192,192,138290,1,0,0:0:0:0:
64,192,138290,1,0,0:0:0:0:
448,192,138290,1,0,0:0:0:0:
192,192,138403,1,0,0:0:0:0:
320,192,138517,1,0,0:0:0:0:
320,192,138630,1,0,0:0:0:0:
448,192,138744,1,0,0:0:0:0:
192,192,138744,1,0,0:0:0:0:
64,192,138744,1,0,0:0:0:0:
320,192,138858,1,0,0:0:0:0:
192,192,138971,1,0,0:0:0:0:
64,192,138971,1,0,0:0:0:0:
320,192,139085,1,0,0:0:0:0:
448,192,139085,1,0,0:0:0:0:
448,192,139199,1,0,0:0:0:0:
192,192,139199,1,0,0:0:0:0:
64,192,139199,1,0,0:0:0:0:
320,192,139312,1,0,0:0:0:0:
192,192,139426,1,0,0:0:0:0:
64,192,139426,1,0,0:0:0:0:
448,192,139540,1,0,0:0:0:0:
192,192,139540,1,0,0:0:0:0:
448,192,139653,1,0,0:0:0:0:
320,192,139653,1,0,0:0:0:0:
64,192,139653,1,0,0:0:0:0:
192,192,139767,1,0,0:0:0:0:
320,192,139880,1,0,0:0:0:0:
64,192,139880,1,0,0:0:0:0:
64,192,139994,1,0,0:0:0:0:
448,192,139994,1,0,0:0:0:0:
448,192,140108,1,0,0:0:0:0:
320,192,140108,1,0,0:0:0:0:
192,192,140108,1,0,0:0:0:0:
320,192,140221,1,0,0:0:0:0:
192,192,140335,1,0,0:0:0:0:
64,192,140335,1,0,0:0:0:0:
448,192,140449,1,0,0:0:0:0:
320,192,140449,1,0,0:0:0:0:
448,192,140562,1,0,0:0:0:0:
192,192,140562,1,0,0:0:0:0:
64,192,140562,1,0,0:0:0:0:
192,192,140676,1,0,0:0:0:0:
320,192,140790,1,0,0:0:0:0:
448,192,140790,1,0,0:0:0:0:
64,192,140903,1,0,0:0:0:0:
192,192,140903,1,0,0:0:0:0:
192,192,141017,1,0,0:0:0:0:
64,192,141017,1,0,0:0:0:0:
320,192,141017,1,0,0:0:0:0:
320,192,141130,1,0,0:0:0:0:
448,192,141244,1,0,0:0:0:0:
192,192,141244,1,0,0:0:0:0:
320,192,141358,1,0,0:0:0:0:
448,192,141358,1,0,0:0:0:0:
320,192,141471,1,0,0:0:0:0:
192,192,141471,1,0,0:0:0:0:
64,192,141471,1,0,0:0:0:0:
192,192,141585,1,0,0:0:0:0:
448,192,141699,1,0,0:0:0:0:
64,192,141699,1,0,0:0:0:0:
320,192,141812,1,0,0:0:0:0:
192,192,141812,1,0,0:0:0:0:
64,192,141926,1,0,0:0:0:0:
192,192,141926,1,0,0:0:0:0:
448,192,141926,1,0,0:0:0:0:
320,192,142040,1,0,0:0:0:0:
448,192,142040,1,0,0:0:0:0:
192,192,142153,1,0,0:0:0:0:
64,192,142153,1,0,0:0:0:0:
448,192,142210,1,0,0:0:0:0:
320,192,142210,1,0,0:0:0:0:
192,192,142267,1,0,0:0:0:0:
64,192,142267,1,0,0:0:0:0:
320,192,142380,1,0,0:0:0:0:
448,192,142380,1,0,0:0:0:0:
64,192,142380,1,0,0:0:0:0:
192,192,142494,1,0,0:0:0:0:
448,192,142608,1,0,0:0:0:0:
64,192,142608,1,0,0:0:0:0:
192,192,142721,1,0,0:0:0:0:
192,192,142835,1,0,0:0:0:0:
448,192,142835,1,0,0:0:0:0:
64,192,142835,1,0,0:0:0:0:
320,192,142949,1,0,0:0:0:0:
192,192,143062,1,0,0:0:0:0:
320,192,143176,1,0,0:0:0:0:
64,192,143176,1,0,0:0:0:0:
64,192,143290,1,0,0:0:0:0:
448,192,143290,1,0,0:0:0:0:
192,192,143290,1,0,0:0:0:0:
320,192,143290,1,0,0:0:0:0:
192,192,143403,1,0,0:0:0:0:
448,192,143517,1,0,0:0:0:0:
192,192,143517,1,0,0:0:0:0:
320,192,143630,1,0,0:0:0:0:
192,192,143744,1,0,0:0:0:0:
64,192,143744,1,0,0:0:0:0:
448,192,143744,1,0,0:0:0:0:
192,192,143858,1,0,0:0:0:0:
64,192,143971,1,0,0:0:0:0:
64,192,144085,1,0,0:0:0:0:
320,192,144085,1,0,0:0:0:0:
192,192,144199,1,0,0:0:0:0:
448,192,144199,1,0,0:0:0:0:
320,192,144199,1,0,0:0:0:0:
64,192,144199,1,0,0:0:0:0:
192,192,144312,1,0,0:0:0:0:
448,192,144426,1,0,0:0:0:0:
320,192,144426,1,0,0:0:0:0:
320,192,144540,1,0,0:0:0:0:
192,192,144653,1,0,0:0:0:0:
64,192,144653,1,0,0:0:0:0:
448,192,144653,1,0,0:0:0:0:
192,192,144767,1,0,0:0:0:0:
320,192,144880,1,0,0:0:0:0:
192,192,144994,1,0,0:0:0:0:
64,192,144994,1,0,0:0:0:0:
448,192,145108,1,0,0:0:0:0:
320,192,145108,1,0,0:0:0:0:
192,192,145108,1,0,0:0:0:0:
64,192,145108,1,0,0:0:0:0:
320,192,145221,1,0,0:0:0:0:
448,192,145335,1,0,0:0:0:0:
64,192,145335,1,0,0:0:0:0:
320,192,145449,1,0,0:0:0:0:
192,192,145562,1,0,0:0:0:0:
64,192,145562,1,0,0:0:0:0:
320,192,145562,1,0,0:0:0:0:
192,192,145676,1,0,0:0:0:0:
448,192,145790,1,0,0:0:0:0:
320,192,145903,1,0,0:0:0:0:
64,192,145903,1,0,0:0:0:0:
64,192,146017,1,0,0:0:0:0:
192,192,146017,1,0,0:0:0:0:
320,192,146017,1,0,0:0:0:0:
448,192,146017,1,0,0:0:0:0:
192,192,146130,1,0,0:0:0:0:
448,192,146244,1,0,0:0:0:0:
320,192,146244,1,0,0:0:0:0:
320,192,146358,1,0,0:0:0:0:
448,192,146471,1,0,0:0:0:0:
192,192,146471,1,0,0:0:0:0:
64,192,146471,1,0,0:0:0:0:
192,192,146585,1,0,0:0:0:0:
64,192,146699,1,0,0:0:0:0:
448,192,146812,1,0,0:0:0:0:
192,192,146812,1,0,0:0:0:0:
320,192,146926,1,0,0:0:0:0:
64,192,146926,1,0,0:0:0:0:
448,192,146926,1,0,0:0:0:0:
192,192,146926,1,0,0:0:0:0:
320,192,147040,1,0,0:0:0:0:
192,192,147153,1,0,0:0:0:0:
64,192,147153,1,0,0:0:0:0:
192,192,147267,1,0,0:0:0:0:
448,192,147380,1,0,0:0:0:0:
320,192,147380,1,0,0:0:0:0:
192,192,147380,1,0,0:0:0:0:
320,192,147494,1,0,0:0:0:0:
64,192,147608,1,0,0:0:0:0:
192,192,147721,1,0,0:0:0:0:
448,192,147721,1,0,0:0:0:0:
448,192,147835,1,0,0:0:0:0:
320,192,147835,1,0,0:0:0:0:
192,192,147835,1,0,0:0:0:0:
64,192,147835,1,0,0:0:0:0:
320,192,147949,1,0,0:0:0:0:
192,192,148062,1,0,0:0:0:0:
448,192,148062,1,0,0:0:0:0:
192,192,148176,1,0,0:0:0:0:
320,192,148290,1,0,0:0:0:0:
448,192,148290,1,0,0:0:0:0:
64,192,148290,1,0,0:0:0:0:
192,192,148403,1,0,0:0:0:0:
64,192,148517,1,0,0:0:0:0:
192,192,148630,1,0,0:0:0:0:
320,192,148630,1,0,0:0:0:0:
448,192,148744,1,0,0:0:0:0:
320,192,148744,1,0,0:0:0:0:
192,192,148744,1,0,0:0:0:0:
64,192,148744,1,0,0:0:0:0:
64,192,148858,1,0,0:0:0:0:
192,192,148971,1,0,0:0:0:0:
448,192,148971,1,0,0:0:0:0:
448,192,149085,1,0,0:0:0:0:
448,192,149199,1,0,0:0:0:0:
320,192,149199,1,0,0:0:0:0:
192,192,149199,1,0,0:0:0:0:
320,192,149312,1,0,0:0:0:0:
64,192,149426,1,0,0:0:0:0:
192,192,149540,1,0,0:0:0:0:
448,192,149540,1,0,0:0:0:0:
448,192,149653,1,0,0:0:0:0:
320,192,149653,1,0,0:0:0:0:
192,192,149653,1,0,0:0:0:0:
64,192,149653,1,0,0:0:0:0:
320,192,149767,1,0,0:0:0:0:
64,192,149880,1,0,0:0:0:0:
192,192,149880,1,0,0:0:0:0:
192,192,149994,1,0,0:0:0:0:
448,192,150108,1,0,0:0:0:0:
320,192,150108,1,0,0:0:0:0:
64,192,150108,1,0,0:0:0:0:
320,192,150221,1,0,0:0:0:0:
64,192,150335,1,0,0:0:0:0:
64,192,150449,1,0,0:0:0:0:
192,192,150449,1,0,0:0:0:0:
448,192,150562,1,0,0:0:0:0:
320,192,150562,1,0,0:0:0:0:
192,192,150562,1,0,0:0:0:0:
64,192,150562,1,0,0:0:0:0:
320,192,150676,1,0,0:0:0:0:
192,192,150790,1,0,0:0:0:0:
64,192,150790,1,0,0:0:0:0:
192,192,150903,1,0,0:0:0:0:
448,192,151017,1,0,0:0:0:0:
320,192,151017,1,0,0:0:0:0:
64,192,151017,1,0,0:0:0:0:
320,192,151130,1,0,0:0:0:0:
192,192,151244,1,0,0:0:0:0:
320,192,151358,1,0,0:0:0:0:
448,192,151358,1,0,0:0:0:0:
448,192,151471,1,0,0:0:0:0:
320,192,151471,1,0,0:0:0:0:
64,192,151471,1,0,0:0:0:0:
192,192,151471,1,0,0:0:0:0:
192,192,151585,1,0,0:0:0:0:
320,192,151699,1,0,0:0:0:0:
64,192,151699,1,0,0:0:0:0:
192,192,151812,1,0,0:0:0:0:
320,192,151926,1,0,0:0:0:0:
448,192,151926,1,0,0:0:0:0:
192,192,151926,1,0,0:0:0:0:
320,192,152040,1,0,0:0:0:0:
64,192,152153,1,0,0:0:0:0:
64,192,152267,1,0,0:0:0:0:
320,192,152267,1,0,0:0:0:0:
448,192,152380,1,0,0:0:0:0:
320,192,152380,1,0,0:0:0:0:
192,192,152380,1,0,0:0:0:0:
64,192,152380,1,0,0:0:0:0:
192,192,152494,1,0,0:0:0:0:
64,192,152608,1,0,0:0:0:0:
448,192,152608,1,0,0:0:0:0:
448,192,152721,1,0,0:0:0:0:
320,192,152835,1,0,0:0:0:0:
192,192,152835,1,0,0:0:0:0:
64,192,152835,1,0,0:0:0:0:
64,192,152949,1,0,0:0:0:0:
192,192,153062,1,0,0:0:0:0:
448,192,153176,1,0,0:0:0:0:
64,192,153176,1,0,0:0:0:0:
448,192,153290,1,0,0:0:0:0:
320,192,153290,1,0,0:0:0:0:
192,192,153290,1,0,0:0:0:0:
64,192,153290,1,0,0:0:0:0:
192,192,153403,1,0,0:0:0:0:
320,192,153517,1,0,0:0:0:0:
64,192,153517,1,0,0:0:0:0:
320,192,153630,1,0,0:0:0:0:
448,192,153744,1,0,0:0:0:0:
192,192,153744,1,0,0:0:0:0:
64,192,153744,1,0,0:0:0:0:
448,192,153858,1,0,0:0:0:0:
192,192,153971,1,0,0:0:0:0:
448,192,154085,1,0,0:0:0:0:
320,192,154085,1,0,0:0:0:0:
448,192,154199,1,0,0:0:0:0:
320,192,154199,1,0,0:0:0:0:
64,192,154199,1,0,0:0:0:0:
192,192,154199,1,0,0:0:0:0:
192,192,154312,1,0,0:0:0:0:
64,192,154426,1,0,0:0:0:0:
448,192,154426,1,0,0:0:0:0:
192,192,154540,1,0,0:0:0:0:
64,192,154653,1,0,0:0:0:0:
320,192,154653,1,0,0:0:0:0:
192,192,154653,1,0,0:0:0:0:
320,192,154767,1,0,0:0:0:0:
192,192,154880,1,0,0:0:0:0:
448,192,154994,1,0,0:0:0:0:
192,192,154994,1,0,0:0:0:0:
448,192,155108,1,0,0:0:0:0:
320,192,155108,1,0,0:0:0:0:
192,192,155108,1,0,0:0:0:0:
64,192,155108,1,0,0:0:0:0:
320,192,155221,1,0,0:0:0:0:
192,192,155335,1,0,0:0:0:0:
64,192,155335,1,0,0:0:0:0:
192,192,155449,1,0,0:0:0:0:
448,192,155562,1,0,0:0:0:0:
320,192,155562,1,0,0:0:0:0:
64,192,155562,1,0,0:0:0:0:
320,192,155676,1,0,0:0:0:0:
64,192,155790,1,0,0:0:0:0:
448,192,155790,1,0,0:0:0:0:
192,192,155903,1,0,0:0:0:0:
320,192,155903,1,0,0:0:0:0:
448,192,156017,1,0,0:0:0:0:
320,192,156017,1,0,0:0:0:0:
64,192,156017,1,0,0:0:0:0:
192,192,156017,1,0,0:0:0:0:
448,192,156130,1,0,0:0:0:0:
192,192,156244,1,0,0:0:0:0:
64,192,156244,1,0,0:0:0:0:
320,192,156358,1,0,0:0:0:0:
448,192,156471,1,0,0:0:0:0:
192,192,156471,1,0,0:0:0:0:
64,192,156471,1,0,0:0:0:0:
192,192,156585,1,0,0:0:0:0:
320,192,156699,1,0,0:0:0:0:
64,192,156699,1,0,0:0:0:0:
192,192,156812,1,0,0:0:0:0:
448,192,156812,1,0,0:0:0:0:
448,192,156926,1,0,0:0:0:0:
320,192,156926,1,0,0:0:0:0:
192,192,156926,1,0,0:0:0:0:
64,192,156926,1,0,0:0:0:0:
64,192,157040,1,0,0:0:0:0:
192,192,157153,1,0,0:0:0:0:
448,192,157153,1,0,0:0:0:0:
448,192,157267,1,0,0:0:0:0:
320,192,157380,1,0,0:0:0:0:
192,192,157380,1,0,0:0:0:0:
64,192,157380,1,0,0:0:0:0:
448,192,157380,1,0,0:0:0:0:
192,192,157494,1,0,0:0:0:0:
320,192,157608,1,0,0:0:0:0:
448,192,157721,1,0,0:0:0:0:
192,192,157721,1,0,0:0:0:0:
448,192,157835,1,0,0:0:0:0:
320,192,157835,1,0,0:0:0:0:
64,192,157835,1,0,0:0:0:0:
192,192,157835,1,0,0:0:0:0:
320,192,157949,1,0,0:0:0:0:
192,192,158062,1,0,0:0:0:0:
64,192,158062,1,0,0:0:0:0:
192,192,158176,1,0,0:0:0:0:
64,192,158290,1,0,0:0:0:0:
192,192,158290,1,0,0:0:0:0:
320,192,158290,1,0,0:0:0:0:
448,192,158290,1,0,0:0:0:0:
320,192,158403,1,0,0:0:0:0:
64,192,158517,1,0,0:0:0:0:
64,192,158630,1,0,0:0:0:0:
320,192,158630,1,0,0:0:0:0:
448,192,158744,1,0,0:0:0:0:
320,192,158744,1,0,0:0:0:0:
192,192,158744,1,0,0:0:0:0:
64,192,158744,1,0,0:0:0:0:
192,192,158858,1,0,0:0:0:0:
448,192,158971,1,0,0:0:0:0:
64,192,158971,1,0,0:0:0:0:
320,192,159085,1,0,0:0:0:0:
448,192,159199,1,0,0:0:0:0:
320,192,159199,1,0,0:0:0:0:
192,192,159199,1,0,0:0:0:0:
64,192,159199,1,0,0:0:0:0:
192,192,159312,1,0,0:0:0:0:
448,192,159426,1,0,0:0:0:0:
320,192,159540,1,0,0:0:0:0:
448,192,159540,1,0,0:0:0:0:
448,192,159653,1,0,0:0:0:0:
320,192,159653,1,0,0:0:0:0:
192,192,159653,1,0,0:0:0:0:
64,192,159653,1,0,0:0:0:0:
64,192,159767,1,0,0:0:0:0:
64,192,159880,1,0,0:0:0:0:
320,192,159880,1,0,0:0:0:0:
192,192,159994,1,0,0:0:0:0:
448,192,160108,1,0,0:0:0:0:
320,192,160108,1,0,0:0:0:0:
64,192,160108,1,0,0:0:0:0:
192,192,160108,1,0,0:0:0:0:
320,192,160221,1,0,0:0:0:0:
64,192,160335,1,0,0:0:0:0:
192,192,160449,1,0,0:0:0:0:
320,192,160449,1,0,0:0:0:0:
448,192,160562,1,0,0:0:0:0:
320,192,160562,1,0,0:0:0:0:
192,192,160562,1,0,0:0:0:0:
64,192,160562,1,0,0:0:0:0:
448,192,160676,1,0,0:0:0:0:
320,192,160790,1,0,0:0:0:0:
64,192,160790,1,0,0:0:0:0:
192,192,160903,1,0,0:0:0:0:
64,192,161017,1,0,0:0:0:0:
192,192,161017,1,0,0:0:0:0:
320,192,161017,1,0,0:0:0:0:
448,192,161017,1,0,0:0:0:0:
64,192,161130,1,0,0:0:0:0:
320,192,161244,1,0,0:0:0:0:
448,192,161358,1,0,0:0:0:0:
192,192,161358,1,0,0:0:0:0:
448,192,161471,1,0,0:0:0:0:
320,192,161471,1,0,0:0:0:0:
192,192,161471,1,0,0:0:0:0:
64,192,161471,1,0,0:0:0:0:
320,192,161585,1,0,0:0:0:0:
64,192,161699,1,0,0:0:0:0:
192,192,161699,1,0,0:0:0:0:
192,192,161812,1,0,0:0:0:0:
448,192,161926,1,0,0:0:0:0:
320,192,161926,1,0,0:0:0:0:
192,192,161926,1,0,0:0:0:0:
64,192,161926,1,0,0:0:0:0:
320,192,162040,1,0,0:0:0:0:
192,192,162153,1,0,0:0:0:0:
448,192,162267,1,0,0:0:0:0:
64,192,162267,1,0,0:0:0:0:
448,192,162380,1,0,0:0:0:0:
320,192,162380,1,0,0:0:0:0:
192,192,162380,1,0,0:0:0:0:
64,192,162380,1,0,0:0:0:0:
320,192,162494,1,0,0:0:0:0:
192,192,162608,1,0,0:0:0:0:
64,192,162608,1,0,0:0:0:0:
448,192,162721,1,0,0:0:0:0:
448,192,162835,1,0,0:0:0:0:
320,192,162835,1,0,0:0:0:0:
192,192,162835,1,0,0:0:0:0:
64,192,162835,1,0,0:0:0:0:
192,192,162949,1,0,0:0:0:0:
64,192,163062,1,0,0:0:0:0:
320,192,163176,1,0,0:0:0:0:
64,192,163176,1,0,0:0:0:0:
192,192,163290,1,0,0:0:0:0:
448,192,163290,1,0,0:0:0:0:
320,192,163290,1,0,0:0:0:0:
64,192,163290,1,0,0:0:0:0:
192,192,163403,1,0,0:0:0:0:
64,192,163517,1,0,0:0:0:0:
192,192,163517,1,0,0:0:0:0:
320,192,163630,1,0,0:0:0:0:
192,192,163744,1,0,0:0:0:0:
64,192,163744,1,0,0:0:0:0:
320,192,163744,1,0,0:0:0:0:
448,192,163744,1,0,0:0:0:0:
192,192,163858,1,0,0:0:0:0:
64,192,163971,1,0,0:0:0:0:
192,192,164085,1,0,0:0:0:0:
448,192,164085,1,0,0:0:0:0:
448,192,164199,1,0,0:0:0:0:
320,192,164199,1,0,0:0:0:0:
192,192,164199,1,0,0:0:0:0:
64,192,164199,1,0,0:0:0:0:
320,192,164312,1,0,0:0:0:0:
64,192,164426,1,0,0:0:0:0:
448,192,164426,1,0,0:0:0:0:
192,192,164540,1,0,0:0:0:0:
64,192,164653,1,0,0:0:0:0:
192,192,164653,1,0,0:0:0:0:
320,192,164653,1,0,0:0:0:0:
448,192,164653,1,0,0:0:0:0:
320,192,164767,1,0,0:0:0:0:
64,192,164880,1,0,0:0:0:0:
192,192,164994,1,0,0:0:0:0:
320,192,164994,1,0,0:0:0:0:
448,192,165108,1,0,0:0:0:0:
320,192,165108,1,0,0:0:0:0:
192,192,165108,1,0,0:0:0:0:
64,192,165108,1,0,0:0:0:0:
64,192,165221,1,0,0:0:0:0:
448,192,165335,1,0,0:0:0:0:
192,192,165335,1,0,0:0:0:0:
320,192,165449,1,0,0:0:0:0:
448,192,165562,1,0,0:0:0:0:
320,192,165562,1,0,0:0:0:0:
192,192,165562,1,0,0:0:0:0:
64,192,165562,1,0,0:0:0:0:
448,192,165676,1,0,0:0:0:0:
192,192,165790,1,0,0:0:0:0:
64,192,165903,1,0,0:0:0:0:
320,192,165903,1,0,0:0:0:0:
448,192,166017,1,0,0:0:0:0:
192,192,166017,1,0,0:0:0:0:
64,192,166017,1,0,0:0:0:0:
320,192,166017,1,0,0:0:0:0:
192,192,166130,1,0,0:0:0:0:
448,192,166244,1,0,0:0:0:0:
320,192,166244,1,0,0:0:0:0:
320,192,166358,1,0,0:0:0:0:
192,192,166471,1,0,0:0:0:0:
64,192,166471,1,0,0:0:0:0:
320,192,166471,1,0,0:0:0:0:
448,192,166471,1,0,0:0:0:0:
192,192,166585,1,0,0:0:0:0:
320,192,166699,1,0,0:0:0:0:
64,192,166812,1,0,0:0:0:0:
192,192,166812,1,0,0:0:0:0:
64,192,166926,1,0,0:0:0:0:
192,192,166926,1,0,0:0:0:0:
320,192,166926,1,0,0:0:0:0:
448,192,166926,1,0,0:0:0:0:
320,192,167040,1,0,0:0:0:0:
192,192,167153,1,0,0:0:0:0:
64,192,167153,1,0,0:0:0:0:
192,192,167267,1,0,0:0:0:0:
448,192,167380,1,0,0:0:0:0:
320,192,167380,1,0,0:0:0:0:
192,192,167380,1,0,0:0:0:0:
64,192,167380,1,0,0:0:0:0:
320,192,167494,1,0,0:0:0:0:
448,192,167608,1,0,0:0:0:0:
320,192,167721,1,0,0:0:0:0:
192,192,167721,1,0,0:0:0:0:
64,192,167835,1,0,0:0:0:0:
192,192,167835,1,0,0:0:0:0:
320,192,167835,1,0,0:0:0:0:
448,192,167835,1,0,0:0:0:0:
192,192,167949,1,0,0:0:0:0:
64,192,168062,1,0,0:0:0:0:
320,192,168062,1,0,0:0:0:0:
192,192,168176,1,0,0:0:0:0:
448,192,168290,1,0,0:0:0:0:
320,192,168290,1,0,0:0:0:0:
192,192,168290,1,0,0:0:0:0:
64,192,168290,1,0,0:0:0:0:
320,192,168403,1,0,0:0:0:0:
192,192,168517,1,0,0:0:0:0:
64,192,168630,1,0,0:0:0:0:
448,192,168630,1,0,0:0:0:0:
448,192,168744,1,0,0:0:0:0:
320,192,168744,1,0,0:0:0:0:
192,192,168744,1,0,0:0:0:0:
64,192,168744,1,0,0:0:0:0:
192,192,168858,1,0,0:0:0:0:
320,192,168971,1,0,0:0:0:0:
448,192,168971,1,0,0:0:0:0:
320,192,169085,1,0,0:0:0:0:
448,192,169199,1,0,0:0:0:0:
320,192,169199,1,0,0:0:0:0:
192,192,169199,1,0,0:0:0:0:
64,192,169199,1,0,0:0:0:0:
192,192,169312,1,0,0:0:0:0:
64,192,169426,1,0,0:0:0:0:
192,192,169540,1,0,0:0:0:0:
448,192,169540,1,0,0:0:0:0:
448,192,169653,1,0,0:0:0:0:
320,192,169653,1,0,0:0:0:0:
192,192,169653,1,0,0:0:0:0:
64,192,169653,1,0,0:0:0:0:
320,192,169767,1,0,0:0:0:0:
192,192,169880,1,0,0:0:0:0:
64,192,169880,1,0,0:0:0:0:
192,192,169994,1,0,0:0:0:0:
64,192,170108,1,0,0:0:0:0:
192,192,170108,1,0,0:0:0:0:
320,192,170108,1,0,0:0:0:0:
448,192,170108,1,0,0:0:0:0:
64,192,170221,1,0,0:0:0:0:
192,192,170335,1,0,0:0:0:0:
448,192,170335,1,0,0:0:0:0:
320,192,170449,1,0,0:0:0:0:
64,192,170449,1,0,0:0:0:0:
448,192,170562,1,0,0:0:0:0:
320,192,170562,1,0,0:0:0:0:
192,192,170562,1,0,0:0:0:0:
64,192,170562,1,0,0:0:0:0:
192,192,170676,1,0,0:0:0:0:
448,192,170676,1,0,0:0:0:0:
320,192,170790,1,0,0:0:0:0:
64,192,170790,1,0,0:0:0:0:
192,192,170903,1,0,0:0:0:0:
448,192,171017,1,0,0:0:0:0:
320,192,171017,1,0,0:0:0:0:
192,192,171017,1,0,0:0:0:0:
64,192,171017,1,0,0:0:0:0:
320,192,171130,1,0,0:0:0:0:
192,192,171244,1,0,0:0:0:0:
64,192,171244,1,0,0:0:0:0:
320,192,171358,1,0,0:0:0:0:
448,192,171471,1,0,0:0:0:0:
320,192,171471,1,0,0:0:0:0:
192,192,171471,1,0,0:0:0:0:
64,192,171471,1,0,0:0:0:0:
192,192,171585,1,0,0:0:0:0:
448,192,171699,1,0,0:0:0:0:
320,192,171699,1,0,0:0:0:0:
320,192,171812,1,0,0:0:0:0:
64,192,171926,1,0,0:0:0:0:
192,192,171926,1,0,0:0:0:0:
448,192,171926,1,0,0:0:0:0:
320,192,171926,1,0,0:0:0:0:
192,192,172040,1,0,0:0:0:0:
448,192,172040,1,0,0:0:0:0:
64,192,172153,1,0,0:0:0:0:
192,192,172267,1,0,0:0:0:0:
320,192,172267,1,0,0:0:0:0:
448,192,172380,1,0,0:0:0:0:
320,192,172380,1,0,0:0:0:0:
192,192,172380,1,0,0:0:0:0:
64,192,172380,1,0,0:0:0:0:
448,192,172494,1,0,0:0:0:0:
320,192,172608,1,0,0:0:0:0:
64,192,172608,1,0,0:0:0:0:
64,192,172721,1,0,0:0:0:0:
64,192,172835,1,0,0:0:0:0:
192,192,172835,1,0,0:0:0:0:
320,192,172835,1,0,0:0:0:0:
448,192,172835,1,0,0:0:0:0:
320,192,172949,1,0,0:0:0:0:
192,192,173062,1,0,0:0:0:0:
64,192,173062,1,0,0:0:0:0:
448,192,173176,1,0,0:0:0:0:
320,192,173176,1,0,0:0:0:0:
448,192,173290,1,0,0:0:0:0:
320,192,173290,1,0,0:0:0:0:
192,192,173290,1,0,0:0:0:0:
64,192,173290,1,0,0:0:0:0:
192,192,173403,1,0,0:0:0:0:
448,192,173517,1,0,0:0:0:0:
320,192,173517,1,0,0:0:0:0:
320,192,173630,1,0,0:0:0:0:
448,192,173744,1,0,0:0:0:0:
192,192,173744,1,0,0:0:0:0:
64,192,173744,1,0,0:0:0:0:
320,192,173744,1,0,0:0:0:0:
192,192,173858,1,0,0:0:0:0:
64,192,173858,1,0,0:0:0:0:
320,192,173971,1,0,0:0:0:0:
448,192,174085,1,0,0:0:0:0:
64,192,174085,1,0,0:0:0:0:
64,192,174199,1,0,0:0:0:0:
192,192,174199,1,0,0:0:0:0:
320,192,174199,1,0,0:0:0:0:
448,192,174199,1,0,0:0:0:0:
320,192,174312,1,0,0:0:0:0:
192,192,174426,1,0,0:0:0:0:
64,192,174426,1,0,0:0:0:0:
320,192,174540,1,0,0:0:0:0:
448,192,174653,1,0,0:0:0:0:
320,192,174653,1,0,0:0:0:0:
192,192,174653,1,0,0:0:0:0:
64,192,174653,1,0,0:0:0:0:
192,192,174767,1,0,0:0:0:0:
64,192,174880,1,0,0:0:0:0:
448,192,174880,1,0,0:0:0:0:
320,192,174994,1,0,0:0:0:0:
64,192,174994,1,0,0:0:0:0:
192,192,175108,1,0,0:0:0:0:
64,192,175108,1,0,0:0:0:0:
320,192,175108,1,0,0:0:0:0:
448,192,175108,1,0,0:0:0:0:
192,192,175221,1,0,0:0:0:0:
320,192,175335,1,0,0:0:0:0:
448,192,175335,1,0,0:0:0:0:
448,192,175449,1,0,0:0:0:0:
448,192,175562,1,0,0:0:0:0:
320,192,175562,1,0,0:0:0:0:
192,192,175562,1,0,0:0:0:0:
64,192,175562,1,0,0:0:0:0:
192,192,175676,1,0,0:0:0:0:
320,192,175676,1,0,0:0:0:0:
64,192,175790,1,0,0:0:0:0:
192,192,175903,1,0,0:0:0:0:
448,192,175903,1,0,0:0:0:0:
448,192,176017,1,0,0:0:0:0:
320,192,176017,1,0,0:0:0:0:
192,192,176017,1,0,0:0:0:0:
64,192,176017,1,0,0:0:0:0:
320,192,176130,1,0,0:0:0:0:
192,192,176244,1,0,0:0:0:0:
448,192,176244,1,0,0:0:0:0:
64,192,176358,1,0,0:0:0:0:
448,192,176471,1,0,0:0:0:0:
320,192,176471,1,0,0:0:0:0:
192,192,176471,1,0,0:0:0:0:
64,192,176471,1,0,0:0:0:0:
192,192,176585,1,0,0:0:0:0:
448,192,176699,1,0,0:0:0:0:
320,192,176699,1,0,0:0:0:0:
192,192,176812,1,0,0:0:0:0:
320,192,176812,1,0,0:0:0:0:
448,192,176926,1,0,0:0:0:0:
192,192,176926,1,0,0:0:0:0:
64,192,176926,1,0,0:0:0:0:
320,192,176926,1,0,0:0:0:0:
64,192,177040,1,0,0:0:0:0:
192,192,177153,1,0,0:0:0:0:
448,192,177153,1,0,0:0:0:0:
448,192,177267,1,0,0:0:0:0:
448,192,177380,1,0,0:0:0:0:
320,192,177380,1,0,0:0:0:0:
192,192,177380,1,0,0:0:0:0:
64,192,177380,1,0,0:0:0:0:
192,192,177494,1,0,0:0:0:0:
64,192,177494,1,0,0:0:0:0:
320,192,177608,1,0,0:0:0:0:
448,192,177721,1,0,0:0:0:0:
192,192,177721,1,0,0:0:0:0:
448,192,177835,1,0,0:0:0:0:
320,192,177835,1,0,0:0:0:0:
192,192,177835,1,0,0:0:0:0:
64,192,177835,1,0,0:0:0:0:
320,192,177949,1,0,0:0:0:0:
64,192,178062,1,0,0:0:0:0:
192,192,178062,1,0,0:0:0:0:
192,192,178176,1,0,0:0:0:0:
64,192,178290,1,0,0:0:0:0:
192,192,178290,1,0,0:0:0:0:
320,192,178290,1,0,0:0:0:0:
448,192,178290,1,0,0:0:0:0:
320,192,178403,1,0,0:0:0:0:
192,192,178517,1,0,0:0:0:0:
64,192,178517,1,0,0:0:0:0:
192,192,178630,1,0,0:0:0:0:
448,192,178630,1,0,0:0:0:0:
448,192,178744,1,0,0:0:0:0:
320,192,178744,1,0,0:0:0:0:
192,192,178744,1,0,0:0:0:0:
64,192,178744,1,0,0:0:0:0:
320,192,178858,1,0,0:0:0:0:
64,192,178971,1,0,0:0:0:0:
192,192,178971,1,0,0:0:0:0:
448,192,179085,1,0,0:0:0:0:
64,192,179199,1,0,0:0:0:0:
192,192,179199,1,0,0:0:0:0:
320,192,179199,1,0,0:0:0:0:
448,192,179199,1,0,0:0:0:0:
64,192,179312,1,0,0:0:0:0:
320,192,179312,1,0,0:0:0:0:
192,192,179426,1,0,0:0:0:0:
448,192,179540,1,0,0:0:0:0:
192,192,179540,1,0,0:0:0:0:
448,192,179653,1,0,0:0:0:0:
320,192,179653,1,0,0:0:0:0:
192,192,179653,1,0,0:0:0:0:
64,192,179653,1,0,0:0:0:0:
320,192,179767,1,0,0:0:0:0:
64,192,179880,1,0,0:0:0:0:
448,192,179880,1,0,0:0:0:0:
192,192,179994,1,0,0:0:0:0:
64,192,180108,1,0,0:0:0:0:
192,192,180108,1,0,0:0:0:0:
448,192,180108,1,0,0:0:0:0:
320,192,180108,1,0,0:0:0:0:
320,192,180221,1,0,0:0:0:0:
192,192,180335,1,0,0:0:0:0:
448,192,180335,1,0,0:0:0:0:
448,192,180449,1,0,0:0:0:0:
320,192,180449,1,0,0:0:0:0:
448,192,180562,1,0,0:0:0:0:
320,192,180562,1,0,0:0:0:0:
192,192,180562,1,0,0:0:0:0:
64,192,180562,1,0,0:0:0:0:
192,192,180676,1,0,0:0:0:0:
64,192,180790,1,0,0:0:0:0:
448,192,180790,1,0,0:0:0:0:
320,192,180903,1,0,0:0:0:0:
448,192,181017,1,0,0:0:0:0:
192,192,181017,1,0,0:0:0:0:
320,192,181017,1,0,0:0:0:0:
64,192,181017,1,0,0:0:0:0:
64,192,181130,1,0,0:0:0:0:
192,192,181130,1,0,0:0:0:0:
320,192,181244,1,0,0:0:0:0:
64,192,181358,1,0,0:0:0:0:
192,192,181358,1,0,0:0:0:0:
64,192,181471,1,0,0:0:0:0:
192,192,181471,1,0,0:0:0:0:
320,192,181471,1,0,0:0:0:0:
448,192,181471,1,0,0:0:0:0:
320,192,181585,1,0,0:0:0:0:
448,192,181699,1,0,0:0:0:0:
64,192,181699,1,0,0:0:0:0:
192,192,181812,1,0,0:0:0:0:
320,192,181926,1,0,0:0:0:0:
448,192,181926,1,0,0:0:0:0:
64,192,181926,1,0,0:0:0:0:
192,192,181926,1,0,0:0:0:0:
320,192,182040,1,0,0:0:0:0:
448,192,182153,1,0,0:0:0:0:
192,192,182153,1,0,0:0:0:0:
320,192,182267,1,0,0:0:0:0:
64,192,182267,1,0,0:0:0:0:
64,192,182380,1,0,0:0:0:0:
192,192,182380,1,0,0:0:0:0:
320,192,182380,1,0,0:0:0:0:
448,192,182380,1,0,0:0:0:0:
192,192,182494,1,0,0:0:0:0:
448,192,182608,1,0,0:0:0:0:
320,192,182608,1,0,0:0:0:0:
192,192,182721,1,0,0:0:0:0:
64,192,182835,1,0,0:0:0:0:
192,192,182835,1,0,0:0:0:0:
320,192,182835,1,0,0:0:0:0:
448,192,182835,1,0,0:0:0:0:
320,192,182949,1,0,0:0:0:0:
448,192,182949,1,0,0:0:0:0:
192,192,183062,1,0,0:0:0:0:
320,192,183176,1,0,0:0:0:0:
448,192,183176,1,0,0:0:0:0:
448,192,183290,1,0,0:0:0:0:
320,192,183290,1,0,0:0:0:0:
192,192,183290,1,0,0:0:0:0:
64,192,183290,1,0,0:0:0:0:
192,192,183403,1,0,0:0:0:0:
64,192,183517,1,0,0:0:0:0:
448,192,183517,1,0,0:0:0:0:
320,192,183630,1,0,0:0:0:0:
192,192,183744,1,0,0:0:0:0:
64,192,183744,1,0,0:0:0:0:
448,192,183744,1,0,0:0:0:0:
320,192,183744,1,0,0:0:0:0:
192,192,183858,1,0,0:0:0:0:
64,192,183971,1,0,0:0:0:0:
320,192,183971,1,0,0:0:0:0:
192,192,184085,1,0,0:0:0:0:
320,192,184085,1,0,0:0:0:0:
448,192,184199,1,0,0:0:0:0:
320,192,184199,1,0,0:0:0:0:
192,192,184199,1,0,0:0:0:0:
64,192,184199,1,0,0:0:0:0:
64,192,184312,1,0,0:0:0:0:
192,192,184426,1,0,0:0:0:0:
448,192,184426,1,0,0:0:0:0:
320,192,184540,1,0,0:0:0:0:
448,192,184653,1,0,0:0:0:0:
320,192,184653,1,0,0:0:0:0:
192,192,184653,1,0,0:0:0:0:
64,192,184653,1,0,0:0:0:0:
192,192,184767,1,0,0:0:0:0:
64,192,184767,1,0,0:0:0:0:
192,192,184880,1,0,0:0:0:0:
448,192,184994,1,0,0:0:0:0:
320,192,184994,1,0,0:0:0:0:
448,192,185108,1,0,0:0:0:0:
320,192,185108,1,0,0:0:0:0:
192,192,185108,1,0,0:0:0:0:
64,192,185108,1,0,0:0:0:0:
192,192,185335,1,0,0:0:0:0:
64,192,185335,1,0,0:0:0:0:
192,192,185449,1,0,0:0:0:0:
320,192,185562,1,0,0:0:0:0:
448,192,185562,1,0,0:0:0:0:
192,192,185562,1,0,0:0:0:0:
64,192,185562,1,0,0:0:0:0:
320,192,185732,1,0,0:0:0:0:
448,192,185732,1,0,0:0:0:0:
64,192,185790,1,0,0:0:0:0:
192,192,185790,1,0,0:0:0:0:
320,192,185846,1,0,0:0:0:0:
448,192,185846,1,0,0:0:0:0:
192,192,185903,1,0,0:0:0:0:
64,192,185903,1,0,0:0:0:0:
448,192,186017,1,0,0:0:0:0:
320,192,186017,1,0,0:0:0:0:
192,192,186017,1,0,0:0:0:0:
64,192,186017,1,0,0:0:0:0:
320,192,186130,1,0,0:0:0:0:
192,192,186244,1,0,0:0:0:0:
64,192,186244,1,0,0:0:0:0:
192,192,186358,1,0,0:0:0:0:
448,192,186471,1,0,0:0:0:0:
320,192,186471,1,0,0:0:0:0:
64,192,186471,1,0,0:0:0:0:
320,192,186585,1,0,0:0:0:0:
320,192,186699,1,0,0:0:0:0:
64,192,186699,1,0,0:0:0:0:
192,192,186812,1,0,0:0:0:0:
448,192,186812,1,0,0:0:0:0:
64,192,186926,1,0,0:0:0:0:
320,192,186926,1,0,0:0:0:0:
192,192,187040,1,0,0:0:0:0:
192,192,187153,1,0,0:0:0:0:
448,192,187153,1,0,0:0:0:0:
320,192,187267,1,0,0:0:0:0:
448,192,187267,1,0,0:0:0:0:
192,192,187380,1,0,0:0:0:0:
64,192,187380,1,0,0:0:0:0:
192,192,187494,1,0,0:0:0:0:
448,192,187608,1,0,0:0:0:0:
64,192,187608,1,0,0:0:0:0:
320,192,187721,1,0,0:0:0:0:
448,192,187721,1,0,0:0:0:0:
192,192,187835,1,0,0:0:0:0:
64,192,187835,1,0,0:0:0:0:
192,192,187949,1,0,0:0:0:0:
64,192,188062,1,0,0:0:0:0:
320,192,188062,1,0,0:0:0:0:
192,192,188176,1,0,0:0:0:0:
448,192,188176,1,0,0:0:0:0:
64,192,188290,1,0,0:0:0:0:
448,192,188290,1,0,0:0:0:0:
320,192,188403,1,0,0:0:0:0:
320,192,188517,1,0,0:0:0:0:
64,192,188517,1,0,0:0:0:0:
192,192,188630,1,0,0:0:0:0:
64,192,188630,1,0,0:0:0:0:
448,192,188744,1,0,0:0:0:0:
192,192,188744,1,0,0:0:0:0:
320,192,188858,1,0,0:0:0:0:
192,192,188971,1,0,0:0:0:0:
448,192,188971,1,0,0:0:0:0:
64,192,189085,1,0,0:0:0:0:
320,192,189085,1,0,0:0:0:0:
192,192,189199,1,0,0:0:0:0:
64,192,189199,1,0,0:0:0:0:
320,192,189312,1,0,0:0:0:0:
192,192,189426,1,0,0:0:0:0:
448,192,189426,1,0,0:0:0:0:
320,192,189540,1,0,0:0:0:0:
64,192,189540,1,0,0:0:0:0:
192,192,189653,1,0,0:0:0:0:
448,192,189653,1,0,0:0:0:0:
448,192,189767,1,0,0:0:0:0:
64,192,189880,1,0,0:0:0:0:
192,192,189880,1,0,0:0:0:0:
320,192,189994,1,0,0:0:0:0:
448,192,189994,1,0,0:0:0:0:
192,192,190108,1,0,0:0:0:0:
64,192,190108,1,0,0:0:0:0:
320,192,190221,1,0,0:0:0:0:
448,192,190335,1,0,0:0:0:0:
64,192,190335,1,0,0:0:0:0:
192,192,190449,1,0,0:0:0:0:
320,192,190449,1,0,0:0:0:0:
448,192,190562,1,0,0:0:0:0:
64,192,190562,1,0,0:0:0:0:
320,192,190676,1,0,0:0:0:0:
64,192,190790,1,0,0:0:0:0:
192,192,190790,1,0,0:0:0:0:
320,192,190903,1,0,0:0:0:0:
448,192,190903,1,0,0:0:0:0:
64,192,191017,1,0,0:0:0:0:
192,192,191017,1,0,0:0:0:0:
320,192,191130,1,0,0:0:0:0:
448,192,191244,1,0,0:0:0:0:
192,192,191244,1,0,0:0:0:0:
192,192,191358,1,0,0:0:0:0:
64,192,191358,1,0,0:0:0:0:
64,192,191471,1,0,0:0:0:0:
448,192,191471,1,0,0:0:0:0:
320,192,191585,1,0,0:0:0:0:
192,192,191699,1,0,0:0:0:0:
64,192,191699,1,0,0:0:0:0:
192,192,191812,1,0,0:0:0:0:
448,192,191812,1,0,0:0:0:0:
448,192,191926,1,0,0:0:0:0:
320,192,191926,1,0,0:0:0:0:
192,192,192040,1,0,0:0:0:0:
64,192,192153,1,0,0:0:0:0:
320,192,192153,1,0,0:0:0:0:
448,192,192267,1,0,0:0:0:0:
192,192,192267,1,0,0:0:0:0:
320,192,192380,1,0,0:0:0:0:
192,192,192380,1,0,0:0:0:0:
64,192,192494,1,0,0:0:0:0:
64,192,192608,1,0,0:0:0:0:
448,192,192608,1,0,0:0:0:0:
320,192,192721,1,0,0:0:0:0:
192,192,192721,1,0,0:0:0:0:
448,192,192835,1,0,0:0:0:0:
320,192,192835,1,0,0:0:0:0:
192,192,192949,1,0,0:0:0:0:
64,192,193062,1,0,0:0:0:0:
320,192,193062,1,0,0:0:0:0:
448,192,193176,1,0,0:0:0:0:
320,192,193176,1,0,0:0:0:0:
192,192,193290,1,0,0:0:0:0:
64,192,193290,1,0,0:0:0:0:
192,192,193403,1,0,0:0:0:0:
448,192,193517,1,0,0:0:0:0:
64,192,193517,1,0,0:0:0:0:
320,192,193630,1,0,0:0:0:0:
192,192,193630,1,0,0:0:0:0:
64,192,193744,1,0,0:0:0:0:
448,192,193744,1,0,0:0:0:0:
192,192,193744,1,0,0:0:0:0:
320,192,193858,1,0,0:0:0:0:
192,192,193971,1,0,0:0:0:0:
64,192,193971,1,0,0:0:0:0:
320,192,194085,1,0,0:0:0:0:
448,192,194085,1,0,0:0:0:0:
64,192,194199,1,0,0:0:0:0:
192,192,194199,1,0,0:0:0:0:
192,192,194312,1,0,0:0:0:0:
448,192,194426,1,0,0:0:0:0:
64,192,194426,1,0,0:0:0:0:
192,192,194540,1,0,0:0:0:0:
320,192,194540,1,0,0:0:0:0:
448,192,194653,1,0,0:0:0:0:
64,192,194653,1,0,0:0:0:0:
192,192,194767,1,0,0:0:0:0:
320,192,194880,1,0,0:0:0:0:
448,192,194880,1,0,0:0:0:0:
192,192,194994,1,0,0:0:0:0:
64,192,194994,1,0,0:0:0:0:
448,192,195108,1,0,0:0:0:0:
320,192,195108,1,0,0:0:0:0:
192,192,195221,1,0,0:0:0:0:
64,192,195335,1,0,0:0:0:0:
320,192,195335,1,0,0:0:0:0:
192,192,195449,1,0,0:0:0:0:
448,192,195449,1,0,0:0:0:0:
64,192,195562,1,0,0:0:0:0:
320,192,195562,1,0,0:0:0:0:
448,192,195562,1,0,0:0:0:0:
192,192,195676,1,0,0:0:0:0:
320,192,195790,1,0,0:0:0:0:
448,192,195790,1,0,0:0:0:0:
192,192,195903,1,0,0:0:0:0:
64,192,195903,1,0,0:0:0:0:
448,192,196017,1,0,0:0:0:0:
64,192,196017,1,0,0:0:0:0:
192,192,196130,1,0,0:0:0:0:
320,192,196244,1,0,0:0:0:0:
448,192,196244,1,0,0:0:0:0:
320,192,196358,1,0,0:0:0:0:
64,192,196358,1,0,0:0:0:0:
448,192,196471,1,0,0:0:0:0:
192,192,196471,1,0,0:0:0:0:
192,192,196585,1,0,0:0:0:0:
64,192,196699,1,0,0:0:0:0:
448,192,196699,1,0,0:0:0:0:
320,192,196812,1,0,0:0:0:0:
192,192,196812,1,0,0:0:0:0:
64,192,196926,1,0,0:0:0:0:
192,192,196926,1,0,0:0:0:0:
320,192,197040,1,0,0:0:0:0:
64,192,197153,1,0,0:0:0:0:
192,192,197153,1,0,0:0:0:0:
320,192,197267,1,0,0:0:0:0:
448,192,197267,1,0,0:0:0:0:
192,192,197380,1,0,0:0:0:0:
64,192,197380,1,0,0:0:0:0:
448,192,197380,1,0,0:0:0:0:
320,192,197494,1,0,0:0:0:0:
192,192,197608,1,0,0:0:0:0:
448,192,197608,1,0,0:0:0:0:
64,192,197721,1,0,0:0:0:0:
320,192,197721,1,0,0:0:0:0:
448,192,197835,1,0,0:0:0:0:
192,192,197835,1,0,0:0:0:0:
320,192,197949,1,0,0:0:0:0:
64,192,198062,1,0,0:0:0:0:
192,192,198062,1,0,0:0:0:0:
192,192,198176,1,0,0:0:0:0:
320,192,198176,1,0,0:0:0:0:
448,192,198290,1,0,0:0:0:0:
64,192,198290,1,0,0:0:0:0:
192,192,198403,1,0,0:0:0:0:
448,192,198517,1,0,0:0:0:0:
64,192,198517,1,0,0:0:0:0:
320,192,198630,1,0,0:0:0:0:
64,192,198630,1,0,0:0:0:0:
192,192,198744,1,0,0:0:0:0:
448,192,198744,1,0,0:0:0:0:
192,192,198858,1,0,0:0:0:0:
64,192,198971,1,0,0:0:0:0:
320,192,198971,1,0,0:0:0:0:
448,192,199085,1,0,0:0:0:0:
192,192,199085,1,0,0:0:0:0:
448,192,199199,1,0,0:0:0:0:
320,192,199199,1,0,0:0:0:0:
64,192,199199,1,0,0:0:0:0:
192,192,199312,1,0,0:0:0:0:
64,192,199312,1,0,0:0:0:0:
320,192,199426,1,0,0:0:0:0:
320,192,199540,1,0,0:0:0:0:
64,192,199540,1,0,0:0:0:0:
192,192,199540,1,0,0:0:0:0:
192,192,199653,1,0,0:0:0:0:
320,192,199767,1,0,0:0:0:0:
64,192,199767,1,0,0:0:0:0:
448,192,199767,1,0,0:0:0:0:
320,192,199880,1,0,0:0:0:0:
192,192,199880,1,0,0:0:0:0:
192,192,199994,1,0,0:0:0:0:
64,192,200108,1,0,0:0:0:0:
448,192,200108,1,0,0:0:0:0:
320,192,200221,1,0,0:0:0:0:
448,192,200335,1,0,0:0:0:0:
192,192,200335,1,0,0:0:0:0:
64,192,200335,1,0,0:0:0:0:
320,192,200449,1,0,0:0:0:0:
192,192,200562,1,0,0:0:0:0:
64,192,200562,1,0,0:0:0:0:
320,192,200562,1,0,0:0:0:0:
192,192,200676,1,0,0:0:0:0:
448,192,200790,1,0,0:0:0:0:
64,192,200790,1,0,0:0:0:0:
192,192,200903,1,0,0:0:0:0:
320,192,200903,1,0,0:0:0:0:
448,192,200903,1,0,0:0:0:0:
64,192,201017,1,0,0:0:0:0:
192,192,201017,1,0,0:0:0:0:
320,192,201017,1,0,0:0:0:0:
448,192,201017,1,0,0:0:0:0:
