osu file format v14

[General]
AudioFilename: audio 1.150x.mp3
AudioLeadIn: 0
PreviewTime: 0
Countdown: 0
SampleSet: None
StackLeniency: 0.7
Mode: 3
LetterboxInBreaks: 0
SpecialStyle: 0
WidescreenStoryboard: 1

[Editor]
DistanceSpacing: 0.6
BeatDivisor: 4
GridSize: 4
TimelineZoom: 2.1

[Metadata]
Title:Nina Bonita
TitleUnicode:NiƱa Bonita
Artist:Chino y Nacho
ArtistUnicode:Chino y Nacho
Creator:Mieruosu
Version:Jacks 1.15x (138bpm)
Source:
Tags:osutrainer
BeatmapID:4537578
BeatmapSetID:2153513

[Difficulty]
HPDrainRate:7
CircleSize:4
OverallDifficulty:8.7
ApproachRate:5.4
SliderMultiplier:1.4
SliderTickRate:1

[Events]
//Background and Video events
0,0,"ea7f9d3f86856e47333e9cfc12963ab5.jpg",0,0
//Break Periods
//Storyboard Layer 0 (Background)
//Storyboard Layer 1 (Fail)
//Storyboard Layer 2 (Pass)
//Storyboard Layer 3 (Foreground)
//Storyboard Layer 4 (Overlay)
//Storyboard Sound Samples

[TimingPoints]
11407,434.782608695652,4,1,0,100,1,0

[HitObjects]
64,192,10320,5,0,0:0:0:0:
192,192,10320,1,0,0:0:0:0:
320,192,10429,1,0,0:0:0:0:
448,192,10429,1,0,0:0:0:0:
192,192,10538,1,0,0:0:0:0:
64,192,10538,1,0,0:0:0:0:
192,192,10646,1,0,0:0:0:0:
320,192,10755,1,0,0:0:0:0:
448,192,10755,1,0,0:0:0:0:
320,192,10864,1,0,0:0:0:0:
64,192,10864,1,0,0:0:0:0:
192,192,10973,1,0,0:0:0:0:
64,192,10973,1,0,0:0:0:0:
448,192,10973,1,0,0:0:0:0:
192,192,11081,1,0,0:0:0:0:
320,192,11190,1,0,0:0:0:0:
448,192,11190,1,0,0:0:0:0:
64,192,11190,1,0,0:0:0:0:
192,192,11299,1,0,0:0:0:0:
192,192,11406,1,0,0:0:0:0:
64,192,11406,1,0,0:0:0:0:
320,192,11406,1,0,0:0:0:0:
448,192,11406,1,0,0:0:0:0:
448,192,11516,1,0,0:0:0:0:
448,192,11625,1,0,0:0:0:0:
320,192,11733,1,0,0:0:0:0:
192,192,11733,1,0,0:0:0:0:
448,192,11842,1,0,0:0:0:0:
64,192,11842,1,0,0:0:0:0:
192,192,11842,1,0,0:0:0:0:
320,192,11842,1,0,0:0:0:0:
192,192,11951,1,0,0:0:0:0:
64,192,12060,1,0,0:0:0:0:
320,192,12060,1,0,0:0:0:0:
192,192,12168,1,0,0:0:0:0:
448,192,12277,1,0,0:0:0:0:
320,192,12277,1,0,0:0:0:0:
64,192,12277,1,0,0:0:0:0:
320,192,12386,1,0,0:0:0:0:
320,192,12494,1,0,0:0:0:0:
64,192,12603,1,0,0:0:0:0:
192,192,12603,1,0,0:0:0:0:
64,192,12712,1,0,0:0:0:0:
320,192,12712,1,0,0:0:0:0:
448,192,12712,1,0,0:0:0:0:
192,192,12712,1,0,0:0:0:0:
320,192,12820,1,0,0:0:0:0:
64,192,12929,1,0,0:0:0:0:
448,192,12929,1,0,0:0:0:0:
192,192,13038,1,0,0:0:0:0:
64,192,13146,1,0,0:0:0:0:
320,192,13146,1,0,0:0:0:0:
448,192,13146,1,0,0:0:0:0:
64,192,13255,1,0,0:0:0:0:
64,192,13364,1,0,0:0:0:0:
320,192,13473,1,0,0:0:0:0:
448,192,13473,1,0,0:0:0:0:
320,192,13581,1,0,0:0:0:0:
192,192,13581,1,0,0:0:0:0:
64,192,13581,1,0,0:0:0:0:
448,192,13581,1,0,0:0:0:0:
192,192,13690,1,0,0:0:0:0:
64,192,13799,1,0,0:0:0:0:
320,192,13799,1,0,0:0:0:0:
448,192,13907,1,0,0:0:0:0:
320,192,14016,1,0,0:0:0:0:
448,192,14016,1,0,0:0:0:0:
64,192,14016,1,0,0:0:0:0:
320,192,14125,1,0,0:0:0:0:
320,192,14233,1,0,0:0:0:0:
64,192,14342,1,0,0:0:0:0:
448,192,14342,1,0,0:0:0:0:
448,192,14451,1,0,0:0:0:0:
192,192,14451,1,0,0:0:0:0:
64,192,14451,1,0,0:0:0:0:
320,192,14451,1,0,0:0:0:0:
192,192,14560,1,0,0:0:0:0:
320,192,14668,1,0,0:0:0:0:
448,192,14668,1,0,0:0:0:0:
64,192,14777,1,0,0:0:0:0:
64,192,14886,1,0,0:0:0:0:
320,192,14886,1,0,0:0:0:0:
448,192,14886,1,0,0:0:0:0:
320,192,14994,1,0,0:0:0:0:
192,192,15103,1,0,0:0:0:0:
64,192,15212,1,0,0:0:0:0:
320,192,15212,1,0,0:0:0:0:
448,192,15320,1,0,0:0:0:0:
320,192,15320,1,0,0:0:0:0:
192,192,15320,1,0,0:0:0:0:
64,192,15320,1,0,0:0:0:0:
192,192,15429,1,0,0:0:0:0:
448,192,15538,1,0,0:0:0:0:
64,192,15538,1,0,0:0:0:0:
320,192,15646,1,0,0:0:0:0:
448,192,15755,1,0,0:0:0:0:
192,192,15755,1,0,0:0:0:0:
64,192,15755,1,0,0:0:0:0:
192,192,15864,1,0,0:0:0:0:
192,192,15973,1,0,0:0:0:0:
64,192,16081,1,0,0:0:0:0:
320,192,16081,1,0,0:0:0:0:
64,192,16190,1,0,0:0:0:0:
192,192,16190,1,0,0:0:0:0:
320,192,16190,1,0,0:0:0:0:
448,192,16190,1,0,0:0:0:0:
192,192,16299,1,0,0:0:0:0:
448,192,16407,1,0,0:0:0:0:
320,192,16407,1,0,0:0:0:0:
192,192,16516,1,0,0:0:0:0:
64,192,16625,1,0,0:0:0:0:
192,192,16625,1,0,0:0:0:0:
448,192,16625,1,0,0:0:0:0:
64,192,16733,1,0,0:0:0:0:
64,192,16842,1,0,0:0:0:0:
448,192,16951,1,0,0:0:0:0:
192,192,16951,1,0,0:0:0:0:
448,192,17060,1,0,0:0:0:0:
320,192,17060,1,0,0:0:0:0:
192,192,17060,1,0,0:0:0:0:
64,192,17060,1,0,0:0:0:0:
320,192,17168,1,0,0:0:0:0:
64,192,17277,1,0,0:0:0:0:
448,192,17277,1,0,0:0:0:0:
192,192,17386,1,0,0:0:0:0:
320,192,17494,1,0,0:0:0:0:
192,192,17494,1,0,0:0:0:0:
64,192,17494,1,0,0:0:0:0:
320,192,17603,1,0,0:0:0:0:
320,192,17712,1,0,0:0:0:0:
192,192,17820,1,0,0:0:0:0:
64,192,17820,1,0,0:0:0:0:
64,192,17929,1,0,0:0:0:0:
192,192,17929,1,0,0:0:0:0:
320,192,17929,1,0,0:0:0:0:
448,192,17929,1,0,0:0:0:0:
320,192,18038,1,0,0:0:0:0:
64,192,18146,1,0,0:0:0:0:
192,192,18146,1,0,0:0:0:0:
320,192,18255,1,0,0:0:0:0:
448,192,18364,1,0,0:0:0:0:
320,192,18364,1,0,0:0:0:0:
192,192,18364,1,0,0:0:0:0:
192,192,18473,1,0,0:0:0:0:
192,192,18581,1,0,0:0:0:0:
64,192,18690,1,0,0:0:0:0:
320,192,18690,1,0,0:0:0:0:
448,192,18799,1,0,0:0:0:0:
320,192,18799,1,0,0:0:0:0:
192,192,18799,1,0,0:0:0:0:
64,192,18799,1,0,0:0:0:0:
192,192,18907,1,0,0:0:0:0:
448,192,19016,1,0,0:0:0:0:
320,192,19016,1,0,0:0:0:0:
64,192,19125,1,0,0:0:0:0:
320,192,19233,1,0,0:0:0:0:
448,192,19233,1,0,0:0:0:0:
64,192,19233,1,0,0:0:0:0:
320,192,19342,1,0,0:0:0:0:
320,192,19451,1,0,0:0:0:0:
192,192,19560,1,0,0:0:0:0:
448,192,19560,1,0,0:0:0:0:
448,192,19668,1,0,0:0:0:0:
320,192,19668,1,0,0:0:0:0:
192,192,19668,1,0,0:0:0:0:
64,192,19668,1,0,0:0:0:0:
64,192,19777,1,0,0:0:0:0:
64,192,19886,1,0,0:0:0:0:
320,192,19886,1,0,0:0:0:0:
192,192,19994,1,0,0:0:0:0:
448,192,20103,1,0,0:0:0:0:
64,192,20103,1,0,0:0:0:0:
320,192,20103,1,0,0:0:0:0:
320,192,20212,1,0,0:0:0:0:
320,192,20320,1,0,0:0:0:0:
192,192,20429,1,0,0:0:0:0:
64,192,20429,1,0,0:0:0:0:
64,192,20538,1,0,0:0:0:0:
320,192,20538,1,0,0:0:0:0:
448,192,20538,1,0,0:0:0:0:
192,192,20538,1,0,0:0:0:0:
448,192,20646,1,0,0:0:0:0:
448,192,20755,1,0,0:0:0:0:
192,192,20755,1,0,0:0:0:0:
320,192,20864,1,0,0:0:0:0:
192,192,20973,1,0,0:0:0:0:
64,192,20973,1,0,0:0:0:0:
320,192,20973,1,0,0:0:0:0:
192,192,21081,1,0,0:0:0:0:
192,192,21190,1,0,0:0:0:0:
320,192,21299,1,0,0:0:0:0:
448,192,21299,1,0,0:0:0:0:
448,192,21407,1,0,0:0:0:0:
320,192,21407,1,0,0:0:0:0:
192,192,21407,1,0,0:0:0:0:
64,192,21407,1,0,0:0:0:0:
64,192,21516,1,0,0:0:0:0:
64,192,21625,1,0,0:0:0:0:
320,192,21625,1,0,0:0:0:0:
448,192,21733,1,0,0:0:0:0:
448,192,21842,1,0,0:0:0:0:
320,192,21842,1,0,0:0:0:0:
64,192,21842,1,0,0:0:0:0:
192,192,21951,1,0,0:0:0:0:
192,192,22060,1,0,0:0:0:0:
320,192,22168,1,0,0:0:0:0:
64,192,22168,1,0,0:0:0:0:
64,192,22277,1,0,0:0:0:0:
192,192,22277,1,0,0:0:0:0:
320,192,22277,1,0,0:0:0:0:
448,192,22277,1,0,0:0:0:0:
320,192,22386,1,0,0:0:0:0:
448,192,22494,1,0,0:0:0:0:
192,192,22494,1,0,0:0:0:0:
320,192,22603,1,0,0:0:0:0:
448,192,22712,1,0,0:0:0:0:
192,192,22712,1,0,0:0:0:0:
64,192,22712,1,0,0:0:0:0:
192,192,22820,1,0,0:0:0:0:
192,192,22929,1,0,0:0:0:0:
320,192,23038,1,0,0:0:0:0:
448,192,23038,1,0,0:0:0:0:
448,192,23146,1,0,0:0:0:0:
320,192,23146,1,0,0:0:0:0:
192,192,23146,1,0,0:0:0:0:
64,192,23146,1,0,0:0:0:0:
192,192,23255,1,0,0:0:0:0:
320,192,23364,1,0,0:0:0:0:
64,192,23364,1,0,0:0:0:0:
192,192,23473,1,0,0:0:0:0:
320,192,23581,1,0,0:0:0:0:
192,192,23581,1,0,0:0:0:0:
448,192,23581,1,0,0:0:0:0:
320,192,23690,1,0,0:0:0:0:
320,192,23799,1,0,0:0:0:0:
64,192,23907,1,0,0:0:0:0:
448,192,23907,1,0,0:0:0:0:
448,192,24016,1,0,0:0:0:0:
320,192,24016,1,0,0:0:0:0:
192,192,24016,1,0,0:0:0:0:
64,192,24016,1,0,0:0:0:0:
192,192,24125,1,0,0:0:0:0:
320,192,24233,1,0,0:0:0:0:
448,192,24233,1,0,0:0:0:0:
320,192,24342,1,0,0:0:0:0:
448,192,24451,1,0,0:0:0:0:
192,192,24451,1,0,0:0:0:0:
64,192,24451,1,0,0:0:0:0:
192,192,24560,1,0,0:0:0:0:
192,192,24668,1,0,0:0:0:0:
320,192,24777,1,0,0:0:0:0:
448,192,24777,1,0,0:0:0:0:
192,192,24831,1,0,0:0:0:0:
64,192,24831,1,0,0:0:0:0:
320,192,24886,1,0,0:0:0:0:
448,192,24886,1,0,0:0:0:0:
192,192,24994,1,0,0:0:0:0:
64,192,24994,1,0,0:0:0:0:
64,192,25103,1,0,0:0:0:0:
320,192,25103,1,0,0:0:0:0:
192,192,25212,1,0,0:0:0:0:
448,192,25212,1,0,0:0:0:0:
448,192,25320,1,0,0:0:0:0:
320,192,25320,1,0,0:0:0:0:
192,192,25320,1,0,0:0:0:0:
64,192,25320,1,0,0:0:0:0:
64,192,25429,1,0,0:0:0:0:
64,192,25538,1,0,0:0:0:0:
320,192,25646,1,0,0:0:0:0:
448,192,25646,1,0,0:0:0:0:
448,192,25755,1,0,0:0:0:0:
192,192,25755,1,0,0:0:0:0:
64,192,25755,1,0,0:0:0:0:
192,192,25864,1,0,0:0:0:0:
192,192,25973,1,0,0:0:0:0:
64,192,26081,1,0,0:0:0:0:
448,192,26081,1,0,0:0:0:0:
448,192,26190,1,0,0:0:0:0:
192,192,26190,1,0,0:0:0:0:
64,192,26190,1,0,0:0:0:0:
192,192,26299,1,0,0:0:0:0:
192,192,26407,1,0,0:0:0:0:
448,192,26516,1,0,0:0:0:0:
64,192,26516,1,0,0:0:0:0:
448,192,26625,1,0,0:0:0:0:
64,192,26625,1,0,0:0:0:0:
320,192,26625,1,0,0:0:0:0:
320,192,26733,1,0,0:0:0:0:
320,192,26842,1,0,0:0:0:0:
64,192,26842,1,0,0:0:0:0:
192,192,26951,1,0,0:0:0:0:
320,192,27060,1,0,0:0:0:0:
448,192,27060,1,0,0:0:0:0:
192,192,27060,1,0,0:0:0:0:
64,192,27060,1,0,0:0:0:0:
320,192,27168,1,0,0:0:0:0:
320,192,27277,1,0,0:0:0:0:
192,192,27386,1,0,0:0:0:0:
64,192,27386,1,0,0:0:0:0:
64,192,27494,1,0,0:0:0:0:
192,192,27494,1,0,0:0:0:0:
448,192,27494,1,0,0:0:0:0:
448,192,27603,1,0,0:0:0:0:
192,192,27712,1,0,0:0:0:0:
448,192,27712,1,0,0:0:0:0:
320,192,27820,1,0,0:0:0:0:
448,192,27929,1,0,0:0:0:0:
192,192,27929,1,0,0:0:0:0:
64,192,27929,1,0,0:0:0:0:
64,192,28038,1,0,0:0:0:0:
64,192,28146,1,0,0:0:0:0:
192,192,28255,1,0,0:0:0:0:
320,192,28255,1,0,0:0:0:0:
448,192,28364,1,0,0:0:0:0:
320,192,28364,1,0,0:0:0:0:
64,192,28364,1,0,0:0:0:0:
448,192,28473,1,0,0:0:0:0:
64,192,28581,1,0,0:0:0:0:
320,192,28581,1,0,0:0:0:0:
192,192,28690,1,0,0:0:0:0:
448,192,28799,1,0,0:0:0:0:
320,192,28799,1,0,0:0:0:0:
192,192,28799,1,0,0:0:0:0:
64,192,28799,1,0,0:0:0:0:
320,192,28907,1,0,0:0:0:0:
320,192,29016,1,0,0:0:0:0:
192,192,29125,1,0,0:0:0:0:
64,192,29125,1,0,0:0:0:0:
192,192,29233,1,0,0:0:0:0:
448,192,29233,1,0,0:0:0:0:
320,192,29233,1,0,0:0:0:0:
320,192,29342,1,0,0:0:0:0:
192,192,29451,1,0,0:0:0:0:
448,192,29451,1,0,0:0:0:0:
320,192,29560,1,0,0:0:0:0:
192,192,29668,1,0,0:0:0:0:
64,192,29668,1,0,0:0:0:0:
448,192,29668,1,0,0:0:0:0:
192,192,29777,1,0,0:0:0:0:
192,192,29886,1,0,0:0:0:0:
320,192,29994,1,0,0:0:0:0:
448,192,29994,1,0,0:0:0:0:
448,192,30103,1,0,0:0:0:0:
320,192,30103,1,0,0:0:0:0:
64,192,30103,1,0,0:0:0:0:
192,192,30212,1,0,0:0:0:0:
64,192,30320,1,0,0:0:0:0:
320,192,30320,1,0,0:0:0:0:
448,192,30429,1,0,0:0:0:0:
448,192,30538,1,0,0:0:0:0:
320,192,30538,1,0,0:0:0:0:
192,192,30538,1,0,0:0:0:0:
64,192,30538,1,0,0:0:0:0:
192,192,30646,1,0,0:0:0:0:
64,192,30755,1,0,0:0:0:0:
64,192,30864,1,0,0:0:0:0:
192,192,30864,1,0,0:0:0:0:
64,192,30973,1,0,0:0:0:0:
192,192,30973,1,0,0:0:0:0:
448,192,30973,1,0,0:0:0:0:
320,192,31081,1,0,0:0:0:0:
192,192,31190,1,0,0:0:0:0:
448,192,31190,1,0,0:0:0:0:
448,192,31299,1,0,0:0:0:0:
320,192,31407,1,0,0:0:0:0:
64,192,31407,1,0,0:0:0:0:
192,192,31407,1,0,0:0:0:0:
192,192,31516,1,0,0:0:0:0:
192,192,31625,1,0,0:0:0:0:
320,192,31733,1,0,0:0:0:0:
448,192,31733,1,0,0:0:0:0:
448,192,31842,1,0,0:0:0:0:
320,192,31842,1,0,0:0:0:0:
64,192,31842,1,0,0:0:0:0:
64,192,31951,1,0,0:0:0:0:
64,192,32060,1,0,0:0:0:0:
320,192,32168,1,0,0:0:0:0:
192,192,32168,1,0,0:0:0:0:
448,192,32277,1,0,0:0:0:0:
320,192,32277,1,0,0:0:0:0:
64,192,32277,1,0,0:0:0:0:
192,192,32277,1,0,0:0:0:0:
448,192,32386,1,0,0:0:0:0:
448,192,32494,1,0,0:0:0:0:
64,192,32603,1,0,0:0:0:0:
320,192,32603,1,0,0:0:0:0:
320,192,32712,1,0,0:0:0:0:
64,192,32712,1,0,0:0:0:0:
448,192,32712,1,0,0:0:0:0:
320,192,32820,1,0,0:0:0:0:
64,192,32929,1,0,0:0:0:0:
448,192,32929,1,0,0:0:0:0:
320,192,33038,1,0,0:0:0:0:
192,192,33146,1,0,0:0:0:0:
64,192,33146,1,0,0:0:0:0:
448,192,33146,1,0,0:0:0:0:
192,192,33255,1,0,0:0:0:0:
320,192,33364,1,0,0:0:0:0:
192,192,33473,1,0,0:0:0:0:
448,192,33473,1,0,0:0:0:0:
448,192,33581,1,0,0:0:0:0:
64,192,33581,1,0,0:0:0:0:
320,192,33581,1,0,0:0:0:0:
192,192,33690,1,0,0:0:0:0:
64,192,33799,1,0,0:0:0:0:
320,192,33799,1,0,0:0:0:0:
192,192,33907,1,0,0:0:0:0:
192,192,34016,1,0,0:0:0:0:
64,192,34016,1,0,0:0:0:0:
320,192,34016,1,0,0:0:0:0:
448,192,34016,1,0,0:0:0:0:
64,192,34125,1,0,0:0:0:0:
192,192,34233,1,0,0:0:0:0:
64,192,34342,1,0,0:0:0:0:
320,192,34342,1,0,0:0:0:0:
448,192,34451,1,0,0:0:0:0:
192,192,34451,1,0,0:0:0:0:
64,192,34451,1,0,0:0:0:0:
320,192,34560,1,0,0:0:0:0:
320,192,34668,1,0,0:0:0:0:
64,192,34668,1,0,0:0:0:0:
192,192,34777,1,0,0:0:0:0:
64,192,34886,1,0,0:0:0:0:
192,192,34886,1,0,0:0:0:0:
320,192,34886,1,0,0:0:0:0:
448,192,34886,1,0,0:0:0:0:
320,192,34994,1,0,0:0:0:0:
320,192,35103,1,0,0:0:0:0:
64,192,35212,1,0,0:0:0:0:
192,192,35212,1,0,0:0:0:0:
448,192,35320,1,0,0:0:0:0:
320,192,35320,1,0,0:0:0:0:
64,192,35320,1,0,0:0:0:0:
192,192,35429,1,0,0:0:0:0:
320,192,35538,1,0,0:0:0:0:
64,192,35538,1,0,0:0:0:0:
320,192,35646,1,0,0:0:0:0:
448,192,35755,1,0,0:0:0:0:
192,192,35755,1,0,0:0:0:0:
64,192,35755,1,0,0:0:0:0:
320,192,35755,1,0,0:0:0:0:
448,192,35864,1,0,0:0:0:0:
448,192,35973,1,0,0:0:0:0:
320,192,36081,1,0,0:0:0:0:
192,192,36081,1,0,0:0:0:0:
448,192,36190,1,0,0:0:0:0:
192,192,36190,1,0,0:0:0:0:
64,192,36190,1,0,0:0:0:0:
320,192,36299,1,0,0:0:0:0:
64,192,36407,1,0,0:0:0:0:
320,192,36407,1,0,0:0:0:0:
192,192,36516,1,0,0:0:0:0:
448,192,36625,1,0,0:0:0:0:
320,192,36625,1,0,0:0:0:0:
64,192,36625,1,0,0:0:0:0:
192,192,36733,1,0,0:0:0:0:
192,192,36842,1,0,0:0:0:0:
64,192,36951,1,0,0:0:0:0:
320,192,36951,1,0,0:0:0:0:
320,192,37060,1,0,0:0:0:0:
192,192,37060,1,0,0:0:0:0:
64,192,37060,1,0,0:0:0:0:
192,192,37168,1,0,0:0:0:0:
64,192,37277,1,0,0:0:0:0:
320,192,37277,1,0,0:0:0:0:
64,192,37386,1,0,0:0:0:0:
192,192,37494,1,0,0:0:0:0:
64,192,37494,1,0,0:0:0:0:
320,192,37494,1,0,0:0:0:0:
448,192,37494,1,0,0:0:0:0:
192,192,37603,1,0,0:0:0:0:
320,192,37712,1,0,0:0:0:0:
448,192,37820,1,0,0:0:0:0:
64,192,37820,1,0,0:0:0:0:
448,192,37929,1,0,0:0:0:0:
192,192,37929,1,0,0:0:0:0:
64,192,37929,1,0,0:0:0:0:
320,192,38038,1,0,0:0:0:0:
192,192,38146,1,0,0:0:0:0:
64,192,38146,1,0,0:0:0:0:
192,192,38255,1,0,0:0:0:0:
448,192,38364,1,0,0:0:0:0:
320,192,38364,1,0,0:0:0:0:
64,192,38364,1,0,0:0:0:0:
320,192,38473,1,0,0:0:0:0:
192,192,38581,1,0,0:0:0:0:
320,192,38690,1,0,0:0:0:0:
64,192,38690,1,0,0:0:0:0:
320,192,38799,1,0,0:0:0:0:
192,192,38799,1,0,0:0:0:0:
64,192,38799,1,0,0:0:0:0:
448,192,38799,1,0,0:0:0:0:
192,192,38907,1,0,0:0:0:0:
448,192,39016,1,0,0:0:0:0:
64,192,39016,1,0,0:0:0:0:
192,192,39125,1,0,0:0:0:0:
64,192,39233,1,0,0:0:0:0:
192,192,39233,1,0,0:0:0:0:
320,192,39233,1,0,0:0:0:0:
448,192,39233,1,0,0:0:0:0:
320,192,39342,1,0,0:0:0:0:
320,192,39451,1,0,0:0:0:0:
192,192,39560,1,0,0:0:0:0:
64,192,39560,1,0,0:0:0:0:
64,192,39668,1,0,0:0:0:0:
192,192,39668,1,0,0:0:0:0:
320,192,39668,1,0,0:0:0:0:
448,192,39668,1,0,0:0:0:0:
320,192,39777,1,0,0:0:0:0:
192,192,39886,1,0,0:0:0:0:
448,192,39886,1,0,0:0:0:0:
192,192,39994,1,0,0:0:0:0:
448,192,40103,1,0,0:0:0:0:
320,192,40103,1,0,0:0:0:0:
192,192,40103,1,0,0:0:0:0:
64,192,40103,1,0,0:0:0:0:
64,192,40212,1,0,0:0:0:0:
64,192,40320,1,0,0:0:0:0:
448,192,40429,1,0,0:0:0:0:
320,192,40429,1,0,0:0:0:0:
320,192,40538,1,0,0:0:0:0:
192,192,40538,1,0,0:0:0:0:
64,192,40538,1,0,0:0:0:0:
448,192,40538,1,0,0:0:0:0:
192,192,40646,1,0,0:0:0:0:
448,192,40755,1,0,0:0:0:0:
64,192,40755,1,0,0:0:0:0:
320,192,40864,1,0,0:0:0:0:
448,192,40973,1,0,0:0:0:0:
320,192,40973,1,0,0:0:0:0:
192,192,40973,1,0,0:0:0:0:
64,192,40973,1,0,0:0:0:0:
192,192,41081,1,0,0:0:0:0:
192,192,41190,1,0,0:0:0:0:
448,192,41299,1,0,0:0:0:0:
64,192,41299,1,0,0:0:0:0:
64,192,41407,1,0,0:0:0:0:
192,192,41407,1,0,0:0:0:0:
320,192,41407,1,0,0:0:0:0:
448,192,41407,1,0,0:0:0:0:
320,192,41516,1,0,0:0:0:0:
192,192,41625,1,0,0:0:0:0:
448,192,41625,1,0,0:0:0:0:
320,192,41733,1,0,0:0:0:0:
448,192,41842,1,0,0:0:0:0:
320,192,41842,1,0,0:0:0:0:
192,192,41842,1,0,0:0:0:0:
64,192,41842,1,0,0:0:0:0:
64,192,41951,1,0,0:0:0:0:
192,192,42060,1,0,0:0:0:0:
320,192,42168,1,0,0:0:0:0:
64,192,42168,1,0,0:0:0:0:
64,192,42277,1,0,0:0:0:0:
320,192,42277,1,0,0:0:0:0:
448,192,42277,1,0,0:0:0:0:
192,192,42277,1,0,0:0:0:0:
448,192,42386,1,0,0:0:0:0:
448,192,42494,1,0,0:0:0:0:
192,192,42494,1,0,0:0:0:0:
320,192,42603,1,0,0:0:0:0:
192,192,42712,1,0,0:0:0:0:
64,192,42712,1,0,0:0:0:0:
320,192,42712,1,0,0:0:0:0:
448,192,42712,1,0,0:0:0:0:
192,192,42820,1,0,0:0:0:0:
192,192,42929,1,0,0:0:0:0:
448,192,43038,1,0,0:0:0:0:
320,192,43038,1,0,0:0:0:0:
448,192,43146,1,0,0:0:0:0:
320,192,43146,1,0,0:0:0:0:
64,192,43146,1,0,0:0:0:0:
192,192,43146,1,0,0:0:0:0:
64,192,43255,1,0,0:0:0:0:
64,192,43364,1,0,0:0:0:0:
448,192,43364,1,0,0:0:0:0:
320,192,43473,1,0,0:0:0:0:
448,192,43581,1,0,0:0:0:0:
320,192,43581,1,0,0:0:0:0:
192,192,43581,1,0,0:0:0:0:
64,192,43581,1,0,0:0:0:0:
448,192,43690,1,0,0:0:0:0:
448,192,43799,1,0,0:0:0:0:
192,192,43907,1,0,0:0:0:0:
64,192,43907,1,0,0:0:0:0:
64,192,44016,1,0,0:0:0:0:
192,192,44016,1,0,0:0:0:0:
320,192,44016,1,0,0:0:0:0:
448,192,44016,1,0,0:0:0:0:
320,192,44125,1,0,0:0:0:0:
64,192,44233,1,0,0:0:0:0:
448,192,44233,1,0,0:0:0:0:
192,192,44342,1,0,0:0:0:0:
448,192,44451,1,0,0:0:0:0:
320,192,44451,1,0,0:0:0:0:
64,192,44451,1,0,0:0:0:0:
192,192,44451,1,0,0:0:0:0:
320,192,44560,1,0,0:0:0:0:
320,192,44668,1,0,0:0:0:0:
192,192,44777,1,0,0:0:0:0:
448,192,44777,1,0,0:0:0:0:
448,192,44886,1,0,0:0:0:0:
320,192,44886,1,0,0:0:0:0:
192,192,44886,1,0,0:0:0:0:
64,192,44886,1,0,0:0:0:0:
64,192,44994,1,0,0:0:0:0:
64,192,45103,1,0,0:0:0:0:
320,192,45103,1,0,0:0:0:0:
192,192,45212,1,0,0:0:0:0:
448,192,45320,1,0,0:0:0:0:
320,192,45320,1,0,0:0:0:0:
192,192,45320,1,0,0:0:0:0:
64,192,45320,1,0,0:0:0:0:
320,192,45429,1,0,0:0:0:0:
320,192,45538,1,0,0:0:0:0:
192,192,45538,1,0,0:0:0:0:
64,192,45646,1,0,0:0:0:0:
448,192,45646,1,0,0:0:0:0:
64,192,45755,1,0,0:0:0:0:
192,192,45755,1,0,0:0:0:0:
320,192,45755,1,0,0:0:0:0:
448,192,45755,1,0,0:0:0:0:
192,192,45864,1,0,0:0:0:0:
320,192,45864,1,0,0:0:0:0:
448,192,45973,1,0,0:0:0:0:
64,192,45973,1,0,0:0:0:0:
192,192,46081,1,0,0:0:0:0:
64,192,46081,1,0,0:0:0:0:
64,192,46190,1,0,0:0:0:0:
192,192,46190,1,0,0:0:0:0:
320,192,46190,1,0,0:0:0:0:
448,192,46190,1,0,0:0:0:0:
192,192,46299,1,0,0:0:0:0:
192,192,46407,1,0,0:0:0:0:
448,192,46516,1,0,0:0:0:0:
320,192,46516,1,0,0:0:0:0:
448,192,46625,1,0,0:0:0:0:
320,192,46625,1,0,0:0:0:0:
192,192,46625,1,0,0:0:0:0:
64,192,46625,1,0,0:0:0:0:
64,192,46733,1,0,0:0:0:0:
64,192,46842,1,0,0:0:0:0:
320,192,46842,1,0,0:0:0:0:
320,192,46951,1,0,0:0:0:0:
448,192,47060,1,0,0:0:0:0:
320,192,47060,1,0,0:0:0:0:
192,192,47060,1,0,0:0:0:0:
64,192,47060,1,0,0:0:0:0:
192,192,47168,1,0,0:0:0:0:
192,192,47277,1,0,0:0:0:0:
448,192,47386,1,0,0:0:0:0:
64,192,47386,1,0,0:0:0:0:
64,192,47494,1,0,0:0:0:0:
192,192,47494,1,0,0:0:0:0:
320,192,47494,1,0,0:0:0:0:
448,192,47494,1,0,0:0:0:0:
320,192,47603,1,0,0:0:0:0:
192,192,47712,1,0,0:0:0:0:
64,192,47712,1,0,0:0:0:0:
64,192,47820,1,0,0:0:0:0:
64,192,47929,1,0,0:0:0:0:
192,192,47929,1,0,0:0:0:0:
320,192,47929,1,0,0:0:0:0:
448,192,47929,1,0,0:0:0:0:
192,192,48038,1,0,0:0:0:0:
192,192,48146,1,0,0:0:0:0:
448,192,48255,1,0,0:0:0:0:
320,192,48255,1,0,0:0:0:0:
448,192,48364,1,0,0:0:0:0:
320,192,48364,1,0,0:0:0:0:
192,192,48364,1,0,0:0:0:0:
64,192,48364,1,0,0:0:0:0:
192,192,48473,1,0,0:0:0:0:
64,192,48581,1,0,0:0:0:0:
320,192,48581,1,0,0:0:0:0:
448,192,48690,1,0,0:0:0:0:
448,192,48799,1,0,0:0:0:0:
320,192,48799,1,0,0:0:0:0:
192,192,48799,1,0,0:0:0:0:
64,192,48799,1,0,0:0:0:0:
320,192,48907,1,0,0:0:0:0:
320,192,49016,1,0,0:0:0:0:
192,192,49016,1,0,0:0:0:0:
192,192,49125,1,0,0:0:0:0:
64,192,49125,1,0,0:0:0:0:
192,192,49233,1,0,0:0:0:0:
64,192,49233,1,0,0:0:0:0:
320,192,49233,1,0,0:0:0:0:
448,192,49233,1,0,0:0:0:0:
448,192,49342,1,0,0:0:0:0:
320,192,49342,1,0,0:0:0:0:
320,192,49451,1,0,0:0:0:0:
192,192,49451,1,0,0:0:0:0:
192,192,49560,1,0,0:0:0:0:
64,192,49560,1,0,0:0:0:0:
448,192,49668,1,0,0:0:0:0:
320,192,49668,1,0,0:0:0:0:
192,192,49668,1,0,0:0:0:0:
64,192,49668,1,0,0:0:0:0:
448,192,49777,1,0,0:0:0:0:
448,192,49886,1,0,0:0:0:0:
192,192,49994,1,0,0:0:0:0:
64,192,49994,1,0,0:0:0:0:
64,192,50103,1,0,0:0:0:0:
192,192,50103,1,0,0:0:0:0:
320,192,50103,1,0,0:0:0:0:
448,192,50103,1,0,0:0:0:0:
320,192,50212,1,0,0:0:0:0:
64,192,50320,1,0,0:0:0:0:
448,192,50320,1,0,0:0:0:0:
64,192,50429,1,0,0:0:0:0:
64,192,50538,1,0,0:0:0:0:
192,192,50538,1,0,0:0:0:0:
320,192,50538,1,0,0:0:0:0:
448,192,50538,1,0,0:0:0:0:
320,192,50646,1,0,0:0:0:0:
192,192,50755,1,0,0:0:0:0:
192,192,50864,1,0,0:0:0:0:
448,192,50864,1,0,0:0:0:0:
448,192,50973,1,0,0:0:0:0:
320,192,50973,1,0,0:0:0:0:
192,192,50973,1,0,0:0:0:0:
64,192,50973,1,0,0:0:0:0:
320,192,51081,1,0,0:0:0:0:
64,192,51190,1,0,0:0:0:0:
192,192,51190,1,0,0:0:0:0:
448,192,51299,1,0,0:0:0:0:
448,192,51407,1,0,0:0:0:0:
320,192,51407,1,0,0:0:0:0:
192,192,51407,1,0,0:0:0:0:
64,192,51407,1,0,0:0:0:0:
192,192,51516,1,0,0:0:0:0:
192,192,51625,1,0,0:0:0:0:
192,192,51733,1,0,0:0:0:0:
320,192,51733,1,0,0:0:0:0:
448,192,51842,1,0,0:0:0:0:
320,192,51842,1,0,0:0:0:0:
192,192,51842,1,0,0:0:0:0:
64,192,51842,1,0,0:0:0:0:
448,192,51951,1,0,0:0:0:0:
448,192,52060,1,0,0:0:0:0:
192,192,52060,1,0,0:0:0:0:
320,192,52168,1,0,0:0:0:0:
320,192,52277,1,0,0:0:0:0:
192,192,52277,1,0,0:0:0:0:
64,192,52277,1,0,0:0:0:0:
448,192,52277,1,0,0:0:0:0:
448,192,52386,1,0,0:0:0:0:
320,192,52494,1,0,0:0:0:0:
192,192,52603,1,0,0:0:0:0:
64,192,52603,1,0,0:0:0:0:
64,192,52712,1,0,0:0:0:0:
192,192,52712,1,0,0:0:0:0:
320,192,52712,1,0,0:0:0:0:
448,192,52712,1,0,0:0:0:0:
192,192,52820,1,0,0:0:0:0:
320,192,52929,1,0,0:0:0:0:
64,192,52929,1,0,0:0:0:0:
64,192,53038,1,0,0:0:0:0:
64,192,53146,1,0,0:0:0:0:
192,192,53146,1,0,0:0:0:0:
320,192,53146,1,0,0:0:0:0:
448,192,53146,1,0,0:0:0:0:
320,192,53255,1,0,0:0:0:0:
448,192,53255,1,0,0:0:0:0:
64,192,53364,1,0,0:0:0:0:
192,192,53473,1,0,0:0:0:0:
448,192,53473,1,0,0:0:0:0:
448,192,53581,1,0,0:0:0:0:
320,192,53581,1,0,0:0:0:0:
192,192,53581,1,0,0:0:0:0:
64,192,53581,1,0,0:0:0:0:
320,192,53690,1,0,0:0:0:0:
192,192,53799,1,0,0:0:0:0:
64,192,53799,1,0,0:0:0:0:
320,192,53907,1,0,0:0:0:0:
448,192,54016,1,0,0:0:0:0:
64,192,54016,1,0,0:0:0:0:
192,192,54016,1,0,0:0:0:0:
192,192,54125,1,0,0:0:0:0:
320,192,54125,1,0,0:0:0:0:
64,192,54233,1,0,0:0:0:0:
192,192,54342,1,0,0:0:0:0:
448,192,54342,1,0,0:0:0:0:
448,192,54451,1,0,0:0:0:0:
320,192,54451,1,0,0:0:0:0:
192,192,54451,1,0,0:0:0:0:
64,192,54451,1,0,0:0:0:0:
64,192,54560,1,0,0:0:0:0:
192,192,54668,1,0,0:0:0:0:
448,192,54668,1,0,0:0:0:0:
448,192,54777,1,0,0:0:0:0:
320,192,54886,1,0,0:0:0:0:
192,192,54886,1,0,0:0:0:0:
64,192,54886,1,0,0:0:0:0:
192,192,54994,1,0,0:0:0:0:
192,192,55103,1,0,0:0:0:0:
320,192,55212,1,0,0:0:0:0:
64,192,55212,1,0,0:0:0:0:
448,192,55320,1,0,0:0:0:0:
320,192,55320,1,0,0:0:0:0:
192,192,55320,1,0,0:0:0:0:
64,192,55320,1,0,0:0:0:0:
192,192,55429,1,0,0:0:0:0:
320,192,55538,1,0,0:0:0:0:
64,192,55538,1,0,0:0:0:0:
320,192,55646,1,0,0:0:0:0:
192,192,55755,1,0,0:0:0:0:
64,192,55755,1,0,0:0:0:0:
448,192,55755,1,0,0:0:0:0:
192,192,55864,1,0,0:0:0:0:
192,192,55973,1,0,0:0:0:0:
448,192,56081,1,0,0:0:0:0:
320,192,56081,1,0,0:0:0:0:
448,192,56190,1,0,0:0:0:0:
320,192,56190,1,0,0:0:0:0:
64,192,56190,1,0,0:0:0:0:
192,192,56190,1,0,0:0:0:0:
192,192,56299,1,0,0:0:0:0:
320,192,56407,1,0,0:0:0:0:
448,192,56407,1,0,0:0:0:0:
320,192,56516,1,0,0:0:0:0:
192,192,56625,1,0,0:0:0:0:
64,192,56625,1,0,0:0:0:0:
448,192,56625,1,0,0:0:0:0:
192,192,56733,1,0,0:0:0:0:
320,192,56842,1,0,0:0:0:0:
192,192,56951,1,0,0:0:0:0:
448,192,56951,1,0,0:0:0:0:
448,192,57060,1,0,0:0:0:0:
192,192,57060,1,0,0:0:0:0:
64,192,57060,1,0,0:0:0:0:
320,192,57060,1,0,0:0:0:0:
64,192,57168,1,0,0:0:0:0:
64,192,57277,1,0,0:0:0:0:
320,192,57277,1,0,0:0:0:0:
192,192,57386,1,0,0:0:0:0:
448,192,57494,1,0,0:0:0:0:
320,192,57494,1,0,0:0:0:0:
64,192,57494,1,0,0:0:0:0:
192,192,57603,1,0,0:0:0:0:
320,192,57712,1,0,0:0:0:0:
192,192,57820,1,0,0:0:0:0:
64,192,57820,1,0,0:0:0:0:
448,192,57929,1,0,0:0:0:0:
64,192,57929,1,0,0:0:0:0:
192,192,57929,1,0,0:0:0:0:
320,192,57929,1,0,0:0:0:0:
448,192,58038,1,0,0:0:0:0:
64,192,58146,1,0,0:0:0:0:
320,192,58146,1,0,0:0:0:0:
64,192,58255,1,0,0:0:0:0:
192,192,58364,1,0,0:0:0:0:
320,192,58364,1,0,0:0:0:0:
448,192,58364,1,0,0:0:0:0:
320,192,58473,1,0,0:0:0:0:
64,192,58581,1,0,0:0:0:0:
192,192,58690,1,0,0:0:0:0:
320,192,58690,1,0,0:0:0:0:
448,192,58799,1,0,0:0:0:0:
320,192,58799,1,0,0:0:0:0:
192,192,58799,1,0,0:0:0:0:
64,192,58799,1,0,0:0:0:0:
320,192,58907,1,0,0:0:0:0:
448,192,59016,1,0,0:0:0:0:
64,192,59016,1,0,0:0:0:0:
192,192,59125,1,0,0:0:0:0:
448,192,59233,1,0,0:0:0:0:
320,192,59233,1,0,0:0:0:0:
64,192,59233,1,0,0:0:0:0:
192,192,59342,1,0,0:0:0:0:
64,192,59342,1,0,0:0:0:0:
320,192,59451,1,0,0:0:0:0:
64,192,59560,1,0,0:0:0:0:
192,192,59560,1,0,0:0:0:0:
64,192,59668,1,0,0:0:0:0:
192,192,59668,1,0,0:0:0:0:
320,192,59668,1,0,0:0:0:0:
448,192,59668,1,0,0:0:0:0:
320,192,59777,1,0,0:0:0:0:
448,192,59777,1,0,0:0:0:0:
64,192,59886,1,0,0:0:0:0:
192,192,59886,1,0,0:0:0:0:
320,192,59994,1,0,0:0:0:0:
448,192,59994,1,0,0:0:0:0:
448,192,60103,1,0,0:0:0:0:
320,192,60103,1,0,0:0:0:0:
192,192,60103,1,0,0:0:0:0:
64,192,60103,1,0,0:0:0:0:
192,192,60212,1,0,0:0:0:0:
192,192,60320,1,0,0:0:0:0:
320,192,60429,1,0,0:0:0:0:
448,192,60429,1,0,0:0:0:0:
448,192,60538,1,0,0:0:0:0:
192,192,60538,1,0,0:0:0:0:
64,192,60538,1,0,0:0:0:0:
320,192,60538,1,0,0:0:0:0:
192,192,60646,1,0,0:0:0:0:
192,192,60755,1,0,0:0:0:0:
64,192,60755,1,0,0:0:0:0:
64,192,60864,1,0,0:0:0:0:
192,192,60973,1,0,0:0:0:0:
320,192,60973,1,0,0:0:0:0:
448,192,60973,1,0,0:0:0:0:
320,192,61081,1,0,0:0:0:0:
64,192,61190,1,0,0:0:0:0:
448,192,61299,1,0,0:0:0:0:
192,192,61299,1,0,0:0:0:0:
448,192,61407,1,0,0:0:0:0:
192,192,61407,1,0,0:0:0:0:
64,192,61407,1,0,0:0:0:0:
320,192,61516,1,0,0:0:0:0:
448,192,61625,1,0,0:0:0:0:
192,192,61625,1,0,0:0:0:0:
192,192,61733,1,0,0:0:0:0:
448,192,61842,1,0,0:0:0:0:
192,192,61842,1,0,0:0:0:0:
64,192,61842,1,0,0:0:0:0:
320,192,61951,1,0,0:0:0:0:
448,192,62060,1,0,0:0:0:0:
320,192,62168,1,0,0:0:0:0:
192,192,62168,1,0,0:0:0:0:
448,192,62277,1,0,0:0:0:0:
320,192,62277,1,0,0:0:0:0:
64,192,62277,1,0,0:0:0:0:
192,192,62277,1,0,0:0:0:0:
64,192,62386,1,0,0:0:0:0:
64,192,62494,1,0,0:0:0:0:
320,192,62494,1,0,0:0:0:0:
320,192,62603,1,0,0:0:0:0:
448,192,62712,1,0,0:0:0:0:
192,192,62712,1,0,0:0:0:0:
64,192,62712,1,0,0:0:0:0:
448,192,62820,1,0,0:0:0:0:
192,192,62929,1,0,0:0:0:0:
448,192,63038,1,0,0:0:0:0:
320,192,63038,1,0,0:0:0:0:
64,192,63146,1,0,0:0:0:0:
192,192,63146,1,0,0:0:0:0:
320,192,63146,1,0,0:0:0:0:
448,192,63146,1,0,0:0:0:0:
192,192,63255,1,0,0:0:0:0:
64,192,63364,1,0,0:0:0:0:
320,192,63364,1,0,0:0:0:0:
64,192,63473,1,0,0:0:0:0:
192,192,63581,1,0,0:0:0:0:
448,192,63581,1,0,0:0:0:0:
64,192,63581,1,0,0:0:0:0:
320,192,63690,1,0,0:0:0:0:
448,192,63799,1,0,0:0:0:0:
64,192,63907,1,0,0:0:0:0:
320,192,63907,1,0,0:0:0:0:
448,192,64016,1,0,0:0:0:0:
320,192,64016,1,0,0:0:0:0:
64,192,64016,1,0,0:0:0:0:
448,192,64125,1,0,0:0:0:0:
192,192,64233,1,0,0:0:0:0:
64,192,64233,1,0,0:0:0:0:
192,192,64342,1,0,0:0:0:0:
448,192,64451,1,0,0:0:0:0:
320,192,64451,1,0,0:0:0:0:
64,192,64451,1,0,0:0:0:0:
320,192,64560,1,0,0:0:0:0:
192,192,64668,1,0,0:0:0:0:
64,192,64777,1,0,0:0:0:0:
320,192,64777,1,0,0:0:0:0:
448,192,64886,1,0,0:0:0:0:
192,192,64886,1,0,0:0:0:0:
64,192,64886,1,0,0:0:0:0:
320,192,64886,1,0,0:0:0:0:
320,192,64994,1,0,0:0:0:0:
448,192,65103,1,0,0:0:0:0:
64,192,65103,1,0,0:0:0:0:
64,192,65212,1,0,0:0:0:0:
192,192,65320,1,0,0:0:0:0:
320,192,65320,1,0,0:0:0:0:
448,192,65320,1,0,0:0:0:0:
64,192,65429,1,0,0:0:0:0:
192,192,65429,1,0,0:0:0:0:
320,192,65538,1,0,0:0:0:0:
448,192,65538,1,0,0:0:0:0:
64,192,65646,1,0,0:0:0:0:
320,192,65646,1,0,0:0:0:0:
448,192,65755,1,0,0:0:0:0:
192,192,65755,1,0,0:0:0:0:
64,192,65755,1,0,0:0:0:0:
320,192,65864,1,0,0:0:0:0:
448,192,65864,1,0,0:0:0:0:
192,192,65973,1,0,0:0:0:0:
64,192,65973,1,0,0:0:0:0:
320,192,65973,1,0,0:0:0:0:
64,192,66081,1,0,0:0:0:0:
448,192,66081,1,0,0:0:0:0:
448,192,66190,1,0,0:0:0:0:
320,192,66190,1,0,0:0:0:0:
192,192,66190,1,0,0:0:0:0:
192,192,66299,1,0,0:0:0:0:
64,192,66407,1,0,0:0:0:0:
320,192,66407,1,0,0:0:0:0:
448,192,66407,1,0,0:0:0:0:
320,192,66516,1,0,0:0:0:0:
192,192,66516,1,0,0:0:0:0:
192,192,66625,1,0,0:0:0:0:
64,192,66625,1,0,0:0:0:0:
448,192,66625,1,0,0:0:0:0:
64,192,66733,1,0,0:0:0:0:
320,192,66842,1,0,0:0:0:0:
192,192,66842,1,0,0:0:0:0:
448,192,66842,1,0,0:0:0:0:
320,192,66951,1,0,0:0:0:0:
192,192,67060,1,0,0:0:0:0:
64,192,67060,1,0,0:0:0:0:
448,192,67060,1,0,0:0:0:0:
320,192,67060,1,0,0:0:0:0:
64,192,67168,1,0,0:0:0:0:
64,192,67277,1,0,0:0:0:0:
192,192,67386,1,0,0:0:0:0:
448,192,67386,1,0,0:0:0:0:
448,192,67494,1,0,0:0:0:0:
192,192,67494,1,0,0:0:0:0:
64,192,67494,1,0,0:0:0:0:
320,192,67494,1,0,0:0:0:0:
448,192,67603,1,0,0:0:0:0:
320,192,67712,1,0,0:0:0:0:
64,192,67712,1,0,0:0:0:0:
192,192,67820,1,0,0:0:0:0:
448,192,67929,1,0,0:0:0:0:
320,192,67929,1,0,0:0:0:0:
192,192,67929,1,0,0:0:0:0:
64,192,67929,1,0,0:0:0:0:
320,192,68038,1,0,0:0:0:0:
192,192,68146,1,0,0:0:0:0:
192,192,68255,1,0,0:0:0:0:
448,192,68255,1,0,0:0:0:0:
448,192,68364,1,0,0:0:0:0:
320,192,68364,1,0,0:0:0:0:
192,192,68364,1,0,0:0:0:0:
64,192,68364,1,0,0:0:0:0:
320,192,68473,1,0,0:0:0:0:
192,192,68581,1,0,0:0:0:0:
448,192,68581,1,0,0:0:0:0:
64,192,68690,1,0,0:0:0:0:
64,192,68799,1,0,0:0:0:0:
192,192,68799,1,0,0:0:0:0:
320,192,68799,1,0,0:0:0:0:
448,192,68799,1,0,0:0:0:0:
320,192,68907,1,0,0:0:0:0:
192,192,69016,1,0,0:0:0:0:
192,192,69125,1,0,0:0:0:0:
320,192,69125,1,0,0:0:0:0:
448,192,69233,1,0,0:0:0:0:
320,192,69233,1,0,0:0:0:0:
192,192,69233,1,0,0:0:0:0:
64,192,69233,1,0,0:0:0:0:
448,192,69342,1,0,0:0:0:0:
320,192,69451,1,0,0:0:0:0:
192,192,69451,1,0,0:0:0:0:
192,192,69560,1,0,0:0:0:0:
448,192,69668,1,0,0:0:0:0:
320,192,69668,1,0,0:0:0:0:
192,192,69668,1,0,0:0:0:0:
64,192,69668,1,0,0:0:0:0:
320,192,69777,1,0,0:0:0:0:
64,192,69886,1,0,0:0:0:0:
192,192,69886,1,0,0:0:0:0:
320,192,69994,1,0,0:0:0:0:
448,192,69994,1,0,0:0:0:0:
448,192,70103,1,0,0:0:0:0:
320,192,70103,1,0,0:0:0:0:
192,192,70103,1,0,0:0:0:0:
64,192,70103,1,0,0:0:0:0:
192,192,70212,1,0,0:0:0:0:
64,192,70320,1,0,0:0:0:0:
320,192,70320,1,0,0:0:0:0:
448,192,70429,1,0,0:0:0:0:
192,192,70429,1,0,0:0:0:0:
448,192,70538,1,0,0:0:0:0:
320,192,70538,1,0,0:0:0:0:
192,192,70538,1,0,0:0:0:0:
64,192,70538,1,0,0:0:0:0:
320,192,70646,1,0,0:0:0:0:
64,192,70755,1,0,0:0:0:0:
192,192,70864,1,0,0:0:0:0:
64,192,70864,1,0,0:0:0:0:
448,192,70973,1,0,0:0:0:0:
320,192,70973,1,0,0:0:0:0:
192,192,70973,1,0,0:0:0:0:
64,192,70973,1,0,0:0:0:0:
320,192,71081,1,0,0:0:0:0:
192,192,71190,1,0,0:0:0:0:
448,192,71190,1,0,0:0:0:0:
448,192,71299,1,0,0:0:0:0:
448,192,71407,1,0,0:0:0:0:
320,192,71407,1,0,0:0:0:0:
192,192,71407,1,0,0:0:0:0:
64,192,71407,1,0,0:0:0:0:
192,192,71516,1,0,0:0:0:0:
320,192,71625,1,0,0:0:0:0:
448,192,71733,1,0,0:0:0:0:
320,192,71733,1,0,0:0:0:0:
448,192,71842,1,0,0:0:0:0:
320,192,71842,1,0,0:0:0:0:
64,192,71842,1,0,0:0:0:0:
192,192,71842,1,0,0:0:0:0:
192,192,71951,1,0,0:0:0:0:
64,192,72060,1,0,0:0:0:0:
448,192,72060,1,0,0:0:0:0:
192,192,72168,1,0,0:0:0:0:
320,192,72277,1,0,0:0:0:0:
64,192,72277,1,0,0:0:0:0:
192,192,72277,1,0,0:0:0:0:
448,192,72277,1,0,0:0:0:0:
320,192,72386,1,0,0:0:0:0:
192,192,72494,1,0,0:0:0:0:
64,192,72603,1,0,0:0:0:0:
320,192,72603,1,0,0:0:0:0:
448,192,72712,1,0,0:0:0:0:
320,192,72712,1,0,0:0:0:0:
192,192,72712,1,0,0:0:0:0:
64,192,72712,1,0,0:0:0:0:
192,192,72820,1,0,0:0:0:0:
192,192,72929,1,0,0:0:0:0:
448,192,72929,1,0,0:0:0:0:
320,192,73038,1,0,0:0:0:0:
448,192,73146,1,0,0:0:0:0:
320,192,73146,1,0,0:0:0:0:
192,192,73146,1,0,0:0:0:0:
64,192,73146,1,0,0:0:0:0:
192,192,73255,1,0,0:0:0:0:
448,192,73255,1,0,0:0:0:0:
320,192,73364,1,0,0:0:0:0:
64,192,73364,1,0,0:0:0:0:
192,192,73473,1,0,0:0:0:0:
448,192,73473,1,0,0:0:0:0:
320,192,73473,1,0,0:0:0:0:
448,192,73581,1,0,0:0:0:0:
320,192,73581,1,0,0:0:0:0:
192,192,73581,1,0,0:0:0:0:
64,192,73581,1,0,0:0:0:0:
64,192,73690,1,0,0:0:0:0:
320,192,73690,1,0,0:0:0:0:
192,192,73799,1,0,0:0:0:0:
64,192,73799,1,0,0:0:0:0:
448,192,73907,1,0,0:0:0:0:
320,192,73907,1,0,0:0:0:0:
192,192,73907,1,0,0:0:0:0:
448,192,74016,1,0,0:0:0:0:
320,192,74016,1,0,0:0:0:0:
192,192,74016,1,0,0:0:0:0:
64,192,74016,1,0,0:0:0:0:
192,192,74125,1,0,0:0:0:0:
64,192,74233,1,0,0:0:0:0:
320,192,74342,1,0,0:0:0:0:
64,192,74342,1,0,0:0:0:0:
448,192,74451,1,0,0:0:0:0:
320,192,74451,1,0,0:0:0:0:
64,192,74451,1,0,0:0:0:0:
192,192,74451,1,0,0:0:0:0:
192,192,74560,1,0,0:0:0:0:
320,192,74668,1,0,0:0:0:0:
448,192,74668,1,0,0:0:0:0:
320,192,74777,1,0,0:0:0:0:
448,192,74886,1,0,0:0:0:0:
320,192,74886,1,0,0:0:0:0:
192,192,74886,1,0,0:0:0:0:
64,192,74886,1,0,0:0:0:0:
192,192,74994,1,0,0:0:0:0:
192,192,75103,1,0,0:0:0:0:
320,192,75212,1,0,0:0:0:0:
448,192,75212,1,0,0:0:0:0:
448,192,75320,1,0,0:0:0:0:
320,192,75320,1,0,0:0:0:0:
64,192,75320,1,0,0:0:0:0:
192,192,75320,1,0,0:0:0:0:
192,192,75429,1,0,0:0:0:0:
448,192,75538,1,0,0:0:0:0:
64,192,75538,1,0,0:0:0:0:
448,192,75646,1,0,0:0:0:0:
448,192,75755,1,0,0:0:0:0:
320,192,75755,1,0,0:0:0:0:
192,192,75755,1,0,0:0:0:0:
64,192,75755,1,0,0:0:0:0:
64,192,75864,1,0,0:0:0:0:
192,192,75973,1,0,0:0:0:0:
320,192,76081,1,0,0:0:0:0:
64,192,76081,1,0,0:0:0:0:
448,192,76190,1,0,0:0:0:0:
320,192,76190,1,0,0:0:0:0:
192,192,76190,1,0,0:0:0:0:
64,192,76190,1,0,0:0:0:0:
448,192,76299,1,0,0:0:0:0:
320,192,76407,1,0,0:0:0:0:
64,192,76407,1,0,0:0:0:0:
192,192,76516,1,0,0:0:0:0:
448,192,76625,1,0,0:0:0:0:
320,192,76625,1,0,0:0:0:0:
64,192,76625,1,0,0:0:0:0:
192,192,76625,1,0,0:0:0:0:
320,192,76733,1,0,0:0:0:0:
192,192,76842,1,0,0:0:0:0:
64,192,76951,1,0,0:0:0:0:
192,192,76951,1,0,0:0:0:0:
448,192,77060,1,0,0:0:0:0:
320,192,77060,1,0,0:0:0:0:
192,192,77060,1,0,0:0:0:0:
64,192,77060,1,0,0:0:0:0:
320,192,77168,1,0,0:0:0:0:
448,192,77277,1,0,0:0:0:0:
192,192,77277,1,0,0:0:0:0:
448,192,77386,1,0,0:0:0:0:
448,192,77494,1,0,0:0:0:0:
320,192,77494,1,0,0:0:0:0:
192,192,77494,1,0,0:0:0:0:
64,192,77494,1,0,0:0:0:0:
192,192,77603,1,0,0:0:0:0:
64,192,77712,1,0,0:0:0:0:
192,192,77820,1,0,0:0:0:0:
320,192,77820,1,0,0:0:0:0:
448,192,77929,1,0,0:0:0:0:
320,192,77929,1,0,0:0:0:0:
192,192,77929,1,0,0:0:0:0:
64,192,77929,1,0,0:0:0:0:
448,192,78038,1,0,0:0:0:0:
320,192,78146,1,0,0:0:0:0:
64,192,78146,1,0,0:0:0:0:
192,192,78255,1,0,0:0:0:0:
448,192,78364,1,0,0:0:0:0:
320,192,78364,1,0,0:0:0:0:
192,192,78364,1,0,0:0:0:0:
64,192,78364,1,0,0:0:0:0:
64,192,78473,1,0,0:0:0:0:
192,192,78581,1,0,0:0:0:0:
448,192,78690,1,0,0:0:0:0:
320,192,78690,1,0,0:0:0:0:
448,192,78799,1,0,0:0:0:0:
320,192,78799,1,0,0:0:0:0:
192,192,78799,1,0,0:0:0:0:
64,192,78799,1,0,0:0:0:0:
192,192,78907,1,0,0:0:0:0:
448,192,79016,1,0,0:0:0:0:
64,192,79016,1,0,0:0:0:0:
320,192,79125,1,0,0:0:0:0:
192,192,79233,1,0,0:0:0:0:
64,192,79233,1,0,0:0:0:0:
320,192,79233,1,0,0:0:0:0:
448,192,79233,1,0,0:0:0:0:
192,192,79342,1,0,0:0:0:0:
64,192,79451,1,0,0:0:0:0:
448,192,79451,1,0,0:0:0:0:
64,192,79560,1,0,0:0:0:0:
192,192,79560,1,0,0:0:0:0:
448,192,79668,1,0,0:0:0:0:
320,192,79668,1,0,0:0:0:0:
192,192,79668,1,0,0:0:0:0:
320,192,79777,1,0,0:0:0:0:
64,192,79777,1,0,0:0:0:0:
192,192,79886,1,0,0:0:0:0:
64,192,79886,1,0,0:0:0:0:
320,192,79994,1,0,0:0:0:0:
448,192,79994,1,0,0:0:0:0:
448,192,80103,1,0,0:0:0:0:
192,192,80103,1,0,0:0:0:0:
64,192,80103,1,0,0:0:0:0:
320,192,80212,1,0,0:0:0:0:
192,192,80212,1,0,0:0:0:0:
64,192,80320,1,0,0:0:0:0:
320,192,80320,1,0,0:0:0:0:
448,192,80429,1,0,0:0:0:0:
192,192,80429,1,0,0:0:0:0:
448,192,80538,1,0,0:0:0:0:
320,192,80538,1,0,0:0:0:0:
64,192,80538,1,0,0:0:0:0:
192,192,80646,1,0,0:0:0:0:
64,192,80646,1,0,0:0:0:0:
192,192,80755,1,0,0:0:0:0:
320,192,80755,1,0,0:0:0:0:
320,192,80864,1,0,0:0:0:0:
64,192,80864,1,0,0:0:0:0:
448,192,80973,1,0,0:0:0:0:
192,192,80973,1,0,0:0:0:0:
64,192,80973,1,0,0:0:0:0:
320,192,80973,1,0,0:0:0:0:
448,192,81081,1,0,0:0:0:0:
192,192,81081,1,0,0:0:0:0:
320,192,81190,1,0,0:0:0:0:
192,192,81299,1,0,0:0:0:0:
64,192,81299,1,0,0:0:0:0:
448,192,81407,1,0,0:0:0:0:
320,192,81407,1,0,0:0:0:0:
64,192,81407,1,0,0:0:0:0:
192,192,81516,1,0,0:0:0:0:
448,192,81625,1,0,0:0:0:0:
320,192,81625,1,0,0:0:0:0:
192,192,81733,1,0,0:0:0:0:
448,192,81842,1,0,0:0:0:0:
320,192,81842,1,0,0:0:0:0:
64,192,81842,1,0,0:0:0:0:
192,192,81842,1,0,0:0:0:0:
320,192,81951,1,0,0:0:0:0:
192,192,82060,1,0,0:0:0:0:
448,192,82060,1,0,0:0:0:0:
320,192,82168,1,0,0:0:0:0:
64,192,82168,1,0,0:0:0:0:
64,192,82277,1,0,0:0:0:0:
192,192,82277,1,0,0:0:0:0:
320,192,82277,1,0,0:0:0:0:
448,192,82277,1,0,0:0:0:0:
192,192,82386,1,0,0:0:0:0:
320,192,82494,1,0,0:0:0:0:
448,192,82494,1,0,0:0:0:0:
320,192,82603,1,0,0:0:0:0:
448,192,82712,1,0,0:0:0:0:
320,192,82712,1,0,0:0:0:0:
192,192,82712,1,0,0:0:0:0:
64,192,82712,1,0,0:0:0:0:
192,192,82820,1,0,0:0:0:0:
64,192,82820,1,0,0:0:0:0:
320,192,82929,1,0,0:0:0:0:
448,192,83038,1,0,0:0:0:0:
64,192,83038,1,0,0:0:0:0:
192,192,83146,1,0,0:0:0:0:
64,192,83146,1,0,0:0:0:0:
320,192,83146,1,0,0:0:0:0:
448,192,83146,1,0,0:0:0:0:
320,192,83255,1,0,0:0:0:0:
192,192,83364,1,0,0:0:0:0:
64,192,83364,1,0,0:0:0:0:
192,192,83473,1,0,0:0:0:0:
448,192,83581,1,0,0:0:0:0:
320,192,83581,1,0,0:0:0:0:
192,192,83581,1,0,0:0:0:0:
64,192,83581,1,0,0:0:0:0:
320,192,83690,1,0,0:0:0:0:
448,192,83799,1,0,0:0:0:0:
192,192,83799,1,0,0:0:0:0:
320,192,83907,1,0,0:0:0:0:
448,192,83907,1,0,0:0:0:0:
448,192,84016,1,0,0:0:0:0:
320,192,84016,1,0,0:0:0:0:
192,192,84016,1,0,0:0:0:0:
64,192,84016,1,0,0:0:0:0:
192,192,84125,1,0,0:0:0:0:
64,192,84233,1,0,0:0:0:0:
320,192,84233,1,0,0:0:0:0:
192,192,84342,1,0,0:0:0:0:
448,192,84451,1,0,0:0:0:0:
320,192,84451,1,0,0:0:0:0:
192,192,84451,1,0,0:0:0:0:
64,192,84451,1,0,0:0:0:0:
320,192,84560,1,0,0:0:0:0:
448,192,84560,1,0,0:0:0:0:
192,192,84668,1,0,0:0:0:0:
192,192,84777,1,0,0:0:0:0:
320,192,84777,1,0,0:0:0:0:
320,192,84886,1,0,0:0:0:0:
448,192,84886,1,0,0:0:0:0:
64,192,84886,1,0,0:0:0:0:
192,192,84994,1,0,0:0:0:0:
448,192,85103,1,0,0:0:0:0:
320,192,85103,1,0,0:0:0:0:
320,192,85212,1,0,0:0:0:0:
192,192,85320,1,0,0:0:0:0:
64,192,85320,1,0,0:0:0:0:
448,192,85320,1,0,0:0:0:0:
192,192,85429,1,0,0:0:0:0:
64,192,85538,1,0,0:0:0:0:
448,192,85538,1,0,0:0:0:0:
448,192,85646,1,0,0:0:0:0:
192,192,85646,1,0,0:0:0:0:
320,192,85755,1,0,0:0:0:0:
192,192,85755,1,0,0:0:0:0:
64,192,85755,1,0,0:0:0:0:
320,192,85864,1,0,0:0:0:0:
64,192,85973,1,0,0:0:0:0:
192,192,85973,1,0,0:0:0:0:
320,192,86081,1,0,0:0:0:0:
448,192,86190,1,0,0:0:0:0:
192,192,86190,1,0,0:0:0:0:
64,192,86190,1,0,0:0:0:0:
448,192,86299,1,0,0:0:0:0:
320,192,86299,1,0,0:0:0:0:
64,192,86407,1,0,0:0:0:0:
192,192,86516,1,0,0:0:0:0:
64,192,86516,1,0,0:0:0:0:
448,192,86625,1,0,0:0:0:0:
320,192,86625,1,0,0:0:0:0:
192,192,86625,1,0,0:0:0:0:
320,192,86733,1,0,0:0:0:0:
192,192,86842,1,0,0:0:0:0:
64,192,86842,1,0,0:0:0:0:
64,192,86951,1,0,0:0:0:0:
448,192,87060,1,0,0:0:0:0:
320,192,87060,1,0,0:0:0:0:
192,192,87060,1,0,0:0:0:0:
320,192,87168,1,0,0:0:0:0:
448,192,87277,1,0,0:0:0:0:
192,192,87277,1,0,0:0:0:0:
64,192,87386,1,0,0:0:0:0:
320,192,87386,1,0,0:0:0:0:
192,192,87494,1,0,0:0:0:0:
64,192,87494,1,0,0:0:0:0:
448,192,87494,1,0,0:0:0:0:
320,192,87603,1,0,0:0:0:0:
448,192,87712,1,0,0:0:0:0:
320,192,87712,1,0,0:0:0:0:
192,192,87820,1,0,0:0:0:0:
64,192,87929,1,0,0:0:0:0:
192,192,87929,1,0,0:0:0:0:
320,192,87929,1,0,0:0:0:0:
448,192,87929,1,0,0:0:0:0:
320,192,88038,1,0,0:0:0:0:
64,192,88038,1,0,0:0:0:0:
192,192,88146,1,0,0:0:0:0:
448,192,88255,1,0,0:0:0:0:
320,192,88255,1,0,0:0:0:0:
448,192,88364,1,0,0:0:0:0:
320,192,88364,1,0,0:0:0:0:
64,192,88364,1,0,0:0:0:0:
192,192,88364,1,0,0:0:0:0:
192,192,88473,1,0,0:0:0:0:
64,192,88581,1,0,0:0:0:0:
448,192,88581,1,0,0:0:0:0:
448,192,88690,1,0,0:0:0:0:
320,192,88799,1,0,0:0:0:0:
192,192,88799,1,0,0:0:0:0:
64,192,88799,1,0,0:0:0:0:
192,192,88907,1,0,0:0:0:0:
320,192,89016,1,0,0:0:0:0:
448,192,89016,1,0,0:0:0:0:
192,192,89125,1,0,0:0:0:0:
64,192,89125,1,0,0:0:0:0:
64,192,89233,1,0,0:0:0:0:
320,192,89233,1,0,0:0:0:0:
448,192,89233,1,0,0:0:0:0:
192,192,89233,1,0,0:0:0:0:
320,192,89342,1,0,0:0:0:0:
448,192,89451,1,0,0:0:0:0:
64,192,89451,1,0,0:0:0:0:
192,192,89560,1,0,0:0:0:0:
64,192,89668,1,0,0:0:0:0:
192,192,89668,1,0,0:0:0:0:
320,192,89668,1,0,0:0:0:0:
448,192,89668,1,0,0:0:0:0:
192,192,89777,1,0,0:0:0:0:
448,192,89777,1,0,0:0:0:0:
320,192,89886,1,0,0:0:0:0:
192,192,89994,1,0,0:0:0:0:
64,192,89994,1,0,0:0:0:0:
448,192,90103,1,0,0:0:0:0:
320,192,90103,1,0,0:0:0:0:
64,192,90103,1,0,0:0:0:0:
192,192,90103,1,0,0:0:0:0:
320,192,90212,1,0,0:0:0:0:
448,192,90320,1,0,0:0:0:0:
192,192,90320,1,0,0:0:0:0:
192,192,90429,1,0,0:0:0:0:
448,192,90538,1,0,0:0:0:0:
320,192,90538,1,0,0:0:0:0:
64,192,90538,1,0,0:0:0:0:
192,192,90538,1,0,0:0:0:0:
320,192,90646,1,0,0:0:0:0:
448,192,90755,1,0,0:0:0:0:
192,192,90755,1,0,0:0:0:0:
320,192,90864,1,0,0:0:0:0:
192,192,90864,1,0,0:0:0:0:
64,192,90973,1,0,0:0:0:0:
192,192,90973,1,0,0:0:0:0:
448,192,90973,1,0,0:0:0:0:
320,192,90973,1,0,0:0:0:0:
320,192,91081,1,0,0:0:0:0:
448,192,91190,1,0,0:0:0:0:
192,192,91190,1,0,0:0:0:0:
192,192,91299,1,0,0:0:0:0:
448,192,91407,1,0,0:0:0:0:
320,192,91407,1,0,0:0:0:0:
192,192,91407,1,0,0:0:0:0:
64,192,91407,1,0,0:0:0:0:
64,192,91516,1,0,0:0:0:0:
448,192,91516,1,0,0:0:0:0:
192,192,91625,1,0,0:0:0:0:
448,192,91733,1,0,0:0:0:0:
320,192,91733,1,0,0:0:0:0:
448,192,91842,1,0,0:0:0:0:
320,192,91842,1,0,0:0:0:0:
192,192,91842,1,0,0:0:0:0:
64,192,91842,1,0,0:0:0:0:
192,192,91951,1,0,0:0:0:0:
320,192,92060,1,0,0:0:0:0:
64,192,92060,1,0,0:0:0:0:
192,192,92168,1,0,0:0:0:0:
448,192,92277,1,0,0:0:0:0:
320,192,92277,1,0,0:0:0:0:
192,192,92277,1,0,0:0:0:0:
64,192,92277,1,0,0:0:0:0:
192,192,92386,1,0,0:0:0:0:
64,192,92494,1,0,0:0:0:0:
320,192,92494,1,0,0:0:0:0:
192,192,92603,1,0,0:0:0:0:
448,192,92603,1,0,0:0:0:0:
192,192,92712,1,0,0:0:0:0:
64,192,92712,1,0,0:0:0:0:
320,192,92712,1,0,0:0:0:0:
448,192,92712,1,0,0:0:0:0:
320,192,92820,1,0,0:0:0:0:
448,192,92929,1,0,0:0:0:0:
192,192,92929,1,0,0:0:0:0:
320,192,93038,1,0,0:0:0:0:
448,192,93146,1,0,0:0:0:0:
320,192,93146,1,0,0:0:0:0:
192,192,93146,1,0,0:0:0:0:
64,192,93146,1,0,0:0:0:0:
192,192,93255,1,0,0:0:0:0:
64,192,93255,1,0,0:0:0:0:
192,192,93364,1,0,0:0:0:0:
320,192,93473,1,0,0:0:0:0:
192,192,93473,1,0,0:0:0:0:
320,192,93581,1,0,0:0:0:0:
448,192,93581,1,0,0:0:0:0:
64,192,93581,1,0,0:0:0:0:
448,192,93690,1,0,0:0:0:0:
448,192,93799,1,0,0:0:0:0:
320,192,93799,1,0,0:0:0:0:
320,192,93907,1,0,0:0:0:0:
192,192,94016,1,0,0:0:0:0:
64,192,94016,1,0,0:0:0:0:
448,192,94016,1,0,0:0:0:0:
320,192,94125,1,0,0:0:0:0:
64,192,94233,1,0,0:0:0:0:
448,192,94233,1,0,0:0:0:0:
192,192,94233,1,0,0:0:0:0:
448,192,94342,1,0,0:0:0:0:
320,192,94342,1,0,0:0:0:0:
192,192,94451,1,0,0:0:0:0:
64,192,94451,1,0,0:0:0:0:
320,192,94451,1,0,0:0:0:0:
192,192,94560,1,0,0:0:0:0:
448,192,94560,1,0,0:0:0:0:
448,192,94668,1,0,0:0:0:0:
320,192,94668,1,0,0:0:0:0:
64,192,94668,1,0,0:0:0:0:
192,192,94777,1,0,0:0:0:0:
64,192,94777,1,0,0:0:0:0:
448,192,94886,1,0,0:0:0:0:
320,192,94886,1,0,0:0:0:0:
192,192,94886,1,0,0:0:0:0:
64,192,94886,1,0,0:0:0:0:
320,192,94994,1,0,0:0:0:0:
320,192,95103,1,0,0:0:0:0:
320,192,95212,1,0,0:0:0:0:
64,192,95212,1,0,0:0:0:0:
64,192,95320,1,0,0:0:0:0:
192,192,95320,1,0,0:0:0:0:
448,192,95320,1,0,0:0:0:0:
192,192,95429,1,0,0:0:0:0:
192,192,95538,1,0,0:0:0:0:
448,192,95538,1,0,0:0:0:0:
192,192,95646,1,0,0:0:0:0:
320,192,95755,1,0,0:0:0:0:
64,192,95755,1,0,0:0:0:0:
448,192,95755,1,0,0:0:0:0:
448,192,95864,1,0,0:0:0:0:
448,192,95973,1,0,0:0:0:0:
192,192,96081,1,0,0:0:0:0:
64,192,96081,1,0,0:0:0:0:
64,192,96190,1,0,0:0:0:0:
320,192,96190,1,0,0:0:0:0:
448,192,96190,1,0,0:0:0:0:
192,192,96299,1,0,0:0:0:0:
192,192,96407,1,0,0:0:0:0:
64,192,96407,1,0,0:0:0:0:
192,192,96516,1,0,0:0:0:0:
448,192,96625,1,0,0:0:0:0:
320,192,96625,1,0,0:0:0:0:
64,192,96625,1,0,0:0:0:0:
192,192,96733,1,0,0:0:0:0:
320,192,96733,1,0,0:0:0:0:
448,192,96842,1,0,0:0:0:0:
192,192,96842,1,0,0:0:0:0:
320,192,96951,1,0,0:0:0:0:
448,192,96951,1,0,0:0:0:0:
192,192,97060,1,0,0:0:0:0:
64,192,97060,1,0,0:0:0:0:
448,192,97060,1,0,0:0:0:0:
320,192,97168,1,0,0:0:0:0:
64,192,97168,1,0,0:0:0:0:
192,192,97277,1,0,0:0:0:0:
448,192,97277,1,0,0:0:0:0:
448,192,97386,1,0,0:0:0:0:
320,192,97386,1,0,0:0:0:0:
192,192,97494,1,0,0:0:0:0:
64,192,97494,1,0,0:0:0:0:
320,192,97494,1,0,0:0:0:0:
192,192,97603,1,0,0:0:0:0:
64,192,97603,1,0,0:0:0:0:
448,192,97712,1,0,0:0:0:0:
320,192,97712,1,0,0:0:0:0:
64,192,97820,1,0,0:0:0:0:
320,192,97820,1,0,0:0:0:0:
192,192,97929,1,0,0:0:0:0:
448,192,97929,1,0,0:0:0:0:
64,192,97929,1,0,0:0:0:0:
320,192,98038,1,0,0:0:0:0:
448,192,98038,1,0,0:0:0:0:
64,192,98146,1,0,0:0:0:0:
320,192,98146,1,0,0:0:0:0:
192,192,98255,1,0,0:0:0:0:
64,192,98255,1,0,0:0:0:0:
448,192,98364,1,0,0:0:0:0:
320,192,98364,1,0,0:0:0:0:
192,192,98364,1,0,0:0:0:0:
320,192,98473,1,0,0:0:0:0:
64,192,98473,1,0,0:0:0:0:
320,192,98581,1,0,0:0:0:0:
64,192,98690,1,0,0:0:0:0:
448,192,98690,1,0,0:0:0:0:
192,192,98799,1,0,0:0:0:0:
64,192,98799,1,0,0:0:0:0:
448,192,98799,1,0,0:0:0:0:
192,192,98907,1,0,0:0:0:0:
192,192,99016,1,0,0:0:0:0:
448,192,99016,1,0,0:0:0:0:
320,192,99125,1,0,0:0:0:0:
448,192,99233,1,0,0:0:0:0:
320,192,99233,1,0,0:0:0:0:
64,192,99233,1,0,0:0:0:0:
64,192,99342,1,0,0:0:0:0:
64,192,99451,1,0,0:0:0:0:
448,192,99451,1,0,0:0:0:0:
320,192,99560,1,0,0:0:0:0:
448,192,99668,1,0,0:0:0:0:
192,192,99668,1,0,0:0:0:0:
64,192,99668,1,0,0:0:0:0:
192,192,99777,1,0,0:0:0:0:
448,192,99886,1,0,0:0:0:0:
64,192,99886,1,0,0:0:0:0:
448,192,99994,1,0,0:0:0:0:
320,192,100103,1,0,0:0:0:0:
192,192,100103,1,0,0:0:0:0:
64,192,100103,1,0,0:0:0:0:
320,192,100212,1,0,0:0:0:0:
448,192,100212,1,0,0:0:0:0:
64,192,100320,1,0,0:0:0:0:
192,192,100320,1,0,0:0:0:0:
192,192,100429,1,0,0:0:0:0:
448,192,100429,1,0,0:0:0:0:
448,192,100538,1,0,0:0:0:0:
64,192,100538,1,0,0:0:0:0:
320,192,100538,1,0,0:0:0:0:
192,192,100646,1,0,0:0:0:0:
64,192,100646,1,0,0:0:0:0:
448,192,100755,1,0,0:0:0:0:
320,192,100755,1,0,0:0:0:0:
64,192,100864,1,0,0:0:0:0:
320,192,100864,1,0,0:0:0:0:
64,192,100973,1,0,0:0:0:0:
448,192,100973,1,0,0:0:0:0:
192,192,100973,1,0,0:0:0:0:
320,192,101081,1,0,0:0:0:0:
448,192,101081,1,0,0:0:0:0:
192,192,101190,1,0,0:0:0:0:
64,192,101190,1,0,0:0:0:0:
320,192,101299,1,0,0:0:0:0:
64,192,101299,1,0,0:0:0:0:
448,192,101407,1,0,0:0:0:0:
320,192,101407,1,0,0:0:0:0:
192,192,101407,1,0,0:0:0:0:
64,192,101516,1,0,0:0:0:0:
192,192,101516,1,0,0:0:0:0:
448,192,101625,1,0,0:0:0:0:
64,192,101625,1,0,0:0:0:0:
320,192,101733,1,0,0:0:0:0:
192,192,101733,1,0,0:0:0:0:
448,192,101842,1,0,0:0:0:0:
64,192,101842,1,0,0:0:0:0:
192,192,101842,1,0,0:0:0:0:
448,192,101951,1,0,0:0:0:0:
192,192,101951,1,0,0:0:0:0:
448,192,102060,1,0,0:0:0:0:
320,192,102168,1,0,0:0:0:0:
64,192,102168,1,0,0:0:0:0:
192,192,102277,1,0,0:0:0:0:
64,192,102277,1,0,0:0:0:0:
448,192,102277,1,0,0:0:0:0:
320,192,102386,1,0,0:0:0:0:
320,192,102494,1,0,0:0:0:0:
64,192,102494,1,0,0:0:0:0:
192,192,102603,1,0,0:0:0:0:
320,192,102712,1,0,0:0:0:0:
448,192,102712,1,0,0:0:0:0:
64,192,102712,1,0,0:0:0:0:
64,192,102820,1,0,0:0:0:0:
64,192,102929,1,0,0:0:0:0:
192,192,103038,1,0,0:0:0:0:
448,192,103038,1,0,0:0:0:0:
448,192,103146,1,0,0:0:0:0:
320,192,103146,1,0,0:0:0:0:
64,192,103146,1,0,0:0:0:0:
192,192,103255,1,0,0:0:0:0:
320,192,103364,1,0,0:0:0:0:
448,192,103364,1,0,0:0:0:0:
320,192,103473,1,0,0:0:0:0:
448,192,103581,1,0,0:0:0:0:
64,192,103581,1,0,0:0:0:0:
192,192,103581,1,0,0:0:0:0:
320,192,103690,1,0,0:0:0:0:
192,192,103690,1,0,0:0:0:0:
64,192,103799,1,0,0:0:0:0:
320,192,103907,1,0,0:0:0:0:
448,192,103907,1,0,0:0:0:0:
448,192,104016,1,0,0:0:0:0:
192,192,104016,1,0,0:0:0:0:
64,192,104016,1,0,0:0:0:0:
320,192,104125,1,0,0:0:0:0:
192,192,104233,1,0,0:0:0:0:
448,192,104233,1,0,0:0:0:0:
448,192,104342,1,0,0:0:0:0:
320,192,104451,1,0,0:0:0:0:
192,192,104451,1,0,0:0:0:0:
64,192,104451,1,0,0:0:0:0:
192,192,104560,1,0,0:0:0:0:
64,192,104668,1,0,0:0:0:0:
320,192,104777,1,0,0:0:0:0:
64,192,104777,1,0,0:0:0:0:
448,192,104886,1,0,0:0:0:0:
192,192,104886,1,0,0:0:0:0:
320,192,104886,1,0,0:0:0:0:
192,192,104994,1,0,0:0:0:0:
448,192,105103,1,0,0:0:0:0:
64,192,105103,1,0,0:0:0:0:
320,192,105212,1,0,0:0:0:0:
448,192,105320,1,0,0:0:0:0:
192,192,105320,1,0,0:0:0:0:
64,192,105320,1,0,0:0:0:0:
448,192,105429,1,0,0:0:0:0:
320,192,105429,1,0,0:0:0:0:
192,192,105538,1,0,0:0:0:0:
192,192,105646,1,0,0:0:0:0:
320,192,105646,1,0,0:0:0:0:
448,192,105755,1,0,0:0:0:0:
320,192,105755,1,0,0:0:0:0:
64,192,105755,1,0,0:0:0:0:
192,192,105864,1,0,0:0:0:0:
448,192,105973,1,0,0:0:0:0:
192,192,105973,1,0,0:0:0:0:
320,192,106081,1,0,0:0:0:0:
448,192,106190,1,0,0:0:0:0:
192,192,106190,1,0,0:0:0:0:
64,192,106190,1,0,0:0:0:0:
192,192,106299,1,0,0:0:0:0:
64,192,106407,1,0,0:0:0:0:
192,192,106516,1,0,0:0:0:0:
64,192,106516,1,0,0:0:0:0:
448,192,106625,1,0,0:0:0:0:
320,192,106625,1,0,0:0:0:0:
192,192,106625,1,0,0:0:0:0:
320,192,106733,1,0,0:0:0:0:
448,192,106842,1,0,0:0:0:0:
64,192,106842,1,0,0:0:0:0:
320,192,106951,1,0,0:0:0:0:
192,192,107060,1,0,0:0:0:0:
64,192,107060,1,0,0:0:0:0:
448,192,107060,1,0,0:0:0:0:
192,192,107168,1,0,0:0:0:0:
448,192,107168,1,0,0:0:0:0:
320,192,107277,1,0,0:0:0:0:
192,192,107386,1,0,0:0:0:0:
64,192,107386,1,0,0:0:0:0:
448,192,107494,1,0,0:0:0:0:
320,192,107494,1,0,0:0:0:0:
192,192,107494,1,0,0:0:0:0:
320,192,107603,1,0,0:0:0:0:
64,192,107712,1,0,0:0:0:0:
192,192,107712,1,0,0:0:0:0:
192,192,107820,1,0,0:0:0:0:
448,192,107929,1,0,0:0:0:0:
320,192,107929,1,0,0:0:0:0:
64,192,107929,1,0,0:0:0:0:
192,192,108038,1,0,0:0:0:0:
320,192,108146,1,0,0:0:0:0:
448,192,108255,1,0,0:0:0:0:
192,192,108255,1,0,0:0:0:0:
192,192,108364,1,0,0:0:0:0:
448,192,108364,1,0,0:0:0:0:
320,192,108364,1,0,0:0:0:0:
64,192,108473,1,0,0:0:0:0:
192,192,108581,1,0,0:0:0:0:
448,192,108581,1,0,0:0:0:0:
320,192,108690,1,0,0:0:0:0:
64,192,108690,1,0,0:0:0:0:
192,192,108799,1,0,0:0:0:0:
64,192,108799,1,0,0:0:0:0:
320,192,108799,1,0,0:0:0:0:
448,192,108799,1,0,0:0:0:0:
192,192,108907,1,0,0:0:0:0:
192,192,109016,1,0,0:0:0:0:
320,192,109125,1,0,0:0:0:0:
448,192,109125,1,0,0:0:0:0:
448,192,109233,1,0,0:0:0:0:
64,192,109233,1,0,0:0:0:0:
192,192,109233,1,0,0:0:0:0:
192,192,109342,1,0,0:0:0:0:
192,192,109451,1,0,0:0:0:0:
448,192,109451,1,0,0:0:0:0:
320,192,109560,1,0,0:0:0:0:
448,192,109668,1,0,0:0:0:0:
320,192,109668,1,0,0:0:0:0:
192,192,109668,1,0,0:0:0:0:
64,192,109668,1,0,0:0:0:0:
192,192,109777,1,0,0:0:0:0:
320,192,109886,1,0,0:0:0:0:
448,192,109994,1,0,0:0:0:0:
192,192,109994,1,0,0:0:0:0:
448,192,110103,1,0,0:0:0:0:
320,192,110103,1,0,0:0:0:0:
64,192,110103,1,0,0:0:0:0:
64,192,110212,1,0,0:0:0:0:
64,192,110320,1,0,0:0:0:0:
320,192,110320,1,0,0:0:0:0:
192,192,110429,1,0,0:0:0:0:
448,192,110538,1,0,0:0:0:0:
320,192,110538,1,0,0:0:0:0:
192,192,110538,1,0,0:0:0:0:
64,192,110538,1,0,0:0:0:0:
320,192,110646,1,0,0:0:0:0:
448,192,110646,1,0,0:0:0:0:
192,192,110755,1,0,0:0:0:0:
64,192,110864,1,0,0:0:0:0:
320,192,110864,1,0,0:0:0:0:
448,192,110973,1,0,0:0:0:0:
192,192,110973,1,0,0:0:0:0:
64,192,110973,1,0,0:0:0:0:
320,192,111081,1,0,0:0:0:0:
192,192,111081,1,0,0:0:0:0:
320,192,111190,1,0,0:0:0:0:
448,192,111190,1,0,0:0:0:0:
192,192,111299,1,0,0:0:0:0:
448,192,111407,1,0,0:0:0:0:
320,192,111407,1,0,0:0:0:0:
192,192,111407,1,0,0:0:0:0:
64,192,111407,1,0,0:0:0:0:
320,192,111516,1,0,0:0:0:0:
448,192,111516,1,0,0:0:0:0:
64,192,111625,1,0,0:0:0:0:
192,192,111625,1,0,0:0:0:0:
192,192,111733,1,0,0:0:0:0:
448,192,111733,1,0,0:0:0:0:
448,192,111842,1,0,0:0:0:0:
320,192,111842,1,0,0:0:0:0:
64,192,111842,1,0,0:0:0:0:
320,192,111951,1,0,0:0:0:0:
64,192,111951,1,0,0:0:0:0:
192,192,112060,1,0,0:0:0:0:
448,192,112060,1,0,0:0:0:0:
320,192,112168,1,0,0:0:0:0:
64,192,112168,1,0,0:0:0:0:
320,192,112277,1,0,0:0:0:0:
192,192,112277,1,0,0:0:0:0:
64,192,112277,1,0,0:0:0:0:
448,192,112277,1,0,0:0:0:0:
192,192,112386,1,0,0:0:0:0:
448,192,112386,1,0,0:0:0:0:
320,192,112494,1,0,0:0:0:0:
192,192,112603,1,0,0:0:0:0:
64,192,112603,1,0,0:0:0:0:
64,192,112712,1,0,0:0:0:0:
448,192,112712,1,0,0:0:0:0:
320,192,112712,1,0,0:0:0:0:
320,192,112820,1,0,0:0:0:0:
192,192,112929,1,0,0:0:0:0:
448,192,112929,1,0,0:0:0:0:
320,192,113038,1,0,0:0:0:0:
448,192,113146,1,0,0:0:0:0:
320,192,113146,1,0,0:0:0:0:
192,192,113146,1,0,0:0:0:0:
64,192,113146,1,0,0:0:0:0:
192,192,113255,1,0,0:0:0:0:
64,192,113364,1,0,0:0:0:0:
192,192,113473,1,0,0:0:0:0:
448,192,113473,1,0,0:0:0:0:
320,192,113581,1,0,0:0:0:0:
64,192,113581,1,0,0:0:0:0:
192,192,113581,1,0,0:0:0:0:
320,192,113690,1,0,0:0:0:0:
448,192,113799,1,0,0:0:0:0:
64,192,113799,1,0,0:0:0:0:
192,192,113907,1,0,0:0:0:0:
320,192,114016,1,0,0:0:0:0:
448,192,114016,1,0,0:0:0:0:
192,192,114016,1,0,0:0:0:0:
64,192,114016,1,0,0:0:0:0:
320,192,114125,1,0,0:0:0:0:
448,192,114125,1,0,0:0:0:0:
320,192,114233,1,0,0:0:0:0:
192,192,114342,1,0,0:0:0:0:
64,192,114342,1,0,0:0:0:0:
64,192,114451,1,0,0:0:0:0:
320,192,114451,1,0,0:0:0:0:
448,192,114451,1,0,0:0:0:0:
320,192,114560,1,0,0:0:0:0:
64,192,114668,1,0,0:0:0:0:
192,192,114668,1,0,0:0:0:0:
320,192,114777,1,0,0:0:0:0:
192,192,114886,1,0,0:0:0:0:
448,192,114886,1,0,0:0:0:0:
320,192,114886,1,0,0:0:0:0:
64,192,114886,1,0,0:0:0:0:
192,192,114994,1,0,0:0:0:0:
64,192,115103,1,0,0:0:0:0:
320,192,115103,1,0,0:0:0:0:
448,192,115212,1,0,0:0:0:0:
192,192,115320,1,0,0:0:0:0:
64,192,115320,1,0,0:0:0:0:
448,192,115320,1,0,0:0:0:0:
320,192,115429,1,0,0:0:0:0:
320,192,115538,1,0,0:0:0:0:
64,192,115538,1,0,0:0:0:0:
192,192,115646,1,0,0:0:0:0:
64,192,115755,1,0,0:0:0:0:
192,192,115755,1,0,0:0:0:0:
320,192,115755,1,0,0:0:0:0:
448,192,115755,1,0,0:0:0:0:
320,192,115864,1,0,0:0:0:0:
64,192,115864,1,0,0:0:0:0:
192,192,115973,1,0,0:0:0:0:
320,192,116081,1,0,0:0:0:0:
448,192,116081,1,0,0:0:0:0:
448,192,116190,1,0,0:0:0:0:
320,192,116190,1,0,0:0:0:0:
64,192,116190,1,0,0:0:0:0:
192,192,116299,1,0,0:0:0:0:
64,192,116407,1,0,0:0:0:0:
320,192,116407,1,0,0:0:0:0:
192,192,116516,1,0,0:0:0:0:
448,192,116625,1,0,0:0:0:0:
320,192,116625,1,0,0:0:0:0:
192,192,116625,1,0,0:0:0:0:
64,192,116625,1,0,0:0:0:0:
320,192,116733,1,0,0:0:0:0:
64,192,116842,1,0,0:0:0:0:
320,192,116951,1,0,0:0:0:0:
448,192,116951,1,0,0:0:0:0:
192,192,117060,1,0,0:0:0:0:
64,192,117060,1,0,0:0:0:0:
448,192,117060,1,0,0:0:0:0:
320,192,117168,1,0,0:0:0:0:
192,192,117277,1,0,0:0:0:0:
448,192,117277,1,0,0:0:0:0:
64,192,117386,1,0,0:0:0:0:
64,192,117494,1,0,0:0:0:0:
192,192,117494,1,0,0:0:0:0:
320,192,117494,1,0,0:0:0:0:
448,192,117494,1,0,0:0:0:0:
320,192,117603,1,0,0:0:0:0:
320,192,117712,1,0,0:0:0:0:
192,192,117820,1,0,0:0:0:0:
64,192,117820,1,0,0:0:0:0:
64,192,117929,1,0,0:0:0:0:
192,192,117929,1,0,0:0:0:0:
320,192,117929,1,0,0:0:0:0:
320,192,118038,1,0,0:0:0:0:
448,192,118146,1,0,0:0:0:0:
192,192,118146,1,0,0:0:0:0:
320,192,118255,1,0,0:0:0:0:
320,192,118364,1,0,0:0:0:0:
192,192,118364,1,0,0:0:0:0:
64,192,118364,1,0,0:0:0:0:
448,192,118364,1,0,0:0:0:0:
192,192,118473,1,0,0:0:0:0:
64,192,118581,1,0,0:0:0:0:
64,192,118690,1,0,0:0:0:0:
192,192,118690,1,0,0:0:0:0:
448,192,118799,1,0,0:0:0:0:
320,192,118799,1,0,0:0:0:0:
192,192,118799,1,0,0:0:0:0:
320,192,118907,1,0,0:0:0:0:
448,192,119016,1,0,0:0:0:0:
64,192,119016,1,0,0:0:0:0:
192,192,119125,1,0,0:0:0:0:
192,192,119233,1,0,0:0:0:0:
320,192,119233,1,0,0:0:0:0:
448,192,119233,1,0,0:0:0:0:
64,192,119233,1,0,0:0:0:0:
320,192,119342,1,0,0:0:0:0:
64,192,119451,1,0,0:0:0:0:
192,192,119560,1,0,0:0:0:0:
448,192,119560,1,0,0:0:0:0:
448,192,119668,1,0,0:0:0:0:
320,192,119668,1,0,0:0:0:0:
192,192,119668,1,0,0:0:0:0:
320,192,119777,1,0,0:0:0:0:
64,192,119886,1,0,0:0:0:0:
192,192,119886,1,0,0:0:0:0:
448,192,119994,1,0,0:0:0:0:
448,192,120103,1,0,0:0:0:0:
320,192,120103,1,0,0:0:0:0:
64,192,120103,1,0,0:0:0:0:
192,192,120103,1,0,0:0:0:0:
192,192,120212,1,0,0:0:0:0:
320,192,120320,1,0,0:0:0:0:
448,192,120320,1,0,0:0:0:0:
320,192,120429,1,0,0:0:0:0:
64,192,120538,1,0,0:0:0:0:
192,192,120538,1,0,0:0:0:0:
448,192,120538,1,0,0:0:0:0:
192,192,120646,1,0,0:0:0:0:
64,192,120755,1,0,0:0:0:0:
448,192,120755,1,0,0:0:0:0:
192,192,120864,1,0,0:0:0:0:
448,192,120973,1,0,0:0:0:0:
320,192,120973,1,0,0:0:0:0:
192,192,120973,1,0,0:0:0:0:
64,192,120973,1,0,0:0:0:0:
448,192,121081,1,0,0:0:0:0:
64,192,121081,1,0,0:0:0:0:
192,192,121190,1,0,0:0:0:0:
64,192,121299,1,0,0:0:0:0:
320,192,121299,1,0,0:0:0:0:
448,192,121407,1,0,0:0:0:0:
192,192,121407,1,0,0:0:0:0:
64,192,121407,1,0,0:0:0:0:
320,192,121516,1,0,0:0:0:0:
448,192,121625,1,0,0:0:0:0:
192,192,121625,1,0,0:0:0:0:
64,192,121733,1,0,0:0:0:0:
448,192,121842,1,0,0:0:0:0:
320,192,121842,1,0,0:0:0:0:
64,192,121842,1,0,0:0:0:0:
192,192,121842,1,0,0:0:0:0:
192,192,121951,1,0,0:0:0:0:
448,192,121951,1,0,0:0:0:0:
320,192,122060,1,0,0:0:0:0:
192,192,122168,1,0,0:0:0:0:
448,192,122277,1,0,0:0:0:0:
320,192,122277,1,0,0:0:0:0:
64,192,122277,1,0,0:0:0:0:
192,192,122277,1,0,0:0:0:0:
320,192,122386,1,0,0:0:0:0:
64,192,122494,1,0,0:0:0:0:
192,192,122603,1,0,0:0:0:0:
448,192,122712,1,0,0:0:0:0:
320,192,122712,1,0,0:0:0:0:
64,192,122712,1,0,0:0:0:0:
192,192,122820,1,0,0:0:0:0:
320,192,122929,1,0,0:0:0:0:
320,192,123038,1,0,0:0:0:0:
448,192,123146,1,0,0:0:0:0:
192,192,123146,1,0,0:0:0:0:
64,192,123146,1,0,0:0:0:0:
320,192,123255,1,0,0:0:0:0:
192,192,123364,1,0,0:0:0:0:
192,192,123473,1,0,0:0:0:0:
320,192,123581,1,0,0:0:0:0:
448,192,123581,1,0,0:0:0:0:
64,192,123581,1,0,0:0:0:0:
448,192,123690,1,0,0:0:0:0:
64,192,123799,1,0,0:0:0:0:
64,192,123907,1,0,0:0:0:0:
192,192,124016,1,0,0:0:0:0:
320,192,124016,1,0,0:0:0:0:
448,192,124016,1,0,0:0:0:0:
192,192,124125,1,0,0:0:0:0:
448,192,124233,1,0,0:0:0:0:
448,192,124342,1,0,0:0:0:0:
320,192,124451,1,0,0:0:0:0:
64,192,124451,1,0,0:0:0:0:
448,192,124451,1,0,0:0:0:0:
192,192,124560,1,0,0:0:0:0:
320,192,124668,1,0,0:0:0:0:
320,192,124777,1,0,0:0:0:0:
448,192,124886,1,0,0:0:0:0:
192,192,124886,1,0,0:0:0:0:
64,192,124886,1,0,0:0:0:0:
64,192,124994,1,0,0:0:0:0:
192,192,125103,1,0,0:0:0:0:
192,192,125212,1,0,0:0:0:0:
448,192,125320,1,0,0:0:0:0:
320,192,125320,1,0,0:0:0:0:
64,192,125320,1,0,0:0:0:0:
448,192,125429,1,0,0:0:0:0:
64,192,125538,1,0,0:0:0:0:
64,192,125646,1,0,0:0:0:0:
192,192,125755,1,0,0:0:0:0:
320,192,125755,1,0,0:0:0:0:
448,192,125755,1,0,0:0:0:0:
192,192,125864,1,0,0:0:0:0:
448,192,125973,1,0,0:0:0:0:
448,192,126081,1,0,0:0:0:0:
320,192,126190,1,0,0:0:0:0:
192,192,126190,1,0,0:0:0:0:
64,192,126190,1,0,0:0:0:0:
192,192,126299,1,0,0:0:0:0:
448,192,126299,1,0,0:0:0:0:
320,192,126407,1,0,0:0:0:0:
320,192,126516,1,0,0:0:0:0:
64,192,126516,1,0,0:0:0:0:
192,192,126625,1,0,0:0:0:0:
64,192,126625,1,0,0:0:0:0:
448,192,126625,1,0,0:0:0:0:
320,192,126733,1,0,0:0:0:0:
192,192,126842,1,0,0:0:0:0:
64,192,126842,1,0,0:0:0:0:
192,192,126951,1,0,0:0:0:0:
448,192,127060,1,0,0:0:0:0:
320,192,127060,1,0,0:0:0:0:
64,192,127060,1,0,0:0:0:0:
192,192,127168,1,0,0:0:0:0:
64,192,127168,1,0,0:0:0:0:
192,192,127277,1,0,0:0:0:0:
448,192,127386,1,0,0:0:0:0:
320,192,127386,1,0,0:0:0:0:
448,192,127494,1,0,0:0:0:0:
192,192,127494,1,0,0:0:0:0:
64,192,127494,1,0,0:0:0:0:
320,192,127603,1,0,0:0:0:0:
192,192,127712,1,0,0:0:0:0:
64,192,127712,1,0,0:0:0:0:
192,192,127820,1,0,0:0:0:0:
448,192,127820,1,0,0:0:0:0:
448,192,127929,1,0,0:0:0:0:
320,192,127929,1,0,0:0:0:0:
64,192,127929,1,0,0:0:0:0:
64,192,128038,1,0,0:0:0:0:
320,192,128038,1,0,0:0:0:0:
192,192,128146,1,0,0:0:0:0:
448,192,128255,1,0,0:0:0:0:
320,192,128255,1,0,0:0:0:0:
320,192,128364,1,0,0:0:0:0:
64,192,128364,1,0,0:0:0:0:
192,192,128364,1,0,0:0:0:0:
192,192,128473,1,0,0:0:0:0:
448,192,128581,1,0,0:0:0:0:
320,192,128581,1,0,0:0:0:0:
64,192,128690,1,0,0:0:0:0:
320,192,128690,1,0,0:0:0:0:
192,192,128799,1,0,0:0:0:0:
64,192,128799,1,0,0:0:0:0:
448,192,128799,1,0,0:0:0:0:
320,192,128907,1,0,0:0:0:0:
192,192,129016,1,0,0:0:0:0:
448,192,129016,1,0,0:0:0:0:
320,192,129125,1,0,0:0:0:0:
64,192,129125,1,0,0:0:0:0:
64,192,129233,1,0,0:0:0:0:
192,192,129233,1,0,0:0:0:0:
448,192,129233,1,0,0:0:0:0:
320,192,129342,1,0,0:0:0:0:
192,192,129451,1,0,0:0:0:0:
448,192,129451,1,0,0:0:0:0:
64,192,129560,1,0,0:0:0:0:
448,192,129668,1,0,0:0:0:0:
192,192,129668,1,0,0:0:0:0:
64,192,129668,1,0,0:0:0:0:
320,192,129777,1,0,0:0:0:0:
448,192,129886,1,0,0:0:0:0:
320,192,129886,1,0,0:0:0:0:
192,192,129994,1,0,0:0:0:0:
64,192,129994,1,0,0:0:0:0:
448,192,130103,1,0,0:0:0:0:
320,192,130103,1,0,0:0:0:0:
192,192,130103,1,0,0:0:0:0:
320,192,130212,1,0,0:0:0:0:
192,192,130320,1,0,0:0:0:0:
64,192,130320,1,0,0:0:0:0:
192,192,130429,1,0,0:0:0:0:
448,192,130429,1,0,0:0:0:0:
448,192,130538,1,0,0:0:0:0:
320,192,130538,1,0,0:0:0:0:
64,192,130538,1,0,0:0:0:0:
192,192,130646,1,0,0:0:0:0:
320,192,130755,1,0,0:0:0:0:
192,192,130755,1,0,0:0:0:0:
320,192,130864,1,0,0:0:0:0:
192,192,130973,1,0,0:0:0:0:
64,192,130973,1,0,0:0:0:0:
448,192,130973,1,0,0:0:0:0:
320,192,131081,1,0,0:0:0:0:
192,192,131190,1,0,0:0:0:0:
448,192,131190,1,0,0:0:0:0:
448,192,131299,1,0,0:0:0:0:
64,192,131299,1,0,0:0:0:0:
320,192,131407,1,0,0:0:0:0:
192,192,131407,1,0,0:0:0:0:
64,192,131407,1,0,0:0:0:0:
192,192,131516,1,0,0:0:0:0:
448,192,131625,1,0,0:0:0:0:
64,192,131625,1,0,0:0:0:0:
64,192,131733,1,0,0:0:0:0:
320,192,131733,1,0,0:0:0:0:
192,192,131842,1,0,0:0:0:0:
320,192,131842,1,0,0:0:0:0:
448,192,131842,1,0,0:0:0:0:
192,192,131951,1,0,0:0:0:0:
64,192,132060,1,0,0:0:0:0:
448,192,132060,1,0,0:0:0:0:
320,192,132060,1,0,0:0:0:0:
320,192,132168,1,0,0:0:0:0:
192,192,132277,1,0,0:0:0:0:
64,192,132277,1,0,0:0:0:0:
448,192,132277,1,0,0:0:0:0:
192,192,132386,1,0,0:0:0:0:
320,192,132494,1,0,0:0:0:0:
320,192,132603,1,0,0:0:0:0:
448,192,132712,1,0,0:0:0:0:
192,192,132712,1,0,0:0:0:0:
64,192,132712,1,0,0:0:0:0:
320,192,132820,1,0,0:0:0:0:
192,192,132929,1,0,0:0:0:0:
64,192,132929,1,0,0:0:0:0:
320,192,133038,1,0,0:0:0:0:
448,192,133038,1,0,0:0:0:0:
448,192,133146,1,0,0:0:0:0:
192,192,133146,1,0,0:0:0:0:
64,192,133146,1,0,0:0:0:0:
320,192,133255,1,0,0:0:0:0:
192,192,133364,1,0,0:0:0:0:
64,192,133364,1,0,0:0:0:0:
448,192,133473,1,0,0:0:0:0:
192,192,133473,1,0,0:0:0:0:
448,192,133581,1,0,0:0:0:0:
320,192,133581,1,0,0:0:0:0:
64,192,133581,1,0,0:0:0:0:
192,192,133690,1,0,0:0:0:0:
320,192,133799,1,0,0:0:0:0:
64,192,133799,1,0,0:0:0:0:
64,192,133907,1,0,0:0:0:0:
448,192,133907,1,0,0:0:0:0:
448,192,134016,1,0,0:0:0:0:
320,192,134016,1,0,0:0:0:0:
192,192,134016,1,0,0:0:0:0:
320,192,134125,1,0,0:0:0:0:
192,192,134233,1,0,0:0:0:0:
64,192,134233,1,0,0:0:0:0:
448,192,134342,1,0,0:0:0:0:
320,192,134342,1,0,0:0:0:0:
448,192,134451,1,0,0:0:0:0:
192,192,134451,1,0,0:0:0:0:
64,192,134451,1,0,0:0:0:0:
192,192,134560,1,0,0:0:0:0:
320,192,134668,1,0,0:0:0:0:
448,192,134668,1,0,0:0:0:0:
64,192,134777,1,0,0:0:0:0:
192,192,134777,1,0,0:0:0:0:
192,192,134886,1,0,0:0:0:0:
64,192,134886,1,0,0:0:0:0:
320,192,134886,1,0,0:0:0:0:
320,192,134994,1,0,0:0:0:0:
448,192,135103,1,0,0:0:0:0:
192,192,135103,1,0,0:0:0:0:
320,192,135212,1,0,0:0:0:0:
448,192,135212,1,0,0:0:0:0:
320,192,135320,1,0,0:0:0:0:
192,192,135320,1,0,0:0:0:0:
64,192,135320,1,0,0:0:0:0:
192,192,135429,1,0,0:0:0:0:
448,192,135538,1,0,0:0:0:0:
64,192,135538,1,0,0:0:0:0:
320,192,135646,1,0,0:0:0:0:
192,192,135646,1,0,0:0:0:0:
64,192,135755,1,0,0:0:0:0:
192,192,135755,1,0,0:0:0:0:
448,192,135755,1,0,0:0:0:0:
320,192,135864,1,0,0:0:0:0:
448,192,135864,1,0,0:0:0:0:
192,192,135973,1,0,0:0:0:0:
64,192,135973,1,0,0:0:0:0:
448,192,136026,1,0,0:0:0:0:
320,192,136026,1,0,0:0:0:0:
192,192,136081,1,0,0:0:0:0:
64,192,136081,1,0,0:0:0:0:
320,192,136190,1,0,0:0:0:0:
448,192,136190,1,0,0:0:0:0:
64,192,136190,1,0,0:0:0:0:
192,192,136299,1,0,0:0:0:0:
448,192,136407,1,0,0:0:0:0:
64,192,136407,1,0,0:0:0:0:
192,192,136516,1,0,0:0:0:0:
192,192,136625,1,0,0:0:0:0:
448,192,136625,1,0,0:0:0:0:
64,192,136625,1,0,0:0:0:0:
320,192,136733,1,0,0:0:0:0:
192,192,136842,1,0,0:0:0:0:
320,192,136951,1,0,0:0:0:0:
64,192,136951,1,0,0:0:0:0:
64,192,137060,1,0,0:0:0:0:
448,192,137060,1,0,0:0:0:0:
192,192,137060,1,0,0:0:0:0:
320,192,137060,1,0,0:0:0:0:
192,192,137168,1,0,0:0:0:0:
448,192,137277,1,0,0:0:0:0:
192,192,137277,1,0,0:0:0:0:
320,192,137386,1,0,0:0:0:0:
192,192,137494,1,0,0:0:0:0:
64,192,137494,1,0,0:0:0:0:
448,192,137494,1,0,0:0:0:0:
192,192,137603,1,0,0:0:0:0:
64,192,137712,1,0,0:0:0:0:
64,192,137820,1,0,0:0:0:0:
320,192,137820,1,0,0:0:0:0:
192,192,137929,1,0,0:0:0:0:
448,192,137929,1,0,0:0:0:0:
320,192,137929,1,0,0:0:0:0:
64,192,137929,1,0,0:0:0:0:
192,192,138038,1,0,0:0:0:0:
448,192,138146,1,0,0:0:0:0:
320,192,138146,1,0,0:0:0:0:
320,192,138255,1,0,0:0:0:0:
192,192,138364,1,0,0:0:0:0:
64,192,138364,1,0,0:0:0:0:
448,192,138364,1,0,0:0:0:0:
192,192,138473,1,0,0:0:0:0:
320,192,138581,1,0,0:0:0:0:
192,192,138690,1,0,0:0:0:0:
64,192,138690,1,0,0:0:0:0:
448,192,138799,1,0,0:0:0:0:
320,192,138799,1,0,0:0:0:0:
192,192,138799,1,0,0:0:0:0:
64,192,138799,1,0,0:0:0:0:
320,192,138907,1,0,0:0:0:0:
448,192,139016,1,0,0:0:0:0:
64,192,139016,1,0,0:0:0:0:
320,192,139125,1,0,0:0:0:0:
192,192,139233,1,0,0:0:0:0:
64,192,139233,1,0,0:0:0:0:
320,192,139233,1,0,0:0:0:0:
192,192,139342,1,0,0:0:0:0:
448,192,139451,1,0,0:0:0:0:
320,192,139560,1,0,0:0:0:0:
64,192,139560,1,0,0:0:0:0:
64,192,139668,1,0,0:0:0:0:
192,192,139668,1,0,0:0:0:0:
320,192,139668,1,0,0:0:0:0:
448,192,139668,1,0,0:0:0:0:
192,192,139777,1,0,0:0:0:0:
448,192,139886,1,0,0:0:0:0:
320,192,139886,1,0,0:0:0:0:
320,192,139994,1,0,0:0:0:0:
448,192,140103,1,0,0:0:0:0:
192,192,140103,1,0,0:0:0:0:
64,192,140103,1,0,0:0:0:0:
192,192,140212,1,0,0:0:0:0:
64,192,140320,1,0,0:0:0:0:
448,192,140429,1,0,0:0:0:0:
192,192,140429,1,0,0:0:0:0:
320,192,140538,1,0,0:0:0:0:
64,192,140538,1,0,0:0:0:0:
448,192,140538,1,0,0:0:0:0:
192,192,140538,1,0,0:0:0:0:
320,192,140646,1,0,0:0:0:0:
192,192,140755,1,0,0:0:0:0:
64,192,140755,1,0,0:0:0:0:
192,192,140864,1,0,0:0:0:0:
448,192,140973,1,0,0:0:0:0:
320,192,140973,1,0,0:0:0:0:
192,192,140973,1,0,0:0:0:0:
320,192,141081,1,0,0:0:0:0:
64,192,141190,1,0,0:0:0:0:
192,192,141299,1,0,0:0:0:0:
448,192,141299,1,0,0:0:0:0:
448,192,141407,1,0,0:0:0:0:
320,192,141407,1,0,0:0:0:0:
192,192,141407,1,0,0:0:0:0:
64,192,141407,1,0,0:0:0:0:
320,192,141516,1,0,0:0:0:0:
192,192,141625,1,0,0:0:0:0:
448,192,141625,1,0,0:0:0:0:
192,192,141733,1,0,0:0:0:0:
320,192,141842,1,0,0:0:0:0:
448,192,141842,1,0,0:0:0:0:
64,192,141842,1,0,0:0:0:0:
192,192,141951,1,0,0:0:0:0:
64,192,142060,1,0,0:0:0:0:
192,192,142168,1,0,0:0:0:0:
320,192,142168,1,0,0:0:0:0:
448,192,142277,1,0,0:0:0:0:
320,192,142277,1,0,0:0:0:0:
192,192,142277,1,0,0:0:0:0:
64,192,142277,1,0,0:0:0:0:
64,192,142386,1,0,0:0:0:0:
192,192,142494,1,0,0:0:0:0:
448,192,142494,1,0,0:0:0:0:
448,192,142603,1,0,0:0:0:0:
448,192,142712,1,0,0:0:0:0:
320,192,142712,1,0,0:0:0:0:
192,192,142712,1,0,0:0:0:0:
320,192,142820,1,0,0:0:0:0:
64,192,142929,1,0,0:0:0:0:
192,192,143038,1,0,0:0:0:0:
448,192,143038,1,0,0:0:0:0:
448,192,143146,1,0,0:0:0:0:
320,192,143146,1,0,0:0:0:0:
192,192,143146,1,0,0:0:0:0:
64,192,143146,1,0,0:0:0:0:
320,192,143255,1,0,0:0:0:0:
64,192,143364,1,0,0:0:0:0:
192,192,143364,1,0,0:0:0:0:
192,192,143473,1,0,0:0:0:0:
448,192,143581,1,0,0:0:0:0:
320,192,143581,1,0,0:0:0:0:
64,192,143581,1,0,0:0:0:0:
320,192,143690,1,0,0:0:0:0:
64,192,143799,1,0,0:0:0:0:
64,192,143907,1,0,0:0:0:0:
192,192,143907,1,0,0:0:0:0:
448,192,144016,1,0,0:0:0:0:
320,192,144016,1,0,0:0:0:0:
192,192,144016,1,0,0:0:0:0:
64,192,144016,1,0,0:0:0:0:
320,192,144125,1,0,0:0:0:0:
192,192,144233,1,0,0:0:0:0:
64,192,144233,1,0,0:0:0:0:
192,192,144342,1,0,0:0:0:0:
448,192,144451,1,0,0:0:0:0:
320,192,144451,1,0,0:0:0:0:
64,192,144451,1,0,0:0:0:0:
320,192,144560,1,0,0:0:0:0:
192,192,144668,1,0,0:0:0:0:
320,192,144777,1,0,0:0:0:0:
448,192,144777,1,0,0:0:0:0:
448,192,144886,1,0,0:0:0:0:
320,192,144886,1,0,0:0:0:0:
64,192,144886,1,0,0:0:0:0:
192,192,144886,1,0,0:0:0:0:
192,192,144994,1,0,0:0:0:0:
320,192,145103,1,0,0:0:0:0:
64,192,145103,1,0,0:0:0:0:
192,192,145212,1,0,0:0:0:0:
320,192,145320,1,0,0:0:0:0:
448,192,145320,1,0,0:0:0:0:
192,192,145320,1,0,0:0:0:0:
320,192,145429,1,0,0:0:0:0:
64,192,145538,1,0,0:0:0:0:
64,192,145646,1,0,0:0:0:0:
320,192,145646,1,0,0:0:0:0:
448,192,145755,1,0,0:0:0:0:
320,192,145755,1,0,0:0:0:0:
192,192,145755,1,0,0:0:0:0:
64,192,145755,1,0,0:0:0:0:
192,192,145864,1,0,0:0:0:0:
64,192,145973,1,0,0:0:0:0:
448,192,145973,1,0,0:0:0:0:
448,192,146081,1,0,0:0:0:0:
320,192,146190,1,0,0:0:0:0:
192,192,146190,1,0,0:0:0:0:
64,192,146190,1,0,0:0:0:0:
64,192,146299,1,0,0:0:0:0:
192,192,146407,1,0,0:0:0:0:
448,192,146516,1,0,0:0:0:0:
64,192,146516,1,0,0:0:0:0:
448,192,146625,1,0,0:0:0:0:
320,192,146625,1,0,0:0:0:0:
192,192,146625,1,0,0:0:0:0:
64,192,146625,1,0,0:0:0:0:
192,192,146733,1,0,0:0:0:0:
320,192,146842,1,0,0:0:0:0:
64,192,146842,1,0,0:0:0:0:
320,192,146951,1,0,0:0:0:0:
448,192,147060,1,0,0:0:0:0:
192,192,147060,1,0,0:0:0:0:
64,192,147060,1,0,0:0:0:0:
448,192,147168,1,0,0:0:0:0:
192,192,147277,1,0,0:0:0:0:
448,192,147386,1,0,0:0:0:0:
320,192,147386,1,0,0:0:0:0:
448,192,147494,1,0,0:0:0:0:
320,192,147494,1,0,0:0:0:0:
64,192,147494,1,0,0:0:0:0:
192,192,147494,1,0,0:0:0:0:
192,192,147603,1,0,0:0:0:0:
64,192,147712,1,0,0:0:0:0:
448,192,147712,1,0,0:0:0:0:
192,192,147820,1,0,0:0:0:0:
64,192,147929,1,0,0:0:0:0:
320,192,147929,1,0,0:0:0:0:
192,192,147929,1,0,0:0:0:0:
320,192,148038,1,0,0:0:0:0:
192,192,148146,1,0,0:0:0:0:
448,192,148255,1,0,0:0:0:0:
192,192,148255,1,0,0:0:0:0:
448,192,148364,1,0,0:0:0:0:
320,192,148364,1,0,0:0:0:0:
192,192,148364,1,0,0:0:0:0:
64,192,148364,1,0,0:0:0:0:
320,192,148473,1,0,0:0:0:0:
192,192,148581,1,0,0:0:0:0:
64,192,148581,1,0,0:0:0:0:
192,192,148690,1,0,0:0:0:0:
448,192,148799,1,0,0:0:0:0:
320,192,148799,1,0,0:0:0:0:
64,192,148799,1,0,0:0:0:0:
320,192,148907,1,0,0:0:0:0:
64,192,149016,1,0,0:0:0:0:
448,192,149016,1,0,0:0:0:0:
192,192,149125,1,0,0:0:0:0:
320,192,149125,1,0,0:0:0:0:
448,192,149233,1,0,0:0:0:0:
320,192,149233,1,0,0:0:0:0:
64,192,149233,1,0,0:0:0:0:
192,192,149233,1,0,0:0:0:0:
448,192,149342,1,0,0:0:0:0:
192,192,149451,1,0,0:0:0:0:
64,192,149451,1,0,0:0:0:0:
320,192,149560,1,0,0:0:0:0:
448,192,149668,1,0,0:0:0:0:
192,192,149668,1,0,0:0:0:0:
64,192,149668,1,0,0:0:0:0:
192,192,149777,1,0,0:0:0:0:
320,192,149886,1,0,0:0:0:0:
64,192,149886,1,0,0:0:0:0:
192,192,149994,1,0,0:0:0:0:
448,192,149994,1,0,0:0:0:0:
448,192,150103,1,0,0:0:0:0:
320,192,150103,1,0,0:0:0:0:
192,192,150103,1,0,0:0:0:0:
64,192,150103,1,0,0:0:0:0:
64,192,150212,1,0,0:0:0:0:
192,192,150320,1,0,0:0:0:0:
448,192,150320,1,0,0:0:0:0:
448,192,150429,1,0,0:0:0:0:
320,192,150538,1,0,0:0:0:0:
192,192,150538,1,0,0:0:0:0:
64,192,150538,1,0,0:0:0:0:
448,192,150538,1,0,0:0:0:0:
192,192,150646,1,0,0:0:0:0:
320,192,150755,1,0,0:0:0:0:
448,192,150864,1,0,0:0:0:0:
192,192,150864,1,0,0:0:0:0:
448,192,150973,1,0,0:0:0:0:
320,192,150973,1,0,0:0:0:0:
64,192,150973,1,0,0:0:0:0:
192,192,150973,1,0,0:0:0:0:
320,192,151081,1,0,0:0:0:0:
192,192,151190,1,0,0:0:0:0:
64,192,151190,1,0,0:0:0:0:
192,192,151299,1,0,0:0:0:0:
64,192,151407,1,0,0:0:0:0:
192,192,151407,1,0,0:0:0:0:
320,192,151407,1,0,0:0:0:0:
448,192,151407,1,0,0:0:0:0:
320,192,151516,1,0,0:0:0:0:
64,192,151625,1,0,0:0:0:0:
64,192,151733,1,0,0:0:0:0:
320,192,151733,1,0,0:0:0:0:
448,192,151842,1,0,0:0:0:0:
320,192,151842,1,0,0:0:0:0:
192,192,151842,1,0,0:0:0:0:
64,192,151842,1,0,0:0:0:0:
192,192,151951,1,0,0:0:0:0:
448,192,152060,1,0,0:0:0:0:
64,192,152060,1,0,0:0:0:0:
320,192,152168,1,0,0:0:0:0:
448,192,152277,1,0,0:0:0:0:
320,192,152277,1,0,0:0:0:0:
192,192,152277,1,0,0:0:0:0:
64,192,152277,1,0,0:0:0:0:
192,192,152386,1,0,0:0:0:0:
448,192,152494,1,0,0:0:0:0:
320,192,152603,1,0,0:0:0:0:
448,192,152603,1,0,0:0:0:0:
448,192,152712,1,0,0:0:0:0:
320,192,152712,1,0,0:0:0:0:
192,192,152712,1,0,0:0:0:0:
64,192,152712,1,0,0:0:0:0:
64,192,152820,1,0,0:0:0:0:
64,192,152929,1,0,0:0:0:0:
320,192,152929,1,0,0:0:0:0:
192,192,153038,1,0,0:0:0:0:
448,192,153146,1,0,0:0:0:0:
320,192,153146,1,0,0:0:0:0:
64,192,153146,1,0,0:0:0:0:
192,192,153146,1,0,0:0:0:0:
320,192,153255,1,0,0:0:0:0:
64,192,153364,1,0,0:0:0:0:
192,192,153473,1,0,0:0:0:0:
320,192,153473,1,0,0:0:0:0:
448,192,153581,1,0,0:0:0:0:
320,192,153581,1,0,0:0:0:0:
192,192,153581,1,0,0:0:0:0:
64,192,153581,1,0,0:0:0:0:
448,192,153690,1,0,0:0:0:0:
320,192,153799,1,0,0:0:0:0:
64,192,153799,1,0,0:0:0:0:
192,192,153907,1,0,0:0:0:0:
64,192,154016,1,0,0:0:0:0:
192,192,154016,1,0,0:0:0:0:
320,192,154016,1,0,0:0:0:0:
448,192,154016,1,0,0:0:0:0:
64,192,154125,1,0,0:0:0:0:
320,192,154233,1,0,0:0:0:0:
448,192,154342,1,0,0:0:0:0:
192,192,154342,1,0,0:0:0:0:
448,192,154451,1,0,0:0:0:0:
320,192,154451,1,0,0:0:0:0:
192,192,154451,1,0,0:0:0:0:
64,192,154451,1,0,0:0:0:0:
320,192,154560,1,0,0:0:0:0:
64,192,154668,1,0,0:0:0:0:
192,192,154668,1,0,0:0:0:0:
192,192,154777,1,0,0:0:0:0:
448,192,154886,1,0,0:0:0:0:
320,192,154886,1,0,0:0:0:0:
192,192,154886,1,0,0:0:0:0:
64,192,154886,1,0,0:0:0:0:
320,192,154994,1,0,0:0:0:0:
192,192,155103,1,0,0:0:0:0:
448,192,155212,1,0,0:0:0:0:
64,192,155212,1,0,0:0:0:0:
448,192,155320,1,0,0:0:0:0:
320,192,155320,1,0,0:0:0:0:
192,192,155320,1,0,0:0:0:0:
64,192,155320,1,0,0:0:0:0:
320,192,155429,1,0,0:0:0:0:
192,192,155538,1,0,0:0:0:0:
64,192,155538,1,0,0:0:0:0:
448,192,155646,1,0,0:0:0:0:
448,192,155755,1,0,0:0:0:0:
320,192,155755,1,0,0:0:0:0:
192,192,155755,1,0,0:0:0:0:
64,192,155755,1,0,0:0:0:0:
192,192,155864,1,0,0:0:0:0:
64,192,155973,1,0,0:0:0:0:
320,192,156081,1,0,0:0:0:0:
64,192,156081,1,0,0:0:0:0:
192,192,156190,1,0,0:0:0:0:
448,192,156190,1,0,0:0:0:0:
320,192,156190,1,0,0:0:0:0:
64,192,156190,1,0,0:0:0:0:
192,192,156299,1,0,0:0:0:0:
64,192,156407,1,0,0:0:0:0:
192,192,156407,1,0,0:0:0:0:
320,192,156516,1,0,0:0:0:0:
192,192,156625,1,0,0:0:0:0:
64,192,156625,1,0,0:0:0:0:
320,192,156625,1,0,0:0:0:0:
448,192,156625,1,0,0:0:0:0:
192,192,156733,1,0,0:0:0:0:
64,192,156842,1,0,0:0:0:0:
192,192,156951,1,0,0:0:0:0:
448,192,156951,1,0,0:0:0:0:
448,192,157060,1,0,0:0:0:0:
320,192,157060,1,0,0:0:0:0:
192,192,157060,1,0,0:0:0:0:
64,192,157060,1,0,0:0:0:0:
320,192,157168,1,0,0:0:0:0:
64,192,157277,1,0,0:0:0:0:
448,192,157277,1,0,0:0:0:0:
192,192,157386,1,0,0:0:0:0:
64,192,157494,1,0,0:0:0:0:
192,192,157494,1,0,0:0:0:0:
320,192,157494,1,0,0:0:0:0:
448,192,157494,1,0,0:0:0:0:
320,192,157603,1,0,0:0:0:0:
64,192,157712,1,0,0:0:0:0:
192,192,157820,1,0,0:0:0:0:
320,192,157820,1,0,0:0:0:0:
448,192,157929,1,0,0:0:0:0:
320,192,157929,1,0,0:0:0:0:
192,192,157929,1,0,0:0:0:0:
64,192,157929,1,0,0:0:0:0:
64,192,158038,1,0,0:0:0:0:
448,192,158146,1,0,0:0:0:0:
192,192,158146,1,0,0:0:0:0:
320,192,158255,1,0,0:0:0:0:
448,192,158364,1,0,0:0:0:0:
320,192,158364,1,0,0:0:0:0:
192,192,158364,1,0,0:0:0:0:
64,192,158364,1,0,0:0:0:0:
448,192,158473,1,0,0:0:0:0:
192,192,158581,1,0,0:0:0:0:
64,192,158690,1,0,0:0:0:0:
320,192,158690,1,0,0:0:0:0:
448,192,158799,1,0,0:0:0:0:
192,192,158799,1,0,0:0:0:0:
64,192,158799,1,0,0:0:0:0:
320,192,158799,1,0,0:0:0:0:
192,192,158907,1,0,0:0:0:0:
448,192,159016,1,0,0:0:0:0:
320,192,159016,1,0,0:0:0:0:
320,192,159125,1,0,0:0:0:0:
192,192,159233,1,0,0:0:0:0:
64,192,159233,1,0,0:0:0:0:
320,192,159233,1,0,0:0:0:0:
448,192,159233,1,0,0:0:0:0:
192,192,159342,1,0,0:0:0:0:
320,192,159451,1,0,0:0:0:0:
64,192,159560,1,0,0:0:0:0:
192,192,159560,1,0,0:0:0:0:
64,192,159668,1,0,0:0:0:0:
192,192,159668,1,0,0:0:0:0:
320,192,159668,1,0,0:0:0:0:
448,192,159668,1,0,0:0:0:0:
320,192,159777,1,0,0:0:0:0:
192,192,159886,1,0,0:0:0:0:
64,192,159886,1,0,0:0:0:0:
192,192,159994,1,0,0:0:0:0:
448,192,160103,1,0,0:0:0:0:
320,192,160103,1,0,0:0:0:0:
192,192,160103,1,0,0:0:0:0:
64,192,160103,1,0,0:0:0:0:
320,192,160212,1,0,0:0:0:0:
448,192,160320,1,0,0:0:0:0:
320,192,160429,1,0,0:0:0:0:
192,192,160429,1,0,0:0:0:0:
64,192,160538,1,0,0:0:0:0:
192,192,160538,1,0,0:0:0:0:
320,192,160538,1,0,0:0:0:0:
448,192,160538,1,0,0:0:0:0:
192,192,160646,1,0,0:0:0:0:
64,192,160755,1,0,0:0:0:0:
320,192,160755,1,0,0:0:0:0:
192,192,160864,1,0,0:0:0:0:
448,192,160973,1,0,0:0:0:0:
320,192,160973,1,0,0:0:0:0:
192,192,160973,1,0,0:0:0:0:
64,192,160973,1,0,0:0:0:0:
320,192,161081,1,0,0:0:0:0:
192,192,161190,1,0,0:0:0:0:
64,192,161299,1,0,0:0:0:0:
448,192,161299,1,0,0:0:0:0:
448,192,161407,1,0,0:0:0:0:
320,192,161407,1,0,0:0:0:0:
192,192,161407,1,0,0:0:0:0:
64,192,161407,1,0,0:0:0:0:
192,192,161516,1,0,0:0:0:0:
320,192,161625,1,0,0:0:0:0:
448,192,161625,1,0,0:0:0:0:
320,192,161733,1,0,0:0:0:0:
448,192,161842,1,0,0:0:0:0:
320,192,161842,1,0,0:0:0:0:
192,192,161842,1,0,0:0:0:0:
64,192,161842,1,0,0:0:0:0:
192,192,161951,1,0,0:0:0:0:
64,192,162060,1,0,0:0:0:0:
192,192,162168,1,0,0:0:0:0:
448,192,162168,1,0,0:0:0:0:
448,192,162277,1,0,0:0:0:0:
320,192,162277,1,0,0:0:0:0:
192,192,162277,1,0,0:0:0:0:
64,192,162277,1,0,0:0:0:0:
320,192,162386,1,0,0:0:0:0:
192,192,162494,1,0,0:0:0:0:
64,192,162494,1,0,0:0:0:0:
192,192,162603,1,0,0:0:0:0:
64,192,162712,1,0,0:0:0:0:
192,192,162712,1,0,0:0:0:0:
320,192,162712,1,0,0:0:0:0:
448,192,162712,1,0,0:0:0:0:
64,192,162820,1,0,0:0:0:0:
192,192,162929,1,0,0:0:0:0:
448,192,162929,1,0,0:0:0:0:
320,192,163038,1,0,0:0:0:0:
64,192,163038,1,0,0:0:0:0:
448,192,163146,1,0,0:0:0:0:
320,192,163146,1,0,0:0:0:0:
192,192,163146,1,0,0:0:0:0:
64,192,163146,1,0,0:0:0:0:
192,192,163255,1,0,0:0:0:0:
448,192,163255,1,0,0:0:0:0:
320,192,163364,1,0,0:0:0:0:
64,192,163364,1,0,0:0:0:0:
192,192,163473,1,0,0:0:0:0:
448,192,163581,1,0,0:0:0:0:
320,192,163581,1,0,0:0:0:0:
192,192,163581,1,0,0:0:0:0:
64,192,163581,1,0,0:0:0:0:
320,192,163690,1,0,0:0:0:0:
192,192,163799,1,0,0:0:0:0:
64,192,163799,1,0,0:0:0:0:
320,192,163907,1,0,0:0:0:0:
448,192,164016,1,0,0:0:0:0:
320,192,164016,1,0,0:0:0:0:
192,192,164016,1,0,0:0:0:0:
64,192,164016,1,0,0:0:0:0:
192,192,164125,1,0,0:0:0:0:
448,192,164233,1,0,0:0:0:0:
320,192,164233,1,0,0:0:0:0:
320,192,164342,1,0,0:0:0:0:
64,192,164451,1,0,0:0:0:0:
192,192,164451,1,0,0:0:0:0:
448,192,164451,1,0,0:0:0:0:
320,192,164451,1,0,0:0:0:0:
192,192,164560,1,0,0:0:0:0:
448,192,164560,1,0,0:0:0:0:
64,192,164668,1,0,0:0:0:0:
192,192,164777,1,0,0:0:0:0:
320,192,164777,1,0,0:0:0:0:
448,192,164886,1,0,0:0:0:0:
320,192,164886,1,0,0:0:0:0:
192,192,164886,1,0,0:0:0:0:
64,192,164886,1,0,0:0:0:0:
448,192,164994,1,0,0:0:0:0:
320,192,165103,1,0,0:0:0:0:
64,192,165103,1,0,0:0:0:0:
64,192,165212,1,0,0:0:0:0:
64,192,165320,1,0,0:0:0:0:
192,192,165320,1,0,0:0:0:0:
320,192,165320,1,0,0:0:0:0:
448,192,165320,1,0,0:0:0:0:
320,192,165429,1,0,0:0:0:0:
192,192,165538,1,0,0:0:0:0:
64,192,165538,1,0,0:0:0:0:
448,192,165646,1,0,0:0:0:0:
320,192,165646,1,0,0:0:0:0:
448,192,165755,1,0,0:0:0:0:
320,192,165755,1,0,0:0:0:0:
192,192,165755,1,0,0:0:0:0:
64,192,165755,1,0,0:0:0:0:
192,192,165864,1,0,0:0:0:0:
448,192,165973,1,0,0:0:0:0:
320,192,165973,1,0,0:0:0:0:
320,192,166081,1,0,0:0:0:0:
448,192,166190,1,0,0:0:0:0:
192,192,166190,1,0,0:0:0:0:
64,192,166190,1,0,0:0:0:0:
320,192,166190,1,0,0:0:0:0:
192,192,166299,1,0,0:0:0:0:
64,192,166299,1,0,0:0:0:0:
320,192,166407,1,0,0:0:0:0:
448,192,166516,1,0,0:0:0:0:
64,192,166516,1,0,0:0:0:0:
64,192,166625,1,0,0:0:0:0:
192,192,166625,1,0,0:0:0:0:
320,192,166625,1,0,0:0:0:0:
448,192,166625,1,0,0:0:0:0:
320,192,166733,1,0,0:0:0:0:
192,192,166842,1,0,0:0:0:0:
64,192,166842,1,0,0:0:0:0:
320,192,166951,1,0,0:0:0:0:
448,192,167060,1,0,0:0:0:0:
320,192,167060,1,0,0:0:0:0:
192,192,167060,1,0,0:0:0:0:
64,192,167060,1,0,0:0:0:0:
192,192,167168,1,0,0:0:0:0:
64,192,167277,1,0,0:0:0:0:
448,192,167277,1,0,0:0:0:0:
320,192,167386,1,0,0:0:0:0:
64,192,167386,1,0,0:0:0:0:
192,192,167494,1,0,0:0:0:0:
64,192,167494,1,0,0:0:0:0:
320,192,167494,1,0,0:0:0:0:
448,192,167494,1,0,0:0:0:0:
192,192,167603,1,0,0:0:0:0:
320,192,167712,1,0,0:0:0:0:
448,192,167712,1,0,0:0:0:0:
448,192,167820,1,0,0:0:0:0:
448,192,167929,1,0,0:0:0:0:
320,192,167929,1,0,0:0:0:0:
192,192,167929,1,0,0:0:0:0:
64,192,167929,1,0,0:0:0:0:
192,192,168038,1,0,0:0:0:0:
320,192,168038,1,0,0:0:0:0:
64,192,168146,1,0,0:0:0:0:
192,192,168255,1,0,0:0:0:0:
448,192,168255,1,0,0:0:0:0:
448,192,168364,1,0,0:0:0:0:
320,192,168364,1,0,0:0:0:0:
192,192,168364,1,0,0:0:0:0:
64,192,168364,1,0,0:0:0:0:
320,192,168473,1,0,0:0:0:0:
192,192,168581,1,0,0:0:0:0:
448,192,168581,1,0,0:0:0:0:
64,192,168690,1,0,0:0:0:0:
448,192,168799,1,0,0:0:0:0:
320,192,168799,1,0,0:0:0:0:
192,192,168799,1,0,0:0:0:0:
64,192,168799,1,0,0:0:0:0:
192,192,168907,1,0,0:0:0:0:
448,192,169016,1,0,0:0:0:0:
320,192,169016,1,0,0:0:0:0:
192,192,169125,1,0,0:0:0:0:
320,192,169125,1,0,0:0:0:0:
448,192,169233,1,0,0:0:0:0:
192,192,169233,1,0,0:0:0:0:
64,192,169233,1,0,0:0:0:0:
320,192,169233,1,0,0:0:0:0:
64,192,169342,1,0,0:0:0:0:
192,192,169451,1,0,0:0:0:0:
448,192,169451,1,0,0:0:0:0:
448,192,169560,1,0,0:0:0:0:
448,192,169668,1,0,0:0:0:0:
320,192,169668,1,0,0:0:0:0:
192,192,169668,1,0,0:0:0:0:
64,192,169668,1,0,0:0:0:0:
192,192,169777,1,0,0:0:0:0:
64,192,169777,1,0,0:0:0:0:
320,192,169886,1,0,0:0:0:0:
448,192,169994,1,0,0:0:0:0:
192,192,169994,1,0,0:0:0:0:
448,192,170103,1,0,0:0:0:0:
320,192,170103,1,0,0:0:0:0:
192,192,170103,1,0,0:0:0:0:
64,192,170103,1,0,0:0:0:0:
320,192,170212,1,0,0:0:0:0:
64,192,170320,1,0,0:0:0:0:
192,192,170320,1,0,0:0:0:0:
192,192,170429,1,0,0:0:0:0:
64,192,170538,1,0,0:0:0:0:
192,192,170538,1,0,0:0:0:0:
320,192,170538,1,0,0:0:0:0:
448,192,170538,1,0,0:0:0:0:
320,192,170646,1,0,0:0:0:0:
192,192,170755,1,0,0:0:0:0:
64,192,170755,1,0,0:0:0:0:
192,192,170864,1,0,0:0:0:0:
448,192,170864,1,0,0:0:0:0:
448,192,170973,1,0,0:0:0:0:
320,192,170973,1,0,0:0:0:0:
192,192,170973,1,0,0:0:0:0:
64,192,170973,1,0,0:0:0:0:
320,192,171081,1,0,0:0:0:0:
64,192,171190,1,0,0:0:0:0:
192,192,171190,1,0,0:0:0:0:
448,192,171299,1,0,0:0:0:0:
64,192,171407,1,0,0:0:0:0:
192,192,171407,1,0,0:0:0:0:
320,192,171407,1,0,0:0:0:0:
448,192,171407,1,0,0:0:0:0:
64,192,171516,1,0,0:0:0:0:
320,192,171516,1,0,0:0:0:0:
192,192,171625,1,0,0:0:0:0:
448,192,171733,1,0,0:0:0:0:
192,192,171733,1,0,0:0:0:0:
448,192,171842,1,0,0:0:0:0:
320,192,171842,1,0,0:0:0:0:
192,192,171842,1,0,0:0:0:0:
64,192,171842,1,0,0:0:0:0:
320,192,171951,1,0,0:0:0:0:
64,192,172060,1,0,0:0:0:0:
448,192,172060,1,0,0:0:0:0:
192,192,172168,1,0,0:0:0:0:
64,192,172277,1,0,0:0:0:0:
192,192,172277,1,0,0:0:0:0:
448,192,172277,1,0,0:0:0:0:
320,192,172277,1,0,0:0:0:0:
320,192,172386,1,0,0:0:0:0:
192,192,172494,1,0,0:0:0:0:
448,192,172494,1,0,0:0:0:0:
448,192,172603,1,0,0:0:0:0:
320,192,172603,1,0,0:0:0:0:
448,192,172712,1,0,0:0:0:0:
320,192,172712,1,0,0:0:0:0:
192,192,172712,1,0,0:0:0:0:
64,192,172712,1,0,0:0:0:0:
192,192,172820,1,0,0:0:0:0:
64,192,172929,1,0,0:0:0:0:
448,192,172929,1,0,0:0:0:0:
320,192,173038,1,0,0:0:0:0:
448,192,173146,1,0,0:0:0:0:
192,192,173146,1,0,0:0:0:0:
320,192,173146,1,0,0:0:0:0:
64,192,173146,1,0,0:0:0:0:
64,192,173255,1,0,0:0:0:0:
192,192,173255,1,0,0:0:0:0:
320,192,173364,1,0,0:0:0:0:
64,192,173473,1,0,0:0:0:0:
192,192,173473,1,0,0:0:0:0:
64,192,173581,1,0,0:0:0:0:
192,192,173581,1,0,0:0:0:0:
320,192,173581,1,0,0:0:0:0:
448,192,173581,1,0,0:0:0:0:
320,192,173690,1,0,0:0:0:0:
448,192,173799,1,0,0:0:0:0:
64,192,173799,1,0,0:0:0:0:
192,192,173907,1,0,0:0:0:0:
320,192,174016,1,0,0:0:0:0:
448,192,174016,1,0,0:0:0:0:
64,192,174016,1,0,0:0:0:0:
192,192,174016,1,0,0:0:0:0:
320,192,174125,1,0,0:0:0:0:
448,192,174233,1,0,0:0:0:0:
192,192,174233,1,0,0:0:0:0:
320,192,174342,1,0,0:0:0:0:
64,192,174342,1,0,0:0:0:0:
64,192,174451,1,0,0:0:0:0:
192,192,174451,1,0,0:0:0:0:
320,192,174451,1,0,0:0:0:0:
448,192,174451,1,0,0:0:0:0:
192,192,174560,1,0,0:0:0:0:
448,192,174668,1,0,0:0:0:0:
320,192,174668,1,0,0:0:0:0:
192,192,174777,1,0,0:0:0:0:
64,192,174886,1,0,0:0:0:0:
192,192,174886,1,0,0:0:0:0:
320,192,174886,1,0,0:0:0:0:
448,192,174886,1,0,0:0:0:0:
320,192,174994,1,0,0:0:0:0:
448,192,174994,1,0,0:0:0:0:
192,192,175103,1,0,0:0:0:0:
320,192,175212,1,0,0:0:0:0:
448,192,175212,1,0,0:0:0:0:
448,192,175320,1,0,0:0:0:0:
320,192,175320,1,0,0:0:0:0:
192,192,175320,1,0,0:0:0:0:
64,192,175320,1,0,0:0:0:0:
192,192,175429,1,0,0:0:0:0:
64,192,175538,1,0,0:0:0:0:
448,192,175538,1,0,0:0:0:0:
320,192,175646,1,0,0:0:0:0:
192,192,175755,1,0,0:0:0:0:
64,192,175755,1,0,0:0:0:0:
448,192,175755,1,0,0:0:0:0:
320,192,175755,1,0,0:0:0:0:
192,192,175864,1,0,0:0:0:0:
64,192,175973,1,0,0:0:0:0:
320,192,175973,1,0,0:0:0:0:
192,192,176081,1,0,0:0:0:0:
320,192,176081,1,0,0:0:0:0:
448,192,176190,1,0,0:0:0:0:
320,192,176190,1,0,0:0:0:0:
192,192,176190,1,0,0:0:0:0:
64,192,176190,1,0,0:0:0:0:
64,192,176299,1,0,0:0:0:0:
192,192,176407,1,0,0:0:0:0:
448,192,176407,1,0,0:0:0:0:
320,192,176516,1,0,0:0:0:0:
448,192,176625,1,0,0:0:0:0:
320,192,176625,1,0,0:0:0:0:
192,192,176625,1,0,0:0:0:0:
64,192,176625,1,0,0:0:0:0:
192,192,176733,1,0,0:0:0:0:
64,192,176733,1,0,0:0:0:0:
192,192,176842,1,0,0:0:0:0:
448,192,176951,1,0,0:0:0:0:
320,192,176951,1,0,0:0:0:0:
448,192,177060,1,0,0:0:0:0:
320,192,177060,1,0,0:0:0:0:
192,192,177060,1,0,0:0:0:0:
64,192,177060,1,0,0:0:0:0:
192,192,177277,1,0,0:0:0:0:
64,192,177277,1,0,0:0:0:0:
192,192,177386,1,0,0:0:0:0:
320,192,177494,1,0,0:0:0:0:
448,192,177494,1,0,0:0:0:0:
192,192,177494,1,0,0:0:0:0:
64,192,177494,1,0,0:0:0:0:
320,192,177657,1,0,0:0:0:0:
448,192,177657,1,0,0:0:0:0:
64,192,177712,1,0,0:0:0:0:
192,192,177712,1,0,0:0:0:0:
320,192,177766,1,0,0:0:0:0:
448,192,177766,1,0,0:0:0:0:
192,192,177820,1,0,0:0:0:0:
64,192,177820,1,0,0:0:0:0:
448,192,177929,1,0,0:0:0:0:
320,192,177929,1,0,0:0:0:0:
192,192,177929,1,0,0:0:0:0:
64,192,177929,1,0,0:0:0:0:
320,192,178038,1,0,0:0:0:0:
192,192,178146,1,0,0:0:0:0:
64,192,178146,1,0,0:0:0:0:
192,192,178255,1,0,0:0:0:0:
448,192,178364,1,0,0:0:0:0:
320,192,178364,1,0,0:0:0:0:
64,192,178364,1,0,0:0:0:0:
320,192,178473,1,0,0:0:0:0:
320,192,178581,1,0,0:0:0:0:
64,192,178581,1,0,0:0:0:0:
192,192,178690,1,0,0:0:0:0:
448,192,178690,1,0,0:0:0:0:
64,192,178799,1,0,0:0:0:0:
320,192,178799,1,0,0:0:0:0:
192,192,178907,1,0,0:0:0:0:
192,192,179016,1,0,0:0:0:0:
448,192,179016,1,0,0:0:0:0:
320,192,179125,1,0,0:0:0:0:
448,192,179125,1,0,0:0:0:0:
192,192,179233,1,0,0:0:0:0:
64,192,179233,1,0,0:0:0:0:
192,192,179342,1,0,0:0:0:0:
448,192,179451,1,0,0:0:0:0:
64,192,179451,1,0,0:0:0:0:
320,192,179560,1,0,0:0:0:0:
448,192,179560,1,0,0:0:0:0:
192,192,179668,1,0,0:0:0:0:
64,192,179668,1,0,0:0:0:0:
192,192,179777,1,0,0:0:0:0:
64,192,179886,1,0,0:0:0:0:
320,192,179886,1,0,0:0:0:0:
192,192,179994,1,0,0:0:0:0:
448,192,179994,1,0,0:0:0:0:
64,192,180103,1,0,0:0:0:0:
448,192,180103,1,0,0:0:0:0:
320,192,180212,1,0,0:0:0:0:
320,192,180320,1,0,0:0:0:0:
64,192,180320,1,0,0:0:0:0:
192,192,180429,1,0,0:0:0:0:
64,192,180429,1,0,0:0:0:0:
448,192,180538,1,0,0:0:0:0:
192,192,180538,1,0,0:0:0:0:
320,192,180646,1,0,0:0:0:0:
192,192,180755,1,0,0:0:0:0:
448,192,180755,1,0,0:0:0:0:
64,192,180864,1,0,0:0:0:0:
320,192,180864,1,0,0:0:0:0:
192,192,180973,1,0,0:0:0:0:
64,192,180973,1,0,0:0:0:0:
320,192,181081,1,0,0:0:0:0:
192,192,181190,1,0,0:0:0:0:
448,192,181190,1,0,0:0:0:0:
320,192,181299,1,0,0:0:0:0:
64,192,181299,1,0,0:0:0:0:
192,192,181407,1,0,0:0:0:0:
448,192,181407,1,0,0:0:0:0:
448,192,181516,1,0,0:0:0:0:
64,192,181625,1,0,0:0:0:0:
192,192,181625,1,0,0:0:0:0:
320,192,181733,1,0,0:0:0:0:
448,192,181733,1,0,0:0:0:0:
192,192,181842,1,0,0:0:0:0:
64,192,181842,1,0,0:0:0:0:
320,192,181951,1,0,0:0:0:0:
448,192,182060,1,0,0:0:0:0:
64,192,182060,1,0,0:0:0:0:
192,192,182168,1,0,0:0:0:0:
320,192,182168,1,0,0:0:0:0:
448,192,182277,1,0,0:0:0:0:
64,192,182277,1,0,0:0:0:0:
320,192,182386,1,0,0:0:0:0:
64,192,182494,1,0,0:0:0:0:
192,192,182494,1,0,0:0:0:0:
320,192,182603,1,0,0:0:0:0:
448,192,182603,1,0,0:0:0:0:
64,192,182712,1,0,0:0:0:0:
192,192,182712,1,0,0:0:0:0:
320,192,182820,1,0,0:0:0:0:
448,192,182929,1,0,0:0:0:0:
192,192,182929,1,0,0:0:0:0:
192,192,183038,1,0,0:0:0:0:
64,192,183038,1,0,0:0:0:0:
64,192,183146,1,0,0:0:0:0:
448,192,183146,1,0,0:0:0:0:
320,192,183255,1,0,0:0:0:0:
192,192,183364,1,0,0:0:0:0:
64,192,183364,1,0,0:0:0:0:
192,192,183473,1,0,0:0:0:0:
448,192,183473,1,0,0:0:0:0:
448,192,183581,1,0,0:0:0:0:
320,192,183581,1,0,0:0:0:0:
192,192,183690,1,0,0:0:0:0:
64,192,183799,1,0,0:0:0:0:
320,192,183799,1,0,0:0:0:0:
448,192,183907,1,0,0:0:0:0:
192,192,183907,1,0,0:0:0:0:
320,192,184016,1,0,0:0:0:0:
192,192,184016,1,0,0:0:0:0:
64,192,184125,1,0,0:0:0:0:
64,192,184233,1,0,0:0:0:0:
448,192,184233,1,0,0:0:0:0:
320,192,184342,1,0,0:0:0:0:
192,192,184342,1,0,0:0:0:0:
448,192,184451,1,0,0:0:0:0:
320,192,184451,1,0,0:0:0:0:
192,192,184560,1,0,0:0:0:0:
64,192,184668,1,0,0:0:0:0:
320,192,184668,1,0,0:0:0:0:
448,192,184777,1,0,0:0:0:0:
320,192,184777,1,0,0:0:0:0:
192,192,184886,1,0,0:0:0:0:
64,192,184886,1,0,0:0:0:0:
192,192,184994,1,0,0:0:0:0:
448,192,185103,1,0,0:0:0:0:
64,192,185103,1,0,0:0:0:0:
320,192,185212,1,0,0:0:0:0:
192,192,185212,1,0,0:0:0:0:
64,192,185320,1,0,0:0:0:0:
448,192,185320,1,0,0:0:0:0:
192,192,185320,1,0,0:0:0:0:
320,192,185429,1,0,0:0:0:0:
192,192,185538,1,0,0:0:0:0:
64,192,185538,1,0,0:0:0:0:
320,192,185646,1,0,0:0:0:0:
448,192,185646,1,0,0:0:0:0:
64,192,185755,1,0,0:0:0:0:
192,192,185755,1,0,0:0:0:0:
192,192,185864,1,0,0:0:0:0:
448,192,185973,1,0,0:0:0:0:
64,192,185973,1,0,0:0:0:0:
192,192,186081,1,0,0:0:0:0:
320,192,186081,1,0,0:0:0:0:
448,192,186190,1,0,0:0:0:0:
64,192,186190,1,0,0:0:0:0:
192,192,186299,1,0,0:0:0:0:
320,192,186407,1,0,0:0:0:0:
448,192,186407,1,0,0:0:0:0:
192,192,186516,1,0,0:0:0:0:
64,192,186516,1,0,0:0:0:0:
448,192,186625,1,0,0:0:0:0:
320,192,186625,1,0,0:0:0:0:
192,192,186733,1,0,0:0:0:0:
64,192,186842,1,0,0:0:0:0:
320,192,186842,1,0,0:0:0:0:
192,192,186951,1,0,0:0:0:0:
448,192,186951,1,0,0:0:0:0:
64,192,187060,1,0,0:0:0:0:
320,192,187060,1,0,0:0:0:0:
448,192,187060,1,0,0:0:0:0:
192,192,187168,1,0,0:0:0:0:
320,192,187277,1,0,0:0:0:0:
448,192,187277,1,0,0:0:0:0:
192,192,187386,1,0,0:0:0:0:
64,192,187386,1,0,0:0:0:0:
448,192,187494,1,0,0:0:0:0:
64,192,187494,1,0,0:0:0:0:
192,192,187603,1,0,0:0:0:0:
320,192,187712,1,0,0:0:0:0:
448,192,187712,1,0,0:0:0:0:
320,192,187820,1,0,0:0:0:0:
64,192,187820,1,0,0:0:0:0:
448,192,187929,1,0,0:0:0:0:
192,192,187929,1,0,0:0:0:0:
192,192,188038,1,0,0:0:0:0:
64,192,188146,1,0,0:0:0:0:
448,192,188146,1,0,0:0:0:0:
320,192,188255,1,0,0:0:0:0:
192,192,188255,1,0,0:0:0:0:
64,192,188364,1,0,0:0:0:0:
192,192,188364,1,0,0:0:0:0:
320,192,188473,1,0,0:0:0:0:
64,192,188581,1,0,0:0:0:0:
192,192,188581,1,0,0:0:0:0:
320,192,188690,1,0,0:0:0:0:
448,192,188690,1,0,0:0:0:0:
192,192,188799,1,0,0:0:0:0:
64,192,188799,1,0,0:0:0:0:
448,192,188799,1,0,0:0:0:0:
320,192,188907,1,0,0:0:0:0:
192,192,189016,1,0,0:0:0:0:
448,192,189016,1,0,0:0:0:0:
64,192,189125,1,0,0:0:0:0:
320,192,189125,1,0,0:0:0:0:
448,192,189233,1,0,0:0:0:0:
192,192,189233,1,0,0:0:0:0:
320,192,189342,1,0,0:0:0:0:
64,192,189451,1,0,0:0:0:0:
192,192,189451,1,0,0:0:0:0:
192,192,189560,1,0,0:0:0:0:
320,192,189560,1,0,0:0:0:0:
448,192,189668,1,0,0:0:0:0:
64,192,189668,1,0,0:0:0:0:
192,192,189777,1,0,0:0:0:0:
448,192,189886,1,0,0:0:0:0:
64,192,189886,1,0,0:0:0:0:
320,192,189994,1,0,0:0:0:0:
64,192,189994,1,0,0:0:0:0:
192,192,190103,1,0,0:0:0:0:
448,192,190103,1,0,0:0:0:0:
192,192,190212,1,0,0:0:0:0:
64,192,190320,1,0,0:0:0:0:
320,192,190320,1,0,0:0:0:0:
448,192,190429,1,0,0:0:0:0:
192,192,190429,1,0,0:0:0:0:
448,192,190538,1,0,0:0:0:0:
320,192,190538,1,0,0:0:0:0:
64,192,190538,1,0,0:0:0:0:
192,192,190646,1,0,0:0:0:0:
64,192,190646,1,0,0:0:0:0:
320,192,190755,1,0,0:0:0:0:
320,192,190864,1,0,0:0:0:0:
64,192,190864,1,0,0:0:0:0:
192,192,190864,1,0,0:0:0:0:
192,192,190973,1,0,0:0:0:0:
320,192,191081,1,0,0:0:0:0:
64,192,191081,1,0,0:0:0:0:
448,192,191081,1,0,0:0:0:0:
320,192,191190,1,0,0:0:0:0:
192,192,191190,1,0,0:0:0:0:
192,192,191299,1,0,0:0:0:0:
64,192,191407,1,0,0:0:0:0:
448,192,191407,1,0,0:0:0:0:
320,192,191516,1,0,0:0:0:0:
448,192,191625,1,0,0:0:0:0:
192,192,191625,1,0,0:0:0:0:
64,192,191625,1,0,0:0:0:0:
320,192,191733,1,0,0:0:0:0:
192,192,191842,1,0,0:0:0:0:
64,192,191842,1,0,0:0:0:0:
320,192,191842,1,0,0:0:0:0:
192,192,191951,1,0,0:0:0:0:
448,192,192060,1,0,0:0:0:0:
64,192,192060,1,0,0:0:0:0:
192,192,192168,1,0,0:0:0:0:
320,192,192168,1,0,0:0:0:0:
448,192,192168,1,0,0:0:0:0:
64,192,192277,1,0,0:0:0:0:
192,192,192277,1,0,0:0:0:0:
320,192,192277,1,0,0:0:0:0:
448,192,192277,1,0,0:0:0:0:
