osu file format v14

[General]
AudioFilename: audio 1.050x.mp3
AudioLeadIn: 0
PreviewTime: 0
Countdown: 0
SampleSet: None
StackLeniency: 0.7
Mode: 3
LetterboxInBreaks: 0
SpecialStyle: 0
WidescreenStoryboard: 1

[Editor]
DistanceSpacing: 0.6
BeatDivisor: 4
GridSize: 4
TimelineZoom: 2.1

[Metadata]
Title:Nina Bonita
TitleUnicode:NiƱa Bonita
Artist:Chino y Nacho
ArtistUnicode:Chino y Nacho
Creator:Mieruosu
Version:Jacks 1.05x (126bpm)
Source:
Tags:osutrainer
BeatmapID:4537577
BeatmapSetID:2153513

[Difficulty]
HPDrainRate:7
CircleSize:4
OverallDifficulty:8.2
ApproachRate:7.3
SliderMultiplier:1.4
SliderTickRate:1

[Events]
//Background and Video events
0,0,"ea7f9d3f86856e47333e9cfc12963ab5.jpg",0,0
//Break Periods
//Storyboard Layer 0 (Background)
//Storyboard Layer 1 (Fail)
//Storyboard Layer 2 (Pass)
//Storyboard Layer 3 (Foreground)
//Storyboard Layer 4 (Overlay)
//Storyboard Sound Samples

[TimingPoints]
12494,476.190476190476,4,1,0,100,1,0

[HitObjects]
64,192,11302,5,0,0:0:0:0:
192,192,11303,1,0,0:0:0:0:
320,192,11422,1,0,0:0:0:0:
448,192,11422,1,0,0:0:0:0:
192,192,11541,1,0,0:0:0:0:
64,192,11541,1,0,0:0:0:0:
192,192,11660,1,0,0:0:0:0:
320,192,11780,1,0,0:0:0:0:
448,192,11780,1,0,0:0:0:0:
320,192,11899,1,0,0:0:0:0:
64,192,11899,1,0,0:0:0:0:
192,192,12018,1,0,0:0:0:0:
64,192,12018,1,0,0:0:0:0:
448,192,12018,1,0,0:0:0:0:
192,192,12137,1,0,0:0:0:0:
320,192,12256,1,0,0:0:0:0:
448,192,12256,1,0,0:0:0:0:
64,192,12256,1,0,0:0:0:0:
192,192,12375,1,0,0:0:0:0:
192,192,12493,1,0,0:0:0:0:
64,192,12493,1,0,0:0:0:0:
320,192,12493,1,0,0:0:0:0:
448,192,12493,1,0,0:0:0:0:
448,192,12613,1,0,0:0:0:0:
448,192,12732,1,0,0:0:0:0:
320,192,12851,1,0,0:0:0:0:
192,192,12851,1,0,0:0:0:0:
448,192,12970,1,0,0:0:0:0:
64,192,12970,1,0,0:0:0:0:
192,192,12970,1,0,0:0:0:0:
320,192,12970,1,0,0:0:0:0:
192,192,13089,1,0,0:0:0:0:
64,192,13208,1,0,0:0:0:0:
320,192,13208,1,0,0:0:0:0:
192,192,13327,1,0,0:0:0:0:
448,192,13446,1,0,0:0:0:0:
320,192,13446,1,0,0:0:0:0:
64,192,13446,1,0,0:0:0:0:
320,192,13565,1,0,0:0:0:0:
320,192,13684,1,0,0:0:0:0:
64,192,13803,1,0,0:0:0:0:
192,192,13803,1,0,0:0:0:0:
64,192,13922,1,0,0:0:0:0:
320,192,13922,1,0,0:0:0:0:
448,192,13922,1,0,0:0:0:0:
192,192,13922,1,0,0:0:0:0:
320,192,14041,1,0,0:0:0:0:
64,192,14160,1,0,0:0:0:0:
448,192,14160,1,0,0:0:0:0:
192,192,14280,1,0,0:0:0:0:
64,192,14399,1,0,0:0:0:0:
320,192,14399,1,0,0:0:0:0:
448,192,14399,1,0,0:0:0:0:
64,192,14518,1,0,0:0:0:0:
64,192,14637,1,0,0:0:0:0:
320,192,14756,1,0,0:0:0:0:
448,192,14756,1,0,0:0:0:0:
320,192,14875,1,0,0:0:0:0:
192,192,14875,1,0,0:0:0:0:
64,192,14875,1,0,0:0:0:0:
448,192,14875,1,0,0:0:0:0:
192,192,14994,1,0,0:0:0:0:
64,192,15113,1,0,0:0:0:0:
320,192,15113,1,0,0:0:0:0:
448,192,15232,1,0,0:0:0:0:
320,192,15351,1,0,0:0:0:0:
448,192,15351,1,0,0:0:0:0:
64,192,15351,1,0,0:0:0:0:
320,192,15470,1,0,0:0:0:0:
320,192,15589,1,0,0:0:0:0:
64,192,15708,1,0,0:0:0:0:
448,192,15708,1,0,0:0:0:0:
448,192,15827,1,0,0:0:0:0:
192,192,15827,1,0,0:0:0:0:
64,192,15827,1,0,0:0:0:0:
320,192,15827,1,0,0:0:0:0:
192,192,15946,1,0,0:0:0:0:
320,192,16065,1,0,0:0:0:0:
448,192,16065,1,0,0:0:0:0:
64,192,16184,1,0,0:0:0:0:
64,192,16303,1,0,0:0:0:0:
320,192,16303,1,0,0:0:0:0:
448,192,16303,1,0,0:0:0:0:
320,192,16422,1,0,0:0:0:0:
192,192,16541,1,0,0:0:0:0:
64,192,16660,1,0,0:0:0:0:
320,192,16660,1,0,0:0:0:0:
448,192,16780,1,0,0:0:0:0:
320,192,16780,1,0,0:0:0:0:
192,192,16780,1,0,0:0:0:0:
64,192,16780,1,0,0:0:0:0:
192,192,16899,1,0,0:0:0:0:
448,192,17018,1,0,0:0:0:0:
64,192,17018,1,0,0:0:0:0:
320,192,17137,1,0,0:0:0:0:
448,192,17256,1,0,0:0:0:0:
192,192,17256,1,0,0:0:0:0:
64,192,17256,1,0,0:0:0:0:
192,192,17375,1,0,0:0:0:0:
192,192,17494,1,0,0:0:0:0:
64,192,17613,1,0,0:0:0:0:
320,192,17613,1,0,0:0:0:0:
64,192,17732,1,0,0:0:0:0:
192,192,17732,1,0,0:0:0:0:
320,192,17732,1,0,0:0:0:0:
448,192,17732,1,0,0:0:0:0:
192,192,17851,1,0,0:0:0:0:
448,192,17970,1,0,0:0:0:0:
320,192,17970,1,0,0:0:0:0:
192,192,18089,1,0,0:0:0:0:
64,192,18208,1,0,0:0:0:0:
192,192,18208,1,0,0:0:0:0:
448,192,18208,1,0,0:0:0:0:
64,192,18327,1,0,0:0:0:0:
64,192,18446,1,0,0:0:0:0:
448,192,18565,1,0,0:0:0:0:
192,192,18565,1,0,0:0:0:0:
448,192,18684,1,0,0:0:0:0:
320,192,18684,1,0,0:0:0:0:
192,192,18684,1,0,0:0:0:0:
64,192,18684,1,0,0:0:0:0:
320,192,18803,1,0,0:0:0:0:
64,192,18922,1,0,0:0:0:0:
448,192,18922,1,0,0:0:0:0:
192,192,19041,1,0,0:0:0:0:
320,192,19160,1,0,0:0:0:0:
192,192,19160,1,0,0:0:0:0:
64,192,19160,1,0,0:0:0:0:
320,192,19280,1,0,0:0:0:0:
320,192,19399,1,0,0:0:0:0:
192,192,19518,1,0,0:0:0:0:
64,192,19518,1,0,0:0:0:0:
64,192,19637,1,0,0:0:0:0:
192,192,19637,1,0,0:0:0:0:
320,192,19637,1,0,0:0:0:0:
448,192,19637,1,0,0:0:0:0:
320,192,19756,1,0,0:0:0:0:
64,192,19875,1,0,0:0:0:0:
192,192,19875,1,0,0:0:0:0:
320,192,19994,1,0,0:0:0:0:
448,192,20113,1,0,0:0:0:0:
320,192,20113,1,0,0:0:0:0:
192,192,20113,1,0,0:0:0:0:
192,192,20232,1,0,0:0:0:0:
192,192,20351,1,0,0:0:0:0:
64,192,20470,1,0,0:0:0:0:
320,192,20470,1,0,0:0:0:0:
448,192,20589,1,0,0:0:0:0:
320,192,20589,1,0,0:0:0:0:
192,192,20589,1,0,0:0:0:0:
64,192,20589,1,0,0:0:0:0:
192,192,20708,1,0,0:0:0:0:
448,192,20827,1,0,0:0:0:0:
320,192,20827,1,0,0:0:0:0:
64,192,20946,1,0,0:0:0:0:
320,192,21065,1,0,0:0:0:0:
448,192,21065,1,0,0:0:0:0:
64,192,21065,1,0,0:0:0:0:
320,192,21184,1,0,0:0:0:0:
320,192,21303,1,0,0:0:0:0:
192,192,21422,1,0,0:0:0:0:
448,192,21422,1,0,0:0:0:0:
448,192,21541,1,0,0:0:0:0:
320,192,21541,1,0,0:0:0:0:
192,192,21541,1,0,0:0:0:0:
64,192,21541,1,0,0:0:0:0:
64,192,21660,1,0,0:0:0:0:
64,192,21780,1,0,0:0:0:0:
320,192,21780,1,0,0:0:0:0:
192,192,21899,1,0,0:0:0:0:
448,192,22018,1,0,0:0:0:0:
64,192,22018,1,0,0:0:0:0:
320,192,22018,1,0,0:0:0:0:
320,192,22137,1,0,0:0:0:0:
320,192,22256,1,0,0:0:0:0:
192,192,22375,1,0,0:0:0:0:
64,192,22375,1,0,0:0:0:0:
64,192,22494,1,0,0:0:0:0:
320,192,22494,1,0,0:0:0:0:
448,192,22494,1,0,0:0:0:0:
192,192,22494,1,0,0:0:0:0:
448,192,22613,1,0,0:0:0:0:
448,192,22732,1,0,0:0:0:0:
192,192,22732,1,0,0:0:0:0:
320,192,22851,1,0,0:0:0:0:
192,192,22970,1,0,0:0:0:0:
64,192,22970,1,0,0:0:0:0:
320,192,22970,1,0,0:0:0:0:
192,192,23089,1,0,0:0:0:0:
192,192,23208,1,0,0:0:0:0:
320,192,23327,1,0,0:0:0:0:
448,192,23327,1,0,0:0:0:0:
448,192,23446,1,0,0:0:0:0:
320,192,23446,1,0,0:0:0:0:
192,192,23446,1,0,0:0:0:0:
64,192,23446,1,0,0:0:0:0:
64,192,23565,1,0,0:0:0:0:
64,192,23684,1,0,0:0:0:0:
320,192,23684,1,0,0:0:0:0:
448,192,23803,1,0,0:0:0:0:
448,192,23922,1,0,0:0:0:0:
320,192,23922,1,0,0:0:0:0:
64,192,23922,1,0,0:0:0:0:
192,192,24041,1,0,0:0:0:0:
192,192,24160,1,0,0:0:0:0:
320,192,24280,1,0,0:0:0:0:
64,192,24280,1,0,0:0:0:0:
64,192,24399,1,0,0:0:0:0:
192,192,24399,1,0,0:0:0:0:
320,192,24399,1,0,0:0:0:0:
448,192,24399,1,0,0:0:0:0:
320,192,24518,1,0,0:0:0:0:
448,192,24637,1,0,0:0:0:0:
192,192,24637,1,0,0:0:0:0:
320,192,24756,1,0,0:0:0:0:
448,192,24875,1,0,0:0:0:0:
192,192,24875,1,0,0:0:0:0:
64,192,24875,1,0,0:0:0:0:
192,192,24994,1,0,0:0:0:0:
192,192,25113,1,0,0:0:0:0:
320,192,25232,1,0,0:0:0:0:
448,192,25232,1,0,0:0:0:0:
448,192,25351,1,0,0:0:0:0:
320,192,25351,1,0,0:0:0:0:
192,192,25351,1,0,0:0:0:0:
64,192,25351,1,0,0:0:0:0:
192,192,25470,1,0,0:0:0:0:
320,192,25589,1,0,0:0:0:0:
64,192,25589,1,0,0:0:0:0:
192,192,25708,1,0,0:0:0:0:
320,192,25827,1,0,0:0:0:0:
192,192,25827,1,0,0:0:0:0:
448,192,25827,1,0,0:0:0:0:
320,192,25946,1,0,0:0:0:0:
320,192,26065,1,0,0:0:0:0:
64,192,26184,1,0,0:0:0:0:
448,192,26184,1,0,0:0:0:0:
448,192,26303,1,0,0:0:0:0:
320,192,26303,1,0,0:0:0:0:
192,192,26303,1,0,0:0:0:0:
64,192,26303,1,0,0:0:0:0:
192,192,26422,1,0,0:0:0:0:
320,192,26541,1,0,0:0:0:0:
448,192,26541,1,0,0:0:0:0:
320,192,26660,1,0,0:0:0:0:
448,192,26780,1,0,0:0:0:0:
192,192,26780,1,0,0:0:0:0:
64,192,26780,1,0,0:0:0:0:
192,192,26899,1,0,0:0:0:0:
192,192,27018,1,0,0:0:0:0:
320,192,27137,1,0,0:0:0:0:
448,192,27137,1,0,0:0:0:0:
192,192,27196,1,0,0:0:0:0:
64,192,27196,1,0,0:0:0:0:
320,192,27256,1,0,0:0:0:0:
448,192,27256,1,0,0:0:0:0:
192,192,27375,1,0,0:0:0:0:
64,192,27375,1,0,0:0:0:0:
64,192,27494,1,0,0:0:0:0:
320,192,27494,1,0,0:0:0:0:
192,192,27613,1,0,0:0:0:0:
448,192,27613,1,0,0:0:0:0:
448,192,27732,1,0,0:0:0:0:
320,192,27732,1,0,0:0:0:0:
192,192,27732,1,0,0:0:0:0:
64,192,27732,1,0,0:0:0:0:
64,192,27851,1,0,0:0:0:0:
64,192,27970,1,0,0:0:0:0:
320,192,28089,1,0,0:0:0:0:
448,192,28089,1,0,0:0:0:0:
448,192,28208,1,0,0:0:0:0:
192,192,28208,1,0,0:0:0:0:
64,192,28208,1,0,0:0:0:0:
192,192,28327,1,0,0:0:0:0:
192,192,28446,1,0,0:0:0:0:
64,192,28565,1,0,0:0:0:0:
448,192,28565,1,0,0:0:0:0:
448,192,28684,1,0,0:0:0:0:
192,192,28684,1,0,0:0:0:0:
64,192,28684,1,0,0:0:0:0:
192,192,28803,1,0,0:0:0:0:
192,192,28922,1,0,0:0:0:0:
448,192,29041,1,0,0:0:0:0:
64,192,29041,1,0,0:0:0:0:
448,192,29160,1,0,0:0:0:0:
64,192,29160,1,0,0:0:0:0:
320,192,29160,1,0,0:0:0:0:
320,192,29280,1,0,0:0:0:0:
320,192,29399,1,0,0:0:0:0:
64,192,29399,1,0,0:0:0:0:
192,192,29518,1,0,0:0:0:0:
320,192,29637,1,0,0:0:0:0:
448,192,29637,1,0,0:0:0:0:
192,192,29637,1,0,0:0:0:0:
64,192,29637,1,0,0:0:0:0:
320,192,29756,1,0,0:0:0:0:
320,192,29875,1,0,0:0:0:0:
192,192,29994,1,0,0:0:0:0:
64,192,29994,1,0,0:0:0:0:
64,192,30113,1,0,0:0:0:0:
192,192,30113,1,0,0:0:0:0:
448,192,30113,1,0,0:0:0:0:
448,192,30232,1,0,0:0:0:0:
192,192,30351,1,0,0:0:0:0:
448,192,30351,1,0,0:0:0:0:
320,192,30470,1,0,0:0:0:0:
448,192,30589,1,0,0:0:0:0:
192,192,30589,1,0,0:0:0:0:
64,192,30589,1,0,0:0:0:0:
64,192,30708,1,0,0:0:0:0:
64,192,30827,1,0,0:0:0:0:
192,192,30946,1,0,0:0:0:0:
320,192,30946,1,0,0:0:0:0:
448,192,31065,1,0,0:0:0:0:
320,192,31065,1,0,0:0:0:0:
64,192,31065,1,0,0:0:0:0:
448,192,31184,1,0,0:0:0:0:
64,192,31303,1,0,0:0:0:0:
320,192,31303,1,0,0:0:0:0:
192,192,31422,1,0,0:0:0:0:
448,192,31541,1,0,0:0:0:0:
320,192,31541,1,0,0:0:0:0:
192,192,31541,1,0,0:0:0:0:
64,192,31541,1,0,0:0:0:0:
320,192,31660,1,0,0:0:0:0:
320,192,31780,1,0,0:0:0:0:
192,192,31899,1,0,0:0:0:0:
64,192,31899,1,0,0:0:0:0:
192,192,32018,1,0,0:0:0:0:
448,192,32018,1,0,0:0:0:0:
320,192,32018,1,0,0:0:0:0:
320,192,32137,1,0,0:0:0:0:
192,192,32256,1,0,0:0:0:0:
448,192,32256,1,0,0:0:0:0:
320,192,32375,1,0,0:0:0:0:
192,192,32494,1,0,0:0:0:0:
64,192,32494,1,0,0:0:0:0:
448,192,32494,1,0,0:0:0:0:
192,192,32613,1,0,0:0:0:0:
192,192,32732,1,0,0:0:0:0:
320,192,32851,1,0,0:0:0:0:
448,192,32851,1,0,0:0:0:0:
448,192,32970,1,0,0:0:0:0:
320,192,32970,1,0,0:0:0:0:
64,192,32970,1,0,0:0:0:0:
192,192,33089,1,0,0:0:0:0:
64,192,33208,1,0,0:0:0:0:
320,192,33208,1,0,0:0:0:0:
448,192,33327,1,0,0:0:0:0:
448,192,33446,1,0,0:0:0:0:
320,192,33446,1,0,0:0:0:0:
192,192,33446,1,0,0:0:0:0:
64,192,33446,1,0,0:0:0:0:
192,192,33565,1,0,0:0:0:0:
64,192,33684,1,0,0:0:0:0:
64,192,33803,1,0,0:0:0:0:
192,192,33803,1,0,0:0:0:0:
64,192,33922,1,0,0:0:0:0:
192,192,33922,1,0,0:0:0:0:
448,192,33922,1,0,0:0:0:0:
320,192,34041,1,0,0:0:0:0:
192,192,34160,1,0,0:0:0:0:
448,192,34160,1,0,0:0:0:0:
448,192,34280,1,0,0:0:0:0:
320,192,34399,1,0,0:0:0:0:
64,192,34399,1,0,0:0:0:0:
192,192,34399,1,0,0:0:0:0:
192,192,34518,1,0,0:0:0:0:
192,192,34637,1,0,0:0:0:0:
320,192,34756,1,0,0:0:0:0:
448,192,34756,1,0,0:0:0:0:
448,192,34875,1,0,0:0:0:0:
320,192,34875,1,0,0:0:0:0:
64,192,34875,1,0,0:0:0:0:
64,192,34994,1,0,0:0:0:0:
64,192,35113,1,0,0:0:0:0:
320,192,35232,1,0,0:0:0:0:
192,192,35232,1,0,0:0:0:0:
448,192,35351,1,0,0:0:0:0:
320,192,35351,1,0,0:0:0:0:
64,192,35351,1,0,0:0:0:0:
192,192,35351,1,0,0:0:0:0:
448,192,35470,1,0,0:0:0:0:
448,192,35589,1,0,0:0:0:0:
64,192,35708,1,0,0:0:0:0:
320,192,35708,1,0,0:0:0:0:
320,192,35827,1,0,0:0:0:0:
64,192,35827,1,0,0:0:0:0:
448,192,35827,1,0,0:0:0:0:
320,192,35946,1,0,0:0:0:0:
64,192,36065,1,0,0:0:0:0:
448,192,36065,1,0,0:0:0:0:
320,192,36184,1,0,0:0:0:0:
192,192,36303,1,0,0:0:0:0:
64,192,36303,1,0,0:0:0:0:
448,192,36303,1,0,0:0:0:0:
192,192,36422,1,0,0:0:0:0:
320,192,36541,1,0,0:0:0:0:
192,192,36660,1,0,0:0:0:0:
448,192,36660,1,0,0:0:0:0:
448,192,36780,1,0,0:0:0:0:
64,192,36780,1,0,0:0:0:0:
320,192,36780,1,0,0:0:0:0:
192,192,36899,1,0,0:0:0:0:
64,192,37018,1,0,0:0:0:0:
320,192,37018,1,0,0:0:0:0:
192,192,37137,1,0,0:0:0:0:
192,192,37256,1,0,0:0:0:0:
64,192,37256,1,0,0:0:0:0:
320,192,37256,1,0,0:0:0:0:
448,192,37256,1,0,0:0:0:0:
64,192,37375,1,0,0:0:0:0:
192,192,37494,1,0,0:0:0:0:
64,192,37613,1,0,0:0:0:0:
320,192,37613,1,0,0:0:0:0:
448,192,37732,1,0,0:0:0:0:
192,192,37732,1,0,0:0:0:0:
64,192,37732,1,0,0:0:0:0:
320,192,37851,1,0,0:0:0:0:
320,192,37970,1,0,0:0:0:0:
64,192,37970,1,0,0:0:0:0:
192,192,38089,1,0,0:0:0:0:
64,192,38208,1,0,0:0:0:0:
192,192,38208,1,0,0:0:0:0:
320,192,38208,1,0,0:0:0:0:
448,192,38208,1,0,0:0:0:0:
320,192,38327,1,0,0:0:0:0:
320,192,38446,1,0,0:0:0:0:
64,192,38565,1,0,0:0:0:0:
192,192,38565,1,0,0:0:0:0:
448,192,38684,1,0,0:0:0:0:
320,192,38684,1,0,0:0:0:0:
64,192,38684,1,0,0:0:0:0:
192,192,38803,1,0,0:0:0:0:
320,192,38922,1,0,0:0:0:0:
64,192,38922,1,0,0:0:0:0:
320,192,39041,1,0,0:0:0:0:
448,192,39160,1,0,0:0:0:0:
192,192,39160,1,0,0:0:0:0:
64,192,39160,1,0,0:0:0:0:
320,192,39160,1,0,0:0:0:0:
448,192,39280,1,0,0:0:0:0:
448,192,39399,1,0,0:0:0:0:
320,192,39518,1,0,0:0:0:0:
192,192,39518,1,0,0:0:0:0:
448,192,39637,1,0,0:0:0:0:
192,192,39637,1,0,0:0:0:0:
64,192,39637,1,0,0:0:0:0:
320,192,39756,1,0,0:0:0:0:
64,192,39875,1,0,0:0:0:0:
320,192,39875,1,0,0:0:0:0:
192,192,39994,1,0,0:0:0:0:
448,192,40113,1,0,0:0:0:0:
320,192,40113,1,0,0:0:0:0:
64,192,40113,1,0,0:0:0:0:
192,192,40232,1,0,0:0:0:0:
192,192,40351,1,0,0:0:0:0:
64,192,40470,1,0,0:0:0:0:
320,192,40470,1,0,0:0:0:0:
320,192,40589,1,0,0:0:0:0:
192,192,40589,1,0,0:0:0:0:
64,192,40589,1,0,0:0:0:0:
192,192,40708,1,0,0:0:0:0:
64,192,40827,1,0,0:0:0:0:
320,192,40827,1,0,0:0:0:0:
64,192,40946,1,0,0:0:0:0:
192,192,41065,1,0,0:0:0:0:
64,192,41065,1,0,0:0:0:0:
320,192,41065,1,0,0:0:0:0:
448,192,41065,1,0,0:0:0:0:
192,192,41184,1,0,0:0:0:0:
320,192,41303,1,0,0:0:0:0:
448,192,41422,1,0,0:0:0:0:
64,192,41422,1,0,0:0:0:0:
448,192,41541,1,0,0:0:0:0:
192,192,41541,1,0,0:0:0:0:
64,192,41541,1,0,0:0:0:0:
320,192,41660,1,0,0:0:0:0:
192,192,41780,1,0,0:0:0:0:
64,192,41780,1,0,0:0:0:0:
192,192,41899,1,0,0:0:0:0:
448,192,42018,1,0,0:0:0:0:
320,192,42018,1,0,0:0:0:0:
64,192,42018,1,0,0:0:0:0:
320,192,42137,1,0,0:0:0:0:
192,192,42256,1,0,0:0:0:0:
320,192,42375,1,0,0:0:0:0:
64,192,42375,1,0,0:0:0:0:
320,192,42494,1,0,0:0:0:0:
192,192,42494,1,0,0:0:0:0:
64,192,42494,1,0,0:0:0:0:
448,192,42494,1,0,0:0:0:0:
192,192,42613,1,0,0:0:0:0:
448,192,42732,1,0,0:0:0:0:
64,192,42732,1,0,0:0:0:0:
192,192,42851,1,0,0:0:0:0:
64,192,42970,1,0,0:0:0:0:
192,192,42970,1,0,0:0:0:0:
320,192,42970,1,0,0:0:0:0:
448,192,42970,1,0,0:0:0:0:
320,192,43089,1,0,0:0:0:0:
320,192,43208,1,0,0:0:0:0:
192,192,43327,1,0,0:0:0:0:
64,192,43327,1,0,0:0:0:0:
64,192,43446,1,0,0:0:0:0:
192,192,43446,1,0,0:0:0:0:
320,192,43446,1,0,0:0:0:0:
448,192,43446,1,0,0:0:0:0:
320,192,43565,1,0,0:0:0:0:
192,192,43684,1,0,0:0:0:0:
448,192,43684,1,0,0:0:0:0:
192,192,43803,1,0,0:0:0:0:
448,192,43922,1,0,0:0:0:0:
320,192,43922,1,0,0:0:0:0:
192,192,43922,1,0,0:0:0:0:
64,192,43922,1,0,0:0:0:0:
64,192,44041,1,0,0:0:0:0:
64,192,44160,1,0,0:0:0:0:
448,192,44280,1,0,0:0:0:0:
320,192,44280,1,0,0:0:0:0:
320,192,44399,1,0,0:0:0:0:
192,192,44399,1,0,0:0:0:0:
64,192,44399,1,0,0:0:0:0:
448,192,44399,1,0,0:0:0:0:
192,192,44518,1,0,0:0:0:0:
448,192,44637,1,0,0:0:0:0:
64,192,44637,1,0,0:0:0:0:
320,192,44756,1,0,0:0:0:0:
448,192,44875,1,0,0:0:0:0:
320,192,44875,1,0,0:0:0:0:
192,192,44875,1,0,0:0:0:0:
64,192,44875,1,0,0:0:0:0:
192,192,44994,1,0,0:0:0:0:
192,192,45113,1,0,0:0:0:0:
448,192,45232,1,0,0:0:0:0:
64,192,45232,1,0,0:0:0:0:
64,192,45351,1,0,0:0:0:0:
192,192,45351,1,0,0:0:0:0:
320,192,45351,1,0,0:0:0:0:
448,192,45351,1,0,0:0:0:0:
320,192,45470,1,0,0:0:0:0:
192,192,45589,1,0,0:0:0:0:
448,192,45589,1,0,0:0:0:0:
320,192,45708,1,0,0:0:0:0:
448,192,45827,1,0,0:0:0:0:
320,192,45827,1,0,0:0:0:0:
192,192,45827,1,0,0:0:0:0:
64,192,45827,1,0,0:0:0:0:
64,192,45946,1,0,0:0:0:0:
192,192,46065,1,0,0:0:0:0:
320,192,46184,1,0,0:0:0:0:
64,192,46184,1,0,0:0:0:0:
64,192,46303,1,0,0:0:0:0:
320,192,46303,1,0,0:0:0:0:
448,192,46303,1,0,0:0:0:0:
192,192,46303,1,0,0:0:0:0:
448,192,46422,1,0,0:0:0:0:
448,192,46541,1,0,0:0:0:0:
192,192,46541,1,0,0:0:0:0:
320,192,46660,1,0,0:0:0:0:
192,192,46780,1,0,0:0:0:0:
64,192,46780,1,0,0:0:0:0:
320,192,46780,1,0,0:0:0:0:
448,192,46780,1,0,0:0:0:0:
192,192,46899,1,0,0:0:0:0:
192,192,47018,1,0,0:0:0:0:
448,192,47137,1,0,0:0:0:0:
320,192,47137,1,0,0:0:0:0:
448,192,47256,1,0,0:0:0:0:
320,192,47256,1,0,0:0:0:0:
64,192,47256,1,0,0:0:0:0:
192,192,47256,1,0,0:0:0:0:
64,192,47375,1,0,0:0:0:0:
64,192,47494,1,0,0:0:0:0:
448,192,47494,1,0,0:0:0:0:
320,192,47613,1,0,0:0:0:0:
448,192,47732,1,0,0:0:0:0:
320,192,47732,1,0,0:0:0:0:
192,192,47732,1,0,0:0:0:0:
64,192,47732,1,0,0:0:0:0:
448,192,47851,1,0,0:0:0:0:
448,192,47970,1,0,0:0:0:0:
192,192,48089,1,0,0:0:0:0:
64,192,48089,1,0,0:0:0:0:
64,192,48208,1,0,0:0:0:0:
192,192,48208,1,0,0:0:0:0:
320,192,48208,1,0,0:0:0:0:
448,192,48208,1,0,0:0:0:0:
320,192,48327,1,0,0:0:0:0:
64,192,48446,1,0,0:0:0:0:
448,192,48446,1,0,0:0:0:0:
192,192,48565,1,0,0:0:0:0:
448,192,48684,1,0,0:0:0:0:
320,192,48684,1,0,0:0:0:0:
64,192,48684,1,0,0:0:0:0:
192,192,48684,1,0,0:0:0:0:
320,192,48803,1,0,0:0:0:0:
320,192,48922,1,0,0:0:0:0:
192,192,49041,1,0,0:0:0:0:
448,192,49041,1,0,0:0:0:0:
448,192,49160,1,0,0:0:0:0:
320,192,49160,1,0,0:0:0:0:
192,192,49160,1,0,0:0:0:0:
64,192,49160,1,0,0:0:0:0:
64,192,49280,1,0,0:0:0:0:
64,192,49399,1,0,0:0:0:0:
320,192,49399,1,0,0:0:0:0:
192,192,49518,1,0,0:0:0:0:
448,192,49637,1,0,0:0:0:0:
320,192,49637,1,0,0:0:0:0:
192,192,49637,1,0,0:0:0:0:
64,192,49637,1,0,0:0:0:0:
320,192,49756,1,0,0:0:0:0:
320,192,49875,1,0,0:0:0:0:
192,192,49875,1,0,0:0:0:0:
64,192,49994,1,0,0:0:0:0:
448,192,49994,1,0,0:0:0:0:
64,192,50113,1,0,0:0:0:0:
192,192,50113,1,0,0:0:0:0:
320,192,50113,1,0,0:0:0:0:
448,192,50113,1,0,0:0:0:0:
192,192,50232,1,0,0:0:0:0:
320,192,50232,1,0,0:0:0:0:
448,192,50351,1,0,0:0:0:0:
64,192,50351,1,0,0:0:0:0:
192,192,50470,1,0,0:0:0:0:
64,192,50470,1,0,0:0:0:0:
64,192,50589,1,0,0:0:0:0:
192,192,50589,1,0,0:0:0:0:
320,192,50589,1,0,0:0:0:0:
448,192,50589,1,0,0:0:0:0:
192,192,50708,1,0,0:0:0:0:
192,192,50827,1,0,0:0:0:0:
448,192,50946,1,0,0:0:0:0:
320,192,50946,1,0,0:0:0:0:
448,192,51065,1,0,0:0:0:0:
320,192,51065,1,0,0:0:0:0:
192,192,51065,1,0,0:0:0:0:
64,192,51065,1,0,0:0:0:0:
64,192,51184,1,0,0:0:0:0:
64,192,51303,1,0,0:0:0:0:
320,192,51303,1,0,0:0:0:0:
320,192,51422,1,0,0:0:0:0:
448,192,51541,1,0,0:0:0:0:
320,192,51541,1,0,0:0:0:0:
192,192,51541,1,0,0:0:0:0:
64,192,51541,1,0,0:0:0:0:
192,192,51660,1,0,0:0:0:0:
192,192,51780,1,0,0:0:0:0:
448,192,51899,1,0,0:0:0:0:
64,192,51899,1,0,0:0:0:0:
64,192,52018,1,0,0:0:0:0:
192,192,52018,1,0,0:0:0:0:
320,192,52018,1,0,0:0:0:0:
448,192,52018,1,0,0:0:0:0:
320,192,52137,1,0,0:0:0:0:
192,192,52256,1,0,0:0:0:0:
64,192,52256,1,0,0:0:0:0:
64,192,52375,1,0,0:0:0:0:
64,192,52494,1,0,0:0:0:0:
192,192,52494,1,0,0:0:0:0:
320,192,52494,1,0,0:0:0:0:
448,192,52494,1,0,0:0:0:0:
192,192,52613,1,0,0:0:0:0:
192,192,52732,1,0,0:0:0:0:
448,192,52851,1,0,0:0:0:0:
320,192,52851,1,0,0:0:0:0:
448,192,52970,1,0,0:0:0:0:
320,192,52970,1,0,0:0:0:0:
192,192,52970,1,0,0:0:0:0:
64,192,52970,1,0,0:0:0:0:
192,192,53089,1,0,0:0:0:0:
64,192,53208,1,0,0:0:0:0:
320,192,53208,1,0,0:0:0:0:
448,192,53327,1,0,0:0:0:0:
448,192,53446,1,0,0:0:0:0:
320,192,53446,1,0,0:0:0:0:
192,192,53446,1,0,0:0:0:0:
64,192,53446,1,0,0:0:0:0:
320,192,53565,1,0,0:0:0:0:
320,192,53684,1,0,0:0:0:0:
192,192,53684,1,0,0:0:0:0:
192,192,53803,1,0,0:0:0:0:
64,192,53803,1,0,0:0:0:0:
192,192,53922,1,0,0:0:0:0:
64,192,53922,1,0,0:0:0:0:
320,192,53922,1,0,0:0:0:0:
448,192,53922,1,0,0:0:0:0:
448,192,54041,1,0,0:0:0:0:
320,192,54041,1,0,0:0:0:0:
320,192,54160,1,0,0:0:0:0:
192,192,54160,1,0,0:0:0:0:
192,192,54280,1,0,0:0:0:0:
64,192,54280,1,0,0:0:0:0:
448,192,54399,1,0,0:0:0:0:
320,192,54399,1,0,0:0:0:0:
192,192,54399,1,0,0:0:0:0:
64,192,54399,1,0,0:0:0:0:
448,192,54518,1,0,0:0:0:0:
448,192,54637,1,0,0:0:0:0:
192,192,54756,1,0,0:0:0:0:
64,192,54756,1,0,0:0:0:0:
64,192,54875,1,0,0:0:0:0:
192,192,54875,1,0,0:0:0:0:
320,192,54875,1,0,0:0:0:0:
448,192,54875,1,0,0:0:0:0:
320,192,54994,1,0,0:0:0:0:
64,192,55113,1,0,0:0:0:0:
448,192,55113,1,0,0:0:0:0:
64,192,55232,1,0,0:0:0:0:
64,192,55351,1,0,0:0:0:0:
192,192,55351,1,0,0:0:0:0:
320,192,55351,1,0,0:0:0:0:
448,192,55351,1,0,0:0:0:0:
320,192,55470,1,0,0:0:0:0:
192,192,55589,1,0,0:0:0:0:
192,192,55708,1,0,0:0:0:0:
448,192,55708,1,0,0:0:0:0:
448,192,55827,1,0,0:0:0:0:
320,192,55827,1,0,0:0:0:0:
192,192,55827,1,0,0:0:0:0:
64,192,55827,1,0,0:0:0:0:
320,192,55946,1,0,0:0:0:0:
64,192,56065,1,0,0:0:0:0:
192,192,56065,1,0,0:0:0:0:
448,192,56184,1,0,0:0:0:0:
448,192,56303,1,0,0:0:0:0:
320,192,56303,1,0,0:0:0:0:
192,192,56303,1,0,0:0:0:0:
64,192,56303,1,0,0:0:0:0:
192,192,56422,1,0,0:0:0:0:
192,192,56541,1,0,0:0:0:0:
192,192,56660,1,0,0:0:0:0:
320,192,56660,1,0,0:0:0:0:
448,192,56780,1,0,0:0:0:0:
320,192,56780,1,0,0:0:0:0:
192,192,56780,1,0,0:0:0:0:
64,192,56780,1,0,0:0:0:0:
448,192,56899,1,0,0:0:0:0:
448,192,57018,1,0,0:0:0:0:
192,192,57018,1,0,0:0:0:0:
320,192,57137,1,0,0:0:0:0:
320,192,57256,1,0,0:0:0:0:
192,192,57256,1,0,0:0:0:0:
64,192,57256,1,0,0:0:0:0:
448,192,57256,1,0,0:0:0:0:
448,192,57375,1,0,0:0:0:0:
320,192,57494,1,0,0:0:0:0:
192,192,57613,1,0,0:0:0:0:
64,192,57613,1,0,0:0:0:0:
64,192,57732,1,0,0:0:0:0:
192,192,57732,1,0,0:0:0:0:
320,192,57732,1,0,0:0:0:0:
448,192,57732,1,0,0:0:0:0:
192,192,57851,1,0,0:0:0:0:
320,192,57970,1,0,0:0:0:0:
64,192,57970,1,0,0:0:0:0:
64,192,58089,1,0,0:0:0:0:
64,192,58208,1,0,0:0:0:0:
192,192,58208,1,0,0:0:0:0:
320,192,58208,1,0,0:0:0:0:
448,192,58208,1,0,0:0:0:0:
320,192,58327,1,0,0:0:0:0:
448,192,58327,1,0,0:0:0:0:
64,192,58446,1,0,0:0:0:0:
192,192,58565,1,0,0:0:0:0:
448,192,58565,1,0,0:0:0:0:
448,192,58684,1,0,0:0:0:0:
320,192,58684,1,0,0:0:0:0:
192,192,58684,1,0,0:0:0:0:
64,192,58684,1,0,0:0:0:0:
320,192,58803,1,0,0:0:0:0:
192,192,58922,1,0,0:0:0:0:
64,192,58922,1,0,0:0:0:0:
320,192,59041,1,0,0:0:0:0:
448,192,59160,1,0,0:0:0:0:
64,192,59160,1,0,0:0:0:0:
192,192,59160,1,0,0:0:0:0:
192,192,59280,1,0,0:0:0:0:
320,192,59280,1,0,0:0:0:0:
64,192,59399,1,0,0:0:0:0:
192,192,59518,1,0,0:0:0:0:
448,192,59518,1,0,0:0:0:0:
448,192,59637,1,0,0:0:0:0:
320,192,59637,1,0,0:0:0:0:
192,192,59637,1,0,0:0:0:0:
64,192,59637,1,0,0:0:0:0:
64,192,59756,1,0,0:0:0:0:
192,192,59875,1,0,0:0:0:0:
448,192,59875,1,0,0:0:0:0:
448,192,59994,1,0,0:0:0:0:
320,192,60113,1,0,0:0:0:0:
192,192,60113,1,0,0:0:0:0:
64,192,60113,1,0,0:0:0:0:
192,192,60232,1,0,0:0:0:0:
192,192,60351,1,0,0:0:0:0:
320,192,60470,1,0,0:0:0:0:
64,192,60470,1,0,0:0:0:0:
448,192,60589,1,0,0:0:0:0:
320,192,60589,1,0,0:0:0:0:
192,192,60589,1,0,0:0:0:0:
64,192,60589,1,0,0:0:0:0:
192,192,60708,1,0,0:0:0:0:
320,192,60827,1,0,0:0:0:0:
64,192,60827,1,0,0:0:0:0:
320,192,60946,1,0,0:0:0:0:
192,192,61065,1,0,0:0:0:0:
64,192,61065,1,0,0:0:0:0:
448,192,61065,1,0,0:0:0:0:
192,192,61184,1,0,0:0:0:0:
192,192,61303,1,0,0:0:0:0:
448,192,61422,1,0,0:0:0:0:
320,192,61422,1,0,0:0:0:0:
448,192,61541,1,0,0:0:0:0:
320,192,61541,1,0,0:0:0:0:
64,192,61541,1,0,0:0:0:0:
192,192,61541,1,0,0:0:0:0:
192,192,61660,1,0,0:0:0:0:
320,192,61780,1,0,0:0:0:0:
448,192,61780,1,0,0:0:0:0:
320,192,61899,1,0,0:0:0:0:
192,192,62018,1,0,0:0:0:0:
64,192,62018,1,0,0:0:0:0:
448,192,62018,1,0,0:0:0:0:
192,192,62137,1,0,0:0:0:0:
320,192,62256,1,0,0:0:0:0:
192,192,62375,1,0,0:0:0:0:
448,192,62375,1,0,0:0:0:0:
448,192,62494,1,0,0:0:0:0:
192,192,62494,1,0,0:0:0:0:
64,192,62494,1,0,0:0:0:0:
320,192,62494,1,0,0:0:0:0:
64,192,62613,1,0,0:0:0:0:
64,192,62732,1,0,0:0:0:0:
320,192,62732,1,0,0:0:0:0:
192,192,62851,1,0,0:0:0:0:
448,192,62970,1,0,0:0:0:0:
320,192,62970,1,0,0:0:0:0:
64,192,62970,1,0,0:0:0:0:
192,192,63089,1,0,0:0:0:0:
320,192,63208,1,0,0:0:0:0:
192,192,63327,1,0,0:0:0:0:
64,192,63327,1,0,0:0:0:0:
448,192,63446,1,0,0:0:0:0:
64,192,63446,1,0,0:0:0:0:
192,192,63446,1,0,0:0:0:0:
320,192,63446,1,0,0:0:0:0:
448,192,63565,1,0,0:0:0:0:
64,192,63684,1,0,0:0:0:0:
320,192,63684,1,0,0:0:0:0:
64,192,63803,1,0,0:0:0:0:
192,192,63922,1,0,0:0:0:0:
320,192,63922,1,0,0:0:0:0:
448,192,63922,1,0,0:0:0:0:
320,192,64041,1,0,0:0:0:0:
64,192,64160,1,0,0:0:0:0:
192,192,64280,1,0,0:0:0:0:
320,192,64280,1,0,0:0:0:0:
448,192,64399,1,0,0:0:0:0:
320,192,64399,1,0,0:0:0:0:
192,192,64399,1,0,0:0:0:0:
64,192,64399,1,0,0:0:0:0:
320,192,64518,1,0,0:0:0:0:
448,192,64637,1,0,0:0:0:0:
64,192,64637,1,0,0:0:0:0:
192,192,64756,1,0,0:0:0:0:
448,192,64875,1,0,0:0:0:0:
320,192,64875,1,0,0:0:0:0:
64,192,64875,1,0,0:0:0:0:
192,192,64994,1,0,0:0:0:0:
64,192,64994,1,0,0:0:0:0:
320,192,65113,1,0,0:0:0:0:
64,192,65232,1,0,0:0:0:0:
192,192,65232,1,0,0:0:0:0:
64,192,65351,1,0,0:0:0:0:
192,192,65351,1,0,0:0:0:0:
320,192,65351,1,0,0:0:0:0:
448,192,65351,1,0,0:0:0:0:
320,192,65470,1,0,0:0:0:0:
448,192,65470,1,0,0:0:0:0:
64,192,65589,1,0,0:0:0:0:
192,192,65589,1,0,0:0:0:0:
320,192,65708,1,0,0:0:0:0:
448,192,65708,1,0,0:0:0:0:
448,192,65827,1,0,0:0:0:0:
320,192,65827,1,0,0:0:0:0:
192,192,65827,1,0,0:0:0:0:
64,192,65827,1,0,0:0:0:0:
192,192,65946,1,0,0:0:0:0:
192,192,66065,1,0,0:0:0:0:
320,192,66184,1,0,0:0:0:0:
448,192,66184,1,0,0:0:0:0:
448,192,66303,1,0,0:0:0:0:
192,192,66303,1,0,0:0:0:0:
64,192,66303,1,0,0:0:0:0:
320,192,66303,1,0,0:0:0:0:
192,192,66422,1,0,0:0:0:0:
192,192,66541,1,0,0:0:0:0:
64,192,66541,1,0,0:0:0:0:
64,192,66660,1,0,0:0:0:0:
192,192,66780,1,0,0:0:0:0:
320,192,66780,1,0,0:0:0:0:
448,192,66780,1,0,0:0:0:0:
320,192,66899,1,0,0:0:0:0:
64,192,67018,1,0,0:0:0:0:
448,192,67137,1,0,0:0:0:0:
192,192,67137,1,0,0:0:0:0:
448,192,67256,1,0,0:0:0:0:
192,192,67256,1,0,0:0:0:0:
64,192,67256,1,0,0:0:0:0:
320,192,67375,1,0,0:0:0:0:
448,192,67494,1,0,0:0:0:0:
192,192,67494,1,0,0:0:0:0:
192,192,67613,1,0,0:0:0:0:
448,192,67732,1,0,0:0:0:0:
192,192,67732,1,0,0:0:0:0:
64,192,67732,1,0,0:0:0:0:
320,192,67851,1,0,0:0:0:0:
448,192,67970,1,0,0:0:0:0:
320,192,68089,1,0,0:0:0:0:
192,192,68089,1,0,0:0:0:0:
448,192,68208,1,0,0:0:0:0:
320,192,68208,1,0,0:0:0:0:
64,192,68208,1,0,0:0:0:0:
192,192,68208,1,0,0:0:0:0:
64,192,68327,1,0,0:0:0:0:
64,192,68446,1,0,0:0:0:0:
320,192,68446,1,0,0:0:0:0:
320,192,68565,1,0,0:0:0:0:
448,192,68684,1,0,0:0:0:0:
192,192,68684,1,0,0:0:0:0:
64,192,68684,1,0,0:0:0:0:
448,192,68803,1,0,0:0:0:0:
192,192,68922,1,0,0:0:0:0:
448,192,69041,1,0,0:0:0:0:
320,192,69041,1,0,0:0:0:0:
64,192,69160,1,0,0:0:0:0:
192,192,69160,1,0,0:0:0:0:
320,192,69160,1,0,0:0:0:0:
448,192,69160,1,0,0:0:0:0:
192,192,69280,1,0,0:0:0:0:
64,192,69399,1,0,0:0:0:0:
320,192,69399,1,0,0:0:0:0:
64,192,69518,1,0,0:0:0:0:
192,192,69637,1,0,0:0:0:0:
448,192,69637,1,0,0:0:0:0:
64,192,69637,1,0,0:0:0:0:
320,192,69756,1,0,0:0:0:0:
448,192,69875,1,0,0:0:0:0:
64,192,69994,1,0,0:0:0:0:
320,192,69994,1,0,0:0:0:0:
448,192,70113,1,0,0:0:0:0:
320,192,70113,1,0,0:0:0:0:
64,192,70113,1,0,0:0:0:0:
448,192,70232,1,0,0:0:0:0:
192,192,70351,1,0,0:0:0:0:
64,192,70351,1,0,0:0:0:0:
192,192,70470,1,0,0:0:0:0:
448,192,70589,1,0,0:0:0:0:
320,192,70589,1,0,0:0:0:0:
64,192,70589,1,0,0:0:0:0:
320,192,70708,1,0,0:0:0:0:
192,192,70827,1,0,0:0:0:0:
64,192,70946,1,0,0:0:0:0:
320,192,70946,1,0,0:0:0:0:
448,192,71065,1,0,0:0:0:0:
192,192,71065,1,0,0:0:0:0:
64,192,71065,1,0,0:0:0:0:
320,192,71065,1,0,0:0:0:0:
320,192,71184,1,0,0:0:0:0:
448,192,71303,1,0,0:0:0:0:
64,192,71303,1,0,0:0:0:0:
64,192,71422,1,0,0:0:0:0:
192,192,71541,1,0,0:0:0:0:
320,192,71541,1,0,0:0:0:0:
448,192,71541,1,0,0:0:0:0:
64,192,71660,1,0,0:0:0:0:
192,192,71660,1,0,0:0:0:0:
320,192,71780,1,0,0:0:0:0:
448,192,71780,1,0,0:0:0:0:
64,192,71899,1,0,0:0:0:0:
320,192,71899,1,0,0:0:0:0:
448,192,72018,1,0,0:0:0:0:
192,192,72018,1,0,0:0:0:0:
64,192,72018,1,0,0:0:0:0:
320,192,72137,1,0,0:0:0:0:
448,192,72137,1,0,0:0:0:0:
192,192,72256,1,0,0:0:0:0:
64,192,72256,1,0,0:0:0:0:
320,192,72256,1,0,0:0:0:0:
64,192,72375,1,0,0:0:0:0:
448,192,72375,1,0,0:0:0:0:
448,192,72494,1,0,0:0:0:0:
320,192,72494,1,0,0:0:0:0:
192,192,72494,1,0,0:0:0:0:
192,192,72613,1,0,0:0:0:0:
64,192,72732,1,0,0:0:0:0:
320,192,72732,1,0,0:0:0:0:
448,192,72732,1,0,0:0:0:0:
320,192,72851,1,0,0:0:0:0:
192,192,72851,1,0,0:0:0:0:
192,192,72970,1,0,0:0:0:0:
64,192,72970,1,0,0:0:0:0:
448,192,72970,1,0,0:0:0:0:
64,192,73089,1,0,0:0:0:0:
320,192,73208,1,0,0:0:0:0:
192,192,73208,1,0,0:0:0:0:
448,192,73208,1,0,0:0:0:0:
320,192,73327,1,0,0:0:0:0:
192,192,73446,1,0,0:0:0:0:
64,192,73446,1,0,0:0:0:0:
448,192,73446,1,0,0:0:0:0:
320,192,73446,1,0,0:0:0:0:
64,192,73565,1,0,0:0:0:0:
64,192,73684,1,0,0:0:0:0:
192,192,73803,1,0,0:0:0:0:
448,192,73803,1,0,0:0:0:0:
448,192,73922,1,0,0:0:0:0:
192,192,73922,1,0,0:0:0:0:
64,192,73922,1,0,0:0:0:0:
320,192,73922,1,0,0:0:0:0:
448,192,74041,1,0,0:0:0:0:
320,192,74160,1,0,0:0:0:0:
64,192,74160,1,0,0:0:0:0:
192,192,74280,1,0,0:0:0:0:
448,192,74399,1,0,0:0:0:0:
320,192,74399,1,0,0:0:0:0:
192,192,74399,1,0,0:0:0:0:
64,192,74399,1,0,0:0:0:0:
320,192,74518,1,0,0:0:0:0:
192,192,74637,1,0,0:0:0:0:
192,192,74756,1,0,0:0:0:0:
448,192,74756,1,0,0:0:0:0:
448,192,74875,1,0,0:0:0:0:
320,192,74875,1,0,0:0:0:0:
192,192,74875,1,0,0:0:0:0:
64,192,74875,1,0,0:0:0:0:
320,192,74994,1,0,0:0:0:0:
192,192,75113,1,0,0:0:0:0:
448,192,75113,1,0,0:0:0:0:
64,192,75232,1,0,0:0:0:0:
64,192,75351,1,0,0:0:0:0:
192,192,75351,1,0,0:0:0:0:
320,192,75351,1,0,0:0:0:0:
448,192,75351,1,0,0:0:0:0:
320,192,75470,1,0,0:0:0:0:
192,192,75589,1,0,0:0:0:0:
192,192,75708,1,0,0:0:0:0:
320,192,75708,1,0,0:0:0:0:
448,192,75827,1,0,0:0:0:0:
320,192,75827,1,0,0:0:0:0:
192,192,75827,1,0,0:0:0:0:
64,192,75827,1,0,0:0:0:0:
448,192,75946,1,0,0:0:0:0:
320,192,76065,1,0,0:0:0:0:
192,192,76065,1,0,0:0:0:0:
192,192,76184,1,0,0:0:0:0:
448,192,76303,1,0,0:0:0:0:
320,192,76303,1,0,0:0:0:0:
192,192,76303,1,0,0:0:0:0:
64,192,76303,1,0,0:0:0:0:
320,192,76422,1,0,0:0:0:0:
64,192,76541,1,0,0:0:0:0:
192,192,76541,1,0,0:0:0:0:
320,192,76660,1,0,0:0:0:0:
448,192,76660,1,0,0:0:0:0:
448,192,76780,1,0,0:0:0:0:
320,192,76780,1,0,0:0:0:0:
192,192,76780,1,0,0:0:0:0:
64,192,76780,1,0,0:0:0:0:
192,192,76899,1,0,0:0:0:0:
64,192,77018,1,0,0:0:0:0:
320,192,77018,1,0,0:0:0:0:
448,192,77137,1,0,0:0:0:0:
192,192,77137,1,0,0:0:0:0:
448,192,77256,1,0,0:0:0:0:
320,192,77256,1,0,0:0:0:0:
192,192,77256,1,0,0:0:0:0:
64,192,77256,1,0,0:0:0:0:
320,192,77375,1,0,0:0:0:0:
64,192,77494,1,0,0:0:0:0:
192,192,77613,1,0,0:0:0:0:
64,192,77613,1,0,0:0:0:0:
448,192,77732,1,0,0:0:0:0:
320,192,77732,1,0,0:0:0:0:
192,192,77732,1,0,0:0:0:0:
64,192,77732,1,0,0:0:0:0:
320,192,77851,1,0,0:0:0:0:
192,192,77970,1,0,0:0:0:0:
448,192,77970,1,0,0:0:0:0:
448,192,78089,1,0,0:0:0:0:
448,192,78208,1,0,0:0:0:0:
320,192,78208,1,0,0:0:0:0:
192,192,78208,1,0,0:0:0:0:
64,192,78208,1,0,0:0:0:0:
192,192,78327,1,0,0:0:0:0:
320,192,78446,1,0,0:0:0:0:
448,192,78565,1,0,0:0:0:0:
320,192,78565,1,0,0:0:0:0:
448,192,78684,1,0,0:0:0:0:
320,192,78684,1,0,0:0:0:0:
64,192,78684,1,0,0:0:0:0:
192,192,78684,1,0,0:0:0:0:
192,192,78803,1,0,0:0:0:0:
64,192,78922,1,0,0:0:0:0:
448,192,78922,1,0,0:0:0:0:
192,192,79041,1,0,0:0:0:0:
320,192,79160,1,0,0:0:0:0:
64,192,79160,1,0,0:0:0:0:
192,192,79160,1,0,0:0:0:0:
448,192,79160,1,0,0:0:0:0:
320,192,79280,1,0,0:0:0:0:
192,192,79399,1,0,0:0:0:0:
64,192,79518,1,0,0:0:0:0:
320,192,79518,1,0,0:0:0:0:
448,192,79637,1,0,0:0:0:0:
320,192,79637,1,0,0:0:0:0:
192,192,79637,1,0,0:0:0:0:
64,192,79637,1,0,0:0:0:0:
192,192,79756,1,0,0:0:0:0:
192,192,79875,1,0,0:0:0:0:
448,192,79875,1,0,0:0:0:0:
320,192,79994,1,0,0:0:0:0:
448,192,80113,1,0,0:0:0:0:
320,192,80113,1,0,0:0:0:0:
192,192,80113,1,0,0:0:0:0:
64,192,80113,1,0,0:0:0:0:
192,192,80232,1,0,0:0:0:0:
448,192,80232,1,0,0:0:0:0:
320,192,80351,1,0,0:0:0:0:
64,192,80351,1,0,0:0:0:0:
192,192,80470,1,0,0:0:0:0:
448,192,80470,1,0,0:0:0:0:
320,192,80470,1,0,0:0:0:0:
448,192,80589,1,0,0:0:0:0:
320,192,80589,1,0,0:0:0:0:
192,192,80589,1,0,0:0:0:0:
64,192,80589,1,0,0:0:0:0:
64,192,80708,1,0,0:0:0:0:
320,192,80708,1,0,0:0:0:0:
192,192,80827,1,0,0:0:0:0:
64,192,80827,1,0,0:0:0:0:
448,192,80946,1,0,0:0:0:0:
320,192,80946,1,0,0:0:0:0:
192,192,80946,1,0,0:0:0:0:
448,192,81065,1,0,0:0:0:0:
320,192,81065,1,0,0:0:0:0:
192,192,81065,1,0,0:0:0:0:
64,192,81065,1,0,0:0:0:0:
192,192,81184,1,0,0:0:0:0:
64,192,81303,1,0,0:0:0:0:
320,192,81422,1,0,0:0:0:0:
64,192,81422,1,0,0:0:0:0:
448,192,81541,1,0,0:0:0:0:
320,192,81541,1,0,0:0:0:0:
64,192,81541,1,0,0:0:0:0:
192,192,81541,1,0,0:0:0:0:
192,192,81660,1,0,0:0:0:0:
320,192,81780,1,0,0:0:0:0:
448,192,81780,1,0,0:0:0:0:
320,192,81899,1,0,0:0:0:0:
448,192,82018,1,0,0:0:0:0:
320,192,82018,1,0,0:0:0:0:
192,192,82018,1,0,0:0:0:0:
64,192,82018,1,0,0:0:0:0:
192,192,82137,1,0,0:0:0:0:
192,192,82256,1,0,0:0:0:0:
320,192,82375,1,0,0:0:0:0:
448,192,82375,1,0,0:0:0:0:
448,192,82494,1,0,0:0:0:0:
320,192,82494,1,0,0:0:0:0:
64,192,82494,1,0,0:0:0:0:
192,192,82494,1,0,0:0:0:0:
192,192,82613,1,0,0:0:0:0:
448,192,82732,1,0,0:0:0:0:
64,192,82732,1,0,0:0:0:0:
448,192,82851,1,0,0:0:0:0:
448,192,82970,1,0,0:0:0:0:
320,192,82970,1,0,0:0:0:0:
192,192,82970,1,0,0:0:0:0:
64,192,82970,1,0,0:0:0:0:
64,192,83089,1,0,0:0:0:0:
192,192,83208,1,0,0:0:0:0:
320,192,83327,1,0,0:0:0:0:
64,192,83327,1,0,0:0:0:0:
448,192,83446,1,0,0:0:0:0:
320,192,83446,1,0,0:0:0:0:
192,192,83446,1,0,0:0:0:0:
64,192,83446,1,0,0:0:0:0:
448,192,83565,1,0,0:0:0:0:
320,192,83684,1,0,0:0:0:0:
64,192,83684,1,0,0:0:0:0:
192,192,83803,1,0,0:0:0:0:
448,192,83922,1,0,0:0:0:0:
320,192,83922,1,0,0:0:0:0:
64,192,83922,1,0,0:0:0:0:
192,192,83922,1,0,0:0:0:0:
320,192,84041,1,0,0:0:0:0:
192,192,84160,1,0,0:0:0:0:
64,192,84280,1,0,0:0:0:0:
192,192,84280,1,0,0:0:0:0:
448,192,84399,1,0,0:0:0:0:
320,192,84399,1,0,0:0:0:0:
192,192,84399,1,0,0:0:0:0:
64,192,84399,1,0,0:0:0:0:
320,192,84518,1,0,0:0:0:0:
448,192,84637,1,0,0:0:0:0:
192,192,84637,1,0,0:0:0:0:
448,192,84756,1,0,0:0:0:0:
448,192,84875,1,0,0:0:0:0:
320,192,84875,1,0,0:0:0:0:
192,192,84875,1,0,0:0:0:0:
64,192,84875,1,0,0:0:0:0:
192,192,84994,1,0,0:0:0:0:
64,192,85113,1,0,0:0:0:0:
192,192,85232,1,0,0:0:0:0:
320,192,85232,1,0,0:0:0:0:
448,192,85351,1,0,0:0:0:0:
320,192,85351,1,0,0:0:0:0:
192,192,85351,1,0,0:0:0:0:
64,192,85351,1,0,0:0:0:0:
448,192,85470,1,0,0:0:0:0:
320,192,85589,1,0,0:0:0:0:
64,192,85589,1,0,0:0:0:0:
192,192,85708,1,0,0:0:0:0:
448,192,85827,1,0,0:0:0:0:
320,192,85827,1,0,0:0:0:0:
192,192,85827,1,0,0:0:0:0:
64,192,85827,1,0,0:0:0:0:
64,192,85946,1,0,0:0:0:0:
192,192,86065,1,0,0:0:0:0:
448,192,86184,1,0,0:0:0:0:
320,192,86184,1,0,0:0:0:0:
448,192,86303,1,0,0:0:0:0:
320,192,86303,1,0,0:0:0:0:
192,192,86303,1,0,0:0:0:0:
64,192,86303,1,0,0:0:0:0:
192,192,86422,1,0,0:0:0:0:
448,192,86541,1,0,0:0:0:0:
64,192,86541,1,0,0:0:0:0:
320,192,86660,1,0,0:0:0:0:
192,192,86780,1,0,0:0:0:0:
64,192,86780,1,0,0:0:0:0:
320,192,86780,1,0,0:0:0:0:
448,192,86780,1,0,0:0:0:0:
192,192,86899,1,0,0:0:0:0:
64,192,87018,1,0,0:0:0:0:
448,192,87018,1,0,0:0:0:0:
64,192,87137,1,0,0:0:0:0:
192,192,87137,1,0,0:0:0:0:
448,192,87256,1,0,0:0:0:0:
320,192,87256,1,0,0:0:0:0:
192,192,87256,1,0,0:0:0:0:
320,192,87375,1,0,0:0:0:0:
64,192,87375,1,0,0:0:0:0:
192,192,87494,1,0,0:0:0:0:
64,192,87494,1,0,0:0:0:0:
320,192,87613,1,0,0:0:0:0:
448,192,87613,1,0,0:0:0:0:
448,192,87732,1,0,0:0:0:0:
192,192,87732,1,0,0:0:0:0:
64,192,87732,1,0,0:0:0:0:
320,192,87851,1,0,0:0:0:0:
192,192,87851,1,0,0:0:0:0:
64,192,87970,1,0,0:0:0:0:
320,192,87970,1,0,0:0:0:0:
448,192,88089,1,0,0:0:0:0:
192,192,88089,1,0,0:0:0:0:
448,192,88208,1,0,0:0:0:0:
320,192,88208,1,0,0:0:0:0:
64,192,88208,1,0,0:0:0:0:
192,192,88327,1,0,0:0:0:0:
64,192,88327,1,0,0:0:0:0:
192,192,88446,1,0,0:0:0:0:
320,192,88446,1,0,0:0:0:0:
320,192,88565,1,0,0:0:0:0:
64,192,88565,1,0,0:0:0:0:
448,192,88684,1,0,0:0:0:0:
192,192,88684,1,0,0:0:0:0:
64,192,88684,1,0,0:0:0:0:
320,192,88684,1,0,0:0:0:0:
448,192,88803,1,0,0:0:0:0:
192,192,88803,1,0,0:0:0:0:
320,192,88922,1,0,0:0:0:0:
192,192,89041,1,0,0:0:0:0:
64,192,89041,1,0,0:0:0:0:
448,192,89160,1,0,0:0:0:0:
320,192,89160,1,0,0:0:0:0:
64,192,89160,1,0,0:0:0:0:
192,192,89280,1,0,0:0:0:0:
448,192,89399,1,0,0:0:0:0:
320,192,89399,1,0,0:0:0:0:
192,192,89518,1,0,0:0:0:0:
448,192,89637,1,0,0:0:0:0:
320,192,89637,1,0,0:0:0:0:
64,192,89637,1,0,0:0:0:0:
192,192,89637,1,0,0:0:0:0:
320,192,89756,1,0,0:0:0:0:
192,192,89875,1,0,0:0:0:0:
448,192,89875,1,0,0:0:0:0:
320,192,89994,1,0,0:0:0:0:
64,192,89994,1,0,0:0:0:0:
64,192,90113,1,0,0:0:0:0:
192,192,90113,1,0,0:0:0:0:
320,192,90113,1,0,0:0:0:0:
448,192,90113,1,0,0:0:0:0:
192,192,90232,1,0,0:0:0:0:
320,192,90351,1,0,0:0:0:0:
448,192,90351,1,0,0:0:0:0:
320,192,90470,1,0,0:0:0:0:
448,192,90589,1,0,0:0:0:0:
320,192,90589,1,0,0:0:0:0:
192,192,90589,1,0,0:0:0:0:
64,192,90589,1,0,0:0:0:0:
192,192,90708,1,0,0:0:0:0:
64,192,90708,1,0,0:0:0:0:
320,192,90827,1,0,0:0:0:0:
448,192,90946,1,0,0:0:0:0:
64,192,90946,1,0,0:0:0:0:
192,192,91065,1,0,0:0:0:0:
64,192,91065,1,0,0:0:0:0:
320,192,91065,1,0,0:0:0:0:
448,192,91065,1,0,0:0:0:0:
320,192,91184,1,0,0:0:0:0:
192,192,91303,1,0,0:0:0:0:
64,192,91303,1,0,0:0:0:0:
192,192,91422,1,0,0:0:0:0:
448,192,91541,1,0,0:0:0:0:
320,192,91541,1,0,0:0:0:0:
192,192,91541,1,0,0:0:0:0:
64,192,91541,1,0,0:0:0:0:
320,192,91660,1,0,0:0:0:0:
448,192,91780,1,0,0:0:0:0:
192,192,91780,1,0,0:0:0:0:
320,192,91899,1,0,0:0:0:0:
448,192,91899,1,0,0:0:0:0:
448,192,92018,1,0,0:0:0:0:
320,192,92018,1,0,0:0:0:0:
192,192,92018,1,0,0:0:0:0:
64,192,92018,1,0,0:0:0:0:
192,192,92137,1,0,0:0:0:0:
64,192,92256,1,0,0:0:0:0:
320,192,92256,1,0,0:0:0:0:
192,192,92375,1,0,0:0:0:0:
448,192,92494,1,0,0:0:0:0:
320,192,92494,1,0,0:0:0:0:
192,192,92494,1,0,0:0:0:0:
64,192,92494,1,0,0:0:0:0:
320,192,92613,1,0,0:0:0:0:
448,192,92613,1,0,0:0:0:0:
192,192,92732,1,0,0:0:0:0:
192,192,92851,1,0,0:0:0:0:
320,192,92851,1,0,0:0:0:0:
320,192,92970,1,0,0:0:0:0:
448,192,92970,1,0,0:0:0:0:
64,192,92970,1,0,0:0:0:0:
192,192,93089,1,0,0:0:0:0:
448,192,93208,1,0,0:0:0:0:
320,192,93208,1,0,0:0:0:0:
320,192,93327,1,0,0:0:0:0:
192,192,93446,1,0,0:0:0:0:
64,192,93446,1,0,0:0:0:0:
448,192,93446,1,0,0:0:0:0:
192,192,93565,1,0,0:0:0:0:
64,192,93684,1,0,0:0:0:0:
448,192,93684,1,0,0:0:0:0:
448,192,93803,1,0,0:0:0:0:
192,192,93803,1,0,0:0:0:0:
320,192,93922,1,0,0:0:0:0:
192,192,93922,1,0,0:0:0:0:
64,192,93922,1,0,0:0:0:0:
320,192,94041,1,0,0:0:0:0:
64,192,94160,1,0,0:0:0:0:
192,192,94160,1,0,0:0:0:0:
320,192,94280,1,0,0:0:0:0:
448,192,94399,1,0,0:0:0:0:
192,192,94399,1,0,0:0:0:0:
64,192,94399,1,0,0:0:0:0:
448,192,94518,1,0,0:0:0:0:
320,192,94518,1,0,0:0:0:0:
64,192,94637,1,0,0:0:0:0:
192,192,94756,1,0,0:0:0:0:
64,192,94756,1,0,0:0:0:0:
448,192,94875,1,0,0:0:0:0:
320,192,94875,1,0,0:0:0:0:
192,192,94875,1,0,0:0:0:0:
320,192,94994,1,0,0:0:0:0:
192,192,95113,1,0,0:0:0:0:
64,192,95113,1,0,0:0:0:0:
64,192,95232,1,0,0:0:0:0:
448,192,95351,1,0,0:0:0:0:
320,192,95351,1,0,0:0:0:0:
192,192,95351,1,0,0:0:0:0:
320,192,95470,1,0,0:0:0:0:
448,192,95589,1,0,0:0:0:0:
192,192,95589,1,0,0:0:0:0:
64,192,95708,1,0,0:0:0:0:
320,192,95708,1,0,0:0:0:0:
192,192,95827,1,0,0:0:0:0:
64,192,95827,1,0,0:0:0:0:
448,192,95827,1,0,0:0:0:0:
320,192,95946,1,0,0:0:0:0:
448,192,96065,1,0,0:0:0:0:
320,192,96065,1,0,0:0:0:0:
192,192,96184,1,0,0:0:0:0:
64,192,96303,1,0,0:0:0:0:
192,192,96303,1,0,0:0:0:0:
320,192,96303,1,0,0:0:0:0:
448,192,96303,1,0,0:0:0:0:
320,192,96422,1,0,0:0:0:0:
64,192,96422,1,0,0:0:0:0:
192,192,96541,1,0,0:0:0:0:
448,192,96660,1,0,0:0:0:0:
320,192,96660,1,0,0:0:0:0:
448,192,96780,1,0,0:0:0:0:
320,192,96780,1,0,0:0:0:0:
64,192,96780,1,0,0:0:0:0:
192,192,96780,1,0,0:0:0:0:
192,192,96899,1,0,0:0:0:0:
64,192,97018,1,0,0:0:0:0:
448,192,97018,1,0,0:0:0:0:
448,192,97137,1,0,0:0:0:0:
320,192,97256,1,0,0:0:0:0:
192,192,97256,1,0,0:0:0:0:
64,192,97256,1,0,0:0:0:0:
192,192,97375,1,0,0:0:0:0:
320,192,97494,1,0,0:0:0:0:
448,192,97494,1,0,0:0:0:0:
192,192,97613,1,0,0:0:0:0:
64,192,97613,1,0,0:0:0:0:
64,192,97732,1,0,0:0:0:0:
320,192,97732,1,0,0:0:0:0:
448,192,97732,1,0,0:0:0:0:
192,192,97732,1,0,0:0:0:0:
320,192,97851,1,0,0:0:0:0:
448,192,97970,1,0,0:0:0:0:
64,192,97970,1,0,0:0:0:0:
192,192,98089,1,0,0:0:0:0:
64,192,98208,1,0,0:0:0:0:
192,192,98208,1,0,0:0:0:0:
320,192,98208,1,0,0:0:0:0:
448,192,98208,1,0,0:0:0:0:
192,192,98327,1,0,0:0:0:0:
448,192,98327,1,0,0:0:0:0:
320,192,98446,1,0,0:0:0:0:
192,192,98565,1,0,0:0:0:0:
64,192,98565,1,0,0:0:0:0:
448,192,98684,1,0,0:0:0:0:
320,192,98684,1,0,0:0:0:0:
64,192,98684,1,0,0:0:0:0:
192,192,98684,1,0,0:0:0:0:
320,192,98803,1,0,0:0:0:0:
448,192,98922,1,0,0:0:0:0:
192,192,98922,1,0,0:0:0:0:
192,192,99041,1,0,0:0:0:0:
448,192,99160,1,0,0:0:0:0:
320,192,99160,1,0,0:0:0:0:
64,192,99160,1,0,0:0:0:0:
192,192,99160,1,0,0:0:0:0:
320,192,99280,1,0,0:0:0:0:
448,192,99399,1,0,0:0:0:0:
192,192,99399,1,0,0:0:0:0:
320,192,99518,1,0,0:0:0:0:
192,192,99518,1,0,0:0:0:0:
64,192,99637,1,0,0:0:0:0:
192,192,99637,1,0,0:0:0:0:
448,192,99637,1,0,0:0:0:0:
320,192,99637,1,0,0:0:0:0:
320,192,99756,1,0,0:0:0:0:
448,192,99875,1,0,0:0:0:0:
192,192,99875,1,0,0:0:0:0:
192,192,99994,1,0,0:0:0:0:
448,192,100113,1,0,0:0:0:0:
320,192,100113,1,0,0:0:0:0:
192,192,100113,1,0,0:0:0:0:
64,192,100113,1,0,0:0:0:0:
64,192,100232,1,0,0:0:0:0:
448,192,100232,1,0,0:0:0:0:
192,192,100351,1,0,0:0:0:0:
448,192,100470,1,0,0:0:0:0:
320,192,100470,1,0,0:0:0:0:
448,192,100589,1,0,0:0:0:0:
320,192,100589,1,0,0:0:0:0:
192,192,100589,1,0,0:0:0:0:
64,192,100589,1,0,0:0:0:0:
192,192,100708,1,0,0:0:0:0:
320,192,100827,1,0,0:0:0:0:
64,192,100827,1,0,0:0:0:0:
192,192,100946,1,0,0:0:0:0:
448,192,101065,1,0,0:0:0:0:
320,192,101065,1,0,0:0:0:0:
192,192,101065,1,0,0:0:0:0:
64,192,101065,1,0,0:0:0:0:
192,192,101184,1,0,0:0:0:0:
64,192,101303,1,0,0:0:0:0:
320,192,101303,1,0,0:0:0:0:
192,192,101422,1,0,0:0:0:0:
448,192,101422,1,0,0:0:0:0:
192,192,101541,1,0,0:0:0:0:
64,192,101541,1,0,0:0:0:0:
320,192,101541,1,0,0:0:0:0:
448,192,101541,1,0,0:0:0:0:
320,192,101660,1,0,0:0:0:0:
448,192,101780,1,0,0:0:0:0:
192,192,101780,1,0,0:0:0:0:
320,192,101899,1,0,0:0:0:0:
448,192,102018,1,0,0:0:0:0:
320,192,102018,1,0,0:0:0:0:
192,192,102018,1,0,0:0:0:0:
64,192,102018,1,0,0:0:0:0:
192,192,102137,1,0,0:0:0:0:
64,192,102137,1,0,0:0:0:0:
192,192,102256,1,0,0:0:0:0:
320,192,102375,1,0,0:0:0:0:
192,192,102375,1,0,0:0:0:0:
320,192,102494,1,0,0:0:0:0:
448,192,102494,1,0,0:0:0:0:
64,192,102494,1,0,0:0:0:0:
448,192,102613,1,0,0:0:0:0:
448,192,102732,1,0,0:0:0:0:
320,192,102732,1,0,0:0:0:0:
320,192,102851,1,0,0:0:0:0:
192,192,102970,1,0,0:0:0:0:
64,192,102970,1,0,0:0:0:0:
448,192,102970,1,0,0:0:0:0:
320,192,103089,1,0,0:0:0:0:
64,192,103208,1,0,0:0:0:0:
448,192,103208,1,0,0:0:0:0:
192,192,103208,1,0,0:0:0:0:
448,192,103327,1,0,0:0:0:0:
320,192,103327,1,0,0:0:0:0:
192,192,103446,1,0,0:0:0:0:
64,192,103446,1,0,0:0:0:0:
320,192,103446,1,0,0:0:0:0:
192,192,103565,1,0,0:0:0:0:
448,192,103565,1,0,0:0:0:0:
448,192,103684,1,0,0:0:0:0:
320,192,103684,1,0,0:0:0:0:
64,192,103684,1,0,0:0:0:0:
192,192,103803,1,0,0:0:0:0:
64,192,103803,1,0,0:0:0:0:
448,192,103922,1,0,0:0:0:0:
320,192,103922,1,0,0:0:0:0:
192,192,103922,1,0,0:0:0:0:
64,192,103922,1,0,0:0:0:0:
320,192,104041,1,0,0:0:0:0:
320,192,104160,1,0,0:0:0:0:
320,192,104280,1,0,0:0:0:0:
64,192,104280,1,0,0:0:0:0:
64,192,104399,1,0,0:0:0:0:
192,192,104399,1,0,0:0:0:0:
448,192,104399,1,0,0:0:0:0:
192,192,104518,1,0,0:0:0:0:
192,192,104637,1,0,0:0:0:0:
448,192,104637,1,0,0:0:0:0:
192,192,104756,1,0,0:0:0:0:
320,192,104875,1,0,0:0:0:0:
64,192,104875,1,0,0:0:0:0:
448,192,104875,1,0,0:0:0:0:
448,192,104994,1,0,0:0:0:0:
448,192,105113,1,0,0:0:0:0:
192,192,105232,1,0,0:0:0:0:
64,192,105232,1,0,0:0:0:0:
64,192,105351,1,0,0:0:0:0:
320,192,105351,1,0,0:0:0:0:
448,192,105351,1,0,0:0:0:0:
192,192,105470,1,0,0:0:0:0:
192,192,105589,1,0,0:0:0:0:
64,192,105589,1,0,0:0:0:0:
192,192,105708,1,0,0:0:0:0:
448,192,105827,1,0,0:0:0:0:
320,192,105827,1,0,0:0:0:0:
64,192,105827,1,0,0:0:0:0:
192,192,105946,1,0,0:0:0:0:
320,192,105946,1,0,0:0:0:0:
448,192,106065,1,0,0:0:0:0:
192,192,106065,1,0,0:0:0:0:
320,192,106184,1,0,0:0:0:0:
448,192,106184,1,0,0:0:0:0:
192,192,106303,1,0,0:0:0:0:
64,192,106303,1,0,0:0:0:0:
448,192,106303,1,0,0:0:0:0:
320,192,106422,1,0,0:0:0:0:
64,192,106422,1,0,0:0:0:0:
192,192,106541,1,0,0:0:0:0:
448,192,106541,1,0,0:0:0:0:
448,192,106660,1,0,0:0:0:0:
320,192,106660,1,0,0:0:0:0:
192,192,106780,1,0,0:0:0:0:
64,192,106780,1,0,0:0:0:0:
320,192,106780,1,0,0:0:0:0:
192,192,106899,1,0,0:0:0:0:
64,192,106899,1,0,0:0:0:0:
448,192,107018,1,0,0:0:0:0:
320,192,107018,1,0,0:0:0:0:
64,192,107137,1,0,0:0:0:0:
320,192,107137,1,0,0:0:0:0:
192,192,107256,1,0,0:0:0:0:
448,192,107256,1,0,0:0:0:0:
64,192,107256,1,0,0:0:0:0:
320,192,107375,1,0,0:0:0:0:
448,192,107375,1,0,0:0:0:0:
64,192,107494,1,0,0:0:0:0:
320,192,107494,1,0,0:0:0:0:
192,192,107613,1,0,0:0:0:0:
64,192,107613,1,0,0:0:0:0:
448,192,107732,1,0,0:0:0:0:
320,192,107732,1,0,0:0:0:0:
192,192,107732,1,0,0:0:0:0:
320,192,107851,1,0,0:0:0:0:
64,192,107851,1,0,0:0:0:0:
320,192,107970,1,0,0:0:0:0:
64,192,108089,1,0,0:0:0:0:
448,192,108089,1,0,0:0:0:0:
192,192,108208,1,0,0:0:0:0:
64,192,108208,1,0,0:0:0:0:
448,192,108208,1,0,0:0:0:0:
192,192,108327,1,0,0:0:0:0:
192,192,108446,1,0,0:0:0:0:
448,192,108446,1,0,0:0:0:0:
320,192,108565,1,0,0:0:0:0:
448,192,108684,1,0,0:0:0:0:
320,192,108684,1,0,0:0:0:0:
64,192,108684,1,0,0:0:0:0:
64,192,108803,1,0,0:0:0:0:
64,192,108922,1,0,0:0:0:0:
448,192,108922,1,0,0:0:0:0:
320,192,109041,1,0,0:0:0:0:
448,192,109160,1,0,0:0:0:0:
192,192,109160,1,0,0:0:0:0:
64,192,109160,1,0,0:0:0:0:
192,192,109280,1,0,0:0:0:0:
448,192,109399,1,0,0:0:0:0:
64,192,109399,1,0,0:0:0:0:
448,192,109518,1,0,0:0:0:0:
320,192,109637,1,0,0:0:0:0:
192,192,109637,1,0,0:0:0:0:
64,192,109637,1,0,0:0:0:0:
320,192,109756,1,0,0:0:0:0:
448,192,109756,1,0,0:0:0:0:
64,192,109875,1,0,0:0:0:0:
192,192,109875,1,0,0:0:0:0:
192,192,109994,1,0,0:0:0:0:
448,192,109994,1,0,0:0:0:0:
448,192,110113,1,0,0:0:0:0:
64,192,110113,1,0,0:0:0:0:
320,192,110113,1,0,0:0:0:0:
192,192,110232,1,0,0:0:0:0:
64,192,110232,1,0,0:0:0:0:
448,192,110351,1,0,0:0:0:0:
320,192,110351,1,0,0:0:0:0:
64,192,110470,1,0,0:0:0:0:
320,192,110470,1,0,0:0:0:0:
64,192,110589,1,0,0:0:0:0:
448,192,110589,1,0,0:0:0:0:
192,192,110589,1,0,0:0:0:0:
320,192,110708,1,0,0:0:0:0:
448,192,110708,1,0,0:0:0:0:
192,192,110827,1,0,0:0:0:0:
64,192,110827,1,0,0:0:0:0:
320,192,110946,1,0,0:0:0:0:
64,192,110946,1,0,0:0:0:0:
448,192,111065,1,0,0:0:0:0:
320,192,111065,1,0,0:0:0:0:
192,192,111065,1,0,0:0:0:0:
64,192,111184,1,0,0:0:0:0:
192,192,111184,1,0,0:0:0:0:
448,192,111303,1,0,0:0:0:0:
64,192,111303,1,0,0:0:0:0:
320,192,111422,1,0,0:0:0:0:
192,192,111422,1,0,0:0:0:0:
448,192,111541,1,0,0:0:0:0:
64,192,111541,1,0,0:0:0:0:
192,192,111541,1,0,0:0:0:0:
448,192,111660,1,0,0:0:0:0:
192,192,111660,1,0,0:0:0:0:
448,192,111780,1,0,0:0:0:0:
320,192,111899,1,0,0:0:0:0:
64,192,111899,1,0,0:0:0:0:
192,192,112018,1,0,0:0:0:0:
64,192,112018,1,0,0:0:0:0:
448,192,112018,1,0,0:0:0:0:
320,192,112137,1,0,0:0:0:0:
320,192,112256,1,0,0:0:0:0:
64,192,112256,1,0,0:0:0:0:
192,192,112375,1,0,0:0:0:0:
320,192,112494,1,0,0:0:0:0:
448,192,112494,1,0,0:0:0:0:
64,192,112494,1,0,0:0:0:0:
64,192,112613,1,0,0:0:0:0:
64,192,112732,1,0,0:0:0:0:
192,192,112851,1,0,0:0:0:0:
448,192,112851,1,0,0:0:0:0:
448,192,112970,1,0,0:0:0:0:
320,192,112970,1,0,0:0:0:0:
64,192,112970,1,0,0:0:0:0:
192,192,113089,1,0,0:0:0:0:
320,192,113208,1,0,0:0:0:0:
448,192,113208,1,0,0:0:0:0:
320,192,113327,1,0,0:0:0:0:
448,192,113446,1,0,0:0:0:0:
64,192,113446,1,0,0:0:0:0:
192,192,113446,1,0,0:0:0:0:
320,192,113565,1,0,0:0:0:0:
192,192,113565,1,0,0:0:0:0:
64,192,113684,1,0,0:0:0:0:
320,192,113803,1,0,0:0:0:0:
448,192,113803,1,0,0:0:0:0:
448,192,113922,1,0,0:0:0:0:
192,192,113922,1,0,0:0:0:0:
64,192,113922,1,0,0:0:0:0:
320,192,114041,1,0,0:0:0:0:
192,192,114160,1,0,0:0:0:0:
448,192,114160,1,0,0:0:0:0:
448,192,114280,1,0,0:0:0:0:
320,192,114399,1,0,0:0:0:0:
192,192,114399,1,0,0:0:0:0:
64,192,114399,1,0,0:0:0:0:
192,192,114518,1,0,0:0:0:0:
64,192,114637,1,0,0:0:0:0:
320,192,114756,1,0,0:0:0:0:
64,192,114756,1,0,0:0:0:0:
448,192,114875,1,0,0:0:0:0:
192,192,114875,1,0,0:0:0:0:
320,192,114875,1,0,0:0:0:0:
192,192,114994,1,0,0:0:0:0:
448,192,115113,1,0,0:0:0:0:
64,192,115113,1,0,0:0:0:0:
320,192,115232,1,0,0:0:0:0:
448,192,115351,1,0,0:0:0:0:
192,192,115351,1,0,0:0:0:0:
64,192,115351,1,0,0:0:0:0:
448,192,115470,1,0,0:0:0:0:
320,192,115470,1,0,0:0:0:0:
192,192,115589,1,0,0:0:0:0:
192,192,115708,1,0,0:0:0:0:
320,192,115708,1,0,0:0:0:0:
448,192,115827,1,0,0:0:0:0:
320,192,115827,1,0,0:0:0:0:
64,192,115827,1,0,0:0:0:0:
192,192,115946,1,0,0:0:0:0:
448,192,116065,1,0,0:0:0:0:
192,192,116065,1,0,0:0:0:0:
320,192,116184,1,0,0:0:0:0:
448,192,116303,1,0,0:0:0:0:
192,192,116303,1,0,0:0:0:0:
64,192,116303,1,0,0:0:0:0:
192,192,116422,1,0,0:0:0:0:
64,192,116541,1,0,0:0:0:0:
192,192,116660,1,0,0:0:0:0:
64,192,116660,1,0,0:0:0:0:
448,192,116780,1,0,0:0:0:0:
320,192,116780,1,0,0:0:0:0:
192,192,116780,1,0,0:0:0:0:
320,192,116899,1,0,0:0:0:0:
448,192,117018,1,0,0:0:0:0:
64,192,117018,1,0,0:0:0:0:
320,192,117137,1,0,0:0:0:0:
192,192,117256,1,0,0:0:0:0:
64,192,117256,1,0,0:0:0:0:
448,192,117256,1,0,0:0:0:0:
192,192,117375,1,0,0:0:0:0:
448,192,117375,1,0,0:0:0:0:
320,192,117494,1,0,0:0:0:0:
192,192,117613,1,0,0:0:0:0:
64,192,117613,1,0,0:0:0:0:
448,192,117732,1,0,0:0:0:0:
320,192,117732,1,0,0:0:0:0:
192,192,117732,1,0,0:0:0:0:
320,192,117851,1,0,0:0:0:0:
64,192,117970,1,0,0:0:0:0:
192,192,117970,1,0,0:0:0:0:
192,192,118089,1,0,0:0:0:0:
448,192,118208,1,0,0:0:0:0:
320,192,118208,1,0,0:0:0:0:
64,192,118208,1,0,0:0:0:0:
192,192,118327,1,0,0:0:0:0:
320,192,118446,1,0,0:0:0:0:
448,192,118565,1,0,0:0:0:0:
192,192,118565,1,0,0:0:0:0:
192,192,118684,1,0,0:0:0:0:
448,192,118684,1,0,0:0:0:0:
320,192,118684,1,0,0:0:0:0:
64,192,118803,1,0,0:0:0:0:
192,192,118922,1,0,0:0:0:0:
448,192,118922,1,0,0:0:0:0:
320,192,119041,1,0,0:0:0:0:
64,192,119041,1,0,0:0:0:0:
192,192,119160,1,0,0:0:0:0:
64,192,119160,1,0,0:0:0:0:
320,192,119160,1,0,0:0:0:0:
448,192,119160,1,0,0:0:0:0:
192,192,119280,1,0,0:0:0:0:
192,192,119399,1,0,0:0:0:0:
320,192,119518,1,0,0:0:0:0:
448,192,119518,1,0,0:0:0:0:
448,192,119637,1,0,0:0:0:0:
64,192,119637,1,0,0:0:0:0:
192,192,119637,1,0,0:0:0:0:
192,192,119756,1,0,0:0:0:0:
192,192,119875,1,0,0:0:0:0:
448,192,119875,1,0,0:0:0:0:
320,192,119994,1,0,0:0:0:0:
448,192,120113,1,0,0:0:0:0:
320,192,120113,1,0,0:0:0:0:
192,192,120113,1,0,0:0:0:0:
64,192,120113,1,0,0:0:0:0:
192,192,120232,1,0,0:0:0:0:
320,192,120351,1,0,0:0:0:0:
448,192,120470,1,0,0:0:0:0:
192,192,120470,1,0,0:0:0:0:
448,192,120589,1,0,0:0:0:0:
320,192,120589,1,0,0:0:0:0:
64,192,120589,1,0,0:0:0:0:
64,192,120708,1,0,0:0:0:0:
64,192,120827,1,0,0:0:0:0:
320,192,120827,1,0,0:0:0:0:
192,192,120946,1,0,0:0:0:0:
448,192,121065,1,0,0:0:0:0:
320,192,121065,1,0,0:0:0:0:
192,192,121065,1,0,0:0:0:0:
64,192,121065,1,0,0:0:0:0:
320,192,121184,1,0,0:0:0:0:
448,192,121184,1,0,0:0:0:0:
192,192,121303,1,0,0:0:0:0:
64,192,121422,1,0,0:0:0:0:
320,192,121422,1,0,0:0:0:0:
448,192,121541,1,0,0:0:0:0:
192,192,121541,1,0,0:0:0:0:
64,192,121541,1,0,0:0:0:0:
320,192,121660,1,0,0:0:0:0:
192,192,121660,1,0,0:0:0:0:
320,192,121780,1,0,0:0:0:0:
448,192,121780,1,0,0:0:0:0:
192,192,121899,1,0,0:0:0:0:
448,192,122018,1,0,0:0:0:0:
320,192,122018,1,0,0:0:0:0:
192,192,122018,1,0,0:0:0:0:
64,192,122018,1,0,0:0:0:0:
320,192,122137,1,0,0:0:0:0:
448,192,122137,1,0,0:0:0:0:
64,192,122256,1,0,0:0:0:0:
192,192,122256,1,0,0:0:0:0:
192,192,122375,1,0,0:0:0:0:
448,192,122375,1,0,0:0:0:0:
448,192,122494,1,0,0:0:0:0:
320,192,122494,1,0,0:0:0:0:
64,192,122494,1,0,0:0:0:0:
320,192,122613,1,0,0:0:0:0:
64,192,122613,1,0,0:0:0:0:
192,192,122732,1,0,0:0:0:0:
448,192,122732,1,0,0:0:0:0:
320,192,122851,1,0,0:0:0:0:
64,192,122851,1,0,0:0:0:0:
320,192,122970,1,0,0:0:0:0:
192,192,122970,1,0,0:0:0:0:
64,192,122970,1,0,0:0:0:0:
448,192,122970,1,0,0:0:0:0:
192,192,123089,1,0,0:0:0:0:
448,192,123089,1,0,0:0:0:0:
320,192,123208,1,0,0:0:0:0:
192,192,123327,1,0,0:0:0:0:
64,192,123327,1,0,0:0:0:0:
64,192,123446,1,0,0:0:0:0:
448,192,123446,1,0,0:0:0:0:
320,192,123446,1,0,0:0:0:0:
320,192,123565,1,0,0:0:0:0:
192,192,123684,1,0,0:0:0:0:
448,192,123684,1,0,0:0:0:0:
320,192,123803,1,0,0:0:0:0:
448,192,123922,1,0,0:0:0:0:
320,192,123922,1,0,0:0:0:0:
192,192,123922,1,0,0:0:0:0:
64,192,123922,1,0,0:0:0:0:
192,192,124041,1,0,0:0:0:0:
64,192,124160,1,0,0:0:0:0:
192,192,124280,1,0,0:0:0:0:
448,192,124280,1,0,0:0:0:0:
320,192,124399,1,0,0:0:0:0:
64,192,124399,1,0,0:0:0:0:
192,192,124399,1,0,0:0:0:0:
320,192,124518,1,0,0:0:0:0:
448,192,124637,1,0,0:0:0:0:
64,192,124637,1,0,0:0:0:0:
192,192,124756,1,0,0:0:0:0:
320,192,124875,1,0,0:0:0:0:
448,192,124875,1,0,0:0:0:0:
192,192,124875,1,0,0:0:0:0:
64,192,124875,1,0,0:0:0:0:
320,192,124994,1,0,0:0:0:0:
448,192,124994,1,0,0:0:0:0:
320,192,125113,1,0,0:0:0:0:
192,192,125232,1,0,0:0:0:0:
64,192,125232,1,0,0:0:0:0:
64,192,125351,1,0,0:0:0:0:
320,192,125351,1,0,0:0:0:0:
448,192,125351,1,0,0:0:0:0:
320,192,125470,1,0,0:0:0:0:
64,192,125589,1,0,0:0:0:0:
192,192,125589,1,0,0:0:0:0:
320,192,125708,1,0,0:0:0:0:
192,192,125827,1,0,0:0:0:0:
448,192,125827,1,0,0:0:0:0:
320,192,125827,1,0,0:0:0:0:
64,192,125827,1,0,0:0:0:0:
192,192,125946,1,0,0:0:0:0:
64,192,126065,1,0,0:0:0:0:
320,192,126065,1,0,0:0:0:0:
448,192,126184,1,0,0:0:0:0:
192,192,126303,1,0,0:0:0:0:
64,192,126303,1,0,0:0:0:0:
448,192,126303,1,0,0:0:0:0:
320,192,126422,1,0,0:0:0:0:
320,192,126541,1,0,0:0:0:0:
64,192,126541,1,0,0:0:0:0:
192,192,126660,1,0,0:0:0:0:
64,192,126780,1,0,0:0:0:0:
192,192,126780,1,0,0:0:0:0:
320,192,126780,1,0,0:0:0:0:
448,192,126780,1,0,0:0:0:0:
320,192,126899,1,0,0:0:0:0:
64,192,126899,1,0,0:0:0:0:
192,192,127018,1,0,0:0:0:0:
320,192,127137,1,0,0:0:0:0:
448,192,127137,1,0,0:0:0:0:
448,192,127256,1,0,0:0:0:0:
320,192,127256,1,0,0:0:0:0:
64,192,127256,1,0,0:0:0:0:
192,192,127375,1,0,0:0:0:0:
64,192,127494,1,0,0:0:0:0:
320,192,127494,1,0,0:0:0:0:
192,192,127613,1,0,0:0:0:0:
448,192,127732,1,0,0:0:0:0:
320,192,127732,1,0,0:0:0:0:
192,192,127732,1,0,0:0:0:0:
64,192,127732,1,0,0:0:0:0:
320,192,127851,1,0,0:0:0:0:
64,192,127970,1,0,0:0:0:0:
320,192,128089,1,0,0:0:0:0:
448,192,128089,1,0,0:0:0:0:
192,192,128208,1,0,0:0:0:0:
64,192,128208,1,0,0:0:0:0:
448,192,128208,1,0,0:0:0:0:
320,192,128327,1,0,0:0:0:0:
192,192,128446,1,0,0:0:0:0:
448,192,128446,1,0,0:0:0:0:
64,192,128565,1,0,0:0:0:0:
64,192,128684,1,0,0:0:0:0:
192,192,128684,1,0,0:0:0:0:
320,192,128684,1,0,0:0:0:0:
448,192,128684,1,0,0:0:0:0:
320,192,128803,1,0,0:0:0:0:
320,192,128922,1,0,0:0:0:0:
192,192,129041,1,0,0:0:0:0:
64,192,129041,1,0,0:0:0:0:
64,192,129160,1,0,0:0:0:0:
192,192,129160,1,0,0:0:0:0:
320,192,129160,1,0,0:0:0:0:
320,192,129280,1,0,0:0:0:0:
448,192,129399,1,0,0:0:0:0:
192,192,129399,1,0,0:0:0:0:
320,192,129518,1,0,0:0:0:0:
320,192,129637,1,0,0:0:0:0:
192,192,129637,1,0,0:0:0:0:
64,192,129637,1,0,0:0:0:0:
448,192,129637,1,0,0:0:0:0:
192,192,129756,1,0,0:0:0:0:
64,192,129875,1,0,0:0:0:0:
64,192,129994,1,0,0:0:0:0:
192,192,129994,1,0,0:0:0:0:
448,192,130113,1,0,0:0:0:0:
320,192,130113,1,0,0:0:0:0:
192,192,130113,1,0,0:0:0:0:
320,192,130232,1,0,0:0:0:0:
448,192,130351,1,0,0:0:0:0:
64,192,130351,1,0,0:0:0:0:
192,192,130470,1,0,0:0:0:0:
192,192,130589,1,0,0:0:0:0:
320,192,130589,1,0,0:0:0:0:
448,192,130589,1,0,0:0:0:0:
64,192,130589,1,0,0:0:0:0:
320,192,130708,1,0,0:0:0:0:
64,192,130827,1,0,0:0:0:0:
192,192,130946,1,0,0:0:0:0:
448,192,130946,1,0,0:0:0:0:
448,192,131065,1,0,0:0:0:0:
320,192,131065,1,0,0:0:0:0:
192,192,131065,1,0,0:0:0:0:
320,192,131184,1,0,0:0:0:0:
64,192,131303,1,0,0:0:0:0:
192,192,131303,1,0,0:0:0:0:
448,192,131422,1,0,0:0:0:0:
448,192,131541,1,0,0:0:0:0:
320,192,131541,1,0,0:0:0:0:
64,192,131541,1,0,0:0:0:0:
192,192,131541,1,0,0:0:0:0:
192,192,131660,1,0,0:0:0:0:
320,192,131780,1,0,0:0:0:0:
448,192,131780,1,0,0:0:0:0:
320,192,131899,1,0,0:0:0:0:
64,192,132018,1,0,0:0:0:0:
192,192,132018,1,0,0:0:0:0:
448,192,132018,1,0,0:0:0:0:
192,192,132137,1,0,0:0:0:0:
64,192,132256,1,0,0:0:0:0:
448,192,132256,1,0,0:0:0:0:
192,192,132375,1,0,0:0:0:0:
448,192,132494,1,0,0:0:0:0:
320,192,132494,1,0,0:0:0:0:
192,192,132494,1,0,0:0:0:0:
64,192,132494,1,0,0:0:0:0:
448,192,132613,1,0,0:0:0:0:
64,192,132613,1,0,0:0:0:0:
192,192,132732,1,0,0:0:0:0:
64,192,132851,1,0,0:0:0:0:
320,192,132851,1,0,0:0:0:0:
448,192,132970,1,0,0:0:0:0:
192,192,132970,1,0,0:0:0:0:
64,192,132970,1,0,0:0:0:0:
320,192,133089,1,0,0:0:0:0:
448,192,133208,1,0,0:0:0:0:
192,192,133208,1,0,0:0:0:0:
64,192,133327,1,0,0:0:0:0:
448,192,133446,1,0,0:0:0:0:
320,192,133446,1,0,0:0:0:0:
64,192,133446,1,0,0:0:0:0:
192,192,133446,1,0,0:0:0:0:
192,192,133565,1,0,0:0:0:0:
448,192,133565,1,0,0:0:0:0:
320,192,133684,1,0,0:0:0:0:
192,192,133803,1,0,0:0:0:0:
448,192,133922,1,0,0:0:0:0:
320,192,133922,1,0,0:0:0:0:
64,192,133922,1,0,0:0:0:0:
192,192,133922,1,0,0:0:0:0:
320,192,134041,1,0,0:0:0:0:
64,192,134160,1,0,0:0:0:0:
192,192,134280,1,0,0:0:0:0:
448,192,134399,1,0,0:0:0:0:
320,192,134399,1,0,0:0:0:0:
64,192,134399,1,0,0:0:0:0:
192,192,134518,1,0,0:0:0:0:
320,192,134637,1,0,0:0:0:0:
320,192,134756,1,0,0:0:0:0:
448,192,134875,1,0,0:0:0:0:
192,192,134875,1,0,0:0:0:0:
64,192,134875,1,0,0:0:0:0:
320,192,134994,1,0,0:0:0:0:
192,192,135113,1,0,0:0:0:0:
192,192,135232,1,0,0:0:0:0:
320,192,135351,1,0,0:0:0:0:
448,192,135351,1,0,0:0:0:0:
64,192,135351,1,0,0:0:0:0:
448,192,135470,1,0,0:0:0:0:
64,192,135589,1,0,0:0:0:0:
64,192,135708,1,0,0:0:0:0:
192,192,135827,1,0,0:0:0:0:
320,192,135827,1,0,0:0:0:0:
448,192,135827,1,0,0:0:0:0:
192,192,135946,1,0,0:0:0:0:
448,192,136065,1,0,0:0:0:0:
448,192,136184,1,0,0:0:0:0:
320,192,136303,1,0,0:0:0:0:
64,192,136303,1,0,0:0:0:0:
448,192,136303,1,0,0:0:0:0:
192,192,136422,1,0,0:0:0:0:
320,192,136541,1,0,0:0:0:0:
320,192,136660,1,0,0:0:0:0:
448,192,136780,1,0,0:0:0:0:
192,192,136780,1,0,0:0:0:0:
64,192,136780,1,0,0:0:0:0:
64,192,136899,1,0,0:0:0:0:
192,192,137018,1,0,0:0:0:0:
192,192,137137,1,0,0:0:0:0:
448,192,137256,1,0,0:0:0:0:
320,192,137256,1,0,0:0:0:0:
64,192,137256,1,0,0:0:0:0:
448,192,137375,1,0,0:0:0:0:
64,192,137494,1,0,0:0:0:0:
64,192,137613,1,0,0:0:0:0:
192,192,137732,1,0,0:0:0:0:
320,192,137732,1,0,0:0:0:0:
448,192,137732,1,0,0:0:0:0:
192,192,137851,1,0,0:0:0:0:
448,192,137970,1,0,0:0:0:0:
448,192,138089,1,0,0:0:0:0:
320,192,138208,1,0,0:0:0:0:
192,192,138208,1,0,0:0:0:0:
64,192,138208,1,0,0:0:0:0:
192,192,138327,1,0,0:0:0:0:
448,192,138327,1,0,0:0:0:0:
320,192,138446,1,0,0:0:0:0:
320,192,138565,1,0,0:0:0:0:
64,192,138565,1,0,0:0:0:0:
192,192,138684,1,0,0:0:0:0:
64,192,138684,1,0,0:0:0:0:
448,192,138684,1,0,0:0:0:0:
320,192,138803,1,0,0:0:0:0:
192,192,138922,1,0,0:0:0:0:
64,192,138922,1,0,0:0:0:0:
192,192,139041,1,0,0:0:0:0:
448,192,139160,1,0,0:0:0:0:
320,192,139160,1,0,0:0:0:0:
64,192,139160,1,0,0:0:0:0:
192,192,139280,1,0,0:0:0:0:
64,192,139280,1,0,0:0:0:0:
192,192,139399,1,0,0:0:0:0:
448,192,139518,1,0,0:0:0:0:
320,192,139518,1,0,0:0:0:0:
448,192,139637,1,0,0:0:0:0:
192,192,139637,1,0,0:0:0:0:
64,192,139637,1,0,0:0:0:0:
320,192,139756,1,0,0:0:0:0:
192,192,139875,1,0,0:0:0:0:
64,192,139875,1,0,0:0:0:0:
192,192,139994,1,0,0:0:0:0:
448,192,139994,1,0,0:0:0:0:
448,192,140113,1,0,0:0:0:0:
320,192,140113,1,0,0:0:0:0:
64,192,140113,1,0,0:0:0:0:
64,192,140232,1,0,0:0:0:0:
320,192,140232,1,0,0:0:0:0:
192,192,140351,1,0,0:0:0:0:
448,192,140470,1,0,0:0:0:0:
320,192,140470,1,0,0:0:0:0:
320,192,140589,1,0,0:0:0:0:
64,192,140589,1,0,0:0:0:0:
192,192,140589,1,0,0:0:0:0:
192,192,140708,1,0,0:0:0:0:
448,192,140827,1,0,0:0:0:0:
320,192,140827,1,0,0:0:0:0:
64,192,140946,1,0,0:0:0:0:
320,192,140946,1,0,0:0:0:0:
192,192,141065,1,0,0:0:0:0:
64,192,141065,1,0,0:0:0:0:
448,192,141065,1,0,0:0:0:0:
320,192,141184,1,0,0:0:0:0:
192,192,141303,1,0,0:0:0:0:
448,192,141303,1,0,0:0:0:0:
320,192,141422,1,0,0:0:0:0:
64,192,141422,1,0,0:0:0:0:
64,192,141541,1,0,0:0:0:0:
192,192,141541,1,0,0:0:0:0:
448,192,141541,1,0,0:0:0:0:
320,192,141660,1,0,0:0:0:0:
192,192,141780,1,0,0:0:0:0:
448,192,141780,1,0,0:0:0:0:
64,192,141899,1,0,0:0:0:0:
448,192,142018,1,0,0:0:0:0:
192,192,142018,1,0,0:0:0:0:
64,192,142018,1,0,0:0:0:0:
320,192,142137,1,0,0:0:0:0:
448,192,142256,1,0,0:0:0:0:
320,192,142256,1,0,0:0:0:0:
192,192,142375,1,0,0:0:0:0:
64,192,142375,1,0,0:0:0:0:
448,192,142494,1,0,0:0:0:0:
320,192,142494,1,0,0:0:0:0:
192,192,142494,1,0,0:0:0:0:
320,192,142613,1,0,0:0:0:0:
192,192,142732,1,0,0:0:0:0:
64,192,142732,1,0,0:0:0:0:
192,192,142851,1,0,0:0:0:0:
448,192,142851,1,0,0:0:0:0:
448,192,142970,1,0,0:0:0:0:
320,192,142970,1,0,0:0:0:0:
64,192,142970,1,0,0:0:0:0:
192,192,143089,1,0,0:0:0:0:
320,192,143208,1,0,0:0:0:0:
192,192,143208,1,0,0:0:0:0:
320,192,143327,1,0,0:0:0:0:
192,192,143446,1,0,0:0:0:0:
64,192,143446,1,0,0:0:0:0:
448,192,143446,1,0,0:0:0:0:
320,192,143565,1,0,0:0:0:0:
192,192,143684,1,0,0:0:0:0:
448,192,143684,1,0,0:0:0:0:
448,192,143803,1,0,0:0:0:0:
64,192,143803,1,0,0:0:0:0:
320,192,143922,1,0,0:0:0:0:
192,192,143922,1,0,0:0:0:0:
64,192,143922,1,0,0:0:0:0:
192,192,144041,1,0,0:0:0:0:
448,192,144160,1,0,0:0:0:0:
64,192,144160,1,0,0:0:0:0:
64,192,144280,1,0,0:0:0:0:
320,192,144280,1,0,0:0:0:0:
192,192,144399,1,0,0:0:0:0:
320,192,144399,1,0,0:0:0:0:
448,192,144399,1,0,0:0:0:0:
192,192,144518,1,0,0:0:0:0:
64,192,144637,1,0,0:0:0:0:
448,192,144637,1,0,0:0:0:0:
320,192,144637,1,0,0:0:0:0:
320,192,144756,1,0,0:0:0:0:
192,192,144875,1,0,0:0:0:0:
64,192,144875,1,0,0:0:0:0:
448,192,144875,1,0,0:0:0:0:
192,192,144994,1,0,0:0:0:0:
320,192,145113,1,0,0:0:0:0:
320,192,145232,1,0,0:0:0:0:
448,192,145351,1,0,0:0:0:0:
192,192,145351,1,0,0:0:0:0:
64,192,145351,1,0,0:0:0:0:
320,192,145470,1,0,0:0:0:0:
192,192,145589,1,0,0:0:0:0:
64,192,145589,1,0,0:0:0:0:
320,192,145708,1,0,0:0:0:0:
448,192,145708,1,0,0:0:0:0:
448,192,145827,1,0,0:0:0:0:
192,192,145827,1,0,0:0:0:0:
64,192,145827,1,0,0:0:0:0:
320,192,145946,1,0,0:0:0:0:
192,192,146065,1,0,0:0:0:0:
64,192,146065,1,0,0:0:0:0:
448,192,146184,1,0,0:0:0:0:
192,192,146184,1,0,0:0:0:0:
448,192,146303,1,0,0:0:0:0:
320,192,146303,1,0,0:0:0:0:
64,192,146303,1,0,0:0:0:0:
192,192,146422,1,0,0:0:0:0:
320,192,146541,1,0,0:0:0:0:
64,192,146541,1,0,0:0:0:0:
64,192,146660,1,0,0:0:0:0:
448,192,146660,1,0,0:0:0:0:
448,192,146780,1,0,0:0:0:0:
320,192,146780,1,0,0:0:0:0:
192,192,146780,1,0,0:0:0:0:
320,192,146899,1,0,0:0:0:0:
192,192,147018,1,0,0:0:0:0:
64,192,147018,1,0,0:0:0:0:
448,192,147137,1,0,0:0:0:0:
320,192,147137,1,0,0:0:0:0:
448,192,147256,1,0,0:0:0:0:
192,192,147256,1,0,0:0:0:0:
64,192,147256,1,0,0:0:0:0:
192,192,147375,1,0,0:0:0:0:
320,192,147494,1,0,0:0:0:0:
448,192,147494,1,0,0:0:0:0:
64,192,147613,1,0,0:0:0:0:
192,192,147613,1,0,0:0:0:0:
192,192,147732,1,0,0:0:0:0:
64,192,147732,1,0,0:0:0:0:
320,192,147732,1,0,0:0:0:0:
320,192,147851,1,0,0:0:0:0:
448,192,147970,1,0,0:0:0:0:
192,192,147970,1,0,0:0:0:0:
320,192,148089,1,0,0:0:0:0:
448,192,148089,1,0,0:0:0:0:
320,192,148208,1,0,0:0:0:0:
192,192,148208,1,0,0:0:0:0:
64,192,148208,1,0,0:0:0:0:
192,192,148327,1,0,0:0:0:0:
448,192,148446,1,0,0:0:0:0:
64,192,148446,1,0,0:0:0:0:
320,192,148565,1,0,0:0:0:0:
192,192,148565,1,0,0:0:0:0:
64,192,148684,1,0,0:0:0:0:
192,192,148684,1,0,0:0:0:0:
448,192,148684,1,0,0:0:0:0:
320,192,148803,1,0,0:0:0:0:
448,192,148803,1,0,0:0:0:0:
192,192,148922,1,0,0:0:0:0:
64,192,148922,1,0,0:0:0:0:
448,192,148981,1,0,0:0:0:0:
320,192,148981,1,0,0:0:0:0:
192,192,149041,1,0,0:0:0:0:
64,192,149041,1,0,0:0:0:0:
320,192,149160,1,0,0:0:0:0:
448,192,149160,1,0,0:0:0:0:
64,192,149160,1,0,0:0:0:0:
192,192,149280,1,0,0:0:0:0:
448,192,149399,1,0,0:0:0:0:
64,192,149399,1,0,0:0:0:0:
192,192,149518,1,0,0:0:0:0:
192,192,149637,1,0,0:0:0:0:
448,192,149637,1,0,0:0:0:0:
64,192,149637,1,0,0:0:0:0:
320,192,149756,1,0,0:0:0:0:
192,192,149875,1,0,0:0:0:0:
320,192,149994,1,0,0:0:0:0:
64,192,149994,1,0,0:0:0:0:
64,192,150113,1,0,0:0:0:0:
448,192,150113,1,0,0:0:0:0:
192,192,150113,1,0,0:0:0:0:
320,192,150113,1,0,0:0:0:0:
192,192,150232,1,0,0:0:0:0:
448,192,150351,1,0,0:0:0:0:
192,192,150351,1,0,0:0:0:0:
320,192,150470,1,0,0:0:0:0:
192,192,150589,1,0,0:0:0:0:
64,192,150589,1,0,0:0:0:0:
448,192,150589,1,0,0:0:0:0:
192,192,150708,1,0,0:0:0:0:
64,192,150827,1,0,0:0:0:0:
64,192,150946,1,0,0:0:0:0:
320,192,150946,1,0,0:0:0:0:
192,192,151065,1,0,0:0:0:0:
448,192,151065,1,0,0:0:0:0:
320,192,151065,1,0,0:0:0:0:
64,192,151065,1,0,0:0:0:0:
192,192,151184,1,0,0:0:0:0:
448,192,151303,1,0,0:0:0:0:
320,192,151303,1,0,0:0:0:0:
320,192,151422,1,0,0:0:0:0:
192,192,151541,1,0,0:0:0:0:
64,192,151541,1,0,0:0:0:0:
448,192,151541,1,0,0:0:0:0:
192,192,151660,1,0,0:0:0:0:
320,192,151780,1,0,0:0:0:0:
192,192,151899,1,0,0:0:0:0:
64,192,151899,1,0,0:0:0:0:
448,192,152018,1,0,0:0:0:0:
320,192,152018,1,0,0:0:0:0:
192,192,152018,1,0,0:0:0:0:
64,192,152018,1,0,0:0:0:0:
320,192,152137,1,0,0:0:0:0:
448,192,152256,1,0,0:0:0:0:
64,192,152256,1,0,0:0:0:0:
320,192,152375,1,0,0:0:0:0:
192,192,152494,1,0,0:0:0:0:
64,192,152494,1,0,0:0:0:0:
320,192,152494,1,0,0:0:0:0:
192,192,152613,1,0,0:0:0:0:
448,192,152732,1,0,0:0:0:0:
320,192,152851,1,0,0:0:0:0:
64,192,152851,1,0,0:0:0:0:
64,192,152970,1,0,0:0:0:0:
192,192,152970,1,0,0:0:0:0:
320,192,152970,1,0,0:0:0:0:
448,192,152970,1,0,0:0:0:0:
192,192,153089,1,0,0:0:0:0:
448,192,153208,1,0,0:0:0:0:
320,192,153208,1,0,0:0:0:0:
320,192,153327,1,0,0:0:0:0:
448,192,153446,1,0,0:0:0:0:
192,192,153446,1,0,0:0:0:0:
64,192,153446,1,0,0:0:0:0:
192,192,153565,1,0,0:0:0:0:
64,192,153684,1,0,0:0:0:0:
448,192,153803,1,0,0:0:0:0:
192,192,153803,1,0,0:0:0:0:
320,192,153922,1,0,0:0:0:0:
64,192,153922,1,0,0:0:0:0:
448,192,153922,1,0,0:0:0:0:
192,192,153922,1,0,0:0:0:0:
320,192,154041,1,0,0:0:0:0:
192,192,154160,1,0,0:0:0:0:
64,192,154160,1,0,0:0:0:0:
192,192,154280,1,0,0:0:0:0:
448,192,154399,1,0,0:0:0:0:
320,192,154399,1,0,0:0:0:0:
192,192,154399,1,0,0:0:0:0:
320,192,154518,1,0,0:0:0:0:
64,192,154637,1,0,0:0:0:0:
192,192,154756,1,0,0:0:0:0:
448,192,154756,1,0,0:0:0:0:
448,192,154875,1,0,0:0:0:0:
320,192,154875,1,0,0:0:0:0:
192,192,154875,1,0,0:0:0:0:
64,192,154875,1,0,0:0:0:0:
320,192,154994,1,0,0:0:0:0:
192,192,155113,1,0,0:0:0:0:
448,192,155113,1,0,0:0:0:0:
192,192,155232,1,0,0:0:0:0:
320,192,155351,1,0,0:0:0:0:
448,192,155351,1,0,0:0:0:0:
64,192,155351,1,0,0:0:0:0:
192,192,155470,1,0,0:0:0:0:
64,192,155589,1,0,0:0:0:0:
192,192,155708,1,0,0:0:0:0:
320,192,155708,1,0,0:0:0:0:
448,192,155827,1,0,0:0:0:0:
320,192,155827,1,0,0:0:0:0:
192,192,155827,1,0,0:0:0:0:
64,192,155827,1,0,0:0:0:0:
64,192,155946,1,0,0:0:0:0:
192,192,156065,1,0,0:0:0:0:
448,192,156065,1,0,0:0:0:0:
448,192,156184,1,0,0:0:0:0:
448,192,156303,1,0,0:0:0:0:
320,192,156303,1,0,0:0:0:0:
192,192,156303,1,0,0:0:0:0:
320,192,156422,1,0,0:0:0:0:
64,192,156541,1,0,0:0:0:0:
192,192,156660,1,0,0:0:0:0:
448,192,156660,1,0,0:0:0:0:
448,192,156780,1,0,0:0:0:0:
320,192,156780,1,0,0:0:0:0:
192,192,156780,1,0,0:0:0:0:
64,192,156780,1,0,0:0:0:0:
320,192,156899,1,0,0:0:0:0:
64,192,157018,1,0,0:0:0:0:
192,192,157018,1,0,0:0:0:0:
192,192,157137,1,0,0:0:0:0:
448,192,157256,1,0,0:0:0:0:
320,192,157256,1,0,0:0:0:0:
64,192,157256,1,0,0:0:0:0:
320,192,157375,1,0,0:0:0:0:
64,192,157494,1,0,0:0:0:0:
64,192,157613,1,0,0:0:0:0:
192,192,157613,1,0,0:0:0:0:
448,192,157732,1,0,0:0:0:0:
320,192,157732,1,0,0:0:0:0:
192,192,157732,1,0,0:0:0:0:
64,192,157732,1,0,0:0:0:0:
320,192,157851,1,0,0:0:0:0:
192,192,157970,1,0,0:0:0:0:
64,192,157970,1,0,0:0:0:0:
192,192,158089,1,0,0:0:0:0:
448,192,158208,1,0,0:0:0:0:
320,192,158208,1,0,0:0:0:0:
64,192,158208,1,0,0:0:0:0:
320,192,158327,1,0,0:0:0:0:
192,192,158446,1,0,0:0:0:0:
320,192,158565,1,0,0:0:0:0:
448,192,158565,1,0,0:0:0:0:
448,192,158684,1,0,0:0:0:0:
320,192,158684,1,0,0:0:0:0:
64,192,158684,1,0,0:0:0:0:
192,192,158684,1,0,0:0:0:0:
192,192,158803,1,0,0:0:0:0:
320,192,158922,1,0,0:0:0:0:
64,192,158922,1,0,0:0:0:0:
192,192,159041,1,0,0:0:0:0:
320,192,159160,1,0,0:0:0:0:
448,192,159160,1,0,0:0:0:0:
192,192,159160,1,0,0:0:0:0:
320,192,159280,1,0,0:0:0:0:
64,192,159399,1,0,0:0:0:0:
64,192,159518,1,0,0:0:0:0:
320,192,159518,1,0,0:0:0:0:
448,192,159637,1,0,0:0:0:0:
320,192,159637,1,0,0:0:0:0:
192,192,159637,1,0,0:0:0:0:
64,192,159637,1,0,0:0:0:0:
192,192,159756,1,0,0:0:0:0:
64,192,159875,1,0,0:0:0:0:
448,192,159875,1,0,0:0:0:0:
448,192,159994,1,0,0:0:0:0:
320,192,160113,1,0,0:0:0:0:
192,192,160113,1,0,0:0:0:0:
64,192,160113,1,0,0:0:0:0:
64,192,160232,1,0,0:0:0:0:
192,192,160351,1,0,0:0:0:0:
448,192,160470,1,0,0:0:0:0:
64,192,160470,1,0,0:0:0:0:
448,192,160589,1,0,0:0:0:0:
320,192,160589,1,0,0:0:0:0:
192,192,160589,1,0,0:0:0:0:
64,192,160589,1,0,0:0:0:0:
192,192,160708,1,0,0:0:0:0:
320,192,160827,1,0,0:0:0:0:
64,192,160827,1,0,0:0:0:0:
320,192,160946,1,0,0:0:0:0:
448,192,161065,1,0,0:0:0:0:
192,192,161065,1,0,0:0:0:0:
64,192,161065,1,0,0:0:0:0:
448,192,161184,1,0,0:0:0:0:
192,192,161303,1,0,0:0:0:0:
448,192,161422,1,0,0:0:0:0:
320,192,161422,1,0,0:0:0:0:
448,192,161541,1,0,0:0:0:0:
320,192,161541,1,0,0:0:0:0:
64,192,161541,1,0,0:0:0:0:
192,192,161541,1,0,0:0:0:0:
192,192,161660,1,0,0:0:0:0:
64,192,161780,1,0,0:0:0:0:
448,192,161780,1,0,0:0:0:0:
192,192,161899,1,0,0:0:0:0:
64,192,162018,1,0,0:0:0:0:
320,192,162018,1,0,0:0:0:0:
192,192,162018,1,0,0:0:0:0:
320,192,162137,1,0,0:0:0:0:
192,192,162256,1,0,0:0:0:0:
448,192,162375,1,0,0:0:0:0:
192,192,162375,1,0,0:0:0:0:
448,192,162494,1,0,0:0:0:0:
320,192,162494,1,0,0:0:0:0:
192,192,162494,1,0,0:0:0:0:
64,192,162494,1,0,0:0:0:0:
320,192,162613,1,0,0:0:0:0:
192,192,162732,1,0,0:0:0:0:
64,192,162732,1,0,0:0:0:0:
192,192,162851,1,0,0:0:0:0:
448,192,162970,1,0,0:0:0:0:
320,192,162970,1,0,0:0:0:0:
64,192,162970,1,0,0:0:0:0:
320,192,163089,1,0,0:0:0:0:
64,192,163208,1,0,0:0:0:0:
448,192,163208,1,0,0:0:0:0:
192,192,163327,1,0,0:0:0:0:
320,192,163327,1,0,0:0:0:0:
448,192,163446,1,0,0:0:0:0:
320,192,163446,1,0,0:0:0:0:
64,192,163446,1,0,0:0:0:0:
192,192,163446,1,0,0:0:0:0:
448,192,163565,1,0,0:0:0:0:
192,192,163684,1,0,0:0:0:0:
64,192,163684,1,0,0:0:0:0:
320,192,163803,1,0,0:0:0:0:
448,192,163922,1,0,0:0:0:0:
192,192,163922,1,0,0:0:0:0:
64,192,163922,1,0,0:0:0:0:
192,192,164041,1,0,0:0:0:0:
320,192,164160,1,0,0:0:0:0:
64,192,164160,1,0,0:0:0:0:
192,192,164280,1,0,0:0:0:0:
448,192,164280,1,0,0:0:0:0:
448,192,164399,1,0,0:0:0:0:
320,192,164399,1,0,0:0:0:0:
192,192,164399,1,0,0:0:0:0:
64,192,164399,1,0,0:0:0:0:
64,192,164518,1,0,0:0:0:0:
192,192,164637,1,0,0:0:0:0:
448,192,164637,1,0,0:0:0:0:
448,192,164756,1,0,0:0:0:0:
320,192,164875,1,0,0:0:0:0:
192,192,164875,1,0,0:0:0:0:
64,192,164875,1,0,0:0:0:0:
448,192,164875,1,0,0:0:0:0:
192,192,164994,1,0,0:0:0:0:
320,192,165113,1,0,0:0:0:0:
448,192,165232,1,0,0:0:0:0:
192,192,165232,1,0,0:0:0:0:
448,192,165351,1,0,0:0:0:0:
320,192,165351,1,0,0:0:0:0:
64,192,165351,1,0,0:0:0:0:
192,192,165351,1,0,0:0:0:0:
320,192,165470,1,0,0:0:0:0:
192,192,165589,1,0,0:0:0:0:
64,192,165589,1,0,0:0:0:0:
192,192,165708,1,0,0:0:0:0:
64,192,165827,1,0,0:0:0:0:
192,192,165827,1,0,0:0:0:0:
320,192,165827,1,0,0:0:0:0:
448,192,165827,1,0,0:0:0:0:
320,192,165946,1,0,0:0:0:0:
64,192,166065,1,0,0:0:0:0:
64,192,166184,1,0,0:0:0:0:
320,192,166184,1,0,0:0:0:0:
448,192,166303,1,0,0:0:0:0:
320,192,166303,1,0,0:0:0:0:
192,192,166303,1,0,0:0:0:0:
64,192,166303,1,0,0:0:0:0:
192,192,166422,1,0,0:0:0:0:
448,192,166541,1,0,0:0:0:0:
64,192,166541,1,0,0:0:0:0:
320,192,166660,1,0,0:0:0:0:
448,192,166780,1,0,0:0:0:0:
320,192,166780,1,0,0:0:0:0:
192,192,166780,1,0,0:0:0:0:
64,192,166780,1,0,0:0:0:0:
192,192,166899,1,0,0:0:0:0:
448,192,167018,1,0,0:0:0:0:
320,192,167137,1,0,0:0:0:0:
448,192,167137,1,0,0:0:0:0:
448,192,167256,1,0,0:0:0:0:
320,192,167256,1,0,0:0:0:0:
192,192,167256,1,0,0:0:0:0:
64,192,167256,1,0,0:0:0:0:
64,192,167375,1,0,0:0:0:0:
64,192,167494,1,0,0:0:0:0:
320,192,167494,1,0,0:0:0:0:
192,192,167613,1,0,0:0:0:0:
448,192,167732,1,0,0:0:0:0:
320,192,167732,1,0,0:0:0:0:
64,192,167732,1,0,0:0:0:0:
192,192,167732,1,0,0:0:0:0:
320,192,167851,1,0,0:0:0:0:
64,192,167970,1,0,0:0:0:0:
192,192,168089,1,0,0:0:0:0:
320,192,168089,1,0,0:0:0:0:
448,192,168208,1,0,0:0:0:0:
320,192,168208,1,0,0:0:0:0:
192,192,168208,1,0,0:0:0:0:
64,192,168208,1,0,0:0:0:0:
448,192,168327,1,0,0:0:0:0:
320,192,168446,1,0,0:0:0:0:
64,192,168446,1,0,0:0:0:0:
192,192,168565,1,0,0:0:0:0:
64,192,168684,1,0,0:0:0:0:
192,192,168684,1,0,0:0:0:0:
320,192,168684,1,0,0:0:0:0:
448,192,168684,1,0,0:0:0:0:
64,192,168803,1,0,0:0:0:0:
320,192,168922,1,0,0:0:0:0:
448,192,169041,1,0,0:0:0:0:
192,192,169041,1,0,0:0:0:0:
448,192,169160,1,0,0:0:0:0:
320,192,169160,1,0,0:0:0:0:
192,192,169160,1,0,0:0:0:0:
64,192,169160,1,0,0:0:0:0:
320,192,169280,1,0,0:0:0:0:
64,192,169399,1,0,0:0:0:0:
192,192,169399,1,0,0:0:0:0:
192,192,169518,1,0,0:0:0:0:
448,192,169637,1,0,0:0:0:0:
320,192,169637,1,0,0:0:0:0:
192,192,169637,1,0,0:0:0:0:
64,192,169637,1,0,0:0:0:0:
320,192,169756,1,0,0:0:0:0:
192,192,169875,1,0,0:0:0:0:
448,192,169994,1,0,0:0:0:0:
64,192,169994,1,0,0:0:0:0:
448,192,170113,1,0,0:0:0:0:
320,192,170113,1,0,0:0:0:0:
192,192,170113,1,0,0:0:0:0:
64,192,170113,1,0,0:0:0:0:
320,192,170232,1,0,0:0:0:0:
192,192,170351,1,0,0:0:0:0:
64,192,170351,1,0,0:0:0:0:
448,192,170470,1,0,0:0:0:0:
448,192,170589,1,0,0:0:0:0:
320,192,170589,1,0,0:0:0:0:
192,192,170589,1,0,0:0:0:0:
64,192,170589,1,0,0:0:0:0:
192,192,170708,1,0,0:0:0:0:
64,192,170827,1,0,0:0:0:0:
320,192,170946,1,0,0:0:0:0:
64,192,170946,1,0,0:0:0:0:
192,192,171065,1,0,0:0:0:0:
448,192,171065,1,0,0:0:0:0:
320,192,171065,1,0,0:0:0:0:
64,192,171065,1,0,0:0:0:0:
192,192,171184,1,0,0:0:0:0:
64,192,171303,1,0,0:0:0:0:
192,192,171303,1,0,0:0:0:0:
320,192,171422,1,0,0:0:0:0:
192,192,171541,1,0,0:0:0:0:
64,192,171541,1,0,0:0:0:0:
320,192,171541,1,0,0:0:0:0:
448,192,171541,1,0,0:0:0:0:
192,192,171660,1,0,0:0:0:0:
64,192,171780,1,0,0:0:0:0:
192,192,171899,1,0,0:0:0:0:
448,192,171899,1,0,0:0:0:0:
448,192,172018,1,0,0:0:0:0:
320,192,172018,1,0,0:0:0:0:
192,192,172018,1,0,0:0:0:0:
64,192,172018,1,0,0:0:0:0:
320,192,172137,1,0,0:0:0:0:
64,192,172256,1,0,0:0:0:0:
448,192,172256,1,0,0:0:0:0:
192,192,172375,1,0,0:0:0:0:
64,192,172494,1,0,0:0:0:0:
192,192,172494,1,0,0:0:0:0:
320,192,172494,1,0,0:0:0:0:
448,192,172494,1,0,0:0:0:0:
320,192,172613,1,0,0:0:0:0:
64,192,172732,1,0,0:0:0:0:
192,192,172851,1,0,0:0:0:0:
320,192,172851,1,0,0:0:0:0:
448,192,172970,1,0,0:0:0:0:
320,192,172970,1,0,0:0:0:0:
192,192,172970,1,0,0:0:0:0:
64,192,172970,1,0,0:0:0:0:
64,192,173089,1,0,0:0:0:0:
448,192,173208,1,0,0:0:0:0:
192,192,173208,1,0,0:0:0:0:
320,192,173327,1,0,0:0:0:0:
448,192,173446,1,0,0:0:0:0:
320,192,173446,1,0,0:0:0:0:
192,192,173446,1,0,0:0:0:0:
64,192,173446,1,0,0:0:0:0:
448,192,173565,1,0,0:0:0:0:
192,192,173684,1,0,0:0:0:0:
64,192,173803,1,0,0:0:0:0:
320,192,173803,1,0,0:0:0:0:
448,192,173922,1,0,0:0:0:0:
192,192,173922,1,0,0:0:0:0:
64,192,173922,1,0,0:0:0:0:
320,192,173922,1,0,0:0:0:0:
192,192,174041,1,0,0:0:0:0:
448,192,174160,1,0,0:0:0:0:
320,192,174160,1,0,0:0:0:0:
320,192,174280,1,0,0:0:0:0:
192,192,174399,1,0,0:0:0:0:
64,192,174399,1,0,0:0:0:0:
320,192,174399,1,0,0:0:0:0:
448,192,174399,1,0,0:0:0:0:
192,192,174518,1,0,0:0:0:0:
320,192,174637,1,0,0:0:0:0:
64,192,174756,1,0,0:0:0:0:
192,192,174756,1,0,0:0:0:0:
64,192,174875,1,0,0:0:0:0:
192,192,174875,1,0,0:0:0:0:
320,192,174875,1,0,0:0:0:0:
448,192,174875,1,0,0:0:0:0:
320,192,174994,1,0,0:0:0:0:
192,192,175113,1,0,0:0:0:0:
64,192,175113,1,0,0:0:0:0:
192,192,175232,1,0,0:0:0:0:
448,192,175351,1,0,0:0:0:0:
320,192,175351,1,0,0:0:0:0:
192,192,175351,1,0,0:0:0:0:
64,192,175351,1,0,0:0:0:0:
320,192,175470,1,0,0:0:0:0:
448,192,175589,1,0,0:0:0:0:
320,192,175708,1,0,0:0:0:0:
192,192,175708,1,0,0:0:0:0:
64,192,175827,1,0,0:0:0:0:
192,192,175827,1,0,0:0:0:0:
320,192,175827,1,0,0:0:0:0:
448,192,175827,1,0,0:0:0:0:
192,192,175946,1,0,0:0:0:0:
64,192,176065,1,0,0:0:0:0:
320,192,176065,1,0,0:0:0:0:
192,192,176184,1,0,0:0:0:0:
448,192,176303,1,0,0:0:0:0:
320,192,176303,1,0,0:0:0:0:
192,192,176303,1,0,0:0:0:0:
64,192,176303,1,0,0:0:0:0:
320,192,176422,1,0,0:0:0:0:
192,192,176541,1,0,0:0:0:0:
64,192,176660,1,0,0:0:0:0:
448,192,176660,1,0,0:0:0:0:
448,192,176780,1,0,0:0:0:0:
320,192,176780,1,0,0:0:0:0:
192,192,176780,1,0,0:0:0:0:
64,192,176780,1,0,0:0:0:0:
192,192,176899,1,0,0:0:0:0:
320,192,177018,1,0,0:0:0:0:
448,192,177018,1,0,0:0:0:0:
320,192,177137,1,0,0:0:0:0:
448,192,177256,1,0,0:0:0:0:
320,192,177256,1,0,0:0:0:0:
192,192,177256,1,0,0:0:0:0:
64,192,177256,1,0,0:0:0:0:
192,192,177375,1,0,0:0:0:0:
64,192,177494,1,0,0:0:0:0:
192,192,177613,1,0,0:0:0:0:
448,192,177613,1,0,0:0:0:0:
448,192,177732,1,0,0:0:0:0:
320,192,177732,1,0,0:0:0:0:
192,192,177732,1,0,0:0:0:0:
64,192,177732,1,0,0:0:0:0:
320,192,177851,1,0,0:0:0:0:
192,192,177970,1,0,0:0:0:0:
64,192,177970,1,0,0:0:0:0:
192,192,178089,1,0,0:0:0:0:
64,192,178208,1,0,0:0:0:0:
192,192,178208,1,0,0:0:0:0:
320,192,178208,1,0,0:0:0:0:
448,192,178208,1,0,0:0:0:0:
64,192,178327,1,0,0:0:0:0:
192,192,178446,1,0,0:0:0:0:
448,192,178446,1,0,0:0:0:0:
320,192,178565,1,0,0:0:0:0:
64,192,178565,1,0,0:0:0:0:
448,192,178684,1,0,0:0:0:0:
320,192,178684,1,0,0:0:0:0:
192,192,178684,1,0,0:0:0:0:
64,192,178684,1,0,0:0:0:0:
192,192,178803,1,0,0:0:0:0:
448,192,178803,1,0,0:0:0:0:
320,192,178922,1,0,0:0:0:0:
64,192,178922,1,0,0:0:0:0:
192,192,179041,1,0,0:0:0:0:
448,192,179160,1,0,0:0:0:0:
320,192,179160,1,0,0:0:0:0:
192,192,179160,1,0,0:0:0:0:
64,192,179160,1,0,0:0:0:0:
320,192,179280,1,0,0:0:0:0:
192,192,179399,1,0,0:0:0:0:
64,192,179399,1,0,0:0:0:0:
320,192,179518,1,0,0:0:0:0:
448,192,179637,1,0,0:0:0:0:
320,192,179637,1,0,0:0:0:0:
192,192,179637,1,0,0:0:0:0:
64,192,179637,1,0,0:0:0:0:
192,192,179756,1,0,0:0:0:0:
448,192,179875,1,0,0:0:0:0:
320,192,179875,1,0,0:0:0:0:
320,192,179994,1,0,0:0:0:0:
64,192,180113,1,0,0:0:0:0:
192,192,180113,1,0,0:0:0:0:
448,192,180113,1,0,0:0:0:0:
320,192,180113,1,0,0:0:0:0:
192,192,180232,1,0,0:0:0:0:
448,192,180232,1,0,0:0:0:0:
64,192,180351,1,0,0:0:0:0:
192,192,180470,1,0,0:0:0:0:
320,192,180470,1,0,0:0:0:0:
448,192,180589,1,0,0:0:0:0:
320,192,180589,1,0,0:0:0:0:
192,192,180589,1,0,0:0:0:0:
64,192,180589,1,0,0:0:0:0:
448,192,180708,1,0,0:0:0:0:
320,192,180827,1,0,0:0:0:0:
64,192,180827,1,0,0:0:0:0:
64,192,180946,1,0,0:0:0:0:
64,192,181065,1,0,0:0:0:0:
192,192,181065,1,0,0:0:0:0:
320,192,181065,1,0,0:0:0:0:
448,192,181065,1,0,0:0:0:0:
320,192,181184,1,0,0:0:0:0:
192,192,181303,1,0,0:0:0:0:
64,192,181303,1,0,0:0:0:0:
448,192,181422,1,0,0:0:0:0:
320,192,181422,1,0,0:0:0:0:
448,192,181541,1,0,0:0:0:0:
320,192,181541,1,0,0:0:0:0:
192,192,181541,1,0,0:0:0:0:
64,192,181541,1,0,0:0:0:0:
192,192,181660,1,0,0:0:0:0:
448,192,181780,1,0,0:0:0:0:
320,192,181780,1,0,0:0:0:0:
320,192,181899,1,0,0:0:0:0:
448,192,182018,1,0,0:0:0:0:
192,192,182018,1,0,0:0:0:0:
64,192,182018,1,0,0:0:0:0:
320,192,182018,1,0,0:0:0:0:
192,192,182137,1,0,0:0:0:0:
64,192,182137,1,0,0:0:0:0:
320,192,182256,1,0,0:0:0:0:
448,192,182375,1,0,0:0:0:0:
64,192,182375,1,0,0:0:0:0:
64,192,182494,1,0,0:0:0:0:
192,192,182494,1,0,0:0:0:0:
320,192,182494,1,0,0:0:0:0:
448,192,182494,1,0,0:0:0:0:
320,192,182613,1,0,0:0:0:0:
192,192,182732,1,0,0:0:0:0:
64,192,182732,1,0,0:0:0:0:
320,192,182851,1,0,0:0:0:0:
448,192,182970,1,0,0:0:0:0:
320,192,182970,1,0,0:0:0:0:
192,192,182970,1,0,0:0:0:0:
64,192,182970,1,0,0:0:0:0:
192,192,183089,1,0,0:0:0:0:
64,192,183208,1,0,0:0:0:0:
448,192,183208,1,0,0:0:0:0:
320,192,183327,1,0,0:0:0:0:
64,192,183327,1,0,0:0:0:0:
192,192,183446,1,0,0:0:0:0:
64,192,183446,1,0,0:0:0:0:
320,192,183446,1,0,0:0:0:0:
448,192,183446,1,0,0:0:0:0:
192,192,183565,1,0,0:0:0:0:
320,192,183684,1,0,0:0:0:0:
448,192,183684,1,0,0:0:0:0:
448,192,183803,1,0,0:0:0:0:
448,192,183922,1,0,0:0:0:0:
320,192,183922,1,0,0:0:0:0:
192,192,183922,1,0,0:0:0:0:
64,192,183922,1,0,0:0:0:0:
192,192,184041,1,0,0:0:0:0:
320,192,184041,1,0,0:0:0:0:
64,192,184160,1,0,0:0:0:0:
192,192,184280,1,0,0:0:0:0:
448,192,184280,1,0,0:0:0:0:
448,192,184399,1,0,0:0:0:0:
320,192,184399,1,0,0:0:0:0:
192,192,184399,1,0,0:0:0:0:
64,192,184399,1,0,0:0:0:0:
320,192,184518,1,0,0:0:0:0:
192,192,184637,1,0,0:0:0:0:
448,192,184637,1,0,0:0:0:0:
64,192,184756,1,0,0:0:0:0:
448,192,184875,1,0,0:0:0:0:
320,192,184875,1,0,0:0:0:0:
192,192,184875,1,0,0:0:0:0:
64,192,184875,1,0,0:0:0:0:
192,192,184994,1,0,0:0:0:0:
448,192,185113,1,0,0:0:0:0:
320,192,185113,1,0,0:0:0:0:
192,192,185232,1,0,0:0:0:0:
320,192,185232,1,0,0:0:0:0:
448,192,185351,1,0,0:0:0:0:
192,192,185351,1,0,0:0:0:0:
64,192,185351,1,0,0:0:0:0:
320,192,185351,1,0,0:0:0:0:
64,192,185470,1,0,0:0:0:0:
192,192,185589,1,0,0:0:0:0:
448,192,185589,1,0,0:0:0:0:
448,192,185708,1,0,0:0:0:0:
448,192,185827,1,0,0:0:0:0:
320,192,185827,1,0,0:0:0:0:
192,192,185827,1,0,0:0:0:0:
64,192,185827,1,0,0:0:0:0:
192,192,185946,1,0,0:0:0:0:
64,192,185946,1,0,0:0:0:0:
320,192,186065,1,0,0:0:0:0:
448,192,186184,1,0,0:0:0:0:
192,192,186184,1,0,0:0:0:0:
448,192,186303,1,0,0:0:0:0:
320,192,186303,1,0,0:0:0:0:
192,192,186303,1,0,0:0:0:0:
64,192,186303,1,0,0:0:0:0:
320,192,186422,1,0,0:0:0:0:
64,192,186541,1,0,0:0:0:0:
192,192,186541,1,0,0:0:0:0:
192,192,186660,1,0,0:0:0:0:
64,192,186780,1,0,0:0:0:0:
192,192,186780,1,0,0:0:0:0:
320,192,186780,1,0,0:0:0:0:
448,192,186780,1,0,0:0:0:0:
320,192,186899,1,0,0:0:0:0:
192,192,187018,1,0,0:0:0:0:
64,192,187018,1,0,0:0:0:0:
192,192,187137,1,0,0:0:0:0:
448,192,187137,1,0,0:0:0:0:
448,192,187256,1,0,0:0:0:0:
320,192,187256,1,0,0:0:0:0:
192,192,187256,1,0,0:0:0:0:
64,192,187256,1,0,0:0:0:0:
320,192,187375,1,0,0:0:0:0:
64,192,187494,1,0,0:0:0:0:
192,192,187494,1,0,0:0:0:0:
448,192,187613,1,0,0:0:0:0:
64,192,187732,1,0,0:0:0:0:
192,192,187732,1,0,0:0:0:0:
320,192,187732,1,0,0:0:0:0:
448,192,187732,1,0,0:0:0:0:
64,192,187851,1,0,0:0:0:0:
320,192,187851,1,0,0:0:0:0:
192,192,187970,1,0,0:0:0:0:
448,192,188089,1,0,0:0:0:0:
192,192,188089,1,0,0:0:0:0:
448,192,188208,1,0,0:0:0:0:
320,192,188208,1,0,0:0:0:0:
192,192,188208,1,0,0:0:0:0:
64,192,188208,1,0,0:0:0:0:
320,192,188327,1,0,0:0:0:0:
64,192,188446,1,0,0:0:0:0:
448,192,188446,1,0,0:0:0:0:
192,192,188565,1,0,0:0:0:0:
64,192,188684,1,0,0:0:0:0:
192,192,188684,1,0,0:0:0:0:
448,192,188684,1,0,0:0:0:0:
320,192,188684,1,0,0:0:0:0:
320,192,188803,1,0,0:0:0:0:
192,192,188922,1,0,0:0:0:0:
448,192,188922,1,0,0:0:0:0:
448,192,189041,1,0,0:0:0:0:
320,192,189041,1,0,0:0:0:0:
448,192,189160,1,0,0:0:0:0:
320,192,189160,1,0,0:0:0:0:
192,192,189160,1,0,0:0:0:0:
64,192,189160,1,0,0:0:0:0:
192,192,189280,1,0,0:0:0:0:
64,192,189399,1,0,0:0:0:0:
448,192,189399,1,0,0:0:0:0:
320,192,189518,1,0,0:0:0:0:
448,192,189637,1,0,0:0:0:0:
192,192,189637,1,0,0:0:0:0:
320,192,189637,1,0,0:0:0:0:
64,192,189637,1,0,0:0:0:0:
64,192,189756,1,0,0:0:0:0:
192,192,189756,1,0,0:0:0:0:
320,192,189875,1,0,0:0:0:0:
64,192,189994,1,0,0:0:0:0:
192,192,189994,1,0,0:0:0:0:
64,192,190113,1,0,0:0:0:0:
192,192,190113,1,0,0:0:0:0:
320,192,190113,1,0,0:0:0:0:
448,192,190113,1,0,0:0:0:0:
320,192,190232,1,0,0:0:0:0:
448,192,190351,1,0,0:0:0:0:
64,192,190351,1,0,0:0:0:0:
192,192,190470,1,0,0:0:0:0:
320,192,190589,1,0,0:0:0:0:
448,192,190589,1,0,0:0:0:0:
64,192,190589,1,0,0:0:0:0:
192,192,190589,1,0,0:0:0:0:
320,192,190708,1,0,0:0:0:0:
448,192,190827,1,0,0:0:0:0:
192,192,190827,1,0,0:0:0:0:
320,192,190946,1,0,0:0:0:0:
64,192,190946,1,0,0:0:0:0:
64,192,191065,1,0,0:0:0:0:
192,192,191065,1,0,0:0:0:0:
320,192,191065,1,0,0:0:0:0:
448,192,191065,1,0,0:0:0:0:
192,192,191184,1,0,0:0:0:0:
448,192,191303,1,0,0:0:0:0:
320,192,191303,1,0,0:0:0:0:
192,192,191422,1,0,0:0:0:0:
64,192,191541,1,0,0:0:0:0:
192,192,191541,1,0,0:0:0:0:
320,192,191541,1,0,0:0:0:0:
448,192,191541,1,0,0:0:0:0:
320,192,191660,1,0,0:0:0:0:
448,192,191660,1,0,0:0:0:0:
192,192,191780,1,0,0:0:0:0:
320,192,191899,1,0,0:0:0:0:
448,192,191899,1,0,0:0:0:0:
448,192,192018,1,0,0:0:0:0:
320,192,192018,1,0,0:0:0:0:
192,192,192018,1,0,0:0:0:0:
64,192,192018,1,0,0:0:0:0:
192,192,192137,1,0,0:0:0:0:
64,192,192256,1,0,0:0:0:0:
448,192,192256,1,0,0:0:0:0:
320,192,192375,1,0,0:0:0:0:
192,192,192494,1,0,0:0:0:0:
64,192,192494,1,0,0:0:0:0:
448,192,192494,1,0,0:0:0:0:
320,192,192494,1,0,0:0:0:0:
192,192,192613,1,0,0:0:0:0:
64,192,192732,1,0,0:0:0:0:
320,192,192732,1,0,0:0:0:0:
192,192,192851,1,0,0:0:0:0:
320,192,192851,1,0,0:0:0:0:
448,192,192970,1,0,0:0:0:0:
320,192,192970,1,0,0:0:0:0:
192,192,192970,1,0,0:0:0:0:
64,192,192970,1,0,0:0:0:0:
64,192,193089,1,0,0:0:0:0:
192,192,193208,1,0,0:0:0:0:
448,192,193208,1,0,0:0:0:0:
320,192,193327,1,0,0:0:0:0:
448,192,193446,1,0,0:0:0:0:
320,192,193446,1,0,0:0:0:0:
192,192,193446,1,0,0:0:0:0:
64,192,193446,1,0,0:0:0:0:
192,192,193565,1,0,0:0:0:0:
64,192,193565,1,0,0:0:0:0:
192,192,193684,1,0,0:0:0:0:
448,192,193803,1,0,0:0:0:0:
320,192,193803,1,0,0:0:0:0:
448,192,193922,1,0,0:0:0:0:
320,192,193922,1,0,0:0:0:0:
192,192,193922,1,0,0:0:0:0:
64,192,193922,1,0,0:0:0:0:
192,192,194160,1,0,0:0:0:0:
64,192,194160,1,0,0:0:0:0:
192,192,194280,1,0,0:0:0:0:
320,192,194399,1,0,0:0:0:0:
448,192,194399,1,0,0:0:0:0:
192,192,194399,1,0,0:0:0:0:
64,192,194399,1,0,0:0:0:0:
320,192,194577,1,0,0:0:0:0:
448,192,194577,1,0,0:0:0:0:
64,192,194637,1,0,0:0:0:0:
192,192,194637,1,0,0:0:0:0:
320,192,194696,1,0,0:0:0:0:
448,192,194696,1,0,0:0:0:0:
192,192,194756,1,0,0:0:0:0:
64,192,194756,1,0,0:0:0:0:
448,192,194875,1,0,0:0:0:0:
320,192,194875,1,0,0:0:0:0:
192,192,194875,1,0,0:0:0:0:
64,192,194875,1,0,0:0:0:0:
320,192,194994,1,0,0:0:0:0:
192,192,195113,1,0,0:0:0:0:
64,192,195113,1,0,0:0:0:0:
192,192,195232,1,0,0:0:0:0:
448,192,195351,1,0,0:0:0:0:
320,192,195351,1,0,0:0:0:0:
64,192,195351,1,0,0:0:0:0:
320,192,195470,1,0,0:0:0:0:
320,192,195589,1,0,0:0:0:0:
64,192,195589,1,0,0:0:0:0:
192,192,195708,1,0,0:0:0:0:
448,192,195708,1,0,0:0:0:0:
64,192,195827,1,0,0:0:0:0:
320,192,195827,1,0,0:0:0:0:
192,192,195946,1,0,0:0:0:0:
192,192,196065,1,0,0:0:0:0:
448,192,196065,1,0,0:0:0:0:
320,192,196184,1,0,0:0:0:0:
448,192,196184,1,0,0:0:0:0:
192,192,196303,1,0,0:0:0:0:
64,192,196303,1,0,0:0:0:0:
192,192,196422,1,0,0:0:0:0:
448,192,196541,1,0,0:0:0:0:
64,192,196541,1,0,0:0:0:0:
320,192,196660,1,0,0:0:0:0:
448,192,196660,1,0,0:0:0:0:
192,192,196780,1,0,0:0:0:0:
64,192,196780,1,0,0:0:0:0:
192,192,196899,1,0,0:0:0:0:
64,192,197018,1,0,0:0:0:0:
320,192,197018,1,0,0:0:0:0:
192,192,197137,1,0,0:0:0:0:
448,192,197137,1,0,0:0:0:0:
64,192,197256,1,0,0:0:0:0:
448,192,197256,1,0,0:0:0:0:
320,192,197375,1,0,0:0:0:0:
320,192,197494,1,0,0:0:0:0:
64,192,197494,1,0,0:0:0:0:
192,192,197613,1,0,0:0:0:0:
64,192,197613,1,0,0:0:0:0:
448,192,197732,1,0,0:0:0:0:
192,192,197732,1,0,0:0:0:0:
320,192,197851,1,0,0:0:0:0:
192,192,197970,1,0,0:0:0:0:
448,192,197970,1,0,0:0:0:0:
64,192,198089,1,0,0:0:0:0:
320,192,198089,1,0,0:0:0:0:
192,192,198208,1,0,0:0:0:0:
64,192,198208,1,0,0:0:0:0:
320,192,198327,1,0,0:0:0:0:
192,192,198446,1,0,0:0:0:0:
448,192,198446,1,0,0:0:0:0:
320,192,198565,1,0,0:0:0:0:
64,192,198565,1,0,0:0:0:0:
192,192,198684,1,0,0:0:0:0:
448,192,198684,1,0,0:0:0:0:
448,192,198803,1,0,0:0:0:0:
64,192,198922,1,0,0:0:0:0:
192,192,198922,1,0,0:0:0:0:
320,192,199041,1,0,0:0:0:0:
448,192,199041,1,0,0:0:0:0:
192,192,199160,1,0,0:0:0:0:
64,192,199160,1,0,0:0:0:0:
320,192,199280,1,0,0:0:0:0:
448,192,199399,1,0,0:0:0:0:
64,192,199399,1,0,0:0:0:0:
192,192,199518,1,0,0:0:0:0:
320,192,199518,1,0,0:0:0:0:
448,192,199637,1,0,0:0:0:0:
64,192,199637,1,0,0:0:0:0:
320,192,199756,1,0,0:0:0:0:
64,192,199875,1,0,0:0:0:0:
192,192,199875,1,0,0:0:0:0:
320,192,199994,1,0,0:0:0:0:
448,192,199994,1,0,0:0:0:0:
64,192,200113,1,0,0:0:0:0:
192,192,200113,1,0,0:0:0:0:
320,192,200232,1,0,0:0:0:0:
448,192,200351,1,0,0:0:0:0:
192,192,200351,1,0,0:0:0:0:
192,192,200470,1,0,0:0:0:0:
64,192,200470,1,0,0:0:0:0:
64,192,200589,1,0,0:0:0:0:
448,192,200589,1,0,0:0:0:0:
320,192,200708,1,0,0:0:0:0:
192,192,200827,1,0,0:0:0:0:
64,192,200827,1,0,0:0:0:0:
192,192,200946,1,0,0:0:0:0:
448,192,200946,1,0,0:0:0:0:
448,192,201065,1,0,0:0:0:0:
320,192,201065,1,0,0:0:0:0:
192,192,201184,1,0,0:0:0:0:
64,192,201303,1,0,0:0:0:0:
320,192,201303,1,0,0:0:0:0:
448,192,201422,1,0,0:0:0:0:
192,192,201422,1,0,0:0:0:0:
320,192,201541,1,0,0:0:0:0:
192,192,201541,1,0,0:0:0:0:
64,192,201660,1,0,0:0:0:0:
64,192,201780,1,0,0:0:0:0:
448,192,201780,1,0,0:0:0:0:
320,192,201899,1,0,0:0:0:0:
192,192,201899,1,0,0:0:0:0:
448,192,202018,1,0,0:0:0:0:
320,192,202018,1,0,0:0:0:0:
192,192,202137,1,0,0:0:0:0:
64,192,202256,1,0,0:0:0:0:
320,192,202256,1,0,0:0:0:0:
448,192,202375,1,0,0:0:0:0:
320,192,202375,1,0,0:0:0:0:
192,192,202494,1,0,0:0:0:0:
64,192,202494,1,0,0:0:0:0:
192,192,202613,1,0,0:0:0:0:
448,192,202732,1,0,0:0:0:0:
64,192,202732,1,0,0:0:0:0:
320,192,202851,1,0,0:0:0:0:
192,192,202851,1,0,0:0:0:0:
64,192,202970,1,0,0:0:0:0:
448,192,202970,1,0,0:0:0:0:
192,192,202970,1,0,0:0:0:0:
320,192,203089,1,0,0:0:0:0:
192,192,203208,1,0,0:0:0:0:
64,192,203208,1,0,0:0:0:0:
320,192,203327,1,0,0:0:0:0:
448,192,203327,1,0,0:0:0:0:
64,192,203446,1,0,0:0:0:0:
192,192,203446,1,0,0:0:0:0:
192,192,203565,1,0,0:0:0:0:
448,192,203684,1,0,0:0:0:0:
64,192,203684,1,0,0:0:0:0:
192,192,203803,1,0,0:0:0:0:
320,192,203803,1,0,0:0:0:0:
448,192,203922,1,0,0:0:0:0:
64,192,203922,1,0,0:0:0:0:
192,192,204041,1,0,0:0:0:0:
320,192,204160,1,0,0:0:0:0:
448,192,204160,1,0,0:0:0:0:
192,192,204280,1,0,0:0:0:0:
64,192,204280,1,0,0:0:0:0:
448,192,204399,1,0,0:0:0:0:
320,192,204399,1,0,0:0:0:0:
192,192,204518,1,0,0:0:0:0:
64,192,204637,1,0,0:0:0:0:
320,192,204637,1,0,0:0:0:0:
192,192,204756,1,0,0:0:0:0:
448,192,204756,1,0,0:0:0:0:
64,192,204875,1,0,0:0:0:0:
320,192,204875,1,0,0:0:0:0:
448,192,204875,1,0,0:0:0:0:
192,192,204994,1,0,0:0:0:0:
320,192,205113,1,0,0:0:0:0:
448,192,205113,1,0,0:0:0:0:
192,192,205232,1,0,0:0:0:0:
64,192,205232,1,0,0:0:0:0:
448,192,205351,1,0,0:0:0:0:
64,192,205351,1,0,0:0:0:0:
192,192,205470,1,0,0:0:0:0:
320,192,205589,1,0,0:0:0:0:
448,192,205589,1,0,0:0:0:0:
320,192,205708,1,0,0:0:0:0:
64,192,205708,1,0,0:0:0:0:
448,192,205827,1,0,0:0:0:0:
192,192,205827,1,0,0:0:0:0:
192,192,205946,1,0,0:0:0:0:
64,192,206065,1,0,0:0:0:0:
448,192,206065,1,0,0:0:0:0:
320,192,206184,1,0,0:0:0:0:
192,192,206184,1,0,0:0:0:0:
64,192,206303,1,0,0:0:0:0:
192,192,206303,1,0,0:0:0:0:
320,192,206422,1,0,0:0:0:0:
64,192,206541,1,0,0:0:0:0:
192,192,206541,1,0,0:0:0:0:
320,192,206660,1,0,0:0:0:0:
448,192,206660,1,0,0:0:0:0:
192,192,206780,1,0,0:0:0:0:
64,192,206780,1,0,0:0:0:0:
448,192,206780,1,0,0:0:0:0:
320,192,206899,1,0,0:0:0:0:
192,192,207018,1,0,0:0:0:0:
448,192,207018,1,0,0:0:0:0:
64,192,207137,1,0,0:0:0:0:
320,192,207137,1,0,0:0:0:0:
448,192,207256,1,0,0:0:0:0:
192,192,207256,1,0,0:0:0:0:
320,192,207375,1,0,0:0:0:0:
64,192,207494,1,0,0:0:0:0:
192,192,207494,1,0,0:0:0:0:
192,192,207613,1,0,0:0:0:0:
320,192,207613,1,0,0:0:0:0:
448,192,207732,1,0,0:0:0:0:
64,192,207732,1,0,0:0:0:0:
192,192,207851,1,0,0:0:0:0:
448,192,207970,1,0,0:0:0:0:
64,192,207970,1,0,0:0:0:0:
320,192,208089,1,0,0:0:0:0:
64,192,208089,1,0,0:0:0:0:
192,192,208208,1,0,0:0:0:0:
448,192,208208,1,0,0:0:0:0:
192,192,208327,1,0,0:0:0:0:
64,192,208446,1,0,0:0:0:0:
320,192,208446,1,0,0:0:0:0:
448,192,208565,1,0,0:0:0:0:
192,192,208565,1,0,0:0:0:0:
448,192,208684,1,0,0:0:0:0:
320,192,208684,1,0,0:0:0:0:
64,192,208684,1,0,0:0:0:0:
192,192,208803,1,0,0:0:0:0:
64,192,208803,1,0,0:0:0:0:
320,192,208922,1,0,0:0:0:0:
320,192,209041,1,0,0:0:0:0:
64,192,209041,1,0,0:0:0:0:
192,192,209041,1,0,0:0:0:0:
192,192,209160,1,0,0:0:0:0:
320,192,209280,1,0,0:0:0:0:
64,192,209280,1,0,0:0:0:0:
448,192,209280,1,0,0:0:0:0:
320,192,209399,1,0,0:0:0:0:
192,192,209399,1,0,0:0:0:0:
192,192,209518,1,0,0:0:0:0:
64,192,209637,1,0,0:0:0:0:
448,192,209637,1,0,0:0:0:0:
320,192,209756,1,0,0:0:0:0:
448,192,209875,1,0,0:0:0:0:
192,192,209875,1,0,0:0:0:0:
64,192,209875,1,0,0:0:0:0:
320,192,209994,1,0,0:0:0:0:
192,192,210113,1,0,0:0:0:0:
64,192,210113,1,0,0:0:0:0:
320,192,210113,1,0,0:0:0:0:
192,192,210232,1,0,0:0:0:0:
448,192,210351,1,0,0:0:0:0:
64,192,210351,1,0,0:0:0:0:
192,192,210470,1,0,0:0:0:0:
320,192,210470,1,0,0:0:0:0:
448,192,210470,1,0,0:0:0:0:
64,192,210589,1,0,0:0:0:0:
192,192,210589,1,0,0:0:0:0:
320,192,210589,1,0,0:0:0:0:
448,192,210589,1,0,0:0:0:0:
