osu file format v14

[General]
AudioFilename: audio.mp3
AudioLeadIn: 0
PreviewTime: 25735
Countdown: 0
SampleSet: Soft
StackLeniency: 0.3
Mode: 0
LetterboxInBreaks: 0
WidescreenStoryboard: 1

[Editor]
Bookmarks: 1050,12021,22992,25735,36707,47678,58650,64135,75107,86078,97050
DistanceSpacing: 1.2
BeatDivisor: 2
GridSize: 8
TimelineZoom: 1.9

[Metadata]
Title:Okashi na Yume o Ohitotsu Douzo
TitleUnicode:お菓子な夢をおひとつどうぞ♪
Artist:Chino (Minase Inori)
ArtistUnicode:チノ (水瀬いのり)
Creator:ExNeko
Version:Hard
Source:ご注文はうさぎですか??
Tags:gochuumon wa usagi desu ka is the order a rabbit gochiusa ごちうさ
BeatmapID:1992202
BeatmapSetID:954218

[Difficulty]
HPDrainRate:5
CircleSize:3
OverallDifficulty:7
ApproachRate:7
SliderMultiplier:1.4
SliderTickRate:2

[Events]
//Background and Video events
0,0,"783534.jpg",0,0
//Break Periods
//Storyboard Layer 0 (Background)
//Storyboard Layer 1 (Fail)
//Storyboard Layer 2 (Pass)
//Storyboard Layer 3 (Foreground)
//Storyboard Sound Samples

[TimingPoints]
1050,342.857142857143,4,2,1,50,1,0
12021,-100,4,2,1,50,0,1
22992,-100,4,2,1,50,0,0
64135,-100,4,2,1,50,0,1
86078,-100,4,2,1,50,0,0

[HitObjects]
152,128,1050,6,0,P|222:89|304:144,1,140
224,173,1564,1,0,0:0:0:0:
174,240,1735,6,0,P|240:255|297:217,1,140
366,169,2250,6,0,L|446:185,1,70
430,99,2592,2,0,L|326:75,1,70
280,61,2935,1,0,0:0:0:0:
252,140,3107,2,0,P|268:228|220:260,1,140
143,115,3792,6,0,L|295:91,1,140
334,159,4307,1,0,0:0:0:0:
311,239,4478,2,0,L|172:260,1,140
103,211,4992,6,0,P|71:179|-10:184,1,70
111,115,5335,2,0,P|143:83|226:85,1,70
181,157,5678,1,0,0:0:0:0:
249,107,5850,2,0,P|253:205|186:245,1,140
62,260,6535,6,0,P|150:308|222:268,1,140
261,331,7050,1,0,0:0:0:0:
272,248,7221,2,0,P|184:200|112:240,1,140
122,128,7735,6,0,L|202:64,1,70
256,56,8078,2,0,L|336:120,1,70
253,162,8421,1,0,0:0:0:0:
282,240,8592,2,0,L|362:304,2,70
340,179,9107,1,0,0:0:0:0:
256,181,9278,6,0,P|242:81|323:43,2,140
318,124,10135,2,0,B|384:105|392:145|462:124,1,140
324,231,10821,6,0,P|380:223|420:207,2,70
253,276,11335,1,0,0:0:0:0:
176,239,11507,1,2,0:0:0:0:
268,99,11678,1,8,0:0:0:0:
427,46,12021,6,0,L|459:142,1,70,6|0,0:0|0:0,0:0:0:0:
415,189,12364,1,8,0:0:0:0:
284,295,12707,2,0,L|252:199,1,70,2|0,0:0|0:0,0:0:0:0:
258,144,13050,1,8,0:0:0:0:
110,64,13392,6,0,P|166:144|110:192,1,140,2|8,0:0|0:0,0:0:0:0:
109,242,13907,2,0,L|181:290,1,70,0|2,0:0|0:0,0:0:0:0:
235,231,14250,1,0,0:0:0:0:
247,313,14421,1,8,0:0:0:0:
235,231,14592,1,0,0:0:0:0:
274,156,14764,6,0,L|370:180,1,70,6|0,0:0|0:0,0:0:0:0:
417,136,15107,1,8,0:0:0:0:
269,55,15450,2,0,L|173:31,1,70,2|0,0:0|0:0,0:0:0:0:
126,77,15793,1,8,0:0:0:0:
280,142,16135,6,0,L|360:198,2,70,2|0|8,0:0|0:0|0:0,0:0:0:0:
195,134,16650,1,0,0:0:0:0:
195,134,16992,1,0,0:0:0:0:
123,178,17164,1,8,0:0:0:0:
195,134,17335,1,0,0:0:0:0:
201,218,17507,6,0,L|265:274,1,70,6|0,0:0|0:0,0:0:0:0:
318,318,17850,1,8,0:0:0:0:
445,209,18192,2,0,L|381:153,1,70,2|0,0:0|0:0,0:0:0:0:
331,104,18535,1,8,0:0:0:0:
163,87,18878,6,0,L|67:119,2,70,2|0|8,0:0|0:0|0:0,0:0:0:0:
243,111,19392,1,0,0:0:0:0:
243,111,19735,1,0,0:0:0:0:
282,185,19907,1,8,0:0:0:0:
243,111,20078,1,0,0:0:0:0:
197,181,20250,6,0,L|141:261,1,70,6|0,0:0|0:0,0:0:0:0:
172,320,20592,1,8,0:0:0:0:
337,291,20935,2,0,L|393:211,1,70,2|0,0:0|0:0,0:0:0:0:
382,150,21277,1,8,0:0:0:0:
221,99,21621,6,0,L|165:91,2,35,2|0|0,0:0|0:0|0:0,0:0:0:0:
290,146,21964,2,0,L|346:138,2,35
216,188,22307,1,0,0:0:0:0:
276,245,22478,1,0,0:0:0:0:
209,283,22650,1,0,0:0:0:0:
276,245,22821,1,0,0:0:0:0:
316,318,22992,6,0,P|359:259|330:175,2,140,6|2|2,0:0|0:0|0:0,0:0:0:0:
320,304,24364,1,2,0:0:0:0:
241,274,24535,1,2,0:0:0:0:
305,219,24707,1,2,0:0:0:0:
148,161,24878,1,2,0:0:0:0:
148,161,25221,5,2,0:0:0:0:
309,114,25392,1,8,0:0:0:0:
309,114,25735,6,0,P|356:121|429:146,2,70,6|0|8,0:0|0:0|0:0,0:0:0:0:
225,102,26250,2,0,P|137:126|127:226,1,140
199,183,26764,2,0,L|268:240,1,70,8|0,0:0|0:0,0:0:0:0:
274,308,27107,6,0,B|306:332|306:332|378:332,2,70,2|0|8,0:0|0:0|0:0,0:0:0:0:
335,250,27621,2,0,P|383:194|447:218,1,140
465,129,28135,2,0,L|377:89,1,70,8|0,0:0|0:0,0:0:0:0:
322,130,28478,1,2,0:0:0:0:
161,81,28821,6,0,L|233:105,1,70,8|0,0:0|0:0,0:0:0:0:
175,169,29164,2,0,L|247:193,1,70,2|0,0:0|0:0,0:0:0:0:
194,261,29507,1,8,0:0:0:0:
277,267,29678,6,0,L|365:243,1,70,0|2,0:0|0:0,0:0:0:0:
296,179,30021,2,0,L|384:155,1,70,0|8,0:0|0:0,0:0:0:0:
327,84,30364,2,0,L|259:102,1,70,0|2,0:0|0:0,0:0:0:0:
178,126,30707,5,0,0:0:0:0:
218,199,30878,1,8,0:0:0:0:
133,202,31050,1,0,0:0:0:0:
172,276,31221,6,0,P|268:277|304:210,1,140,6|8,0:0|0:0,0:0:0:0:
329,84,31907,2,0,L|409:100,2,70,2|0|8,0:0|0:0|0:0,0:0:0:0:
250,114,32421,1,0,0:0:0:0:
308,173,32592,6,0,L|324:253,1,70,2|0,0:0|0:0,0:0:0:0:
238,255,32935,2,0,L|222:175,1,70,8|0,0:0|0:0,0:0:0:0:
249,105,33278,2,0,L|337:65,1,70,2|0,0:0|0:0,0:0:0:0:
368,138,33621,2,0,L|280:178,1,70,8|0,0:0|0:0,0:0:0:0:
221,183,33964,1,2,0:0:0:0:
63,240,34307,5,8,0:0:0:0:
24,314,34478,1,0,0:0:0:0:
108,312,34650,2,0,B|153:292|153:292|300:296,1,140,2|8,0:0|0:0,0:0:0:0:
327,296,35164,5,6,0:0:0:0:
314,72,35507,1,6,0:0:0:0:
110,165,35850,1,6,0:0:0:0:
337,176,36192,5,0,0:0:0:0:
337,176,36364,1,0,0:0:0:0:
208,67,36707,6,0,P|176:163|104:171,1,140,6|8,0:0|0:0,0:0:0:0:
100,244,37221,2,0,L|4:228,2,70,0|2|0,0:0|0:0|0:0,0:0:0:0:
169,291,37735,2,0,L|273:307,1,70,8|0,0:0|0:0,0:0:0:0:
304,250,38078,6,0,P|336:290|360:354,2,70,2|0|8,0:0|0:0|0:0,0:0:0:0:
318,166,38592,2,0,P|336:118|380:65,2,70,0|2|0,0:0|0:0|0:0,0:0:0:0:
240,199,39107,2,0,P|189:206|121:195,1,70,8|0,0:0|0:0,0:0:0:0:
84,199,39450,1,2,0:0:0:0:
204,82,39792,6,0,P|276:58|332:58,1,70,8|0,0:0|0:0,0:0:0:0:
269,143,40135,2,0,P|342:125|398:130,1,70,2|0,0:0|0:0,0:0:0:0:
325,208,40478,1,8,0:0:0:0:
291,285,40650,6,0,P|219:309|163:309,1,70,0|2,0:0|0:0,0:0:0:0:
225,223,40993,2,0,P|151:240|95:235,1,70,0|8,0:0|0:0,0:0:0:0:
121,164,41335,2,0,P|155:161|189:152,1,70,0|2,0:0|0:0,0:0:0:0:
273,142,41678,5,0,0:0:0:0:
320,211,41850,1,8,0:0:0:0:
360,137,42021,1,0,0:0:0:0:
312,67,42192,6,0,P|232:67|188:124,1,140,6|8,0:0|0:0,0:0:0:0:
312,226,42878,2,0,L|352:298,1,70,2|0,0:0|0:0,0:0:0:0:
261,294,43221,2,0,L|221:222,1,70,8|0,0:0|0:0,0:0:0:0:
261,155,43564,5,2,0:0:0:0:
181,162,43735,2,0,L|109:202,2,70,0|8|0,0:0|0:0|0:0,0:0:0:0:
210,82,44250,2,0,L|282:42,1,70,2|0,0:0|0:0,0:0:0:0:
354,60,44592,1,8,0:0:0:0:
354,60,44764,1,0,0:0:0:0:
406,125,44935,6,0,P|382:221|302:245,1,140,2|8,0:0|0:0,0:0:0:0:
273,207,45450,2,0,L|177:247,1,70,0|2,0:0|0:0,0:0:0:0:
213,150,45792,2,0,L|148:123,1,70,0|8,0:0|0:0,0:0:0:0:
315,99,46135,5,6,0:0:0:0:
148,123,46478,1,0,0:0:0:0:
298,197,46821,1,0,0:0:0:0:
298,197,46992,2,0,P|306:293|274:333,1,140,0|0,0:0|0:0,0:0:0:0:
146,226,47678,6,0,P|143:129|179:92,1,140,6|0,0:0|0:0,0:0:0:0:
251,94,48192,1,2,0:0:0:0:
224,174,48364,2,0,P|296:166|330:81,1,140,8|0,0:0|0:0,0:0:0:0:
397,268,49050,6,0,P|325:276|285:364,1,140,2|0,0:0|0:0,0:0:0:0:
211,289,49564,1,2,0:0:0:0:
128,304,49735,2,0,B|72:264|72:264|48:176,1,140,8|0,0:0|0:0,0:0:0:0:
180,85,50421,6,0,P|252:61|327:120,1,140,2|0,0:0|0:0,0:0:0:0:
324,169,50935,1,2,0:0:0:0:
240,157,51107,2,0,B|200:213|200:213|112:245,1,140,8|0,0:0|0:0,0:0:0:0:
283,312,51792,6,0,P|363:248|371:192,1,140,2|0,0:0|0:0,0:0:0:0:
373,131,52307,1,2,0:0:0:0:
336,55,52478,2,0,L|408:31,2,70,8|0|0,0:0|0:0|0:0,0:0:0:0:
152,128,53164,6,0,L|80:152,1,70,6|0,0:0|0:0,0:0:0:0:
51,227,53507,1,8,0:0:0:0:
51,227,53678,1,0,0:0:0:0:
133,244,53850,2,0,L|205:268,2,70,2|2|8,0:0|0:0|0:0,0:0:0:0:
272,112,54535,6,0,L|344:136,1,70,6|0,0:0|0:0,0:0:0:0:
368,212,54878,1,8,0:0:0:0:
368,212,55049,1,0,0:0:0:0:
286,232,55221,2,0,L|310:304,2,70,2|2|8,0:0|0:0|0:0,0:0:0:0:
216,48,55907,6,0,P|96:96|88:160,1,140,6|8,0:0|0:0,0:0:0:0:
77,176,56421,1,0,0:0:0:0:
80,259,56592,2,0,L|96:347,2,70,2|2|8,0:0|0:0|0:0,0:0:0:0:
193,134,57278,6,0,P|281:166|345:126,1,140,6|8,0:0|0:0,0:0:0:0:
393,108,57792,1,0,0:0:0:0:
466,66,57964,2,0,L|482:162,2,70,2|2|8,0:0|0:0|0:0,0:0:0:0:
296,80,58650,5,6,0:0:0:0:
296,80,58992,1,8,0:0:0:0:
296,80,59335,1,2,0:0:0:0:
296,80,59677,1,8,0:0:0:0:
144,184,60021,5,6,0:0:0:0:
144,184,60363,1,8,0:0:0:0:
144,184,60706,1,2,0:0:0:0:
144,184,61048,1,8,0:0:0:0:
144,184,61392,5,2,0:0:0:0:
319,137,61564,1,2,0:0:0:0:
205,278,61907,1,2,0:0:0:0:
214,97,62250,1,2,0:0:0:0:
313,249,62592,1,2,0:0:0:0:
144,184,62935,1,2,0:0:0:0:
319,137,63107,1,2,0:0:0:0:
205,278,63278,1,2,0:0:0:0:
214,97,63621,5,2,0:0:0:0:
313,249,63792,1,8,0:0:0:0:
161,176,64135,6,0,L|257:192,1,70,6|0,0:0|0:0,0:0:0:0:
233,271,64478,2,0,L|137:287,1,70,8|0,0:0|0:0,0:0:0:0:
81,263,64821,2,0,P|65:175|97:127,1,140,2|8,0:0|0:0,0:0:0:0:
164,96,65335,6,0,L|260:112,1,70,0|2,0:0|0:0,0:0:0:0:
286,172,65678,2,0,L|382:188,2,70,0|8|0,0:0|0:0|0:0,0:0:0:0:
212,213,66192,2,0,L|116:197,2,70,2|0|8,0:0|0:0|0:0,0:0:0:0:
293,235,66707,6,0,P|338:321|294:383,1,140
253,310,67221,1,8,0:0:0:0:
253,310,67392,1,0,0:0:0:0:
215,234,67564,2,0,L|119:218,1,70,2|0,0:0|0:0,0:0:0:0:
161,139,67907,2,0,L|257:123,1,70,8|0,0:0|0:0,0:0:0:0:
314,123,68250,5,2,0:0:0:0:
314,123,68421,1,0,0:0:0:0:
360,192,68592,1,8,0:0:0:0:
360,192,68764,1,0,0:0:0:0:
357,275,68935,2,0,L|445:307,2,70,2|0|8,0:0|0:0|0:0,0:0:0:0:
273,258,69450,6,0,L|193:266,2,70,0|6|0,0:0|0:0|0:0,0:0:0:0:
325,191,69964,2,0,P|317:103|245:87,1,140,8|2,0:0|0:0,0:0:0:0:
120,144,70650,1,8,0:0:0:0:
148,65,70821,6,0,L|236:41,1,70,0|2,0:0|0:0,0:0:0:0:
267,113,71164,2,0,L|179:137,1,70,0|8,0:0|0:0,0:0:0:0:
243,203,71507,1,0,0:0:0:0:
217,282,71678,2,0,L|129:306,2,70,2|0|8,0:0|0:0|0:0,0:0:0:0:
301,286,72192,6,0,L|389:302,2,70,0|6|0,0:0|0:0|0:0,0:0:0:0:
341,211,72707,1,8,0:0:0:0:
341,211,72878,2,0,L|253:195,1,70,0|2,0:0|0:0,0:0:0:0:
209,141,73221,2,0,B|136:184|136:184|113:269,1,140
136,320,73735,5,2,0:0:0:0:
136,320,73907,1,0,0:0:0:0:
201,267,74078,1,0,0:0:0:0:
201,267,74250,1,0,0:0:0:0:
284,275,74421,2,0,L|372:291,1,70
230,172,74764,1,8,0:0:0:0:
365,72,75107,6,0,L|277:88,1,70,6|0,0:0|0:0,0:0:0:0:
338,157,75450,2,0,L|426:173,1,70,8|0,0:0|0:0,0:0:0:0:
378,248,75792,2,0,P|332:312|240:300,1,140,2|8,0:0|0:0,0:0:0:0:
295,235,76307,6,0,L|199:219,1,70,0|2,0:0|0:0,0:0:0:0:
237,139,76650,2,0,L|141:123,2,70,0|8|0,0:0|0:0|0:0,0:0:0:0:
314,105,77164,2,0,P|367:147|377:215,1,140,2|8,0:0|0:0,0:0:0:0:
294,234,77678,6,0,L|198:250,2,70,0|2|0,0:0|0:0|0:0,0:0:0:0:
253,160,78192,1,8,0:0:0:0:
253,160,78364,1,0,0:0:0:0:
175,127,78535,2,0,P|231:80|321:124,1,140,2|8,0:0|0:0,0:0:0:0:
159,195,79221,6,0,L|239:187,1,70,2|0,0:0|0:0,0:0:0:0:
203,268,79564,2,0,L|123:276,1,70,8|0,0:0|0:0,0:0:0:0:
175,348,79907,2,0,L|255:340,1,70,2|0,0:0|0:0,0:0:0:0:
326,320,80250,1,8,0:0:0:0:
381,256,80421,6,0,L|405:160,2,70,0|6|0,0:0|0:0|0:0,0:0:0:0:
316,202,80935,2,0,L|299:269,1,70,8|0,0:0|0:0,0:0:0:0:
243,333,81278,2,0,P|155:341|131:285,1,140,2|8,0:0|0:0,0:0:0:0:
142,222,81792,5,6,0:0:0:0:
348,133,82135,1,6,0:0:0:0:
348,133,82478,5,6,0:0:0:0:
172,81,82650,2,0,L|124:185,1,70,6|0,0:0|0:0,0:0:0:0:
124,226,82992,5,0,0:0:0:0:
124,226,83078,1,0,0:0:0:0:
124,226,83164,1,0,0:0:0:0:
203,199,83335,6,0,L|283:207,1,70,6|0,0:0|0:0,0:0:0:0:
291,288,83678,2,0,L|211:280,1,70,8|0,0:0|0:0,0:0:0:0:
140,255,84021,2,0,L|60:263,2,70,2|0|8,0:0|0:0|0:0,0:0:0:0:
203,198,84535,6,0,P|355:102|291:62,1,350,6|0,0:0|0:0,0:0:0:0:
220,76,85564,1,0,0:0:0:0:
152,126,85735,2,0,L|96:118,2,35
203,198,86078,5,2,0:0:0:0:
370,210,86421,1,8,0:0:0:0:
203,198,86764,1,2,0:0:0:0:
203,198,86935,1,2,0:0:0:0:
274,152,87107,1,8,0:0:0:0:
275,235,87278,6,0,L|312:308,1,70,0|2,0:0|0:0,0:0:0:0:
383,262,87621,2,0,L|351:199,1,70,0|8,0:0|0:0,0:0:0:0:
427,162,87964,1,0,0:0:0:0:
427,162,88135,2,0,L|464:235,2,70,2|2|8,0:0|0:0|0:0,0:0:0:0:
283,74,88821,5,2,0:0:0:0:
155,183,89164,1,8,0:0:0:0:
283,74,89507,1,2,0:0:0:0:
283,74,89678,1,2,0:0:0:0:
264,156,89850,1,8,0:0:0:0:
199,102,90021,6,0,L|106:96,1,70,0|2,0:0|0:0,0:0:0:0:
80,173,90364,2,0,L|150:178,1,70,0|8,0:0|0:0,0:0:0:0:
158,261,90707,1,0,0:0:0:0:
158,261,90878,2,0,L|65:255,2,70,2|2|8,0:0|0:0|0:0,0:0:0:0:
264,310,91564,5,2,0:0:0:0:
366,176,91907,1,8,0:0:0:0:
264,310,92250,1,2,0:0:0:0:
264,310,92421,1,2,0:0:0:0:
340,276,92592,1,8,0:0:0:0:
274,222,92764,6,0,L|184:239,1,70,0|2,0:0|0:0,0:0:0:0:
211,150,93107,2,0,L|279:137,1,70,0|8,0:0|0:0,0:0:0:0:
238,63,93450,1,0,0:0:0:0:
238,63,93621,2,0,L|148:80,2,70,2|2|8,0:0|0:0|0:0,0:0:0:0:
127,190,94307,5,2,0:0:0:0:
287,139,94650,1,8,0:0:0:0:
127,190,94992,1,2,0:0:0:0:
287,139,95164,2,0,P|339:215|275:274,1,140,2|0,0:0|0:0,0:0:0:0:
113,109,96021,5,0,0:0:0:0:
273,157,96364,2,0,L|313:165,2,35
261,240,96707,2,0,L|349:256,1,70
151,215,97050,1,6,0:0:0:0:
