osu file format v14

[General]
AudioFilename: Chinoprpr.mp3
AudioLeadIn: 0
PreviewTime: 89166
Countdown: 0
SampleSet: Normal
StackLeniency: 0.7
Mode: 1
LetterboxInBreaks: 0
WidescreenStoryboard: 0

[Editor]
Bookmarks: 132802,220075,256893,267802,280075,301893,323711
DistanceSpacing: 0.5
BeatDivisor: 4
GridSize: 32
TimelineZoom: 2.4

[Metadata]
Title:Mahou Shoujo Chino (nenpulse bootleg remix)
TitleUnicode:魔法少女チノ (nenpulse bootleg remix)
Artist:Chino (CV:Minase Inori)
ArtistUnicode:チノ (CV:水瀬いのり)
Creator:yuzu__rinrin
Version:frappuChino
Source:ご注文はうさぎですか??
Tags:gochuumon wa usagi desuka?? gochiusa is the order a rabbit?? cup of YOUTAEES YOUTA Y_O_U_T_A Collab
BeatmapID:1444656
BeatmapSetID:683093

[Difficulty]
HPDrainRate:4
CircleSize:2
OverallDifficulty:6
ApproachRate:10
SliderMultiplier:1.4
SliderTickRate:1

[Events]
//Background and Video events
0,0,"chino.jpg",0,-50
//Break Periods
//Storyboard Layer 0 (Background)
//Storyboard Layer 1 (Fail)
//Storyboard Layer 2 (Pass)
//Storyboard Layer 3 (Foreground)
//Storyboard Sound Samples

[TimingPoints]
530,340.909090909091,4,1,0,100,1,0
530,-100,4,1,0,60,0,0
1552,-100,4,1,0,70,0,0
1893,-100,4,1,0,80,0,0
12802,-100,4,1,0,85,0,0
22348,-100,4,1,0,5,0,0
23370,-100,4,1,0,60,0,0
23711,-100,4,1,0,80,0,0
45530,-100,4,1,0,60,0,0
51325,-100,4,1,0,70,0,0
56439,-100,4,1,0,80,0,0
67348,-100,4,1,0,70,0,0
72802,-100,4,1,0,90,0,0
75530,-100,4,1,0,70,0,0
83711,-100,4,1,0,80,0,0
89166,-100,4,1,0,90,0,1
110984,-100,4,1,0,80,0,0
132802,-100,4,1,0,60,0,0
135189,-100,4,1,0,80,0,0
135530,-100,4,1,0,70,0,0
143711,-100,4,1,0,80,0,0
154620,-100,4,1,0,70,0,0
170984,-100,4,1,0,80,0,0
176439,-100,4,1,0,90,0,1
198257,-100,4,1,0,80,0,0
219393,-100,4,1,0,70,0,0
220075,-100,4,1,0,80,0,0
241893,-100,4,1,0,60,0,0
251439,-100,4,1,0,70,0,0
254848,-100,4,1,0,80,0,0
256893,-100,4,1,0,90,0,1
278711,-100,4,1,0,70,0,0
280075,-100,4,1,0,80,0,0
301893,-100,4,1,0,70,0,0

[HitObjects]
256,192,530,5,0,0:0:0:0:
256,192,700,1,0,0:0:0:0:
256,192,785,1,0,0:0:0:0:
256,192,870,1,8,0:0:0:0:
256,192,1041,1,8,0:0:0:0:
256,192,1126,1,0,0:0:0:0:
256,192,1211,1,8,0:0:0:0:
256,192,1297,1,8,0:0:0:0:
256,192,1382,1,0,0:0:0:0:
256,192,1552,1,12,0:0:0:0:
256,192,1893,1,4,0:0:0:0:
256,192,2234,1,8,0:0:0:0:
256,192,2405,1,8,0:0:0:0:
256,192,2490,1,8,0:0:0:0:
256,192,2575,1,0,0:0:0:0:
256,192,2745,1,0,0:0:0:0:
256,192,2916,1,8,0:0:0:0:
256,192,3086,1,0,0:0:0:0:
256,192,3172,1,8,0:0:0:0:
256,192,3257,1,0,0:0:0:0:
256,192,3427,1,0,0:0:0:0:
256,192,3598,1,8,0:0:0:0:
256,192,3768,1,8,0:0:0:0:
256,192,3853,1,8,0:0:0:0:
256,192,3939,1,0,0:0:0:0:
256,192,4109,1,0,0:0:0:0:
256,192,4280,1,8,0:0:0:0:
256,192,4450,1,0,0:0:0:0:
256,192,4620,1,0,0:0:0:0:
256,192,4791,1,0,0:0:0:0:
256,192,4961,1,8,0:0:0:0:
256,192,5132,1,8,0:0:0:0:
256,192,5217,1,8,0:0:0:0:
256,192,5302,1,0,0:0:0:0:
256,192,5473,1,0,0:0:0:0:
256,192,5643,1,8,0:0:0:0:
256,192,5814,1,0,0:0:0:0:
256,192,5899,1,8,0:0:0:0:
256,192,5984,1,0,0:0:0:0:
256,192,6155,1,0,0:0:0:0:
256,192,6325,1,8,0:0:0:0:
256,192,6495,1,8,0:0:0:0:
256,192,6581,1,8,0:0:0:0:
256,192,6666,1,0,0:0:0:0:
256,192,6836,1,0,0:0:0:0:
256,192,6922,1,0,0:0:0:0:
256,192,7007,1,8,0:0:0:0:
256,192,7177,1,0,0:0:0:0:
256,192,7348,1,0,0:0:0:0:
256,192,7689,1,8,0:0:0:0:
256,192,7859,1,8,0:0:0:0:
256,192,7944,1,8,0:0:0:0:
256,192,8030,1,0,0:0:0:0:
256,192,8200,1,0,0:0:0:0:
256,192,8370,1,8,0:0:0:0:
256,192,8541,1,0,0:0:0:0:
256,192,8626,1,8,0:0:0:0:
256,192,8711,1,0,0:0:0:0:
256,192,8882,1,0,0:0:0:0:
256,192,9052,1,8,0:0:0:0:
256,192,9223,1,8,0:0:0:0:
256,192,9308,1,8,0:0:0:0:
256,192,9393,1,0,0:0:0:0:
256,192,9564,1,0,0:0:0:0:
256,192,9734,1,8,0:0:0:0:
256,192,9905,1,0,0:0:0:0:
256,192,10075,1,0,0:0:0:0:
256,192,10245,1,0,0:0:0:0:
256,192,10416,1,8,0:0:0:0:
256,192,10586,1,8,0:0:0:0:
256,192,10672,1,8,0:0:0:0:
256,192,10757,1,0,0:0:0:0:
256,192,10927,1,0,0:0:0:0:
256,192,11098,1,8,0:0:0:0:
256,192,11268,1,0,0:0:0:0:
256,192,11353,1,8,0:0:0:0:
256,192,11439,1,0,0:0:0:0:
256,192,11609,1,0,0:0:0:0:
256,192,11780,1,8,0:0:0:0:
256,192,11950,1,8,0:0:0:0:
256,192,12120,1,0,0:0:0:0:
256,192,12206,1,0,0:0:0:0:
256,192,12376,1,0,0:0:0:0:
256,192,12461,1,8,0:0:0:0:
256,192,12632,1,0,0:0:0:0:
256,192,12802,1,4,0:0:0:0:
256,192,13058,1,0,0:0:0:0:
256,192,13143,1,8,0:0:0:0:
256,192,13314,1,0,0:0:0:0:
256,192,13484,1,0,0:0:0:0:
256,192,13655,1,0,0:0:0:0:
256,192,13740,1,0,0:0:0:0:
256,192,13825,1,8,0:0:0:0:
256,192,13995,1,8,0:0:0:0:
256,192,14166,1,0,0:0:0:0:
256,192,14336,1,8,0:0:0:0:
256,192,14422,1,0,0:0:0:0:
256,192,14507,1,8,0:0:0:0:
256,192,14677,1,8,0:0:0:0:
256,192,14848,1,0,0:0:0:0:
256,192,15018,1,0,0:0:0:0:
256,192,15189,1,8,0:0:0:0:
256,192,15359,1,0,0:0:0:0:
256,192,15530,1,0,0:0:0:0:
256,192,15700,1,0,0:0:0:0:
256,192,15785,1,0,0:0:0:0:
256,192,15870,1,8,0:0:0:0:
256,192,16041,1,0,0:0:0:0:
256,192,16211,1,0,0:0:0:0:
256,192,16382,1,0,0:0:0:0:
256,192,16467,1,0,0:0:0:0:
256,192,16552,1,8,0:0:0:0:
256,192,16723,1,8,0:0:0:0:
256,192,16893,1,0,0:0:0:0:
256,192,17064,1,8,0:0:0:0:
256,192,17149,1,0,0:0:0:0:
256,192,17234,1,8,0:0:0:0:
256,192,17405,1,8,0:0:0:0:
256,192,17575,1,0,0:0:0:0:
256,192,17745,1,0,0:0:0:0:
256,192,17831,1,0,0:0:0:0:
256,192,17916,1,8,0:0:0:0:
256,192,18086,1,0,0:0:0:0:
256,192,18257,1,12,0:0:0:0:
256,192,18598,1,8,0:0:0:0:
256,192,18768,1,0,0:0:0:0:
256,192,18939,1,8,0:0:0:0:
256,192,19109,1,0,0:0:0:0:
256,192,19194,1,0,0:0:0:0:
256,192,19280,1,8,0:0:0:0:
256,192,19450,1,0,0:0:0:0:
256,192,19620,1,12,0:0:0:0:
256,192,19791,1,0,0:0:0:0:
256,192,19876,1,0,0:0:0:0:
256,192,19961,1,8,0:0:0:0:
256,192,20132,1,0,0:0:0:0:
256,192,20302,1,8,0:0:0:0:
256,192,20387,1,0,0:0:0:0:
256,192,20473,1,0,0:0:0:0:
256,192,20558,1,0,0:0:0:0:
256,192,20643,1,8,0:0:0:0:
256,192,20814,1,0,0:0:0:0:
256,192,20984,1,12,0:0:0:0:
256,192,21155,1,0,0:0:0:0:
256,192,21325,1,0,0:0:0:0:
256,192,21495,1,0,0:0:0:0:
256,192,21666,1,8,0:0:0:0:
256,192,21751,1,0,0:0:0:0:
256,192,21836,1,8,0:0:0:0:
256,192,21893,1,8,0:0:0:0:
256,192,21950,1,8,0:0:0:0:
256,192,22007,1,0,0:0:0:0:
256,192,22092,1,0,0:0:0:0:
256,192,22177,1,8,0:0:0:0:
256,192,23711,1,4,0:0:0:0:
256,192,24052,1,8,0:0:0:0:
256,192,24223,1,0,0:0:0:0:
256,192,24308,1,0,0:0:0:0:
256,192,24393,1,0,0:0:0:0:
256,192,24564,1,0,0:0:0:0:
256,192,24734,1,8,0:0:0:0:
256,192,24905,1,8,0:0:0:0:
256,192,24990,1,8,0:0:0:0:
256,192,25075,1,0,0:0:0:0:
256,192,25245,1,0,0:0:0:0:
256,192,25331,1,0,0:0:0:0:
256,192,25416,1,8,0:0:0:0:
256,192,25586,1,0,0:0:0:0:
256,192,25757,1,0,0:0:0:0:
256,192,25842,1,8,0:0:0:0:
256,192,25927,1,0,0:0:0:0:
256,192,26098,1,8,0:0:0:0:
256,192,26268,1,0,0:0:0:0:
256,192,26439,1,8,0:0:0:0:
256,192,26524,1,8,0:0:0:0:
256,192,26609,1,0,0:0:0:0:
256,192,26694,1,8,0:0:0:0:
256,192,26780,1,8,0:0:0:0:
256,192,26950,1,0,0:0:0:0:
256,192,27120,1,8,0:0:0:0:
256,192,27206,1,8,0:0:0:0:
256,192,27291,1,0,0:0:0:0:
256,192,27376,1,0,0:0:0:0:
256,192,27461,1,8,0:0:0:0:
256,192,27632,1,0,0:0:0:0:
256,192,27802,1,8,0:0:0:0:
256,192,27887,1,0,0:0:0:0:
256,192,27973,1,0,0:0:0:0:
256,192,28143,1,8,0:0:0:0:
256,192,28314,1,0,0:0:0:0:
256,192,28399,1,0,0:0:0:0:
256,192,28484,1,8,0:0:0:0:
256,192,28655,1,0,0:0:0:0:
256,192,28825,1,8,0:0:0:0:
256,192,28910,1,8,0:0:0:0:
256,192,28995,1,0,0:0:0:0:
256,192,29166,1,0,0:0:0:0:
256,192,29507,1,8,0:0:0:0:
256,192,29677,1,0,0:0:0:0:
256,192,29762,1,0,0:0:0:0:
256,192,29848,1,8,0:0:0:0:
256,192,30018,1,0,0:0:0:0:
256,192,30189,1,8,0:0:0:0:
256,192,30274,1,0,0:0:0:0:
256,192,30359,1,8,0:0:0:0:
256,192,30444,1,8,0:0:0:0:
256,192,30530,1,0,0:0:0:0:
256,192,30700,1,0,0:0:0:0:
256,192,30870,1,8,0:0:0:0:
256,192,31041,1,0,0:0:0:0:
256,192,31126,1,8,0:0:0:0:
256,192,31211,1,0,0:0:0:0:
256,192,31382,1,0,0:0:0:0:
256,192,31552,1,8,0:0:0:0:
256,192,31723,1,0,0:0:0:0:
256,192,31808,1,0,0:0:0:0:
256,192,31893,1,8,0:0:0:0:
256,192,32064,1,0,0:0:0:0:
256,192,32234,1,8,0:0:0:0:
256,192,32319,1,8,0:0:0:0:
256,192,32405,1,0,0:0:0:0:
256,192,32490,1,8,0:0:0:0:
256,192,32575,1,0,0:0:0:0:
256,192,32745,1,0,0:0:0:0:
256,192,32831,1,0,0:0:0:0:
256,192,32916,1,8,0:0:0:0:
256,192,33086,1,0,0:0:0:0:
256,192,33257,1,8,0:0:0:0:
256,192,33342,1,0,0:0:0:0:
256,192,33427,1,8,0:0:0:0:
256,192,33512,1,8,0:0:0:0:
256,192,33598,1,0,0:0:0:0:
256,192,33768,1,8,0:0:0:0:
256,192,33939,1,0,0:0:0:0:
256,192,34024,1,0,0:0:0:0:
256,192,34194,1,0,0:0:0:0:
256,192,34280,1,8,0:0:0:0:
256,192,34450,1,0,0:0:0:0:
256,192,34620,1,4,0:0:0:0:
256,192,34961,1,8,0:0:0:0:
256,192,35132,1,0,0:0:0:0:
256,192,35217,1,0,0:0:0:0:
256,192,35302,1,8,0:0:0:0:
256,192,35473,1,0,0:0:0:0:
256,192,35643,1,8,0:0:0:0:
256,192,35814,1,8,0:0:0:0:
256,192,35899,1,8,0:0:0:0:
256,192,35984,1,0,0:0:0:0:
256,192,36154,1,0,0:0:0:0:
256,192,36240,1,0,0:0:0:0:
256,192,36325,1,8,0:0:0:0:
256,192,36495,1,0,0:0:0:0:
256,192,36666,1,0,0:0:0:0:
256,192,36751,1,8,0:0:0:0:
256,192,36836,1,0,0:0:0:0:
256,192,37007,1,8,0:0:0:0:
256,192,37177,1,0,0:0:0:0:
256,192,37348,1,8,0:0:0:0:
256,192,37433,1,8,0:0:0:0:
256,192,37518,1,0,0:0:0:0:
256,192,37603,1,8,0:0:0:0:
256,192,37689,1,8,0:0:0:0:
256,192,37859,1,0,0:0:0:0:
256,192,38029,1,8,0:0:0:0:
256,192,38115,1,8,0:0:0:0:
256,192,38200,1,0,0:0:0:0:
256,192,38285,1,0,0:0:0:0:
256,192,38370,1,8,0:0:0:0:
256,192,38541,1,0,0:0:0:0:
256,192,38711,1,8,0:0:0:0:
256,192,38796,1,0,0:0:0:0:
256,192,38882,1,0,0:0:0:0:
256,192,39052,1,8,0:0:0:0:
256,192,39223,1,0,0:0:0:0:
256,192,39308,1,0,0:0:0:0:
256,192,39393,1,8,0:0:0:0:
256,192,39564,1,0,0:0:0:0:
256,192,39734,1,8,0:0:0:0:
256,192,39819,1,8,0:0:0:0:
256,192,39904,1,0,0:0:0:0:
256,192,40075,1,4,0:0:0:0:
256,192,40416,1,8,0:0:0:0:
256,192,40586,1,0,0:0:0:0:
256,192,40671,1,0,0:0:0:0:
256,192,40757,1,8,0:0:0:0:
256,192,40927,1,0,0:0:0:0:
256,192,41098,1,8,0:0:0:0:
256,192,41183,1,0,0:0:0:0:
256,192,41268,1,8,0:0:0:0:
256,192,41439,1,4,0:0:0:0:
256,192,41609,1,0,0:0:0:0:
256,192,41779,1,8,0:0:0:0:
256,192,41950,1,0,0:0:0:0:
256,192,42035,1,8,0:0:0:0:
256,192,42120,1,0,0:0:0:0:
256,192,42291,1,0,0:0:0:0:
256,192,42461,1,8,0:0:0:0:
256,192,42632,1,8,0:0:0:0:
256,192,42802,1,4,0:0:0:0:
256,192,43143,1,4,0:0:0:0:
256,192,43314,1,4,0:0:0:0:
256,192,43654,1,0,0:0:0:0:
256,192,43740,1,0,0:0:0:0:
256,192,43825,1,8,0:0:0:0:
256,192,43910,1,0,0:0:0:0:
256,192,43995,1,0,0:0:0:0:
256,192,44166,1,12,0:0:0:0:
256,192,44848,1,0,0:0:0:0:
256,192,44934,1,0,0:0:0:0:
256,192,45019,1,0,0:0:0:0:
256,192,45104,1,0,0:0:0:0:
256,192,45189,1,8,0:0:0:0:
256,192,45530,1,4,0:0:0:0:
256,192,45870,1,8,0:0:0:0:
256,192,46041,1,0,0:0:0:0:
256,192,46211,1,0,0:0:0:0:
256,192,46552,1,8,0:0:0:0:
256,192,46893,1,0,0:0:0:0:
256,192,47064,1,8,0:0:0:0:
256,192,47405,1,0,0:0:0:0:
256,192,47745,1,8,0:0:0:0:
256,192,47916,1,0,0:0:0:0:
256,192,48086,1,8,0:0:0:0:
256,192,48257,1,0,0:0:0:0:
256,192,48598,1,8,0:0:0:0:
256,192,48768,1,0,0:0:0:0:
256,192,48939,1,0,0:0:0:0:
256,192,49280,1,8,0:0:0:0:
256,192,49620,1,0,0:0:0:0:
256,192,49791,1,8,0:0:0:0:
256,192,50132,1,0,0:0:0:0:
256,192,50473,1,8,0:0:0:0:
256,192,50643,1,0,0:0:0:0:
256,192,50814,1,0,0:0:0:0:
256,192,50984,1,0,0:0:0:0:
256,192,51325,1,8,0:0:0:0:
256,192,51666,1,0,0:0:0:0:
256,192,51836,1,0,0:0:0:0:
256,192,52007,1,8,0:0:0:0:
256,192,52348,1,0,0:0:0:0:
256,192,52689,1,8,0:0:0:0:
256,192,52859,1,0,0:0:0:0:
256,192,53030,1,0,0:0:0:0:
256,192,53370,1,8,0:0:0:0:
256,192,53711,1,0,0:0:0:0:
256,192,54052,1,8,0:0:0:0:
256,192,54393,1,0,0:0:0:0:
256,192,54564,1,0,0:0:0:0:
256,192,54734,1,8,0:0:0:0:
256,192,55075,1,0,0:0:0:0:
256,192,55416,1,8,0:0:0:0:
256,192,55586,1,0,0:0:0:0:
256,192,55757,1,0,0:0:0:0:
256,192,55842,1,0,0:0:0:0:
256,192,56012,1,0,0:0:0:0:
256,192,56098,1,8,0:0:0:0:
256,192,56268,1,8,0:0:0:0:
256,192,56439,1,4,0:0:0:0:
256,192,56779,1,8,0:0:0:0:
256,192,56950,1,0,0:0:0:0:
256,192,57120,1,0,0:0:0:0:
256,192,57291,1,0,0:0:0:0:
256,192,57376,1,0,0:0:0:0:
256,192,57461,1,8,0:0:0:0:
256,192,57632,1,8,0:0:0:0:
256,192,57802,1,0,0:0:0:0:
256,192,57973,1,8,0:0:0:0:
256,192,58058,1,8,0:0:0:0:
256,192,58143,1,8,0:0:0:0:
256,192,58314,1,0,0:0:0:0:
256,192,58654,1,0,0:0:0:0:
256,192,58825,1,8,0:0:0:0:
256,192,58995,1,0,0:0:0:0:
256,192,59166,1,0,0:0:0:0:
256,192,59336,1,0,0:0:0:0:
256,192,59422,1,0,0:0:0:0:
256,192,59507,1,8,0:0:0:0:
256,192,59677,1,0,0:0:0:0:
256,192,59848,1,8,0:0:0:0:
256,192,60018,1,0,0:0:0:0:
256,192,60103,1,0,0:0:0:0:
256,192,60189,1,8,0:0:0:0:
256,192,60359,1,8,0:0:0:0:
256,192,60529,1,0,0:0:0:0:
256,192,60700,1,8,0:0:0:0:
256,192,60785,1,8,0:0:0:0:
256,192,60870,1,8,0:0:0:0:
256,192,61041,1,8,0:0:0:0:
256,192,61211,1,0,0:0:0:0:
256,192,61382,1,0,0:0:0:0:
256,192,61467,1,0,0:0:0:0:
256,192,61552,1,8,0:0:0:0:
256,192,61723,1,0,0:0:0:0:
256,192,61893,1,12,0:0:0:0:
256,192,62234,1,8,0:0:0:0:
256,192,62405,1,0,0:0:0:0:
256,192,62575,1,12,0:0:0:0:
256,192,62745,1,0,0:0:0:0:
256,192,62831,1,0,0:0:0:0:
256,192,62916,1,8,0:0:0:0:
256,192,63086,1,0,0:0:0:0:
256,192,63257,1,12,0:0:0:0:
256,192,63427,1,8,0:0:0:0:
256,192,63512,1,8,0:0:0:0:
256,192,63598,1,8,0:0:0:0:
256,192,63768,1,8,0:0:0:0:
256,192,63939,1,4,0:0:0:0:
256,192,64109,1,8,0:0:0:0:
256,192,64195,1,8,0:0:0:0:
256,192,64280,1,0,0:0:0:0:
256,192,64450,1,0,0:0:0:0:
256,192,64620,1,12,0:0:0:0:
256,192,64791,1,0,0:0:0:0:
256,192,64876,1,0,0:0:0:0:
256,192,64961,1,8,0:0:0:0:
256,192,65132,1,8,0:0:0:0:
256,192,65302,1,0,0:0:0:0:
256,192,65387,1,0,0:0:0:0:
256,192,65558,1,0,0:0:0:0:
256,192,65643,1,8,0:0:0:0:
256,192,65728,1,8,0:0:0:0:
256,192,65814,1,0,0:0:0:0:
256,192,65984,1,4,0:0:0:0:
256,192,66325,1,8,0:0:0:0:
256,192,66495,1,8,0:0:0:0:
256,192,66666,1,8,0:0:0:0:
256,192,67007,1,8,0:0:0:0:
256,192,67348,1,4,0:0:0:0:
256,192,67689,1,8,0:0:0:0:
256,192,67859,1,0,0:0:0:0:
256,192,67944,1,0,0:0:0:0:
256,192,68030,1,8,0:0:0:0:
256,192,68200,1,0,0:0:0:0:
256,192,68370,1,8,0:0:0:0:
256,192,68541,1,8,0:0:0:0:
256,192,68626,1,8,0:0:0:0:
256,192,68711,1,0,0:0:0:0:
256,192,68882,1,0,0:0:0:0:
256,192,69052,1,8,0:0:0:0:
256,192,69223,1,0,0:0:0:0:
256,192,69308,1,0,0:0:0:0:
256,192,69393,1,8,0:0:0:0:
256,192,69478,1,0,0:0:0:0:
256,192,69564,1,8,0:0:0:0:
256,192,69734,1,8,0:0:0:0:
256,192,69905,1,8,0:0:0:0:
256,192,69990,1,8,0:0:0:0:
256,192,70075,1,0,0:0:0:0:
256,192,70245,1,0,0:0:0:0:
256,192,70416,1,8,0:0:0:0:
256,192,70586,1,0,0:0:0:0:
256,192,70672,1,0,0:0:0:0:
256,192,70757,1,8,0:0:0:0:
256,192,70927,1,0,0:0:0:0:
256,192,71098,1,8,0:0:0:0:
256,192,71268,1,8,0:0:0:0:
256,192,71353,1,8,0:0:0:0:
256,192,71439,1,0,0:0:0:0:
256,192,71609,1,0,0:0:0:0:
256,192,71780,1,8,0:0:0:0:
256,192,71950,1,0,0:0:0:0:
256,192,72036,1,0,0:0:0:0:
256,192,72121,1,8,0:0:0:0:
256,192,72206,1,8,0:0:0:0:
256,192,72291,1,0,0:0:0:0:
256,192,72376,1,0,0:0:0:0:
256,192,72461,1,8,0:0:0:0:
256,192,72632,1,8,0:0:0:0:
256,192,72802,1,4,0:0:0:0:
256,192,72973,1,4,0:0:0:0:
256,192,73314,1,12,0:0:0:0:
256,192,73484,1,4,0:0:0:0:
256,192,73825,1,12,0:0:0:0:
256,192,73995,1,12,0:0:0:0:
256,192,74336,1,4,0:0:0:0:
256,192,74507,1,12,0:0:0:0:
256,192,75018,1,0,0:0:0:0:
256,192,75103,1,0,0:0:0:0:
256,192,75189,1,8,0:0:0:0:
256,192,75530,1,4,0:0:0:0:
256,192,75700,1,0,0:0:0:0:
256,192,75785,1,0,0:0:0:0:
256,192,75870,1,8,0:0:0:0:
256,192,76041,1,8,0:0:0:0:
256,192,76211,1,0,0:0:0:0:
256,192,76382,1,8,0:0:0:0:
256,192,76467,1,0,0:0:0:0:
256,192,76552,1,8,0:0:0:0:
256,192,76723,1,8,0:0:0:0:
256,192,76893,1,0,0:0:0:0:
256,192,77064,1,0,0:0:0:0:
256,192,77149,1,0,0:0:0:0:
256,192,77234,1,8,0:0:0:0:
256,192,77405,1,0,0:0:0:0:
256,192,77575,1,0,0:0:0:0:
256,192,77660,1,0,0:0:0:0:
256,192,77831,1,0,0:0:0:0:
256,192,77916,1,8,0:0:0:0:
256,192,78086,1,0,0:0:0:0:
256,192,78257,1,4,0:0:0:0:
256,192,78598,1,8,0:0:0:0:
256,192,78768,1,0,0:0:0:0:
256,192,78853,1,0,0:0:0:0:
256,192,78939,1,8,0:0:0:0:
256,192,79109,1,0,0:0:0:0:
256,192,79279,1,8,0:0:0:0:
256,192,79450,1,8,0:0:0:0:
256,192,79535,1,8,0:0:0:0:
256,192,79620,1,0,0:0:0:0:
256,192,79791,1,0,0:0:0:0:
256,192,79961,1,8,0:0:0:0:
256,192,80132,1,0,0:0:0:0:
256,192,80217,1,0,0:0:0:0:
256,192,80302,1,8,0:0:0:0:
256,192,80387,1,0,0:0:0:0:
256,192,80473,1,8,0:0:0:0:
256,192,80643,1,8,0:0:0:0:
256,192,80814,1,8,0:0:0:0:
256,192,80899,1,8,0:0:0:0:
256,192,80984,1,0,0:0:0:0:
256,192,81154,1,0,0:0:0:0:
256,192,81325,1,8,0:0:0:0:
256,192,81495,1,0,0:0:0:0:
256,192,81581,1,0,0:0:0:0:
256,192,81666,1,8,0:0:0:0:
256,192,81836,1,0,0:0:0:0:
256,192,82007,1,8,0:0:0:0:
256,192,82177,1,8,0:0:0:0:
256,192,82262,1,8,0:0:0:0:
256,192,82348,1,0,0:0:0:0:
256,192,82518,1,0,0:0:0:0:
256,192,82689,1,8,0:0:0:0:
256,192,82859,1,0,0:0:0:0:
256,192,82944,1,8,0:0:0:0:
256,192,83029,1,0,0:0:0:0:
256,192,83115,1,8,0:0:0:0:
256,192,83200,1,8,0:0:0:0:
256,192,83285,1,8,0:0:0:0:
256,192,83370,1,0,0:0:0:0:
256,192,83541,1,8,0:0:0:0:
256,192,83711,1,4,0:0:0:0:
256,192,84052,1,4,0:0:0:0:
256,192,84393,1,12,0:0:0:0:
256,192,84734,1,12,0:0:0:0:
256,192,85245,1,0,0:0:0:0:
256,192,85416,1,12,0:0:0:0:
256,192,85586,1,0,0:0:0:0:
256,192,85672,1,0,0:0:0:0:
256,192,85757,1,8,0:0:0:0:
256,192,85927,1,0,0:0:0:0:
256,192,86098,1,8,0:0:0:0:
256,192,86183,1,0,0:0:0:0:
256,192,86268,1,8,0:0:0:0:
256,192,86439,1,4,0:0:0:0:
256,192,86780,1,8,0:0:0:0:
256,192,86950,1,4,0:0:0:0:
256,192,87291,1,8,0:0:0:0:
256,192,87461,1,4,0:0:0:0:
256,192,87632,1,0,0:0:0:0:
256,192,87802,1,12,0:0:0:0:
256,192,88143,1,0,0:0:0:0:
256,192,88314,1,0,0:0:0:0:
256,192,88484,1,8,0:0:0:0:
256,192,88655,1,0,0:0:0:0:
256,192,88825,1,8,0:0:0:0:
256,192,88882,1,8,0:0:0:0:
256,192,88939,1,8,0:0:0:0:
256,192,88995,1,0,0:0:0:0:
256,192,89166,1,4,0:0:0:0:
256,192,89336,1,0,0:0:0:0:
256,192,89422,1,0,0:0:0:0:
256,192,89507,1,8,0:0:0:0:
256,192,89677,1,8,0:0:0:0:
256,192,89848,1,0,0:0:0:0:
256,192,90018,1,8,0:0:0:0:
256,192,90103,1,8,0:0:0:0:
256,192,90189,1,0,0:0:0:0:
256,192,90359,1,8,0:0:0:0:
256,192,90530,1,0,0:0:0:0:
256,192,90700,1,0,0:0:0:0:
256,192,90785,1,0,0:0:0:0:
256,192,90870,1,8,0:0:0:0:
256,192,90956,1,0,0:0:0:0:
256,192,91041,1,8,0:0:0:0:
256,192,91126,1,8,0:0:0:0:
256,192,91211,1,0,0:0:0:0:
256,192,91382,1,0,0:0:0:0:
256,192,91552,1,8,0:0:0:0:
256,192,91723,1,8,0:0:0:0:
256,192,91809,1,8,0:0:0:0:
256,192,91893,1,0,0:0:0:0:
256,192,92064,1,8,0:0:0:0:
256,192,92149,1,0,0:0:0:0:
256,192,92234,1,8,0:0:0:0:
256,192,92405,1,8,0:0:0:0:
256,192,92575,1,0,0:0:0:0:
256,192,92660,1,8,0:0:0:0:
256,192,92831,1,8,0:0:0:0:
256,192,92916,1,0,0:0:0:0:
256,192,93086,1,0,0:0:0:0:
256,192,93257,1,8,0:0:0:0:
256,192,93428,1,8,0:0:0:0:
256,192,93513,1,0,0:0:0:0:
256,192,93598,1,8,0:0:0:0:
256,192,93683,1,8,0:0:0:0:
256,192,93769,1,0,0:0:0:0:
256,192,93854,1,8,0:0:0:0:
256,192,93939,1,0,0:0:0:0:
256,192,94110,1,0,0:0:0:0:
256,192,94280,1,8,0:0:0:0:
256,192,94450,1,0,0:0:0:0:
256,192,94535,1,8,0:0:0:0:
256,192,94620,1,0,0:0:0:0:
256,192,94791,1,0,0:0:0:0:
256,192,94876,1,0,0:0:0:0:
256,192,94961,1,8,0:0:0:0:
256,192,95132,1,8,0:0:0:0:
256,192,95302,1,0,0:0:0:0:
256,192,95473,1,0,0:0:0:0:
256,192,95558,1,0,0:0:0:0:
256,192,95643,1,8,0:0:0:0:
256,192,95814,1,0,0:0:0:0:
256,192,95984,1,8,0:0:0:0:
256,192,96069,1,0,0:0:0:0:
256,192,96155,1,8,0:0:0:0:
256,192,96240,1,8,0:0:0:0:
256,192,96325,1,0,0:0:0:0:
256,192,96410,1,0,0:0:0:0:
256,192,96495,1,8,0:0:0:0:
256,192,96666,1,0,0:0:0:0:
256,192,96751,1,8,0:0:0:0:
256,192,96836,1,0,0:0:0:0:
256,192,96922,1,0,0:0:0:0:
256,192,97007,1,8,0:0:0:0:
256,192,97177,1,8,0:0:0:0:
256,192,97348,1,0,0:0:0:0:
256,192,97518,1,0,0:0:0:0:
256,192,97603,1,0,0:0:0:0:
256,192,97689,1,8,0:0:0:0:
256,192,97859,1,0,0:0:0:0:
256,192,98030,1,8,0:0:0:0:
256,192,98115,1,8,0:0:0:0:
256,192,98200,1,0,0:0:0:0:
256,192,98285,1,0,0:0:0:0:
256,192,98370,1,8,0:0:0:0:
256,192,98541,1,8,0:0:0:0:
256,192,98711,1,0,0:0:0:0:
256,192,98882,1,0,0:0:0:0:
256,192,98967,1,0,0:0:0:0:
256,192,99052,1,8,0:0:0:0:
256,192,99223,1,0,0:0:0:0:
256,192,99393,1,8,0:0:0:0:
256,192,99478,1,0,0:0:0:0:
256,192,99649,1,0,0:0:0:0:
256,192,99734,1,8,0:0:0:0:
256,192,99905,1,8,0:0:0:0:
256,192,100075,1,4,0:0:0:0:
256,192,100245,1,0,0:0:0:0:
256,192,100331,1,0,0:0:0:0:
256,192,100416,1,8,0:0:0:0:
256,192,100586,1,8,0:0:0:0:
256,192,100757,1,0,0:0:0:0:
256,192,100927,1,8,0:0:0:0:
256,192,101012,1,8,0:0:0:0:
256,192,101098,1,0,0:0:0:0:
256,192,101183,1,0,0:0:0:0:
256,192,101268,1,8,0:0:0:0:
256,192,101439,1,0,0:0:0:0:
256,192,101609,1,0,0:0:0:0:
256,192,101694,1,0,0:0:0:0:
256,192,101779,1,8,0:0:0:0:
256,192,101865,1,0,0:0:0:0:
256,192,101950,1,8,0:0:0:0:
256,192,102035,1,8,0:0:0:0:
256,192,102120,1,0,0:0:0:0:
256,192,102291,1,0,0:0:0:0:
256,192,102461,1,8,0:0:0:0:
256,192,102632,1,8,0:0:0:0:
256,192,102717,1,8,0:0:0:0:
256,192,102802,1,0,0:0:0:0:
256,192,102973,1,8,0:0:0:0:
256,192,103058,1,0,0:0:0:0:
256,192,103143,1,8,0:0:0:0:
256,192,103314,1,8,0:0:0:0:
256,192,103484,1,0,0:0:0:0:
256,192,103569,1,8,0:0:0:0:
256,192,103740,1,8,0:0:0:0:
256,192,103825,1,0,0:0:0:0:
256,192,103995,1,0,0:0:0:0:
256,192,104081,1,0,0:0:0:0:
256,192,104166,1,8,0:0:0:0:
256,192,104337,1,8,0:0:0:0:
256,192,104422,1,0,0:0:0:0:
256,192,104507,1,8,0:0:0:0:
256,192,104592,1,8,0:0:0:0:
256,192,104678,1,0,0:0:0:0:
256,192,104763,1,8,0:0:0:0:
256,192,104848,1,0,0:0:0:0:
256,192,105019,1,0,0:0:0:0:
256,192,105189,1,8,0:0:0:0:
256,192,105359,1,0,0:0:0:0:
256,192,105444,1,8,0:0:0:0:
256,192,105529,1,0,0:0:0:0:
256,192,105700,1,0,0:0:0:0:
256,192,105785,1,0,0:0:0:0:
256,192,105870,1,8,0:0:0:0:
256,192,106041,1,8,0:0:0:0:
256,192,106211,1,0,0:0:0:0:
256,192,106382,1,0,0:0:0:0:
256,192,106467,1,0,0:0:0:0:
256,192,106552,1,8,0:0:0:0:
256,192,106637,1,8,0:0:0:0:
256,192,106723,1,0,0:0:0:0:
256,192,106893,1,8,0:0:0:0:
256,192,106978,1,0,0:0:0:0:
256,192,107064,1,8,0:0:0:0:
256,192,107149,1,8,0:0:0:0:
256,192,107234,1,0,0:0:0:0:
256,192,107319,1,0,0:0:0:0:
256,192,107404,1,8,0:0:0:0:
256,192,107575,1,0,0:0:0:0:
256,192,107660,1,8,0:0:0:0:
256,192,107745,1,0,0:0:0:0:
256,192,107831,1,0,0:0:0:0:
256,192,107916,1,8,0:0:0:0:
256,192,108086,1,0,0:0:0:0:
256,192,108257,1,12,0:0:0:0:
256,192,108427,1,0,0:0:0:0:
256,192,108512,1,0,0:0:0:0:
256,192,108598,1,8,0:0:0:0:
256,192,108768,1,0,0:0:0:0:
256,192,108939,1,8,0:0:0:0:
256,192,109024,1,8,0:0:0:0:
256,192,109109,1,0,0:0:0:0:
256,192,109194,1,0,0:0:0:0:
256,192,109279,1,8,0:0:0:0:
256,192,109450,1,8,0:0:0:0:
256,192,109620,1,0,0:0:0:0:
256,192,109706,1,0,0:0:0:0:
256,192,109791,1,8,0:0:0:0:
256,192,109876,1,0,0:0:0:0:
256,192,109961,1,8,0:0:0:0:
256,192,110047,1,8,0:0:0:0:
256,192,110132,1,0,0:0:0:0:
256,192,110217,1,0,0:0:0:0:
256,192,110302,1,8,0:0:0:0:
256,192,110387,1,0,0:0:0:0:
256,192,110473,1,8,0:0:0:0:
256,192,110530,1,8,0:0:0:0:
256,192,110586,1,8,0:0:0:0:
256,192,110643,1,0,0:0:0:0:
256,192,110728,1,0,0:0:0:0:
256,192,110814,1,8,0:0:0:0:
256,192,110984,1,4,0:0:0:0:
256,192,111155,1,0,0:0:0:0:
256,192,111240,1,0,0:0:0:0:
256,192,111325,1,8,0:0:0:0:
256,192,111495,1,0,0:0:0:0:
256,192,111581,1,8,0:0:0:0:
256,192,111751,1,8,0:0:0:0:
256,192,111836,1,0,0:0:0:0:
256,192,111922,1,0,0:0:0:0:
256,192,112007,1,8,0:0:0:0:
256,192,112177,1,8,0:0:0:0:
256,192,112348,1,0,0:0:0:0:
256,192,112518,1,8,0:0:0:0:
256,192,112603,1,0,0:0:0:0:
256,192,112689,1,8,0:0:0:0:
256,192,112859,1,0,0:0:0:0:
256,192,112944,1,8,0:0:0:0:
256,192,113115,1,8,0:0:0:0:
256,192,113200,1,0,0:0:0:0:
256,192,113285,1,8,0:0:0:0:
256,192,113370,1,8,0:0:0:0:
256,192,113541,1,8,0:0:0:0:
256,192,113711,1,0,0:0:0:0:
256,192,113882,1,0,0:0:0:0:
256,192,113967,1,0,0:0:0:0:
256,192,114052,1,8,0:0:0:0:
256,192,114223,1,0,0:0:0:0:
256,192,114308,1,8,0:0:0:0:
256,192,114478,1,8,0:0:0:0:
256,192,114564,1,8,0:0:0:0:
256,192,114649,1,0,0:0:0:0:
256,192,114734,1,8,0:0:0:0:
256,192,114905,1,8,0:0:0:0:
256,192,115075,1,0,0:0:0:0:
256,192,115245,1,0,0:0:0:0:
256,192,115331,1,8,0:0:0:0:
256,192,115416,1,8,0:0:0:0:
256,192,115586,1,0,0:0:0:0:
256,192,115672,1,8,0:0:0:0:
256,192,115842,1,8,0:0:0:0:
256,192,115927,1,0,0:0:0:0:
256,192,116012,1,0,0:0:0:0:
256,192,116098,1,8,0:0:0:0:
256,192,116183,1,0,0:0:0:0:
256,192,116268,1,8,0:0:0:0:
256,192,116439,1,0,0:0:0:0:
256,192,116609,1,0,0:0:0:0:
256,192,116694,1,0,0:0:0:0:
256,192,116780,1,8,0:0:0:0:
256,192,116950,1,0,0:0:0:0:
256,192,117035,1,8,0:0:0:0:
256,192,117206,1,0,0:0:0:0:
256,192,117291,1,8,0:0:0:0:
256,192,117376,1,0,0:0:0:0:
256,192,117461,1,8,0:0:0:0:
256,192,117632,1,8,0:0:0:0:
256,192,117802,1,0,0:0:0:0:
256,192,117973,1,8,0:0:0:0:
256,192,118058,1,8,0:0:0:0:
256,192,118143,1,0,0:0:0:0:
256,192,118314,1,8,0:0:0:0:
256,192,118484,1,0,0:0:0:0:
256,192,118569,1,8,0:0:0:0:
256,192,118655,1,8,0:0:0:0:
256,192,118740,1,0,0:0:0:0:
256,192,118825,1,8,0:0:0:0:
256,192,118910,1,0,0:0:0:0:
256,192,118995,1,8,0:0:0:0:
256,192,119081,1,8,0:0:0:0:
256,192,119166,1,0,0:0:0:0:
256,192,119336,1,0,0:0:0:0:
256,192,119422,1,0,0:0:0:0:
256,192,119507,1,8,0:0:0:0:
256,192,119677,1,0,0:0:0:0:
256,192,119762,1,8,0:0:0:0:
256,192,119933,1,8,0:0:0:0:
256,192,120018,1,0,0:0:0:0:
256,192,120103,1,0,0:0:0:0:
256,192,120189,1,8,0:0:0:0:
256,192,120359,1,8,0:0:0:0:
256,192,120530,1,0,0:0:0:0:
256,192,120700,1,0,0:0:0:0:
256,192,120785,1,0,0:0:0:0:
256,192,120870,1,8,0:0:0:0:
256,192,121041,1,0,0:0:0:0:
256,192,121126,1,8,0:0:0:0:
256,192,121211,1,0,0:0:0:0:
256,192,121297,1,0,0:0:0:0:
256,192,121467,1,0,0:0:0:0:
256,192,121552,1,8,0:0:0:0:
256,192,121723,1,8,0:0:0:0:
256,192,121893,1,4,0:0:0:0:
256,192,122064,1,0,0:0:0:0:
256,192,122149,1,0,0:0:0:0:
256,192,122234,1,8,0:0:0:0:
256,192,122404,1,0,0:0:0:0:
256,192,122490,1,8,0:0:0:0:
256,192,122660,1,8,0:0:0:0:
256,192,122745,1,0,0:0:0:0:
256,192,122831,1,0,0:0:0:0:
256,192,122916,1,8,0:0:0:0:
256,192,123086,1,8,0:0:0:0:
256,192,123257,1,0,0:0:0:0:
256,192,123427,1,8,0:0:0:0:
256,192,123512,1,0,0:0:0:0:
256,192,123598,1,8,0:0:0:0:
256,192,123768,1,0,0:0:0:0:
256,192,123853,1,8,0:0:0:0:
256,192,124024,1,8,0:0:0:0:
256,192,124109,1,0,0:0:0:0:
256,192,124194,1,8,0:0:0:0:
256,192,124279,1,8,0:0:0:0:
256,192,124450,1,8,0:0:0:0:
256,192,124620,1,0,0:0:0:0:
256,192,124791,1,0,0:0:0:0:
256,192,124876,1,0,0:0:0:0:
256,192,124961,1,8,0:0:0:0:
256,192,125132,1,0,0:0:0:0:
256,192,125217,1,8,0:0:0:0:
256,192,125387,1,8,0:0:0:0:
256,192,125473,1,8,0:0:0:0:
256,192,125558,1,0,0:0:0:0:
256,192,125643,1,8,0:0:0:0:
256,192,125814,1,8,0:0:0:0:
256,192,125984,1,0,0:0:0:0:
256,192,126154,1,0,0:0:0:0:
256,192,126240,1,8,0:0:0:0:
256,192,126325,1,8,0:0:0:0:
256,192,126495,1,0,0:0:0:0:
256,192,126581,1,8,0:0:0:0:
256,192,126751,1,8,0:0:0:0:
256,192,126836,1,0,0:0:0:0:
256,192,126921,1,0,0:0:0:0:
256,192,127007,1,8,0:0:0:0:
256,192,127092,1,0,0:0:0:0:
256,192,127177,1,8,0:0:0:0:
256,192,127348,1,0,0:0:0:0:
256,192,127518,1,0,0:0:0:0:
256,192,127603,1,0,0:0:0:0:
256,192,127689,1,8,0:0:0:0:
256,192,127859,1,0,0:0:0:0:
256,192,127944,1,8,0:0:0:0:
256,192,128115,1,0,0:0:0:0:
256,192,128200,1,8,0:0:0:0:
256,192,128285,1,0,0:0:0:0:
256,192,128370,1,8,0:0:0:0:
256,192,128541,1,0,0:0:0:0:
256,192,128711,1,8,0:0:0:0:
256,192,128882,1,8,0:0:0:0:
256,192,128967,1,8,0:0:0:0:
256,192,129052,1,8,0:0:0:0:
256,192,129223,1,0,0:0:0:0:
256,192,129393,1,0,0:0:0:0:
256,192,129478,1,8,0:0:0:0:
256,192,129564,1,8,0:0:0:0:
256,192,129649,1,0,0:0:0:0:
256,192,129734,1,8,0:0:0:0:
256,192,129819,1,0,0:0:0:0:
256,192,129904,1,8,0:0:0:0:
256,192,129990,1,8,0:0:0:0:
256,192,130075,1,0,0:0:0:0:
256,192,130245,1,0,0:0:0:0:
256,192,130331,1,0,0:0:0:0:
256,192,130416,1,8,0:0:0:0:
256,192,130586,1,0,0:0:0:0:
256,192,130671,1,8,0:0:0:0:
256,192,130757,1,0,0:0:0:0:
256,192,130842,1,8,0:0:0:0:
256,192,130927,1,8,0:0:0:0:
256,192,131012,1,0,0:0:0:0:
256,192,131098,1,8,0:0:0:0:
256,192,131268,1,8,0:0:0:0:
256,192,131353,1,8,0:0:0:0:
256,192,131439,1,0,0:0:0:0:
256,192,131524,1,8,0:0:0:0:
256,192,131609,1,0,0:0:0:0:
256,192,131694,1,0,0:0:0:0:
256,192,131779,1,8,0:0:0:0:
256,192,131865,1,0,0:0:0:0:
256,192,131950,1,0,0:0:0:0:
256,192,132035,1,8,0:0:0:0:
256,192,132120,1,0,0:0:0:0:
256,192,132206,1,0,0:0:0:0:
256,192,132291,1,8,0:0:0:0:
256,192,132348,1,8,0:0:0:0:
256,192,132405,1,8,0:0:0:0:
256,192,132461,1,0,0:0:0:0:
256,192,132547,1,0,0:0:0:0:
256,192,132632,1,8,0:0:0:0:
256,192,132802,5,4,0:0:0:0:
256,192,135018,1,0,0:0:0:0:
256,192,135189,1,12,0:0:0:0:
256,192,135530,1,4,0:0:0:0:
256,192,135870,1,8,0:0:0:0:
256,192,136041,1,8,0:0:0:0:
256,192,136211,1,0,0:0:0:0:
256,192,136382,1,0,0:0:0:0:
256,160,136552,1,8,0:0:0:0:
256,160,136893,1,0,0:0:0:0:
256,160,137064,1,8,0:0:0:0:
256,160,137405,1,8,0:0:0:0:
256,160,137575,1,0,0:0:0:0:
256,160,137745,1,0,0:0:0:0:
256,160,137916,1,8,0:0:0:0:
256,160,138086,1,0,0:0:0:0:
256,160,138257,1,0,0:0:0:0:
256,160,138598,1,8,0:0:0:0:
256,160,138768,1,8,0:0:0:0:
256,160,138939,1,0,0:0:0:0:
256,160,139280,1,8,0:0:0:0:
256,160,139620,1,0,0:0:0:0:
256,160,139791,1,0,0:0:0:0:
256,160,139961,1,8,0:0:0:0:
256,160,140132,1,8,0:0:0:0:
256,160,140302,1,0,0:0:0:0:
256,160,140643,1,8,0:0:0:0:
256,160,140984,1,0,0:0:0:0:
256,160,141325,1,8,0:0:0:0:
256,160,141495,1,8,0:0:0:0:
256,160,141666,1,0,0:0:0:0:
256,160,142007,1,8,0:0:0:0:
256,128,142348,1,0,0:0:0:0:
256,128,142518,1,0,0:0:0:0:
256,128,142689,1,8,0:0:0:0:
256,128,142859,1,8,0:0:0:0:
256,128,143030,1,0,0:0:0:0:
256,128,143115,1,0,0:0:0:0:
256,128,143285,1,0,0:0:0:0:
256,128,143370,1,8,0:0:0:0:
256,128,143541,1,8,0:0:0:0:
256,128,143711,1,4,0:0:0:0:
256,128,144052,1,8,0:0:0:0:
256,128,144223,1,0,0:0:0:0:
256,128,144308,1,0,0:0:0:0:
256,128,144393,1,8,0:0:0:0:
256,128,144564,1,0,0:0:0:0:
256,128,144734,1,8,0:0:0:0:
256,128,144905,1,8,0:0:0:0:
256,128,144990,1,8,0:0:0:0:
256,128,145075,1,0,0:0:0:0:
256,128,145245,1,0,0:0:0:0:
256,128,145416,1,8,0:0:0:0:
256,128,145586,1,0,0:0:0:0:
256,128,145927,1,0,0:0:0:0:
256,128,146098,1,8,0:0:0:0:
256,128,146268,1,0,0:0:0:0:
256,128,146353,1,0,0:0:0:0:
256,128,146439,1,0,0:0:0:0:
256,128,146609,1,0,0:0:0:0:
256,128,146780,1,8,0:0:0:0:
256,128,146950,1,8,0:0:0:0:
256,128,147035,1,8,0:0:0:0:
256,128,147120,1,0,0:0:0:0:
256,128,147291,1,0,0:0:0:0:
256,128,147461,1,8,0:0:0:0:
256,128,147632,1,8,0:0:0:0:
256,128,147802,1,0,0:0:0:0:
256,128,147973,1,0,0:0:0:0:
256,128,148058,1,0,0:0:0:0:
256,128,148143,1,8,0:0:0:0:
256,128,148314,1,0,0:0:0:0:
256,128,148655,1,0,0:0:0:0:
256,128,148825,1,8,0:0:0:0:
256,128,148995,1,8,0:0:0:0:
256,128,149081,1,8,0:0:0:0:
256,128,149166,1,0,0:0:0:0:
256,192,149336,1,0,0:0:0:0:
256,192,149507,1,8,0:0:0:0:
256,192,149677,1,0,0:0:0:0:
256,192,149762,1,0,0:0:0:0:
256,192,149848,1,8,0:0:0:0:
256,192,150018,1,0,0:0:0:0:
256,192,150189,1,8,0:0:0:0:
256,160,150359,1,8,0:0:0:0:
256,160,150444,1,0,0:0:0:0:
256,160,150530,1,8,0:0:0:0:
256,160,150700,1,0,0:0:0:0:
256,160,150785,1,8,0:0:0:0:
256,160,150870,1,8,0:0:0:0:
256,160,151041,1,0,0:0:0:0:
256,160,151126,1,0,0:0:0:0:
256,160,151211,1,8,0:0:0:0:
256,160,151382,1,0,0:0:0:0:
256,160,151552,1,8,0:0:0:0:
256,160,151723,1,8,0:0:0:0:
256,160,151808,1,8,0:0:0:0:
256,160,151893,1,0,0:0:0:0:
256,160,152064,1,0,0:0:0:0:
256,160,152149,1,0,0:0:0:0:
256,160,152234,1,0,0:0:0:0:
256,160,152405,1,8,0:0:0:0:
224,160,152575,1,0,0:0:0:0:
224,160,152660,1,0,0:0:0:0:
224,160,152831,1,0,0:0:0:0:
224,160,152916,1,8,0:0:0:0:
224,160,153001,1,8,0:0:0:0:
224,160,153086,1,0,0:0:0:0:
224,160,153257,1,4,0:0:0:0:
224,256,153598,1,0,0:0:0:0:
224,256,153768,1,0,0:0:0:0:
256,224,153939,1,8,0:0:0:0:
224,192,154280,1,8,0:0:0:0:
224,192,154620,1,4,0:0:0:0:
224,192,154961,1,8,0:0:0:0:
224,192,155132,1,0,0:0:0:0:
224,192,155217,1,8,0:0:0:0:
224,192,155302,1,0,0:0:0:0:
224,192,155473,1,0,0:0:0:0:
224,192,155643,1,8,0:0:0:0:
224,192,155984,1,0,0:0:0:0:
224,192,156155,1,0,0:0:0:0:
224,192,156325,1,8,0:0:0:0:
224,192,156495,1,0,0:0:0:0:
224,192,156581,1,0,0:0:0:0:
224,192,156666,1,8,0:0:0:0:
224,192,156836,1,0,0:0:0:0:
224,192,157007,1,8,0:0:0:0:
224,192,157348,1,0,0:0:0:0:
224,160,157689,1,8,0:0:0:0:
224,160,157859,1,0,0:0:0:0:
224,160,157944,1,8,0:0:0:0:
224,160,158030,1,0,0:0:0:0:
224,160,158200,1,0,0:0:0:0:
224,160,158370,1,8,0:0:0:0:
256,128,158711,1,0,0:0:0:0:
256,128,158882,1,0,0:0:0:0:
256,128,159052,1,8,0:0:0:0:
256,128,159223,1,0,0:0:0:0:
256,128,159308,1,0,0:0:0:0:
256,128,159393,1,8,0:0:0:0:
224,128,159564,1,0,0:0:0:0:
224,128,159734,1,8,0:0:0:0:
256,128,159905,1,8,0:0:0:0:
256,128,160075,1,0,0:0:0:0:
224,128,160416,1,8,0:0:0:0:
224,128,160586,1,0,0:0:0:0:
224,128,160672,1,8,0:0:0:0:
224,128,160757,1,0,0:0:0:0:
224,128,160927,1,0,0:0:0:0:
224,128,161098,1,8,0:0:0:0:
224,128,161439,1,0,0:0:0:0:
224,128,161609,1,0,0:0:0:0:
224,128,161780,1,8,0:0:0:0:
224,128,161950,1,0,0:0:0:0:
224,128,162035,1,0,0:0:0:0:
224,128,162120,1,0,0:0:0:0:
224,128,162291,1,0,0:0:0:0:
224,128,162461,1,8,0:0:0:0:
224,128,162632,1,8,0:0:0:0:
224,128,162802,1,0,0:0:0:0:
224,128,163143,1,8,0:0:0:0:
224,128,163314,1,0,0:0:0:0:
224,128,163399,1,8,0:0:0:0:
224,128,163484,1,0,0:0:0:0:
224,128,163655,1,0,0:0:0:0:
224,128,163825,1,8,0:0:0:0:
224,128,163995,1,8,0:0:0:0:
224,128,164166,1,0,0:0:0:0:
224,128,164251,1,0,0:0:0:0:
224,128,164336,1,0,0:0:0:0:
224,128,164507,1,8,0:0:0:0:
224,128,164677,1,0,0:0:0:0:
224,128,164762,1,0,0:0:0:0:
224,128,164848,1,8,0:0:0:0:
224,128,165018,1,0,0:0:0:0:
224,128,165189,1,8,0:0:0:0:
192,160,165530,1,4,0:0:0:0:
192,128,165870,1,8,0:0:0:0:
192,128,166041,1,0,0:0:0:0:
192,128,166126,1,8,0:0:0:0:
192,128,166211,1,0,0:0:0:0:
192,128,166382,1,0,0:0:0:0:
192,128,166552,1,8,0:0:0:0:
192,128,166893,1,0,0:0:0:0:
192,128,167064,1,0,0:0:0:0:
224,160,167234,1,8,0:0:0:0:
224,160,167405,1,0,0:0:0:0:
192,160,167490,1,0,0:0:0:0:
192,128,167575,1,8,0:0:0:0:
192,128,167745,1,0,0:0:0:0:
192,128,167916,1,8,0:0:0:0:
192,128,168257,1,0,0:0:0:0:
192,128,168598,1,8,0:0:0:0:
192,128,168768,1,0,0:0:0:0:
192,128,168853,1,8,0:0:0:0:
192,128,168939,1,0,0:0:0:0:
192,128,169109,1,0,0:0:0:0:
192,128,169280,1,8,0:0:0:0:
192,128,169620,1,0,0:0:0:0:
192,128,169791,1,0,0:0:0:0:
192,128,169961,1,8,0:0:0:0:
192,128,170132,1,0,0:0:0:0:
192,128,170217,1,0,0:0:0:0:
192,128,170302,1,8,0:0:0:0:
192,128,170473,1,0,0:0:0:0:
192,128,170643,1,8,0:0:0:0:
192,128,170814,1,0,0:0:0:0:
160,160,170984,1,12,0:0:0:0:
256,160,171325,1,0,0:0:0:0:
256,160,171666,1,12,0:0:0:0:
256,160,172007,1,0,0:0:0:0:
256,160,172348,1,12,0:0:0:0:
256,160,172689,1,0,0:0:0:0:
256,160,172859,1,0,0:0:0:0:
224,160,173030,1,12,0:0:0:0:
224,160,173200,1,0,0:0:0:0:
224,160,173285,1,0,0:0:0:0:
224,160,173370,1,0,0:0:0:0:
224,160,173541,1,0,0:0:0:0:
256,160,173711,1,12,0:0:0:0:
256,160,173882,1,0,0:0:0:0:
256,160,174052,1,0,0:0:0:0:
256,160,174223,1,12,0:0:0:0:
256,160,174393,1,0,0:0:0:0:
256,160,174564,1,0,0:0:0:0:
256,160,174734,1,12,0:0:0:0:
256,160,174905,1,0,0:0:0:0:
256,160,175075,1,0,0:0:0:0:
256,160,175160,1,0,0:0:0:0:
256,160,175245,1,0,0:0:0:0:
224,160,175331,1,0,0:0:0:0:
224,128,175416,1,8,0:0:0:0:
224,128,175501,1,8,0:0:0:0:
224,128,175586,1,0,0:0:0:0:
224,128,175672,1,0,0:0:0:0:
320,160,175757,1,8,0:0:0:0:
320,160,175814,1,8,0:0:0:0:
320,160,175870,1,8,0:0:0:0:
320,160,175927,1,0,0:0:0:0:
320,128,176012,1,0,0:0:0:0:
256,160,176098,1,8,0:0:0:0:
224,160,176439,1,4,0:0:0:0:
224,160,176609,1,0,0:0:0:0:
224,160,176694,1,0,0:0:0:0:
224,160,176780,1,8,0:0:0:0:
224,160,176950,1,0,0:0:0:0:
224,160,177035,1,8,0:0:0:0:
224,160,177206,1,8,0:0:0:0:
224,160,177291,1,0,0:0:0:0:
224,160,177376,1,0,0:0:0:0:
224,160,177461,1,8,0:0:0:0:
224,160,177632,1,0,0:0:0:0:
224,160,177802,1,8,0:0:0:0:
224,160,177887,1,8,0:0:0:0:
224,160,177973,1,0,0:0:0:0:
224,160,178058,1,0,0:0:0:0:
224,160,178143,1,8,0:0:0:0:
224,160,178314,1,0,0:0:0:0:
224,160,178399,1,8,0:0:0:0:
224,160,178569,1,8,0:0:0:0:
224,160,178655,1,8,0:0:0:0:
224,160,178740,1,0,0:0:0:0:
224,160,178825,1,8,0:0:0:0:
224,160,178995,1,8,0:0:0:0:
224,160,179166,1,0,0:0:0:0:
224,160,179336,1,8,0:0:0:0:
224,160,179422,1,8,0:0:0:0:
224,160,179507,1,0,0:0:0:0:
224,160,179677,1,8,0:0:0:0:
224,160,179762,1,0,0:0:0:0:
224,160,179933,1,0,0:0:0:0:
224,160,180018,1,8,0:0:0:0:
224,160,180103,1,8,0:0:0:0:
224,160,180189,1,0,0:0:0:0:
224,160,180359,1,0,0:0:0:0:
192,160,180530,1,0,0:0:0:0:
224,192,180615,1,0,0:0:0:0:
224,192,180700,1,8,0:0:0:0:
224,192,180785,1,8,0:0:0:0:
224,160,180870,1,8,0:0:0:0:
224,160,181041,1,8,0:0:0:0:
224,160,181126,1,0,0:0:0:0:
224,160,181297,1,0,0:0:0:0:
224,160,181382,1,8,0:0:0:0:
224,160,181467,1,0,0:0:0:0:
224,160,181552,1,8,0:0:0:0:
224,160,181723,1,8,0:0:0:0:
224,160,181893,1,0,0:0:0:0:
224,160,182064,1,8,0:0:0:0:
224,160,182149,1,0,0:0:0:0:
224,160,182234,1,8,0:0:0:0:
224,160,182405,1,8,0:0:0:0:
256,160,182490,1,0,0:0:0:0:
256,160,182660,1,8,0:0:0:0:
256,160,182745,1,8,0:0:0:0:
256,160,182831,1,0,0:0:0:0:
256,160,182916,1,8,0:0:0:0:
224,160,183086,1,8,0:0:0:0:
224,160,183257,1,0,0:0:0:0:
224,160,183342,1,0,0:0:0:0:
224,160,183427,1,8,0:0:0:0:
224,160,183512,1,0,0:0:0:0:
224,160,183598,1,8,0:0:0:0:
224,160,183768,1,8,0:0:0:0:
224,160,183853,1,0,0:0:0:0:
224,160,183939,1,8,0:0:0:0:
224,160,184024,1,8,0:0:0:0:
224,160,184109,1,0,0:0:0:0:
224,160,184194,1,0,0:0:0:0:
224,160,184280,1,8,0:0:0:0:
192,160,184365,1,0,0:0:0:0:
192,160,184450,1,8,0:0:0:0:
192,160,184620,1,0,0:0:0:0:
192,160,184791,1,0,0:0:0:0:
192,160,184876,1,0,0:0:0:0:
192,160,184961,1,8,0:0:0:0:
192,160,185132,1,0,0:0:0:0:
192,160,185217,1,8,0:0:0:0:
192,160,185302,1,0,0:0:0:0:
192,160,185387,1,0,0:0:0:0:
192,160,185473,1,8,0:0:0:0:
192,160,185558,1,0,0:0:0:0:
192,160,185643,1,8,0:0:0:0:
192,160,185814,1,8,0:0:0:0:
192,160,185984,1,0,0:0:0:0:
192,160,186069,1,0,0:0:0:0:
192,160,186155,1,8,0:0:0:0:
192,160,186240,1,0,0:0:0:0:
192,160,186325,1,8,0:0:0:0:
192,160,186495,1,0,0:0:0:0:
192,160,186581,1,8,0:0:0:0:
192,160,186751,1,0,0:0:0:0:
192,160,186836,1,8,0:0:0:0:
192,160,186922,1,0,0:0:0:0:
192,160,187007,1,8,0:0:0:0:
192,160,187177,1,8,0:0:0:0:
192,160,187348,1,4,0:0:0:0:
192,160,187518,1,0,0:0:0:0:
192,160,187603,1,0,0:0:0:0:
192,160,187689,1,8,0:0:0:0:
192,160,187859,1,0,0:0:0:0:
192,160,187944,1,8,0:0:0:0:
192,160,188115,1,8,0:0:0:0:
192,160,188200,1,0,0:0:0:0:
192,160,188285,1,0,0:0:0:0:
192,160,188370,1,8,0:0:0:0:
192,160,188541,1,0,0:0:0:0:
192,160,188711,1,8,0:0:0:0:
192,160,188797,1,8,0:0:0:0:
224,160,188882,1,0,0:0:0:0:
224,160,188967,1,0,0:0:0:0:
224,160,189052,1,8,0:0:0:0:
224,160,189223,1,0,0:0:0:0:
224,160,189308,1,8,0:0:0:0:
224,160,189478,1,8,0:0:0:0:
192,160,189564,1,8,0:0:0:0:
192,160,189649,1,0,0:0:0:0:
192,160,189734,1,8,0:0:0:0:
192,160,189905,1,8,0:0:0:0:
224,160,190075,1,0,0:0:0:0:
224,160,190245,1,8,0:0:0:0:
224,160,190331,1,8,0:0:0:0:
224,160,190416,1,0,0:0:0:0:
224,160,190586,1,8,0:0:0:0:
224,160,190672,1,0,0:0:0:0:
224,160,190842,1,0,0:0:0:0:
224,160,190927,1,8,0:0:0:0:
224,160,191012,1,8,0:0:0:0:
224,160,191098,1,0,0:0:0:0:
224,160,191268,1,8,0:0:0:0:
224,160,191439,1,0,0:0:0:0:
224,160,191524,1,0,0:0:0:0:
224,160,191609,1,8,0:0:0:0:
224,160,191694,1,8,0:0:0:0:
224,160,191780,1,8,0:0:0:0:
224,160,191950,1,8,0:0:0:0:
224,160,192035,1,0,0:0:0:0:
224,160,192206,1,0,0:0:0:0:
224,160,192291,1,8,0:0:0:0:
224,160,192376,1,0,0:0:0:0:
224,160,192461,1,8,0:0:0:0:
224,224,192632,1,8,0:0:0:0:
224,224,192717,1,8,0:0:0:0:
224,224,192802,1,0,0:0:0:0:
224,224,192973,1,0,0:0:0:0:
224,224,193058,1,0,0:0:0:0:
224,224,193143,1,8,0:0:0:0:
192,224,193314,1,8,0:0:0:0:
192,224,193399,1,0,0:0:0:0:
192,224,193569,1,0,0:0:0:0:
192,224,193655,1,8,0:0:0:0:
192,224,193740,1,8,0:0:0:0:
192,224,193825,1,0,0:0:0:0:
192,224,193910,1,0,0:0:0:0:
192,224,193995,1,8,0:0:0:0:
192,224,194166,1,8,0:0:0:0:
192,224,194251,1,8,0:0:0:0:
192,224,194336,1,0,0:0:0:0:
192,224,194422,1,8,0:0:0:0:
192,224,194507,1,0,0:0:0:0:
192,224,194677,1,8,0:0:0:0:
192,224,194762,1,8,0:0:0:0:
192,224,194848,1,0,0:0:0:0:
192,224,194933,1,0,0:0:0:0:
192,224,195018,1,8,0:0:0:0:
192,224,195103,1,0,0:0:0:0:
192,224,195189,1,8,0:0:0:0:
192,224,195274,1,8,0:0:0:0:
192,224,195359,1,0,0:0:0:0:
192,224,195530,1,8,0:0:0:0:
192,224,195700,1,0,0:0:0:0:
192,224,195785,1,0,0:0:0:0:
192,224,195870,1,8,0:0:0:0:
192,224,196041,1,0,0:0:0:0:
192,224,196126,1,8,0:0:0:0:
192,224,196211,1,0,0:0:0:0:
192,224,196382,1,0,0:0:0:0:
192,224,196552,1,8,0:0:0:0:
192,224,196723,1,0,0:0:0:0:
224,160,196893,1,0,0:0:0:0:
192,192,196978,1,0,0:0:0:0:
192,160,197064,1,8,0:0:0:0:
192,192,197149,1,8,0:0:0:0:
192,160,197234,1,0,0:0:0:0:
192,160,197319,1,8,0:0:0:0:
192,160,197405,1,8,0:0:0:0:
192,160,197490,1,8,0:0:0:0:
192,160,197575,1,0,0:0:0:0:
192,160,197660,1,0,0:0:0:0:
320,160,197745,1,8,0:0:0:0:
320,160,197802,1,8,0:0:0:0:
320,160,197859,1,8,0:0:0:0:
320,160,197916,1,0,0:0:0:0:
288,160,198001,1,0,0:0:0:0:
288,128,198086,1,8,0:0:0:0:
128,160,198257,1,4,0:0:0:0:
160,192,198427,1,0,0:0:0:0:
160,192,198512,1,0,0:0:0:0:
160,192,198598,1,8,0:0:0:0:
160,192,198768,1,0,0:0:0:0:
192,160,198853,1,8,0:0:0:0:
192,160,199024,1,8,0:0:0:0:
192,160,199109,1,0,0:0:0:0:
192,160,199280,1,8,0:0:0:0:
192,160,199365,1,0,0:0:0:0:
192,160,199450,1,8,0:0:0:0:
192,160,199620,1,0,0:0:0:0:
192,160,199791,1,0,0:0:0:0:
192,160,199876,1,0,0:0:0:0:
192,160,199961,1,8,0:0:0:0:
192,160,200132,1,0,0:0:0:0:
192,160,200217,1,0,0:0:0:0:
192,160,200387,1,8,0:0:0:0:
192,160,200473,1,0,0:0:0:0:
192,160,200643,1,8,0:0:0:0:
192,160,200728,1,8,0:0:0:0:
192,160,200813,1,0,0:0:0:0:
192,160,200984,1,0,0:0:0:0:
192,160,201155,1,0,0:0:0:0:
192,160,201240,1,0,0:0:0:0:
192,160,201325,1,8,0:0:0:0:
192,160,201495,1,0,0:0:0:0:
192,160,201581,1,8,0:0:0:0:
192,160,201751,1,8,0:0:0:0:
192,160,201836,1,0,0:0:0:0:
192,160,202007,1,8,0:0:0:0:
192,160,202092,1,8,0:0:0:0:
192,160,202177,1,0,0:0:0:0:
192,160,202262,1,0,0:0:0:0:
192,160,202348,1,8,0:0:0:0:
192,160,202518,1,0,0:0:0:0:
192,160,202603,1,0,0:0:0:0:
192,160,202689,1,8,0:0:0:0:
192,160,202859,1,0,0:0:0:0:
192,160,202944,1,8,0:0:0:0:
192,160,203115,1,0,0:0:0:0:
192,160,203200,1,0,0:0:0:0:
128,128,203370,1,8,0:0:0:0:
192,128,203541,1,0,0:0:0:0:
128,160,203711,1,0,0:0:0:0:
160,160,203882,1,0,0:0:0:0:
160,160,203967,1,0,0:0:0:0:
160,160,204052,1,8,0:0:0:0:
160,160,204223,1,0,0:0:0:0:
160,160,204308,1,8,0:0:0:0:
160,160,204478,1,8,0:0:0:0:
160,160,204564,1,0,0:0:0:0:
160,160,204734,1,8,0:0:0:0:
160,160,204819,1,0,0:0:0:0:
160,160,204905,1,8,0:0:0:0:
160,160,204990,1,8,0:0:0:0:
160,160,205075,1,0,0:0:0:0:
128,160,205245,1,8,0:0:0:0:
128,160,205416,1,0,0:0:0:0:
128,160,205501,1,0,0:0:0:0:
128,160,205586,1,8,0:0:0:0:
224,256,205757,1,8,0:0:0:0:
224,256,205842,1,0,0:0:0:0:
224,256,205927,1,8,0:0:0:0:
224,256,206012,1,8,0:0:0:0:
160,128,206098,1,0,0:0:0:0:
256,192,206183,1,0,0:0:0:0:
160,128,206268,1,8,0:0:0:0:
160,128,206439,1,0,0:0:0:0:
192,192,206609,1,0,0:0:0:0:
192,192,206694,1,0,0:0:0:0:
192,192,206780,1,8,0:0:0:0:
192,160,206950,1,0,0:0:0:0:
192,160,207035,1,8,0:0:0:0:
192,160,207206,1,0,0:0:0:0:
160,160,207291,1,8,0:0:0:0:
160,160,207376,1,8,0:0:0:0:
160,160,207461,1,0,0:0:0:0:
160,160,207632,1,8,0:0:0:0:
192,192,207802,1,0,0:0:0:0:
160,192,207973,1,0,0:0:0:0:
160,192,208058,1,0,0:0:0:0:
160,192,208143,1,8,0:0:0:0:
160,192,208314,1,0,0:0:0:0:
160,192,208399,1,8,0:0:0:0:
160,192,208569,1,0,0:0:0:0:
160,192,208655,1,8,0:0:0:0:
160,192,208740,1,0,0:0:0:0:
160,192,208825,1,8,0:0:0:0:
160,192,208910,1,8,0:0:0:0:
160,192,208995,1,0,0:0:0:0:
160,192,209166,1,4,0:0:0:0:
192,160,209507,1,8,0:0:0:0:
192,160,209762,1,0,0:0:0:0:
224,192,210018,1,0,0:0:0:0:
192,160,210189,1,8,0:0:0:0:
192,160,210530,1,4,0:0:0:0:
224,160,210870,1,8,0:0:0:0:
224,160,211126,1,0,0:0:0:0:
224,192,211382,1,0,0:0:0:0:
224,160,211552,1,8,0:0:0:0:
224,160,211893,1,4,0:0:0:0:
224,160,212234,1,8,0:0:0:0:
224,160,212490,1,0,0:0:0:0:
224,160,212745,1,0,0:0:0:0:
224,160,212916,1,8,0:0:0:0:
224,160,213257,1,4,0:0:0:0:
224,160,213598,1,8,0:0:0:0:
224,160,213853,1,0,0:0:0:0:
224,160,214109,1,0,0:0:0:0:
224,160,214280,1,8,0:0:0:0:
224,160,214620,1,4,0:0:0:0:
224,160,214961,1,8,0:0:0:0:
224,160,215302,1,4,0:0:0:0:
224,160,215643,1,8,0:0:0:0:
224,160,215984,1,4,0:0:0:0:
288,160,216155,1,8,0:0:0:0:
288,160,216325,1,0,0:0:0:0:
288,160,216495,1,8,0:0:0:0:
224,160,216666,1,4,0:0:0:0:
288,160,216836,1,8,0:0:0:0:
288,160,217007,1,0,0:0:0:0:
288,160,217177,1,8,0:0:0:0:
288,160,217348,1,0,0:0:0:0:
288,160,217433,1,0,0:0:0:0:
288,160,217518,1,8,0:0:0:0:
288,160,217603,1,0,0:0:0:0:
288,160,217689,1,8,0:0:0:0:
288,160,217774,1,8,0:0:0:0:
288,160,217859,1,0,0:0:0:0:
288,160,217944,1,0,0:0:0:0:
288,160,218030,1,8,0:0:0:0:
288,160,218115,1,0,0:0:0:0:
288,160,218200,1,0,0:0:0:0:
288,160,218285,1,0,0:0:0:0:
320,128,218370,1,8,0:0:0:0:
320,128,218427,1,0,0:0:0:0:
320,128,218484,1,0,0:0:0:0:
320,128,218541,1,8,0:0:0:0:
320,128,218626,1,8,0:0:0:0:
320,128,219393,1,0,0:0:0:0:
320,128,219478,1,0,0:0:0:0:
320,128,219563,1,0,0:0:0:0:
320,128,219649,1,0,0:0:0:0:
320,128,219734,1,8,0:0:0:0:
256,192,220075,5,4,0:0:0:0:
256,192,220246,1,0,0:0:0:0:
256,192,220331,1,0,0:0:0:0:
256,192,220416,1,8,0:0:0:0:
256,192,220586,1,0,0:0:0:0:
256,192,220672,1,8,0:0:0:0:
256,192,220842,1,8,0:0:0:0:
256,192,220927,1,0,0:0:0:0:
256,192,221013,1,0,0:0:0:0:
256,192,221098,1,8,0:0:0:0:
256,192,221268,1,8,0:0:0:0:
256,192,221439,1,0,0:0:0:0:
256,192,221609,1,8,0:0:0:0:
256,192,221694,1,0,0:0:0:0:
256,192,221780,1,8,0:0:0:0:
256,192,221950,1,0,0:0:0:0:
256,192,222035,1,8,0:0:0:0:
256,192,222206,1,8,0:0:0:0:
256,192,222291,1,0,0:0:0:0:
256,192,222376,1,8,0:0:0:0:
256,192,222461,1,8,0:0:0:0:
256,192,222632,1,8,0:0:0:0:
256,192,222802,1,0,0:0:0:0:
256,192,222973,1,0,0:0:0:0:
256,192,223058,1,0,0:0:0:0:
256,192,223143,1,8,0:0:0:0:
256,192,223314,1,0,0:0:0:0:
256,192,223399,1,8,0:0:0:0:
256,192,223569,1,8,0:0:0:0:
256,192,223655,1,8,0:0:0:0:
256,192,223740,1,0,0:0:0:0:
256,192,223825,1,8,0:0:0:0:
256,192,223996,1,8,0:0:0:0:
256,192,224166,1,0,0:0:0:0:
256,192,224336,1,0,0:0:0:0:
256,192,224422,1,8,0:0:0:0:
256,192,224507,1,8,0:0:0:0:
256,192,224677,1,0,0:0:0:0:
256,192,224763,1,8,0:0:0:0:
256,192,224933,1,8,0:0:0:0:
256,192,225018,1,0,0:0:0:0:
256,192,225103,1,0,0:0:0:0:
256,192,225189,1,8,0:0:0:0:
256,192,225274,1,0,0:0:0:0:
256,192,225359,1,8,0:0:0:0:
256,192,225530,1,0,0:0:0:0:
256,192,225700,1,0,0:0:0:0:
256,192,225785,1,0,0:0:0:0:
256,192,225871,1,8,0:0:0:0:
256,192,226041,1,0,0:0:0:0:
256,192,226126,1,8,0:0:0:0:
256,192,226297,1,0,0:0:0:0:
256,192,226382,1,8,0:0:0:0:
256,192,226467,1,0,0:0:0:0:
256,192,226552,1,8,0:0:0:0:
256,192,226723,1,8,0:0:0:0:
256,192,226893,1,0,0:0:0:0:
256,192,227064,1,8,0:0:0:0:
256,192,227149,1,0,0:0:0:0:
256,192,227234,1,8,0:0:0:0:
256,192,227405,1,8,0:0:0:0:
256,192,227575,1,0,0:0:0:0:
256,192,227660,1,8,0:0:0:0:
256,192,227745,1,8,0:0:0:0:
256,192,227831,1,0,0:0:0:0:
256,192,227916,1,8,0:0:0:0:
256,192,228001,1,0,0:0:0:0:
256,192,228086,1,8,0:0:0:0:
256,192,228172,1,8,0:0:0:0:
256,192,228257,1,0,0:0:0:0:
256,192,228427,1,0,0:0:0:0:
256,192,228513,1,0,0:0:0:0:
256,192,228598,1,8,0:0:0:0:
256,192,228768,1,0,0:0:0:0:
256,192,228853,1,8,0:0:0:0:
256,192,229024,1,8,0:0:0:0:
256,192,229109,1,0,0:0:0:0:
256,192,229194,1,0,0:0:0:0:
256,192,229280,1,8,0:0:0:0:
256,192,229450,1,8,0:0:0:0:
256,192,229621,1,0,0:0:0:0:
256,192,229791,1,0,0:0:0:0:
256,192,229876,1,0,0:0:0:0:
256,192,229961,1,8,0:0:0:0:
256,192,230132,1,0,0:0:0:0:
256,192,230217,1,8,0:0:0:0:
256,192,230302,1,0,0:0:0:0:
256,192,230387,1,0,0:0:0:0:
256,192,230558,1,0,0:0:0:0:
256,192,230643,1,8,0:0:0:0:
256,192,230814,1,8,0:0:0:0:
256,192,230984,1,4,0:0:0:0:
256,192,231155,1,0,0:0:0:0:
256,192,231240,1,0,0:0:0:0:
256,192,231325,1,8,0:0:0:0:
256,192,231495,1,0,0:0:0:0:
256,192,231581,1,8,0:0:0:0:
256,192,231751,1,8,0:0:0:0:
256,192,231836,1,0,0:0:0:0:
256,192,231922,1,0,0:0:0:0:
256,192,232007,1,8,0:0:0:0:
256,192,232177,1,8,0:0:0:0:
256,192,232348,1,0,0:0:0:0:
256,192,232518,1,8,0:0:0:0:
256,192,232603,1,0,0:0:0:0:
256,192,232689,1,8,0:0:0:0:
256,192,232859,1,0,0:0:0:0:
256,192,232944,1,8,0:0:0:0:
256,192,233115,1,8,0:0:0:0:
256,192,233200,1,0,0:0:0:0:
256,192,233285,1,8,0:0:0:0:
256,192,233370,1,8,0:0:0:0:
256,192,233541,1,8,0:0:0:0:
256,192,233711,1,0,0:0:0:0:
256,192,233882,1,0,0:0:0:0:
256,192,233967,1,0,0:0:0:0:
256,192,234052,1,8,0:0:0:0:
256,192,234223,1,0,0:0:0:0:
256,192,234308,1,8,0:0:0:0:
256,192,234478,1,8,0:0:0:0:
256,192,234564,1,8,0:0:0:0:
256,192,234649,1,0,0:0:0:0:
256,192,234734,1,8,0:0:0:0:
256,192,234905,1,8,0:0:0:0:
256,192,235075,1,0,0:0:0:0:
256,192,235245,1,0,0:0:0:0:
256,192,235331,1,8,0:0:0:0:
256,192,235416,1,8,0:0:0:0:
256,192,235586,1,0,0:0:0:0:
256,192,235672,1,8,0:0:0:0:
256,192,235842,1,8,0:0:0:0:
256,192,235927,1,0,0:0:0:0:
256,192,236012,1,0,0:0:0:0:
256,192,236098,1,8,0:0:0:0:
256,192,236183,1,0,0:0:0:0:
256,192,236268,1,8,0:0:0:0:
256,192,236439,1,0,0:0:0:0:
256,192,236609,1,0,0:0:0:0:
256,192,236694,1,0,0:0:0:0:
256,192,236780,1,8,0:0:0:0:
256,192,236950,1,0,0:0:0:0:
256,192,237035,1,8,0:0:0:0:
256,192,237206,1,0,0:0:0:0:
256,192,237291,1,8,0:0:0:0:
256,192,237376,1,0,0:0:0:0:
256,192,237461,1,8,0:0:0:0:
256,192,237632,1,8,0:0:0:0:
256,192,237802,1,0,0:0:0:0:
256,192,237973,1,8,0:0:0:0:
256,192,238058,1,8,0:0:0:0:
256,192,238143,1,8,0:0:0:0:
256,192,238314,1,0,0:0:0:0:
256,192,238484,1,0,0:0:0:0:
256,192,238569,1,8,0:0:0:0:
256,192,238655,1,8,0:0:0:0:
256,192,238740,1,0,0:0:0:0:
256,192,238825,1,8,0:0:0:0:
256,192,238910,1,0,0:0:0:0:
256,192,238995,1,8,0:0:0:0:
256,192,239081,1,8,0:0:0:0:
256,192,239166,1,0,0:0:0:0:
256,192,239336,1,0,0:0:0:0:
256,192,239422,1,0,0:0:0:0:
256,192,239507,1,8,0:0:0:0:
256,192,239677,1,0,0:0:0:0:
256,192,239762,1,8,0:0:0:0:
256,192,239848,1,0,0:0:0:0:
256,192,239933,1,8,0:0:0:0:
256,192,240018,1,8,0:0:0:0:
256,192,240103,1,0,0:0:0:0:
256,192,240189,1,8,0:0:0:0:
256,192,240359,1,8,0:0:0:0:
256,192,240444,1,8,0:0:0:0:
256,192,240530,1,0,0:0:0:0:
256,192,240615,1,8,0:0:0:0:
256,192,240700,1,0,0:0:0:0:
256,192,240785,1,0,0:0:0:0:
256,192,240870,1,8,0:0:0:0:
256,192,240956,1,0,0:0:0:0:
256,192,241041,1,0,0:0:0:0:
256,192,241126,1,8,0:0:0:0:
256,192,241211,1,0,0:0:0:0:
256,192,241297,1,0,0:0:0:0:
256,192,241382,1,8,0:0:0:0:
256,192,241439,1,8,0:0:0:0:
256,192,241496,1,8,0:0:0:0:
256,192,241552,1,0,0:0:0:0:
256,192,241638,1,0,0:0:0:0:
256,192,241723,1,8,0:0:0:0:
256,192,241893,1,4,0:0:0:0:
256,192,242234,1,8,0:0:0:0:
256,192,242916,1,8,0:0:0:0:
256,192,243086,1,0,0:0:0:0:
256,192,243257,1,0,0:0:0:0:
256,192,243598,1,8,0:0:0:0:
256,192,244280,1,8,0:0:0:0:
256,192,244620,1,0,0:0:0:0:
256,192,244961,1,8,0:0:0:0:
256,192,245643,1,8,0:0:0:0:
256,192,245814,1,0,0:0:0:0:
256,192,245984,1,0,0:0:0:0:
256,192,246325,1,8,0:0:0:0:
256,192,247007,1,8,0:0:0:0:
256,192,247348,1,0,0:0:0:0:
256,192,247689,1,8,0:0:0:0:
256,192,248370,1,8,0:0:0:0:
256,192,248541,1,0,0:0:0:0:
256,192,248711,1,0,0:0:0:0:
256,192,249052,1,8,0:0:0:0:
256,192,249734,1,8,0:0:0:0:
256,192,250075,1,0,0:0:0:0:
256,192,250416,1,8,0:0:0:0:
256,192,250757,1,0,0:0:0:0:
256,192,251098,1,8,0:0:0:0:
256,192,251439,1,12,0:0:0:0:
256,192,251609,1,4,0:0:0:0:
256,192,251780,1,12,0:0:0:0:
256,192,251950,1,4,0:0:0:0:
256,192,252461,1,12,0:0:0:0:
256,192,252632,1,4,0:0:0:0:
256,192,252802,1,12,0:0:0:0:
256,192,252973,1,4,0:0:0:0:
256,192,253484,1,12,0:0:0:0:
256,192,253655,1,4,0:0:0:0:
256,192,253825,1,4,0:0:0:0:
256,192,253995,1,12,0:0:0:0:
256,192,254507,1,8,0:0:0:0:
256,192,254848,1,0,0:0:0:0:
256,192,255018,1,0,0:0:0:0:
256,192,255189,1,8,0:0:0:0:
256,192,255359,1,0,0:0:0:0:
256,192,255530,1,0,0:0:0:0:
256,192,255700,1,0,0:0:0:0:
256,192,255870,1,8,0:0:0:0:
256,192,255956,1,8,0:0:0:0:
256,192,256041,1,0,0:0:0:0:
256,192,256126,1,8,0:0:0:0:
256,192,256211,1,0,0:0:0:0:
256,192,256297,1,0,0:0:0:0:
256,192,256382,1,8,0:0:0:0:
256,192,256467,1,0,0:0:0:0:
256,192,256552,1,8,0:0:0:0:
256,192,256609,1,8,0:0:0:0:
256,192,256666,1,8,0:0:0:0:
256,192,256723,1,0,0:0:0:0:
256,192,256893,1,4,0:0:0:0:
224,192,257064,1,0,0:0:0:0:
224,192,257149,1,0,0:0:0:0:
224,192,257234,1,8,0:0:0:0:
256,192,257319,1,8,0:0:0:0:
256,192,257405,1,0,0:0:0:0:
256,192,257490,1,8,0:0:0:0:
256,192,257575,1,0,0:0:0:0:
256,192,257745,1,8,0:0:0:0:
256,192,257831,1,8,0:0:0:0:
256,192,257916,1,0,0:0:0:0:
256,192,258086,1,8,0:0:0:0:
256,192,258257,1,0,0:0:0:0:
224,192,258427,1,0,0:0:0:0:
224,192,258512,1,0,0:0:0:0:
224,192,258598,1,8,0:0:0:0:
224,160,258768,1,0,0:0:0:0:
224,160,258853,1,8,0:0:0:0:
224,160,259024,1,8,0:0:0:0:
224,160,259109,1,0,0:0:0:0:
224,160,259194,1,0,0:0:0:0:
224,160,259280,1,8,0:0:0:0:
224,160,259365,1,8,0:0:0:0:
224,160,259450,1,0,0:0:0:0:
224,160,259620,1,0,0:0:0:0:
224,160,259791,1,8,0:0:0:0:
224,160,259876,1,8,0:0:0:0:
224,160,259961,1,0,0:0:0:0:
224,160,260132,1,8,0:0:0:0:
224,160,260217,1,0,0:0:0:0:
224,160,260387,1,8,0:0:0:0:
224,160,260473,1,8,0:0:0:0:
224,160,260558,1,0,0:0:0:0:
224,160,260643,1,8,0:0:0:0:
224,160,260814,1,8,0:0:0:0:
224,160,260984,1,0,0:0:0:0:
224,160,261069,1,0,0:0:0:0:
224,160,261155,1,8,0:0:0:0:
224,160,261240,1,8,0:0:0:0:
224,160,261325,1,8,0:0:0:0:
224,160,261495,1,8,0:0:0:0:
224,160,261581,1,0,0:0:0:0:
224,160,261751,1,0,0:0:0:0:
224,160,261836,1,8,0:0:0:0:
224,160,261922,1,0,0:0:0:0:
224,160,262007,1,8,0:0:0:0:
224,160,262092,1,8,0:0:0:0:
224,160,262177,1,0,0:0:0:0:
256,160,262348,1,0,0:0:0:0:
224,160,262518,1,8,0:0:0:0:
224,160,262603,1,0,0:0:0:0:
224,160,262689,1,8,0:0:0:0:
256,192,262859,1,8,0:0:0:0:
256,192,262944,1,0,0:0:0:0:
256,192,263115,1,8,0:0:0:0:
256,192,263200,1,8,0:0:0:0:
256,192,263285,1,0,0:0:0:0:
256,192,263370,1,8,0:0:0:0:
256,192,263456,1,0,0:0:0:0:
256,192,263541,1,0,0:0:0:0:
256,192,263711,1,8,0:0:0:0:
256,192,263797,1,8,0:0:0:0:
256,192,263882,1,0,0:0:0:0:
256,192,263967,1,0,0:0:0:0:
256,192,264052,1,8,0:0:0:0:
256,192,264223,1,8,0:0:0:0:
256,192,264308,1,0,0:0:0:0:
256,192,264393,1,8,0:0:0:0:
256,192,264478,1,8,0:0:0:0:
256,192,264564,1,0,0:0:0:0:
256,192,264649,1,8,0:0:0:0:
256,192,264734,1,0,0:0:0:0:
256,192,264819,1,0,0:0:0:0:
256,192,264905,1,8,0:0:0:0:
256,192,265075,1,0,0:0:0:0:
256,192,265245,1,0,0:0:0:0:
256,192,265331,1,0,0:0:0:0:
256,192,265416,1,8,0:0:0:0:
256,192,265586,1,0,0:0:0:0:
256,192,265672,1,8,0:0:0:0:
256,192,265757,1,0,0:0:0:0:
256,192,265842,1,0,0:0:0:0:
256,192,265927,1,8,0:0:0:0:
256,192,266012,1,8,0:0:0:0:
256,192,266098,1,0,0:0:0:0:
256,192,266268,1,8,0:0:0:0:
224,192,266439,1,0,0:0:0:0:
224,192,266524,1,0,0:0:0:0:
256,224,266609,1,8,0:0:0:0:
256,224,266694,1,0,0:0:0:0:
256,224,266780,1,8,0:0:0:0:
256,224,266950,1,0,0:0:0:0:
256,224,267035,1,8,0:0:0:0:
256,224,267206,1,0,0:0:0:0:
256,224,267291,1,8,0:0:0:0:
256,224,267376,1,0,0:0:0:0:
256,224,267461,1,8,0:0:0:0:
256,224,267547,1,8,0:0:0:0:
256,224,267632,1,0,0:0:0:0:
256,192,267802,5,4,0:0:0:0:
256,192,267972,1,0,0:0:0:0:
256,192,268058,1,0,0:0:0:0:
256,192,268143,1,8,0:0:0:0:
256,192,268313,1,8,0:0:0:0:
256,192,268484,1,0,0:0:0:0:
256,192,268654,1,8,0:0:0:0:
256,192,268739,1,8,0:0:0:0:
256,192,268825,1,0,0:0:0:0:
256,192,268910,1,0,0:0:0:0:
256,192,268995,1,8,0:0:0:0:
256,192,269166,1,0,0:0:0:0:
256,192,269336,1,0,0:0:0:0:
256,192,269421,1,0,0:0:0:0:
256,192,269506,1,8,0:0:0:0:
256,192,269592,1,0,0:0:0:0:
256,192,269677,1,8,0:0:0:0:
256,192,269762,1,8,0:0:0:0:
256,192,269847,1,0,0:0:0:0:
256,192,270018,1,0,0:0:0:0:
256,192,270188,1,8,0:0:0:0:
256,192,270359,1,8,0:0:0:0:
256,192,270444,1,8,0:0:0:0:
256,192,270529,1,0,0:0:0:0:
256,192,270700,1,8,0:0:0:0:
256,192,270785,1,0,0:0:0:0:
256,192,270870,1,8,0:0:0:0:
256,192,271041,1,8,0:0:0:0:
256,192,271126,1,8,0:0:0:0:
256,192,271211,1,0,0:0:0:0:
256,192,271296,1,8,0:0:0:0:
256,192,271467,1,8,0:0:0:0:
256,192,271552,1,0,0:0:0:0:
256,192,271722,1,0,0:0:0:0:
256,192,271808,1,0,0:0:0:0:
256,192,271893,1,8,0:0:0:0:
256,192,272064,1,8,0:0:0:0:
256,192,272149,1,0,0:0:0:0:
256,192,272234,1,8,0:0:0:0:
256,192,272319,1,8,0:0:0:0:
256,192,272405,1,0,0:0:0:0:
256,192,272490,1,8,0:0:0:0:
256,192,272575,1,0,0:0:0:0:
256,192,272746,1,0,0:0:0:0:
256,192,272916,1,8,0:0:0:0:
256,192,273086,1,0,0:0:0:0:
256,192,273171,1,8,0:0:0:0:
256,192,273256,1,0,0:0:0:0:
256,192,273427,1,0,0:0:0:0:
256,192,273512,1,0,0:0:0:0:
256,192,273597,1,8,0:0:0:0:
256,192,273768,1,8,0:0:0:0:
256,192,273938,1,0,0:0:0:0:
256,192,274109,1,0,0:0:0:0:
256,192,274194,1,0,0:0:0:0:
256,192,274279,1,8,0:0:0:0:
256,192,274364,1,8,0:0:0:0:
256,192,274450,1,0,0:0:0:0:
256,192,274620,1,8,0:0:0:0:
256,192,274705,1,0,0:0:0:0:
256,192,274791,1,8,0:0:0:0:
256,192,274876,1,8,0:0:0:0:
256,192,274961,1,0,0:0:0:0:
256,192,275046,1,0,0:0:0:0:
256,192,275131,1,8,0:0:0:0:
256,192,275302,1,0,0:0:0:0:
256,192,275387,1,8,0:0:0:0:
256,192,275472,1,0,0:0:0:0:
256,192,275558,1,0,0:0:0:0:
256,192,275643,1,8,0:0:0:0:
256,192,275813,1,8,0:0:0:0:
256,192,275984,1,0,0:0:0:0:
256,192,276154,1,0,0:0:0:0:
256,192,276239,1,0,0:0:0:0:
256,192,276325,1,8,0:0:0:0:
256,192,276495,1,0,0:0:0:0:
256,192,276666,1,8,0:0:0:0:
256,192,276751,1,8,0:0:0:0:
256,192,276836,1,0,0:0:0:0:
256,192,276921,1,0,0:0:0:0:
256,192,277006,1,8,0:0:0:0:
256,192,277177,1,8,0:0:0:0:
256,192,277347,1,0,0:0:0:0:
256,192,277433,1,0,0:0:0:0:
256,192,277518,1,8,0:0:0:0:
256,192,277603,1,0,0:0:0:0:
256,192,277688,1,8,0:0:0:0:
256,192,277774,1,8,0:0:0:0:
256,192,277859,1,0,0:0:0:0:
256,192,277944,1,0,0:0:0:0:
256,192,278029,1,8,0:0:0:0:
256,192,278114,1,0,0:0:0:0:
256,192,278200,1,8,0:0:0:0:
256,192,278257,1,8,0:0:0:0:
256,192,278314,1,8,0:0:0:0:
256,192,278370,1,0,0:0:0:0:
256,192,278456,1,0,0:0:0:0:
256,192,278541,1,8,0:0:0:0:
256,192,278598,1,0,0:0:0:0:
256,192,278655,1,0,0:0:0:0:
256,192,278711,1,8,0:0:0:0:
256,192,279734,1,8,0:0:0:0:
256,192,279791,1,8,0:0:0:0:
256,192,279848,1,8,0:0:0:0:
256,192,279905,1,0,0:0:0:0:
288,256,280075,5,4,0:0:0:0:
288,256,280245,1,0,0:0:0:0:
288,256,280331,1,0,0:0:0:0:
288,256,280416,1,8,0:0:0:0:
288,256,280586,1,0,0:0:0:0:
288,256,280672,1,8,0:0:0:0:
320,256,280842,1,8,0:0:0:0:
320,256,280927,1,0,0:0:0:0:
320,256,281098,1,8,0:0:0:0:
256,192,281183,1,0,0:0:0:0:
256,192,281268,1,8,0:0:0:0:
256,192,281353,1,8,0:0:0:0:
256,192,281439,1,0,0:0:0:0:
256,192,281609,1,0,0:0:0:0:
256,192,281694,1,0,0:0:0:0:
256,192,281780,1,8,0:0:0:0:
256,192,281950,1,0,0:0:0:0:
256,192,282035,1,0,0:0:0:0:
256,192,282206,1,8,0:0:0:0:
256,192,282291,1,0,0:0:0:0:
256,192,282461,1,8,0:0:0:0:
256,192,282547,1,8,0:0:0:0:
256,192,282632,1,0,0:0:0:0:
256,192,282717,1,8,0:0:0:0:
256,192,282802,1,0,0:0:0:0:
288,192,282973,1,8,0:0:0:0:
288,192,283058,1,8,0:0:0:0:
288,192,283143,1,0,0:0:0:0:
192,256,283314,1,8,0:0:0:0:
192,256,283399,1,0,0:0:0:0:
192,256,283569,1,0,0:0:0:0:
192,256,283655,1,8,0:0:0:0:
192,256,283740,1,0,0:0:0:0:
192,256,283825,1,8,0:0:0:0:
192,256,283995,1,8,0:0:0:0:
192,256,284166,1,0,0:0:0:0:
192,256,284336,1,0,0:0:0:0:
192,256,284422,1,0,0:0:0:0:
192,256,284507,1,8,0:0:0:0:
192,256,284677,1,0,0:0:0:0:
192,256,284762,1,8,0:0:0:0:
192,256,284933,1,0,0:0:0:0:
192,256,285018,1,0,0:0:0:0:
192,256,285189,1,8,0:0:0:0:
192,256,285274,1,0,0:0:0:0:
192,256,285359,1,8,0:0:0:0:
192,256,285444,1,8,0:0:0:0:
192,256,285530,1,0,0:0:0:0:
256,192,285700,1,0,0:0:0:0:
256,192,285785,1,0,0:0:0:0:
256,192,285870,1,8,0:0:0:0:
256,192,286041,1,0,0:0:0:0:
256,192,286126,1,8,0:0:0:0:
256,192,286297,1,8,0:0:0:0:
256,192,286382,1,0,0:0:0:0:
256,192,286467,1,0,0:0:0:0:
256,192,286552,1,8,0:0:0:0:
256,192,286723,1,0,0:0:0:0:
256,192,286893,1,8,0:0:0:0:
256,192,286978,1,8,0:0:0:0:
256,192,287064,1,0,0:0:0:0:
256,192,287149,1,0,0:0:0:0:
256,192,287234,1,8,0:0:0:0:
256,192,287405,1,0,0:0:0:0:
256,192,287575,1,8,0:0:0:0:
256,192,287660,1,0,0:0:0:0:
256,192,287745,1,8,0:0:0:0:
256,192,287831,1,8,0:0:0:0:
256,192,287916,1,0,0:0:0:0:
256,192,288001,1,8,0:0:0:0:
256,192,288086,1,0,0:0:0:0:
224,192,288257,1,0,0:0:0:0:
224,192,288427,1,0,0:0:0:0:
224,192,288512,1,0,0:0:0:0:
224,192,288598,1,8,0:0:0:0:
224,160,288768,1,0,0:0:0:0:
224,160,288853,1,8,0:0:0:0:
224,160,289024,1,8,0:0:0:0:
224,160,289109,1,8,0:0:0:0:
224,160,289194,1,0,0:0:0:0:
224,160,289280,1,8,0:0:0:0:
256,160,289450,1,8,0:0:0:0:
256,160,289620,1,0,0:0:0:0:
256,160,289706,1,0,0:0:0:0:
256,160,289791,1,8,0:0:0:0:
256,160,289876,1,0,0:0:0:0:
256,160,289961,1,8,0:0:0:0:
256,160,290132,1,0,0:0:0:0:
256,160,290217,1,8,0:0:0:0:
256,160,290387,1,0,0:0:0:0:
256,160,290473,1,8,0:0:0:0:
256,160,290558,1,0,0:0:0:0:
256,160,290643,1,8,0:0:0:0:
256,160,290728,1,8,0:0:0:0:
256,160,290814,1,0,0:0:0:0:
256,160,290984,1,4,0:0:0:0:
256,160,291155,1,0,0:0:0:0:
256,160,291240,1,0,0:0:0:0:
256,160,291325,1,8,0:0:0:0:
256,160,291495,1,0,0:0:0:0:
256,160,291581,1,8,0:0:0:0:
256,160,291751,1,0,0:0:0:0:
256,160,291836,1,8,0:0:0:0:
256,160,291922,1,8,0:0:0:0:
256,160,292007,1,0,0:0:0:0:
256,160,292177,1,8,0:0:0:0:
256,160,292262,1,8,0:0:0:0:
256,160,292348,1,0,0:0:0:0:
256,160,292518,1,0,0:0:0:0:
256,160,292603,1,0,0:0:0:0:
256,160,292689,1,8,0:0:0:0:
256,160,292859,1,0,0:0:0:0:
256,160,292944,1,0,0:0:0:0:
256,160,293115,1,0,0:0:0:0:
256,160,293200,1,8,0:0:0:0:
256,160,293285,1,0,0:0:0:0:
256,160,293370,1,8,0:0:0:0:
256,160,293541,1,8,0:0:0:0:
256,128,293711,1,0,0:0:0:0:
256,160,293882,1,0,0:0:0:0:
256,160,293967,1,0,0:0:0:0:
256,160,294052,1,8,0:0:0:0:
256,160,294223,1,0,0:0:0:0:
256,160,294308,1,8,0:0:0:0:
256,160,294478,1,8,0:0:0:0:
256,128,294564,1,0,0:0:0:0:
256,128,294649,1,0,0:0:0:0:
256,128,294734,1,8,0:0:0:0:
256,128,294905,1,8,0:0:0:0:
256,160,294990,1,8,0:0:0:0:
256,160,295075,1,0,0:0:0:0:
256,160,295245,1,0,0:0:0:0:
256,160,295331,1,0,0:0:0:0:
256,160,295416,1,8,0:0:0:0:
256,160,295586,1,0,0:0:0:0:
256,160,295672,1,8,0:0:0:0:
256,160,295842,1,0,0:0:0:0:
256,160,295927,1,0,0:0:0:0:
256,160,296098,1,8,0:0:0:0:
256,160,296183,1,0,0:0:0:0:
256,160,296268,1,8,0:0:0:0:
256,160,296353,1,8,0:0:0:0:
256,160,296439,1,0,0:0:0:0:
256,160,296609,1,0,0:0:0:0:
256,160,296694,1,0,0:0:0:0:
256,160,296780,1,8,0:0:0:0:
256,160,296950,1,0,0:0:0:0:
256,160,297035,1,8,0:0:0:0:
256,160,297206,1,8,0:0:0:0:
256,160,297291,1,0,0:0:0:0:
256,160,297376,1,0,0:0:0:0:
256,160,297461,1,8,0:0:0:0:
256,160,297547,1,0,0:0:0:0:
256,160,297632,1,8,0:0:0:0:
288,160,297802,1,8,0:0:0:0:
288,160,297887,1,8,0:0:0:0:
288,160,297973,1,0,0:0:0:0:
288,160,298058,1,0,0:0:0:0:
288,160,298143,1,8,0:0:0:0:
288,160,298228,1,0,0:0:0:0:
288,160,298314,1,8,0:0:0:0:
288,128,298484,1,8,0:0:0:0:
288,128,298569,1,0,0:0:0:0:
288,128,298655,1,8,0:0:0:0:
288,160,298740,1,8,0:0:0:0:
288,160,298825,1,0,0:0:0:0:
288,128,298910,1,0,0:0:0:0:
288,128,298995,1,8,0:0:0:0:
288,160,299166,1,8,0:0:0:0:
288,160,299336,1,0,0:0:0:0:
288,160,299422,1,0,0:0:0:0:
288,160,299507,1,8,0:0:0:0:
288,160,299677,1,0,0:0:0:0:
288,128,299848,1,8,0:0:0:0:
288,128,299933,1,8,0:0:0:0:
288,128,300018,1,0,0:0:0:0:
288,128,300103,1,0,0:0:0:0:
288,128,300189,1,8,0:0:0:0:
288,128,300359,1,0,0:0:0:0:
288,128,300530,1,8,0:0:0:0:
288,128,300615,1,8,0:0:0:0:
288,128,300700,1,0,0:0:0:0:
288,128,300785,1,0,0:0:0:0:
288,128,300870,1,8,0:0:0:0:
288,128,300956,1,0,0:0:0:0:
288,128,301041,1,0,0:0:0:0:
288,128,301126,1,0,0:0:0:0:
288,128,301211,1,8,0:0:0:0:
288,128,301297,1,0,0:0:0:0:
288,128,301382,1,8,0:0:0:0:
352,128,301439,1,8,0:0:0:0:
352,128,301495,1,8,0:0:0:0:
288,160,301552,1,0,0:0:0:0:
288,160,301637,1,0,0:0:0:0:
288,160,301723,1,8,0:0:0:0:
256,192,301893,5,4,0:0:0:0:
256,192,302234,1,8,0:0:0:0:
256,192,302575,1,0,0:0:0:0:
256,192,302745,1,0,0:0:0:0:
256,192,302916,1,8,0:0:0:0:
256,192,303257,1,0,0:0:0:0:
256,192,303598,1,8,0:0:0:0:
256,192,303853,1,8,0:0:0:0:
256,192,303938,1,0,0:0:0:0:
256,192,304109,1,0,0:0:0:0:
256,192,304280,1,8,0:0:0:0:
256,192,304450,1,8,0:0:0:0:
256,192,304620,1,0,0:0:0:0:
256,192,304961,1,8,0:0:0:0:
256,192,305302,1,0,0:0:0:0:
256,192,305473,1,0,0:0:0:0:
256,192,305643,1,8,0:0:0:0:
256,192,305984,1,0,0:0:0:0:
256,192,306325,1,8,0:0:0:0:
256,192,306581,1,8,0:0:0:0:
256,192,306666,1,0,0:0:0:0:
256,192,306836,1,0,0:0:0:0:
256,192,307007,1,8,0:0:0:0:
256,192,307177,1,0,0:0:0:0:
256,192,307348,1,0,0:0:0:0:
256,192,307689,1,8,0:0:0:0:
256,192,308030,1,0,0:0:0:0:
256,192,308200,1,0,0:0:0:0:
256,192,308370,1,8,0:0:0:0:
256,192,308711,1,0,0:0:0:0:
256,192,309052,1,8,0:0:0:0:
256,192,309308,1,8,0:0:0:0:
256,192,309393,1,0,0:0:0:0:
256,192,309564,1,0,0:0:0:0:
256,192,309734,1,8,0:0:0:0:
256,192,309905,1,8,0:0:0:0:
256,192,310075,1,0,0:0:0:0:
256,192,310416,1,8,0:0:0:0:
256,192,310757,1,0,0:0:0:0:
256,192,310927,1,0,0:0:0:0:
256,192,311098,1,8,0:0:0:0:
256,192,311439,1,0,0:0:0:0:
256,192,311780,1,8,0:0:0:0:
256,192,311950,1,0,0:0:0:0:
256,192,312120,1,0,0:0:0:0:
256,192,312206,1,0,0:0:0:0:
256,192,312376,1,0,0:0:0:0:
256,192,312461,1,8,0:0:0:0:
256,192,312632,1,8,0:0:0:0:
256,192,312802,1,4,0:0:0:0:
256,192,313143,1,8,0:0:0:0:
256,192,313399,1,8,0:0:0:0:
256,192,313484,1,0,0:0:0:0:
256,192,313655,1,0,0:0:0:0:
256,192,313825,1,8,0:0:0:0:
256,192,314166,1,0,0:0:0:0:
256,192,314507,1,8,0:0:0:0:
256,192,314763,1,8,0:0:0:0:
256,192,314848,1,0,0:0:0:0:
256,192,315018,1,0,0:0:0:0:
256,192,315189,1,8,0:0:0:0:
256,192,315359,1,8,0:0:0:0:
256,192,315530,1,0,0:0:0:0:
256,192,315870,1,8,0:0:0:0:
256,192,316126,1,8,0:0:0:0:
256,192,316211,1,0,0:0:0:0:
256,192,316382,1,0,0:0:0:0:
256,192,316552,1,8,0:0:0:0:
256,192,316893,1,0,0:0:0:0:
256,192,317234,1,8,0:0:0:0:
256,192,317490,1,8,0:0:0:0:
256,192,317575,1,0,0:0:0:0:
256,192,317745,1,0,0:0:0:0:
256,192,317916,1,8,0:0:0:0:
256,192,318086,1,8,0:0:0:0:
256,192,318172,1,8,0:0:0:0:
256,192,318257,1,0,0:0:0:0:
256,192,318598,1,0,0:0:0:0:
256,192,318939,1,0,0:0:0:0:
256,192,319280,1,0,0:0:0:0:
256,192,319620,1,0,0:0:0:0:
256,192,319961,1,0,0:0:0:0:
256,192,320302,1,0,0:0:0:0:
256,192,320643,1,0,0:0:0:0:
256,192,320814,1,8,0:0:0:0:
256,192,320984,1,0,0:0:0:0:
256,192,321155,1,8,0:0:0:0:
256,192,321325,1,0,0:0:0:0:
256,192,321495,1,8,0:0:0:0:
256,192,321666,1,0,0:0:0:0:
256,192,321836,1,8,0:0:0:0:
256,192,322007,1,0,0:0:0:0:
256,192,322177,1,8,0:0:0:0:
256,192,322262,1,8,0:0:0:0:
256,192,322348,1,0,0:0:0:0:
256,192,322433,1,0,0:0:0:0:
256,192,322518,1,8,0:0:0:0:
256,192,322603,1,0,0:0:0:0:
256,192,322689,1,8,0:0:0:0:
256,192,322774,1,0,0:0:0:0:
256,192,322859,1,8,0:0:0:0:
256,192,322944,1,8,0:0:0:0:
256,192,323030,1,0,0:0:0:0:
256,192,323115,1,0,0:0:0:0:
256,192,323200,1,8,0:0:0:0:
256,192,323285,1,0,0:0:0:0:
256,192,323370,1,8,0:0:0:0:
256,192,323427,1,0,0:0:0:0:
256,192,323484,1,0,0:0:0:0:
256,192,323541,1,8,0:0:0:0:
256,192,323626,1,8,0:0:0:0:
