osu file format v14

[General]
AudioFilename: cutie+chino.mp3
AudioLeadIn: 1000
PreviewTime: 176268
Countdown: 0
SampleSet: Soft
StackLeniency: 0.2
Mode: 0
LetterboxInBreaks: 0
WidescreenStoryboard: 1

[Editor]
Bookmarks: 23651,45470,67288,89106,110924,132742,154560,176379,198197,220015,241833,256833,280015,301833
DistanceSpacing: 0.2
BeatDivisor: 4
GridSize: 32
TimelineZoom: 2.099999

[Metadata]
Title:Mahou Shoujo Chino (nenpulse bootleg remix)
TitleUnicode:魔法少女チノ (nenpulse bootleg remix)
Artist:Chino (CV:Minase Inori)
ArtistUnicode:チノ (CV:水瀬いのり)
Creator:Asahina Momoko
Version:cappuChino!!
Source:ご注文はうさぎですか??
Tags:gochuumon wa usagi desuka?? gochiusa is the order a rabbit?? cup of chino CLSW mokori m_o_k_o_r_i
BeatmapID:1043170
BeatmapSetID:458983

[Difficulty]
HPDrainRate:6.6
CircleSize:4
OverallDifficulty:8.8
ApproachRate:9.3
SliderMultiplier:1.84
SliderTickRate:1

[Events]
//Background and Video events
0,0,"chinochinochinochinochinkochinochinochinkochino_waifu2x_art_noise3_scale.png",0,0
//Break Periods
2,133001,134166
2,242234,249393
//Storyboard Layer 0 (Background)
//Storyboard Layer 1 (Fail)
//Storyboard Layer 2 (Pass)
//Storyboard Layer 3 (Foreground)
//Storyboard Sound Samples

[TimingPoints]
530,340.909090909091,4,2,2,40,1,0
530,-125,4,2,2,40,0,0
870,-100,4,2,2,50,0,0
1211,-83.3333333333333,4,2,2,60,0,0
1552,-83.3333333333333,4,2,5,70,0,0
1893,-125,4,2,1,50,0,0
12120,-100,4,2,1,70,0,0
12461,-76.9230769230769,4,2,2,60,0,0
12802,-100,4,2,1,70,0,0
23370,-100,4,2,1,50,0,0
23456,-100,4,1,0,60,0,0
23541,-100,4,1,1,70,0,0
23626,-100,4,2,1,5,0,0
23711,-125,4,2,1,60,0,0
34024,-100,4,2,1,70,0,0
34280,-100,4,2,2,70,0,0
34620,-125,4,2,1,60,0,0
43655,-83.3333333333333,4,2,1,70,0,0
44507,-125,4,2,1,70,0,0
44848,-125,4,3,2,70,0,0
45189,-76.9230769230769,4,2,1,70,0,0
45530,-133.333333333333,4,2,1,50,0,0
52348,-200,4,2,1,40,0,0
53711,-133.333333333333,4,2,1,50,0,0
55075,-105.263157894737,4,2,1,70,0,0
55416,-86.9565217391306,4,2,1,70,0,0
55757,-100,4,2,1,70,0,0
56098,-76.9230769230769,4,2,2,70,0,0
56439,-111.111111111111,4,2,1,60,0,0
61552,-66.6666666666667,4,2,1,60,0,0
61893,-100,4,2,1,60,0,0
64620,-71.4285714285714,4,2,2,60,0,0
65302,-100,4,2,1,60,0,0
66155,-100,4,2,1,50,0,0
66325,-100,4,2,1,55,0,0
66495,-100,4,2,1,60,0,0
66666,-100,4,2,1,65,0,0
66836,-100,4,2,1,70,0,0
67007,-100,4,2,1,75,0,0
67177,-100,4,2,1,80,0,0
67348,-100,4,2,1,60,0,0
75189,-66.6666666666667,4,2,5,70,0,0
75530,-100,4,2,1,60,0,0
77916,-76.9230769230769,4,2,2,70,0,0
78257,-100,4,2,1,60,0,0
84052,-90.9090909090909,4,2,1,60,0,0
84393,-83.3333333333333,4,2,1,60,0,0
84734,-76.9230769230769,4,2,1,60,0,0
87802,-133.333333333333,4,2,2,60,0,0
88143,-153.846153846153,4,2,2,50,0,0
88484,-181.818181818181,4,2,2,40,0,0
89166,-71.4285714285714,4,2,1,80,0,1
97689,-83.3333333333333,4,2,1,80,0,1
98370,-71.4285714285714,4,2,1,80,0,1
99393,-100,4,2,1,80,0,1
99734,-66.6666666666667,4,2,5,80,0,1
100075,-71.4285714285714,4,2,1,80,0,1
105018,-71.4285714285714,4,2,1,80,0,1
110643,-83.3333333333333,4,2,1,80,0,1
110984,-90.9090909090908,4,2,1,70,0,0
121211,-76.9230769230769,4,2,1,70,0,0
121893,-90.9090909090909,4,2,1,70,0,0
135189,-66.6666666666667,4,2,5,70,0,0
135530,-111.111111111111,4,2,1,60,0,0
139620,-125,4,2,1,50,0,0
140984,-111.111111111111,4,2,1,60,0,0
143030,-99.9999999999999,4,2,1,60,0,0
143370,-76.9230769230769,4,2,2,60,0,0
143711,-111.111111111111,4,2,1,60,0,0
149166,-100,4,2,1,60,0,0
151893,-71.4285714285714,4,2,2,60,0,0
152575,-100,4,2,1,60,0,0
153427,-100,4,2,1,50,0,0
153598,-100,4,2,1,55,0,0
153768,-100,4,2,1,60,0,0
153939,-100,4,2,1,65,0,0
154109,-100,4,2,1,70,0,0
154280,-100,4,2,1,75,0,0
154450,-100,4,2,1,80,0,0
154620,-125,4,3,2,60,0,0
170984,-100,4,2,1,70,0,0
171325,-90.9090909090909,4,2,1,70,0,0
171666,-83.3333333333333,4,2,1,70,0,0
172007,-76.9230769230769,4,2,1,70,0,0
175075,-100,4,2,1,70,0,0
176439,-71.4285714285714,4,2,1,80,0,1
186666,-100,4,2,1,80,0,1
187007,-66.6666666666667,4,2,5,80,0,1
187348,-71.4285714285714,4,2,1,80,0,1
197916,-83.3333333333333,4,2,1,80,0,1
198257,-90.9090909090908,4,2,1,70,0,0
208484,-76.9230769230769,4,2,1,70,0,0
209166,-100,4,2,1,60,0,0
209507,-55.5555555555556,4,2,1,60,0,0
210530,-100,4,2,1,70,0,0
210870,-55.5555555555556,4,2,1,70,0,0
211893,-100,4,2,1,80,0,0
212234,-55.5555555555556,4,2,1,80,0,0
213257,-100,4,2,1,90,0,0
213598,-55.5555555555556,4,2,1,90,0,0
214706,-76.9230769230769,4,2,1,90,0,0
215814,-76.9230769230769,4,2,1,60,0,0
216836,-76.9230769230769,4,2,1,80,0,0
218711,-76.9230769230769,4,2,1,20,0,0
219393,-66.6666666666667,4,2,2,60,0,0
220075,-90.9090909090909,4,2,1,70,0,0
230302,-76.9230769230769,4,2,1,70,0,0
230984,-90.9090909090909,4,2,1,70,0,0
250075,-90.9090909090909,4,2,1,50,0,0
251439,-90.9090909090909,4,2,1,60,0,0
252461,-90.9090909090909,4,2,1,70,0,0
253484,-90.9090909090909,4,2,1,80,0,0
253995,-142.857142857143,4,2,1,80,0,0
254507,-125,4,2,1,60,0,0
256211,-125,4,2,5,60,0,0
256552,-90.9090909090909,4,2,5,70,0,0
256893,-71.4285714285714,4,2,1,80,0,1
267120,-100,4,2,1,80,0,1
267461,-66.6666666666667,4,2,5,80,0,1
267802,-71.4285714285714,4,2,1,80,0,1
278370,-83.3333333333333,4,2,1,80,0,1
278711,-166.666666666667,4,2,1,50,0,0
279734,-166.666666666667,4,2,1,30,0,0
279777,-166.666666666667,4,2,1,40,0,0
279819,-166.666666666667,4,2,1,50,0,0
279862,-166.666666666667,4,2,1,60,0,0
279905,-166.666666666667,4,2,1,70,0,0
279947,-166.666666666667,4,2,1,80,0,0
279990,-166.666666666667,4,2,1,90,0,0
280075,-90.9090909090908,4,2,1,70,0,1
280160,-90.9090909090908,4,2,1,70,0,0
290302,-76.9230769230769,4,2,1,70,0,0
290984,-90.9090909090909,4,2,1,70,0,0
301893,-125,4,3,2,50,0,0
316893,-125,4,3,1,50,0,0
318257,-125,4,2,1,50,0,0
323030,-100,4,2,1,70,0,0
323370,-100,4,2,1,40,0,0
323541,-100,4,2,1,60,0,0

[Colours]
Combo1 : 240,251,162
Combo2 : 132,255,132
Combo3 : 0,255,255
Combo4 : 255,128,192
Combo5 : 61,97,241

[HitObjects]
159,345,530,6,0,P|196:342|228:326,1,73.6,0|0,3:0|0:0,0:0:0:0:
388,308,785,1,2,3:2:0:0:
388,308,870,6,0,P|331:305|293:277,1,92,0|0,3:0|0:0,0:0:0:0:
198,243,1126,1,2,3:2:0:0:
198,243,1211,6,0,P|210:217|215:186,1,55.1999983154297,2|0,3:2|3:0,0:0:0:0:
318,179,1382,2,0,P|306:153|301:122,1,55.1999983154297,2|0,3:2|0:0,0:0:0:0:
247,28,1552,5,8,0:0:0:0:
352,351,1893,5,4,3:1:0:0:
360,345,2064,1,0,0:0:0:0:
258,277,2234,2,0,P|224:263|187:265,1,73.6,8|0,0:1|0:0,0:0:0:0:
72,320,2575,5,0,3:0:0:0:
64,314,2746,1,0,0:0:0:0:
166,246,2916,2,0,P|200:232|237:234,1,73.6,8|0,0:1|0:0,0:0:0:0:
397,247,3257,6,0,P|411:281|409:318,1,73.6,0|0,3:0|0:0,0:0:0:0:
444,358,3598,2,0,P|458:324|456:288,1,73.6,8|0,0:1|0:0,0:0:0:0:
401,142,3939,5,0,3:0:0:0:
393,136,4110,1,0,0:0:0:0:
455,287,4280,2,0,P|458:324|444:358,1,73.6,8|0,0:1|0:0,0:0:0:0:
328,297,4620,5,0,3:0:0:0:
337,293,4791,1,0,0:0:0:0:
262,200,4961,2,0,L|171:206,1,73.6,8|0,0:1|0:0,0:0:0:0:
92,86,5302,5,0,3:0:0:0:
83,90,5473,1,0,0:0:0:0:
158,183,5643,2,0,L|249:177,1,73.6,8|0,0:1|0:0,0:0:0:0:
372,126,5984,6,0,L|281:120,1,73.6,0|0,3:0|0:0,0:0:0:0:
196,49,6325,2,0,L|287:43,1,73.6,8|0,0:1|0:0,0:0:0:0:
372,126,6666,5,0,3:0:0:0:
393,58,6836,1,8,0:1:0:0:
308,176,7007,1,4,3:0:0:0:
237,183,7177,1,8,3:0:0:0:
446,237,7348,5,0,3:0:0:0:
455,233,7519,1,0,0:0:0:0:
304,272,7689,2,0,P|290:305|292:342,1,73.6,8|0,0:1|0:0,0:0:0:0:
433,361,8030,5,0,3:0:0:0:
442,365,8201,1,0,0:0:0:0:
280,352,8371,2,0,P|266:318|268:281,1,73.6,8|0,0:1|0:0,0:0:0:0:
236,184,8711,6,0,P|213:212|180:229,1,73.6,0|0,3:0|0:0,0:0:0:0:
111,308,9052,2,0,P|147:313|177:333,1,73.6,8|0,0:1|0:0,0:0:0:0:
24,353,9393,5,0,3:0:0:0:
15,349,9564,1,0,0:0:0:0:
111,308,9734,2,0,P|147:313|177:333,1,73.6,8|0,0:1|0:0,0:0:0:0:
310,313,10075,5,0,3:0:0:0:
319,309,10246,1,0,0:0:0:0:
255,217,10416,2,0,L|265:133,1,73.6,8|0,0:1|0:0,0:0:0:0:
190,21,10757,5,0,3:0:0:0:
181,25,10928,1,0,0:0:0:0:
245,117,11098,2,0,L|235:201,1,73.6,8|0,0:1|0:0,0:0:0:0:
142,270,11439,5,0,3:0:0:0:
133,267,11609,1,0,0:0:0:0:
341,323,11780,2,0,B|336:268,1,36.8,10|0,0:0|0:0,0:0:0:0:
273,190,11950,2,0,B|269:226,1,36.8,2|0,3:2|0:0,0:0:0:0:
224,300,12120,5,0,3:0:0:0:
224,300,12206,2,0,P|182:272|123:275,1,92,10|0,0:0|0:0,0:0:0:0:
104,276,12461,6,0,P|136:250|165:240,1,59.7999972625734,2|0,3:2|0:0,0:0:0:0:
259,154,12632,2,0,P|298:168|321:186,1,59.7999972625734,2|0,3:2|0:0,0:0:0:0:
430,282,12802,5,4,3:1:0:0:
301,346,12973,2,0,B|316:303|316:303|301:257,1,92,2|8,0:0|0:1,0:0:0:0:
224,300,13228,1,0,0:0:0:0:
224,300,13314,2,0,L|106:286,1,92,2|0,0:0|3:0,0:0:0:0:
38,329,13655,1,2,0:0:0:0:
151,153,13825,1,8,0:1:0:0:
151,153,13910,1,0,0:0:0:0:
151,153,13995,1,2,0:0:0:0:
224,300,14166,5,0,3:0:0:0:
79,206,14336,2,0,L|197:192,1,92,2|8,0:0|0:1,0:0:0:0:
255,183,14592,1,0,0:0:0:0:
273,181,14677,1,2,0:0:0:0:
338,301,14848,6,0,P|359:292|387:268,1,46,0|0,3:0|0:0,0:0:0:0:
442,142,15018,2,0,P|420:150|392:174,1,46,2|0,0:0|0:0,0:0:0:0:
342,322,15189,2,0,P|359:305|379:275,1,46,10|0,0:0|0:0,0:0:0:0:
425,133,15359,2,0,P|407:147|387:178,1,46,2|0,0:0|0:0,0:0:0:0:
498,236,15530,5,0,3:0:0:0:
301,224,15700,2,0,L|190:216,1,92,2|8,0:0|0:0,0:0:0:0:
201,223,15956,1,0,0:0:0:0:
193,228,16041,2,0,P|177:174|186:133,1,92,2|0,0:0|3:0,0:0:0:0:
89,63,16382,1,2,0:0:0:0:
272,175,16552,1,8,0:0:0:0:
272,175,16637,1,0,0:0:0:0:
272,175,16723,1,2,0:0:0:0:
108,287,16893,5,0,3:0:0:0:
181,192,17064,2,0,P|179:145|138:101,1,92,2|8,0:0|0:0,0:0:0:0:
95,174,17319,1,0,0:0:0:0:
95,174,17405,1,2,0:0:0:0:
323,314,17575,1,0,3:0:0:0:
286,191,17745,5,2,3:0:0:0:
189,325,17916,2,0,P|197:305|196:272,1,46,8|0,0:3|0:0,0:0:0:0:
166,150,18086,1,0,1:0:0:0:
166,150,18172,1,0,1:0:0:0:
166,150,18257,5,4,3:1:0:0:
88,350,18598,1,8,0:0:0:0:
49,227,18939,5,0,3:0:0:0:
328,323,19280,1,8,0:0:0:0:
184,323,19620,5,4,3:1:0:0:
463,227,19961,1,8,0:0:0:0:
424,350,20302,5,0,3:0:0:0:
346,150,20643,1,8,0:0:0:0:
295,219,20814,1,0,3:0:0:0:
379,230,20984,5,0,3:0:0:0:
134,123,21155,1,0,1:0:0:0:
322,53,21325,5,8,0:0:0:0:
107,212,21496,1,0,1:0:0:0:
346,304,21666,5,4,3:1:0:0:
346,304,21751,1,2,0:0:0:0:
346,304,21836,2,0,L|344:332,3,23,2|0|0|0,1:2|0:0|1:0|0:0,0:0:0:0:
342,358,22007,1,2,1:2:0:0:
254,145,22177,5,4,1:0:0:0:
254,145,23370,6,0,B|242:125|212:125|212:125|192:148|159:147|159:147|143:160|147:178,1,138,0|0,0:0|0:0,0:0:0:0:
162,330,23711,6,0,P|151:288|158:246,1,73.6,6|0,3:2|0:0,0:0:0:0:
100,274,24052,2,0,P|108:231|133:196,1,73.6,8|0,0:0|0:0,0:0:0:0:
274,290,24393,1,0,3:0:0:0:
274,290,24564,1,0,0:0:0:0:
327,191,24734,2,0,P|321:154|302:123,1,73.6,8|0,0:0|0:0,0:0:0:0:
249,357,25075,6,0,P|255:320|274:289,1,73.6,0|0,3:0|0:0,0:0:0:0:
136,180,25416,6,0,P|102:164|77:138,1,73.6,10|0,0:0|0:0,0:0:0:0:
149,182,25757,2,0,P|115:167|78:166,1,73.6,2|0,3:2|0:0,0:0:0:0:
158,192,26098,2,0,P|136:162|125:127,1,73.6,10|0,0:0|0:0,0:0:0:0:
230,305,26439,6,0,P|245:272|249:235,1,73.6,2|0,3:2|0:0,0:0:0:0:
219,124,26780,1,8,0:0:0:0:
219,124,26950,1,0,0:0:0:0:
231,344,27120,6,0,P|262:325|285:296,1,73.6,2|0,3:2|0:0,0:0:0:0:
320,186,27461,1,8,0:0:0:0:
320,186,27631,1,0,0:0:0:0:
394,287,27802,6,0,P|428:279|464:284,1,73.6,2|0,3:2|0:0,0:0:0:0:
380,295,28143,2,0,P|407:272|427:241,1,73.6,10|0,0:0|0:0,0:0:0:0:
371,309,28484,2,0,P|398:286|434:275,1,73.6,2|0,3:2|0:0,0:0:0:0:
368,323,28825,2,0,P|380:288|380:251,1,73.6,10|0,0:0|0:0,0:0:0:0:
220,353,29166,6,0,P|206:311|211:269,1,73.6,2|0,3:2|0:0,0:0:0:0:
154,301,29507,2,0,P|159:257|182:221,2,73.6,8|0|0,0:0|0:0|3:0,0:0:0:0:
243,179,30018,1,2,0:0:0:0:
371,238,30189,2,0,P|367:201|351:168,1,73.6,10|0,0:0|0:0,0:0:0:0:
187,97,30530,6,0,P|220:83|257:82,1,73.6,2|0,3:2|0:0,0:0:0:0:
128,87,30870,2,0,P|150:59|182:40,1,73.6,8|0,0:0|0:0,0:0:0:0:
313,193,31211,6,0,P|280:179|243:178,1,73.6,0|0,3:0|0:0,0:0:0:0:
372,183,31552,2,0,P|349:155|317:136,1,73.6,8|0,0:0|0:0,0:0:0:0:
186,283,31893,6,0,P|219:269|256:268,1,73.6,2|0,3:2|0:0,0:0:0:0:
387,326,32234,1,10,0:0:0:0:
441,252,32405,2,0,P|408:238|371:237,2,73.6,2|0|0,0:0|3:0|0:0,0:0:0:0:
393,161,32916,2,0,P|357:161|322:174,1,73.6,10|0,0:0|0:0,0:0:0:0:
256,296,33257,6,0,P|222:282|185:282,1,73.6,2|0,3:2|0:0,0:0:0:0:
73,336,33598,1,10,0:0:0:0:
138,214,33768,2,0,P|171:200|208:200,1,73.6,2|0,3:2|3:0,0:0:0:0:
250,195,34024,6,0,P|211:174|160:175,1,92,10|0,0:0|0:0,0:0:0:0:
39,249,34280,1,2,3:2:0:0:
250,195,34450,1,0,3:0:0:0:
202,49,34620,6,0,P|191:91|198:133,1,73.6,6|0,3:2|0:0,0:0:0:0:
140,105,34961,2,0,P|148:148|173:183,1,73.6,8|0,0:0|0:0,0:0:0:0:
300,95,35302,1,0,3:0:0:0:
300,95,35473,1,0,0:0:0:0:
346,195,35643,2,0,P|338:238|313:273,1,73.6,8|0,0:0|0:0,0:0:0:0:
300,95,35984,6,0,P|341:82|384:88,1,73.6,0|0,3:0|0:0,0:0:0:0:
195,222,36325,6,0,P|180:256|179:292,1,73.6,10|0,0:0|0:0,0:0:0:0:
203,211,36666,2,0,P|187:244|160:270,1,73.6,2|0,3:2|0:0,0:0:0:0:
201,196,37007,2,0,P|204:233|219:266,1,73.6,10|0,0:0|0:0,0:0:0:0:
358,345,37348,6,0,P|321:339|289:322,1,73.6,2|0,3:2|0:0,0:0:0:0:
201,196,37689,1,8,0:0:0:0:
201,196,37859,1,0,0:0:0:0:
193,289,38030,6,0,P|229:283|261:266,1,73.6,2|0,3:2|0:0,0:0:0:0:
350,140,38371,1,8,0:0:0:0:
350,140,38541,1,0,0:0:0:0:
215,160,38711,6,0,P|200:127|198:91,1,73.6,2|0,3:2|0:0,0:0:0:0:
226,171,39052,2,0,P|198:148|163:135,1,73.6,10|0,0:0|0:0,0:0:0:0:
241,177,39393,2,0,P|213:154|195:122,1,73.6,2|0,3:2|0:0,0:0:0:0:
256,177,39734,2,0,P|220:171|183:178,1,73.6,10|0,0:0|0:0,0:0:0:0:
77,223,39990,1,0,3:0:0:0:
77,223,40075,38,0,P|90:189|90:152,1,73.6,4|0,3:1|0:0,0:0:0:0:
205,344,40416,2,0,P|203:307|189:273,1,73.6,10|0,0:0|0:0,0:0:0:0:
36,313,40757,2,0,P|69:327|106:328,1,73.6,0|2,3:0|0:0,0:0:0:0:
256,192,41098,1,10,0:0:0:0:
256,192,41268,1,0,0:0:0:0:
307,344,41439,6,0,P|308:307|322:273,1,73.6,2|0,3:2|0:0,0:0:0:0:
434,223,41780,2,0,P|421:189|421:152,1,73.6,8|2,0:0|0:0,0:0:0:0:
476,313,42120,2,0,P|442:327|405:328,1,73.6,0|2,3:0|0:0,0:0:0:0:
251,258,42461,2,0,P|285:272|322:273,1,73.6,8|0,0:0|0:0,0:0:0:0:
434,223,42802,5,2,3:2:0:0:
272,359,42973,1,0,0:0:0:0:
270,352,43058,1,2,0:0:0:0:
268,345,43143,1,8,0:0:0:0:
181,173,43314,2,0,P|141:209|143:282,1,110.4,10|0,0:0|0:0,0:0:0:0:
220,276,43655,5,10,0:0:0:0:
230,272,43740,1,0,0:0:0:0:
240,273,43825,1,10,0:0:0:0:
250,278,43910,1,2,3:2:0:0:
255,288,43995,1,0,3:0:0:0:
256,299,44081,1,0,3:0:0:0:
225,346,44166,6,0,L|96:336,1,110.399996630859,6|0,1:2|0:0,0:0:0:0:
48,206,44507,2,0,B|35:186|35:186|141:195,1,110.4,0|0,3:0|0:0,0:0:0:0:
220,200,44848,5,0,0:0:0:0:
216,177,44933,1,0,0:0:0:0:
213,154,45018,1,0,0:0:0:0:
209,131,45103,1,0,0:0:0:0:
222,97,45189,5,0,0:0:0:0:
235,311,45530,5,4,3:1:0:0:
235,311,45700,1,0,0:0:0:0:
145,223,45870,1,0,3:0:0:0:
145,223,46040,1,0,0:0:0:0:
91,334,46211,6,0,P|117:317|174:314,1,69.0000026321412,0|0,3:0|0:0,0:0:0:0:
236,223,46552,2,0,P|266:229|309:265,1,69.0000026321412,0|0,3:0|0:0,0:0:0:0:
351,355,46893,5,0,3:0:0:0:
461,257,47064,2,0,P|430:263|387:299,1,69.0000026321412,2|0,0:0|3:0,0:0:0:0:
351,355,47405,2,0,L|344:204,1,138.000005264282,2|0,0:0|0:0,0:0:0:0:
362,73,47916,1,0,3:0:0:0:
385,69,48086,1,0,0:0:0:0:
260,159,48257,6,0,P|217:149|186:129,1,69.0000026321412,0|0,3:0|0:0,0:0:0:0:
135,46,48598,1,0,3:0:0:0:
158,42,48768,1,0,0:0:0:0:
109,232,48939,2,0,L|20:225,1,69.0000026321412,0|0,3:0|0:0,0:0:0:0:
25,145,49280,2,0,L|93:150,1,69.0000026321412,0|0,3:0|0:0,0:0:0:0:
175,309,49620,5,0,3:0:0:0:
243,303,49791,2,0,L|174:308,1,69.0000026321412,2|0,0:0|3:0,0:0:0:0:
300,367,50132,2,0,B|337:331|328:280|328:280|335:306|358:322,1,138.000005264282,2|0,0:0|0:0,0:0:0:0:
410,253,50643,1,0,3:0:0:0:
385,175,50814,1,0,3:0:0:0:
349,315,50984,6,0,P|329:286|324:252,1,69.0000026321412,0|0,3:0|0:0,0:0:0:0:
266,162,51325,2,0,P|275:129|298:102,1,69.0000026321412,8|0,0:0|0:0,0:0:0:0:
410,253,51666,1,0,3:0:0:0:
410,253,51836,1,0,0:0:0:0:
266,162,52007,2,0,P|232:170|206:191,1,69.0000026321412,8|0,0:0|0:0,0:0:0:0:
105,344,52348,6,0,P|88:329|73:307,1,46,0|0,3:0|0:0,0:0:0:0:
33,308,52689,2,0,P|41:287|57:265,1,46,10|0,0:0|0:0,0:0:0:0:
41,228,53030,2,0,P|62:228|88:236,1,46,2|0,3:2|0:0,0:0:0:0:
118,209,53370,2,0,P|124:229|126:256,1,46,10|0,0:0|0:0,0:0:0:0:
105,344,53711,6,0,L|202:338,1,69.0000026321412,0|0,3:0|0:0,0:0:0:0:
240,335,54052,2,0,L|171:330,1,69.0000026321412,8|0,0:0|0:0,0:0:0:0:
245,324,54393,6,0,L|342:318,1,69.0000026321412,0|0,3:0|0:0,0:0:0:0:
380,315,54734,2,0,L|311:310,1,69.0000026321412,8|0,0:0|0:0,0:0:0:0:
128,197,55075,6,0,L|216:190,1,87.3999976661683,0|0,3:0|0:0,0:0:0:0:
413,73,55416,2,0,L|295:63,1,105.800002017975,10|0,0:0|0:0,0:0:0:0:
125,46,55757,5,0,3:0:0:0:
125,46,55842,2,0,B|150:28|150:28|140:123,1,92,10|0,0:0|0:0,0:0:0:0:
107,206,56098,2,0,L|187:198,1,59.7999972625734,2|0,3:2|0:0,0:0:0:0:
235,229,56268,2,0,L|175:234,1,59.7999972625734,2|0,3:2|0:0,0:0:0:0:
95,326,56439,5,4,3:2:0:0:
307,359,56609,2,0,B|319:330|319:330|307:263,1,82.7999974731446,0|8,0:0|0:0,0:0:0:0:
284,112,56950,1,0,0:0:0:0:
402,217,57120,5,0,3:0:0:0:
480,204,57291,1,2,0:0:0:0:
309,279,57461,1,8,0:0:0:0:
231,266,57632,1,0,0:0:0:0:
404,341,57802,5,0,3:0:0:0:
265,189,57973,2,0,P|266:143|287:110,1,82.7999974731446,2|8,0:0|0:0,0:0:0:0:
358,261,58314,2,0,B|329:252|298:264|298:264|269:277|230:266|230:266|245:277|251:294,1,165.599994946289,2|0,0:0|0:0,0:0:0:0:
265,189,58825,1,8,0:0:0:0:
164,333,58995,1,0,0:0:0:0:
66,169,59166,6,0,L|169:158,1,82.7999974731446,0|0,3:0|0:0,0:0:0:0:
275,48,59507,1,8,0:0:0:0:
301,126,59677,1,0,0:0:0:0:
218,114,59848,5,0,3:0:0:0:
432,75,60018,1,2,0:0:0:0:
201,122,60189,1,8,0:0:0:0:
396,195,60359,1,0,0:0:0:0:
292,355,60530,5,0,3:0:0:0:
167,283,60700,2,0,P|155:241|169:185,1,82.7999974731446,2|8,0:0|0:0,0:0:0:0:
407,202,61041,2,0,P|352:259|276:240,1,165.599994946289,2|0,0:0|0:0,0:0:0:0:
330,178,61467,1,0,3:0:0:0:
330,178,61552,1,8,0:0:0:0:
405,343,61723,1,0,3:2:0:0:
411,340,61808,1,0,3:2:0:0:
416,335,61893,6,0,P|355:342|320:324,1,92,4|0,3:1|0:0,0:0:0:0:
186,262,62234,2,0,P|192:200|218:170,1,92,8|0,0:0|0:0,0:0:0:0:
146,352,62575,6,0,P|207:359|242:341,1,92,4|0,3:1|0:0,0:0:0:0:
306,194,62916,2,0,P|299:132|273:102,1,92,8|0,0:0|0:0,0:0:0:0:
99,197,63257,5,4,3:1:0:0:
99,197,63427,2,0,L|177:187,1,46,0|0,0:0|0:0,0:0:0:0:
279,293,63598,1,8,0:0:0:0:
279,293,63768,2,0,L|201:283,1,46,0|0,0:0|0:0,0:0:0:0:
126,342,63939,5,4,3:1:0:0:
233,206,64109,1,2,0:0:0:0:
236,160,64194,1,2,0:0:0:0:
204,126,64280,1,8,0:0:0:0:
55,243,64450,1,2,0:0:0:0:
55,243,64535,1,2,0:0:0:0:
55,243,64620,6,0,P|83:227|114:224,1,64.399998034668,4|0,3:1|0:0,0:0:0:0:
337,229,64791,2,0,L|331:293,1,64.399998034668,0|0,3:0|0:0,0:0:0:0:
222,354,64961,2,0,L|216:289,1,64.399998034668,0|0,3:0|0:0,0:0:0:0:
329,142,65132,2,0,P|364:146|393:164,1,64.399998034668,0|0,3:0|0:0,0:0:0:0:
479,305,65302,5,0,3:0:0:0:
495,295,65387,1,0,3:0:0:0:
353,239,65558,1,0,3:0:0:0:
337,229,65643,2,0,P|399:222|445:265,1,92,2|0,0:0|0:0,0:0:0:0:
481,145,65984,1,0,3:0:0:0:
342,366,66155,5,2,0:0:0:0:
289,239,66325,5,2,0:0:0:0:
239,356,66495,5,2,0:0:0:0:
197,203,66666,5,2,0:0:0:0:
136,347,66836,5,2,0:0:0:0:
105,169,67007,5,0,0:0:0:0:
33,338,67177,5,2,0:0:0:0:
199,134,67348,6,0,P|206:100|173:43,1,92,4|0,3:1|0:0,0:0:0:0:
78,252,67689,1,8,0:0:0:0:
78,252,67859,1,0,0:0:0:0:
22,187,68030,6,0,P|61:164|106:170,1,92,0|0,3:0|0:0,0:0:0:0:
240,323,68370,1,8,0:0:0:0:
240,323,68541,1,0,0:0:0:0:
190,224,68711,6,0,L|374:209,2,184,0|8|0,3:0|0:0|3:0,0:0:0:0:
373,209,69564,1,2,0:0:0:0:
243,312,69734,1,8,0:0:0:0:
388,199,69905,1,2,0:0:0:0:
214,128,70075,6,0,L|225:12,1,92,0|0,3:0|0:0,0:0:0:0:
297,219,70416,1,8,0:0:0:0:
297,219,70586,1,0,0:0:0:0:
360,160,70757,6,0,L|349:44,1,92,0|0,3:0|0:0,0:0:0:0:
229,274,71098,1,8,0:0:0:0:
229,274,71268,1,0,0:0:0:0:
85,178,71439,6,0,B|101:144|146:147|146:147|171:204|123:287,2,184,0|8|0,3:0|0:0|3:0,0:0:0:0:
139,254,72291,1,2,0:0:0:0:
229,274,72461,1,8,0:0:0:0:
314,238,72632,1,2,0:0:0:0:
367,162,72802,5,4,1:0:0:0:
393,329,72973,2,0,L|292:313,1,92,0|0,1:0|0:0,0:0:0:0:
464,185,73314,5,4,1:0:0:0:
346,346,73485,2,0,L|256:332,1,92,0|0,1:0|0:0,0:0:0:0:
145,162,73825,5,4,1:0:0:0:
119,329,73996,2,0,L|220:313,1,92,0|0,1:0|0:0,0:0:0:0:
48,185,74337,5,4,1:0:0:0:
165,346,74508,2,0,L|256:332,1,92,0|0,1:0|0:0,0:0:0:0:
436,304,74848,5,0,0:0:0:0:
402,176,75018,1,0,3:0:0:0:
402,176,75103,1,0,3:0:0:0:
402,176,75189,2,0,B|357:125|285:135|285:135|256:172|273:219,1,207.000007896424,8|0,0:0|0:0,0:0:0:0:
345,317,75530,6,0,L|451:301,1,92,0|0,3:0|0:0,0:0:0:0:
269,207,75870,2,0,L|178:194,1,92,8|0,0:0|0:0,0:0:0:0:
104,317,76211,1,0,3:0:0:0:
51,133,76382,1,0,0:0:0:0:
229,317,76552,2,0,L|322:302,1,92,8|0,0:0|0:0,0:0:0:0:
259,136,76893,5,0,0:0:0:0:
438,221,77064,1,0,0:0:0:0:
320,303,77234,1,8,0:0:0:0:
349,148,77405,6,0,L|281:154,1,46,0|0,3:0|0:0,0:0:0:0:
214,241,77575,1,0,0:0:0:0:
214,241,77660,2,0,B|117:227,1,92,10|0,0:0|0:0,0:0:0:0:
16,318,77916,6,0,P|44:328|79:329,1,59.7999972625734,2|0,3:2|0:0,0:0:0:0:
144,150,78086,2,0,P|171:139|201:138,1,59.7999972625734,0|0,3:0|0:0,0:0:0:0:
242,333,78257,6,0,B|251:339|251:339|344:333,1,92,4|0,3:1|0:0,0:0:0:0:
300,198,78598,1,8,0:0:0:0:
448,326,78768,1,0,0:0:0:0:
491,196,78939,2,0,L|371:176,1,92,0|0,3:0|0:0,0:0:0:0:
206,213,79280,1,8,0:0:0:0:
206,213,79450,1,0,0:0:0:0:
314,117,79620,6,0,P|380:172|357:256,2,184,0|8|0,3:0|0:0|3:0,0:0:0:0:
97,216,80473,1,2,0:0:0:0:
273,318,80643,1,8,0:0:0:0:
219,207,80814,1,2,0:0:0:0:
144,328,80984,6,0,P|99:310|45:311,1,92,0|0,3:0|0:0,0:0:0:0:
155,132,81325,2,0,P|200:114|254:115,1,92,8|0,0:0|0:0,0:0:0:0:
63,47,81666,1,0,3:0:0:0:
63,47,81836,1,0,0:0:0:0:
218,204,82007,1,8,0:0:0:0:
296,41,82177,1,0,0:0:0:0:
78,144,82348,6,0,B|41:178|61:229|61:229|108:264|91:323,2,184,0|8|0,3:0|0:0|3:0,0:0:0:0:
19,296,83200,1,2,0:0:0:0:
260,159,83370,1,8,0:0:0:0:
161,357,83541,1,2,0:0:0:0:
161,357,83626,1,0,0:0:0:0:
161,357,83711,6,0,L|175:264,1,92,4|0,1:0|0:0,0:0:0:0:
253,344,84052,2,0,L|269:242,1,101.200003088379,4|0,1:0|0:0,0:0:0:0:
347,328,84393,2,0,L|365:215,1,110.399996630859,4|0,1:0|0:0,0:0:0:0:
439,315,84734,2,0,L|459:188,1,119.599994525147,4|0,1:0|0:0,0:0:0:0:
457,196,85245,1,0,3:0:0:0:
161,357,85416,5,0,3:0:0:0:
174,266,85586,1,2,0:0:0:0:
253,344,85757,5,0,3:0:0:0:
268,244,85927,1,2,0:0:0:0:
347,328,86098,5,2,3:2:0:0:
364,218,86268,1,0,0:0:0:0:
439,315,86439,6,0,L|458:191,1,119.599994525147,12|0,0:0|0:0,0:0:0:0:
267,110,86780,1,0,3:0:0:0:
371,28,86950,6,0,L|390:152,1,119.599994525147,12|0,0:0|0:0,0:0:0:0:
245,251,87291,1,0,3:0:0:0:
310,192,87461,6,0,P|261:163|193:180,1,119.599994525147,12|0,0:0|0:0,0:0:0:0:
65,332,87802,6,0,P|51:284|80:220,1,103.500003948212,0|0,3:0|0:0,0:0:0:0:
55,236,88143,6,0,P|92:207|140:201,1,89.6999958938601,0|0,3:0|0:0,0:0:0:0:
136,191,88484,6,0,P|174:207|198:244,1,75.9000023162843,0|0,3:0|0:0,0:0:0:0:
210,337,88825,6,0,L|208:353,6,12.6500003860474,2|0|0|0|0|0|0,0:0|0:0|0:0|0:0|0:0|0:0|0:0,0:0:0:0:
125,282,89166,5,4,3:1:0:0:
283,216,89336,2,0,L|428:225,1,128.799996069336,2|8,0:0|0:0,0:0:0:0:
222,117,89677,1,2,0:0:0:0:
304,309,89848,5,0,3:0:0:0:
463,158,90018,1,2,0:0:0:0:
463,158,90103,1,0,0:0:0:0:
463,158,90189,2,0,P|424:143|393:145,1,64.399998034668,8|0,0:0|0:0,0:0:0:0:
221,230,90359,2,0,P|260:215|291:217,1,64.399998034668,2|0,0:0|0:0,0:0:0:0:
379,363,90530,6,0,B|410:313|410:313|368:217,1,128.799996069336,0|2,3:0|0:0,0:0:0:0:
280,65,90870,1,10,0:0:0:0:
98,212,91041,1,0,0:0:0:0:
96,204,91126,1,2,0:0:0:0:
95,195,91211,5,0,0:0:0:0:
304,309,91382,1,2,0:0:0:0:
65,343,91552,5,10,0:0:0:0:
253,216,91723,1,0,0:0:0:0:
43,127,91893,5,0,3:0:0:0:
185,296,92064,2,0,B|243:326|243:326|322:303,1,128.799996069336,2|8,0:0|0:0,0:0:0:0:
418,175,92405,1,2,0:0:0:0:
488,340,92575,5,0,3:0:0:0:
257,151,92745,1,2,0:0:0:0:
257,151,92831,1,0,0:0:0:0:
257,151,92916,2,0,L|252:231,1,64.399998034668,8|0,0:0|0:0,0:0:0:0:
244,357,93086,1,2,0:0:0:0:
376,207,93257,5,0,3:0:0:0:
149,133,93427,1,2,0:0:0:0:
395,208,93598,1,10,0:0:0:0:
168,308,93768,1,0,0:0:0:0:
169,320,93853,1,2,0:0:0:0:
170,332,93939,5,0,0:0:0:0:
151,160,94109,1,2,3:2:0:0:
271,304,94280,5,10,0:0:0:0:
263,197,94450,1,0,0:0:0:0:
71,278,94620,5,0,3:0:0:0:
361,177,94791,2,0,L|376:324,1,128.799996069336,2|8,0:0|0:0,0:0:0:0:
462,142,95132,1,2,0:0:0:0:
379,343,95302,5,0,3:0:0:0:
179,232,95473,2,0,P|236:190|241:137,1,128.799996069336,2|8,0:0|0:0,0:0:0:0:
200,73,95728,1,0,0:0:0:0:
182,65,95814,1,2,0:0:0:0:
341,235,95984,5,0,3:0:0:0:
157,151,96155,1,2,0:0:0:0:
370,54,96325,1,10,0:0:0:0:
277,153,96495,1,0,0:0:0:0:
288,154,96580,1,2,0:0:0:0:
300,155,96666,6,0,L|225:165,1,64.399998034668,0|0,0:0|0:0,0:0:0:0:
54,235,96836,2,0,L|129:245,1,64.399998034668,2|0,3:2|0:0,0:0:0:0:
207,352,97007,6,0,P|215:322|211:280,1,64.399998034668,10|0,0:0|0:0,0:0:0:0:
153,108,97177,1,0,0:0:0:0:
399,207,97348,5,2,3:2:0:0:
399,207,97518,1,0,0:0:0:0:
207,352,97689,2,0,P|215:301|198:241,1,110.399996630859,10|0,0:0|0:0,0:0:0:0:
88,129,98030,5,2,3:2:0:0:
88,129,98200,1,0,0:0:0:0:
313,251,98370,2,0,P|305:191|347:121,1,128.799996069336,10|0,0:0|0:0,0:0:0:0:
123,250,98711,5,2,3:2:0:0:
399,207,98882,1,2,0:0:0:0:
190,62,99052,5,10,0:0:0:0:
233,338,99223,1,2,0:0:0:0:
321,179,99393,5,0,3:0:0:0:
321,179,99478,2,0,B|280:156|280:156|221:172,1,92,10|0,0:0|0:0,0:0:0:0:
222,297,99734,6,0,P|249:276|268:240,1,69.0000026321412,8|0,0:0|0:0,0:0:0:0:
380,111,99905,2,0,P|402:136|414:175,1,69.0000026321412,8|0,0:0|0:0,0:0:0:0:
476,317,100075,5,4,3:1:0:0:
297,181,100245,1,2,0:0:0:0:
309,180,100330,1,0,0:0:0:0:
321,179,100416,1,8,0:0:0:0:
204,340,100586,1,2,0:0:0:0:
126,154,100757,5,0,3:0:0:0:
316,335,100927,1,2,0:0:0:0:
308,340,101012,1,0,0:0:0:0:
300,345,101098,2,0,P|284:317|285:275,1,64.399998034668,8|0,0:0|0:0,0:0:0:0:
335,91,101268,1,2,0:0:0:0:
457,233,101439,5,0,3:0:0:0:
257,206,101609,1,2,0:0:0:0:
470,242,101780,5,10,0:0:0:0:
270,215,101950,2,0,L|283:131,1,64.399998034668,0|2,0:0|0:0,0:0:0:0:
297,40,102120,5,0,0:0:0:0:
97,67,102290,1,2,3:2:0:0:
271,64,102461,5,10,0:0:0:0:
126,83,102631,1,0,3:0:0:0:
257,206,102802,5,0,3:0:0:0:
100,326,102973,1,2,0:0:0:0:
100,326,103058,1,0,0:0:0:0:
100,326,103143,2,0,L|109:254,1,64.399998034668,8|0,0:0|0:0,0:0:0:0:
34,110,103314,1,2,0:0:0:0:
220,303,103484,5,0,3:0:0:0:
66,203,103655,1,2,0:0:0:0:
63,194,103740,1,0,0:0:0:0:
60,185,103825,2,0,P|88:171|130:174,1,64.399998034668,8|0,0:0|0:0,0:0:0:0:
218,67,103995,2,0,P|246:81|264:107,1,64.399998034668,2|0,0:0|0:0,0:0:0:0:
373,207,104166,5,0,3:0:0:0:
169,266,104336,1,2,0:0:0:0:
348,360,104507,1,10,0:0:0:0:
271,262,104677,6,0,L|263:342,2,64.399998034668,0|2|0,3:0|0:0|0:0,0:0:0:0:
287,31,105018,1,2,3:2:0:0:
286,43,105103,1,0,0:0:0:0:
286,55,105189,1,10,0:0:0:0:
277,182,105359,1,0,1:0:0:0:
277,170,105445,1,0,1:0:0:0:
278,158,105530,5,4,1:0:0:0:
440,296,105700,2,0,P|382:258|313:303,2,128.799996069336,2|8|2,0:0|0:0|0:0,0:0:0:0:
401,170,106211,5,0,3:0:0:0:
265,326,106382,2,0,P|207:363|138:318,1,128.799996069336,2|8,0:0|0:0,0:0:0:0:
93,109,106723,1,2,0:0:0:0:
70,237,106893,6,0,P|136:218|214:216,1,128.799996069336,2|0,1:2|0:0,0:0:0:0:
297,227,107149,1,0,0:0:0:0:
323,233,107234,1,8,0:0:0:0:
229,344,107405,2,0,L|222:276,1,64.399998034668,2|0,0:0|0:0,0:0:0:0:
207,116,107575,1,0,0:0:0:0:
376,168,107745,5,2,0:0:0:0:
401,200,107830,1,0,0:0:0:0:
407,240,107915,1,10,0:0:0:0:
393,279,108000,1,2,0:0:0:0:
362,306,108085,1,0,0:0:0:0:
126,268,108257,5,0,1:0:0:0:
323,233,108427,1,2,0:2:0:0:
165,167,108598,1,10,0:2:0:0:
286,123,108768,1,2,0:2:0:0:
207,69,108939,5,0,1:0:0:0:
251,309,109109,1,2,0:2:0:0:
295,29,109280,1,8,0:2:0:0:
60,187,109450,1,2,0:2:0:0:
291,228,109620,5,2,1:2:0:0:
322,251,109706,1,0,1:0:0:0:
333,287,109791,1,2,1:2:0:0:
345,318,109876,1,0,1:0:0:0:
373,338,109961,1,8,1:2:0:0:
406,341,110046,1,0,1:0:0:0:
437,326,110131,1,2,1:2:0:0:
455,297,110217,1,0,1:0:0:0:
455,263,110302,5,0,1:0:0:0:
437,234,110387,1,0,1:0:0:0:
407,219,110472,1,2,1:2:0:0:
368,223,110558,1,0,1:0:0:0:
322,251,110643,6,0,L|319:285,1,27.5999991577149,8|0,1:2|0:0,0:0:0:0:
300,254,110728,2,0,L|297:288,1,27.5999991577149,0|0,1:0|0:0,0:0:0:0:
276,258,110814,2,0,L|273:292,1,27.5999991577149,0|0,1:0|0:0,0:0:0:0:
254,261,110899,2,0,L|251:295,1,27.5999991577149,0|0,1:0|0:0,0:0:0:0:
209,266,110984,6,0,L|105:247,1,101.200003088379,4|0,1:0|0:0,0:0:0:0:
250,133,111325,2,0,B|333:119|333:119|311:158,1,101.200003088379,8|0,0:0|0:0,0:0:0:0:
287,213,111581,1,0,0:0:0:0:
280,225,111666,1,0,3:0:0:0:
136,132,111836,2,0,P|137:110|151:76,1,50.6000015441895,0|0,0:0|0:0,0:0:0:0:
131,63,112007,2,0,P|148:50|183:39,1,50.6000015441895,8|0,0:0|0:0,0:0:0:0:
181,16,112177,2,0,P|201:21|232:40,1,50.6000015441895,0|0,0:0|0:0,0:0:0:0:
384,76,112348,6,0,B|410:122|410:122|390:193,1,101.200003088379,0|0,3:0|0:0,0:0:0:0:
361,349,112689,2,0,B|335:303|335:303|355:232,1,101.200003088379,8|0,0:0|0:0,0:0:0:0:
439,290,112944,1,0,0:0:0:0:
439,290,113030,1,0,3:0:0:0:
229,337,113200,1,2,0:0:0:0:
290,167,113370,1,10,0:0:0:0:
361,349,113541,1,0,0:0:0:0:
287,151,113711,6,0,B|272:119|293:74|293:74|332:95,1,101.200003088379,0|0,3:0|0:0,0:0:0:0:
421,281,114052,2,0,B|439:291|439:291|460:246|445:214,1,101.200003088379,8|0,0:0|0:0,0:0:0:0:
382,151,114308,1,0,0:0:0:0:
382,151,114393,1,0,3:0:0:0:
312,295,114564,2,0,L|246:292,1,50.6000015441895,0|0,0:0|0:0,0:0:0:0:
194,186,114734,2,0,L|143:188,1,50.6000015441895,8|0,0:0|0:0,0:0:0:0:
116,332,114905,2,0,L|50:329,1,50.6000015441895,0|0,0:0|0:0,0:0:0:0:
42,194,115075,6,0,L|161:187,1,101.200003088379,0|0,3:0|0:0,0:0:0:0:
359,90,115416,2,0,P|311:50|262:67,1,101.200003088379,8|0,0:0|0:0,0:0:0:0:
225,128,115672,1,0,0:0:0:0:
225,128,115757,1,0,3:0:0:0:
83,54,115927,1,2,0:0:0:0:
134,322,116098,2,0,L|139:258,1,50.6000015441895,10|0,0:0|0:0,0:0:0:0:
248,206,116268,2,0,L|244:256,1,50.6000015441895,0|0,0:0|0:0,0:0:0:0:
115,336,116439,6,0,L|123:228,1,101.200003088379,0|0,3:0|0:0,0:0:0:0:
439,292,116780,2,0,B|421:276|421:276|396:289|367:285|367:285|351:300,1,101.200003088379,8|0,0:0|0:0,0:0:0:0:
382,206,117035,1,0,0:0:0:0:
382,206,117120,1,0,3:0:0:0:
237,335,117291,1,0,0:0:0:0:
79,156,117461,2,0,P|104:146|134:143,1,50.6000015441895,8|0,0:0|0:0,0:0:0:0:
182,61,117632,2,0,P|201:79|217:105,1,50.6000015441895,0|0,0:0|0:0,0:0:0:0:
258,230,117802,6,0,L|262:176,1,50.6000015441895,0|0,3:0|0:0,0:0:0:0:
291,89,117973,2,0,L|295:143,1,50.6000015441895,2|0,0:0|0:0,0:0:0:0:
336,254,118143,2,0,L|340:200,1,50.6000015441895,8|0,0:0|0:0,0:0:0:0:
369,113,118314,2,0,L|373:167,1,50.6000015441895,2|0,0:0|0:0,0:0:0:0:
482,304,118484,6,0,L|478:250,1,50.6000015441895,0|0,3:0|0:0,0:0:0:0:
449,163,118655,2,0,L|445:217,1,50.6000015441895,2|0,0:0|0:0,0:0:0:0:
372,344,118825,2,0,L|368:290,1,50.6000015441895,10|0,0:0|0:0,0:0:0:0:
339,203,118996,2,0,L|335:257,1,50.6000015441895,0|0,0:0|0:0,0:0:0:0:
273,323,119166,6,0,B|259:335|259:335|146:320,1,101.200003088379,0|0,3:0|0:0,0:0:0:0:
38,187,119507,2,0,B|52:199|52:199|165:184,1,101.200003088379,8|0,0:0|0:0,0:0:0:0:
239,173,119762,1,0,0:0:0:0:
239,173,119847,1,0,3:0:0:0:
90,294,120018,1,0,0:0:0:0:
254,169,120189,1,8,0:0:0:0:
90,71,120359,1,0,0:0:0:0:
227,256,120530,6,0,P|271:260|320:231,1,101.200003088379,0|0,3:0|0:0,0:0:0:0:
472,233,120870,2,0,P|453:192|403:164,1,101.200003088379,10|0,0:0|0:0,0:0:0:0:
297,124,121126,1,0,0:0:0:0:
297,124,121211,2,0,P|295:74|350:19,1,119.599994525147,2|0,3:2|0:0,0:0:0:0:
379,99,121467,2,0,L|443:85,2,59.7999972625734,2|8|0,0:0|0:0|0:0,0:0:0:0:
205,133,121723,1,2,3:2:0:0:
282,341,121893,6,0,B|263:292|263:292|289:229,1,101.200003088379,4|0,3:1|0:0,0:0:0:0:
205,133,122234,2,0,B|224:182|224:182|198:245,1,101.200003088379,8|0,0:0|0:0,0:0:0:0:
119,182,122490,1,0,0:0:0:0:
119,182,122575,1,0,3:0:0:0:
66,341,122745,2,0,P|86:330|117:322,1,50.6000015441895,0|0,0:0|0:0,0:0:0:0:
122,288,122916,2,0,P|144:288|175:296,1,50.6000015441895,8|0,0:0|0:0,0:0:0:0:
199,272,123086,2,0,P|218:283|242:305,1,50.6000015441895,0|0,0:0|0:0,0:0:0:0:
338,342,123257,6,0,P|382:348|441:320,1,101.200003088379,0|0,3:0|0:0,0:0:0:0:
297,115,123598,2,0,L|279:249,1,101.200003088379,8|0,0:0|0:0,0:0:0:0:
373,259,123853,2,0,L|364:189,1,50.6000015441895,0|0,0:0|3:0,0:0:0:0:
179,114,124109,1,2,0:0:0:0:
412,60,124280,1,10,0:0:0:0:
179,114,124450,1,0,0:0:0:0:
283,215,124620,6,0,L|297:115,1,101.200003088379,0|0,3:0|0:0,0:0:0:0:
177,234,124961,2,0,P|119:226|87:188,1,101.200003088379,8|0,0:0|0:0,0:0:0:0:
70,96,125217,1,0,0:0:0:0:
70,96,125302,1,0,3:0:0:0:
237,327,125473,1,0,0:0:0:0:
165,154,125643,1,8,0:0:0:0:
29,285,125814,1,0,0:0:0:0:
305,208,125984,6,0,P|363:211|418:225,1,101.200003088379,0|0,3:0|0:0,0:0:0:0:
334,346,126325,1,8,0:0:0:0:
322,118,126495,2,0,L|339:50,2,50.6000015441895,0|0|0,0:0|0:0|3:0,0:0:0:0:
184,271,126836,1,2,0:0:0:0:
404,220,127007,1,10,0:0:0:0:
177,100,127177,1,0,1:0:0:0:
177,100,127262,1,0,1:0:0:0:
177,100,127348,6,0,B|150:145|150:145|165:223,1,101.200003088379,4|0,1:0|0:0,0:0:0:0:
329,322,127689,2,0,P|288:291|218:306,1,101.200003088379,8|0,0:0|0:0,0:0:0:0:
160,359,127944,1,0,0:0:0:0:
160,359,128030,1,0,3:0:0:0:
240,164,128200,1,0,0:0:0:0:
22,216,128370,1,8,0:0:0:0:
150,262,128541,1,0,0:0:0:0:
180,95,128711,6,0,P|202:104|226:130,1,50.6000015441895,4|0,1:0|0:0,0:0:0:0:
216,96,128882,2,0,P|234:111|251:141,1,50.6000015441895,2|0,0:0|0:0,0:0:0:0:
253,108,129052,2,0,P|267:127|275:161,1,50.6000015441895,8|0,0:0|0:0,0:0:0:0:
283,128,129223,2,0,P|291:150|290:185,1,50.6000015441895,2|0,0:0|0:0,0:0:0:0:
321,262,129393,6,0,P|343:252|367:226,1,50.6000015441895,0|0,3:0|0:0,0:0:0:0:
357,261,129564,2,0,P|375:245|392:215,1,50.6000015441895,2|0,0:0|0:0,0:0:0:0:
394,249,129734,2,0,P|408:229|416:195,1,50.6000015441895,10|0,0:0|0:0,0:0:0:0:
424,229,129905,2,0,P|432:206|431:171,1,50.6000015441895,0|0,0:0|0:0,0:0:0:0:
451,50,130075,5,4,1:0:0:0:
250,132,130245,1,0,3:0:0:0:
343,76,130416,5,8,0:2:0:0:
390,292,130586,1,0,3:0:0:0:
250,132,130757,5,4,1:0:0:0:
236,286,130927,1,0,3:0:0:0:
150,127,131098,5,8,0:2:0:0:
101,230,131268,1,0,3:0:0:0:
265,217,131439,5,4,1:0:0:0:
301,250,131524,1,0,1:0:0:0:
309,299,131609,1,0,1:0:0:0:
285,342,131694,1,0,1:0:0:0:
239,361,131779,1,0,1:0:0:0:
192,347,131865,1,0,1:0:0:0:
163,306,131950,1,0,1:0:0:0:
166,257,132035,1,0,1:0:0:0:
236,286,132120,5,0,1:0:0:0:
248,284,132205,1,0,1:0:0:0:
261,283,132290,1,0,1:0:0:0:
273,282,132375,1,0,1:0:0:0:
286,281,132460,1,0,1:0:0:0:
298,279,132546,1,0,1:0:0:0:
311,278,132631,1,0,1:0:0:0:
324,277,132716,1,0,1:0:0:0:
349,274,132801,5,4,3:1:0:0:
209,284,135018,5,0,3:0:0:0:
284,251,135189,2,0,B|269:248|253:241|243:217|243:217|252:239|255:257|257:285|245:350|200:330|176:280|229:280,1,207.000007896424,8|0,0:0|0:0,0:0:0:0:
312,183,135530,5,4,3:1:0:0:
394,194,135700,2,0,L|291:180,1,82.7999974731446,0|8,0:0|0:0,0:0:0:0:
154,95,136041,1,0,0:0:0:0:
203,210,136211,1,0,3:0:0:0:
264,71,136382,1,0,0:0:0:0:
210,222,136552,1,8,0:0:0:0:
246,75,136723,1,0,0:0:0:0:
224,229,136893,5,0,3:0:0:0:
126,102,137064,2,0,L|43:108,1,82.7999974731446,2|8,0:0|0:0,0:0:0:0:
153,262,137405,2,0,B|195:269|225:229|225:229|215:278|250:309,1,165.599994946289,2|0,0:0|0:0,0:0:0:0:
153,179,137916,1,8,0:0:0:0:
316,350,138086,1,0,0:0:0:0:
383,277,138257,6,0,P|341:249|303:250,1,82.7999974731446,0|0,3:0|0:0,0:0:0:0:
227,153,138598,2,0,P|176:158|148:183,1,82.7999974731446,8|0,0:0|0:0,0:0:0:0:
97,334,138939,1,0,3:0:0:0:
97,334,139109,1,0,0:0:0:0:
309,248,139280,2,0,P|350:252|383:277,1,82.7999974731446,8|0,0:0|0:0,0:0:0:0:
176,311,139620,6,0,P|198:282|228:263,1,73.6,0|0,3:0|0:0,0:0:0:0:
171,325,139961,2,0,P|178:289|173:252,1,73.6,10|0,0:0|0:0,0:0:0:0:
173,341,140302,2,0,P|180:305|199:274,1,73.6,2|0,3:2|0:0,0:0:0:0:
180,355,140643,2,0,P|168:320|144:291,1,73.6,10|0,0:0|0:0,0:0:0:0:
65,202,140984,6,0,P|42:230|29:275,1,82.7999974731446,0|0,3:0|0:0,0:0:0:0:
163,74,141325,2,0,P|122:74|85:92,1,82.7999974731446,8|0,0:0|0:0,0:0:0:0:
261,39,141666,2,0,P|299:56|327:87,1,82.7999974731446,0|0,3:0|0:0,0:0:0:0:
417,222,142007,2,0,P|422:186|411:140,1,82.7999974731446,8|0,0:0|0:0,0:0:0:0:
261,39,142348,5,2,3:2:0:0:
244,204,142518,1,0,0:0:0:0:
258,186,142689,5,10,0:0:0:0:
241,351,142859,1,0,0:0:0:0:
410,275,143030,5,0,3:0:0:0:
418,283,143115,2,0,P|370:296|332:268,1,92,10|0,0:0|0:0,0:0:0:0:
381,141,143370,6,0,P|350:124|312:121,1,59.7999972625734,2|0,3:2|0:0,0:0:0:0:
202,75,143541,2,0,P|170:90|146:120,1,59.7999972625734,0|0,3:0|0:0,0:0:0:0:
85,233,143711,5,0,3:1:0:0:
54,139,143882,1,0,0:0:0:0:
184,266,144052,2,0,L|279:252,1,82.7999974731446,8|0,0:0|0:0,0:0:0:0:
340,141,144393,1,0,3:0:0:0:
237,346,144564,1,2,0:0:0:0:
399,259,144734,1,8,0:0:0:0:
447,326,144905,1,0,0:0:0:0:
343,339,145075,5,0,3:0:0:0:
440,165,145245,2,0,B|451:127|451:127|419:69,1,82.7999974731446,2|8,0:0|0:0,0:0:0:0:
198,164,145586,2,0,B|261:133|337:141|337:141|309:157,1,165.599994946289,2|0,0:0|0:0,0:0:0:0:
109,209,146098,1,8,0:0:0:0:
215,75,146268,1,0,0:0:0:0:
258,303,146439,6,0,P|270:255|266:209,1,82.7999974731446,0|0,3:0|0:0,0:0:0:0:
113,108,146780,1,8,0:0:0:0:
113,108,146950,1,0,0:0:0:0:
28,291,147120,1,0,3:0:0:0:
186,251,147291,1,2,0:0:0:0:
43,256,147461,1,8,0:0:0:0:
177,290,147632,1,0,0:0:0:0:
75,353,147802,5,0,3:0:0:0:
278,242,147973,2,0,B|291:260|291:260|283:345,1,82.7999974731446,2|8,0:0|0:0,0:0:0:0:
376,357,148314,2,0,B|363:339|363:339|376:190,1,165.599994946289,2|0,0:0|0:0,0:0:0:0:
375,196,148740,1,0,0:0:0:0:
375,196,148825,1,8,0:0:0:0:
161,65,148995,1,0,0:0:0:0:
152,62,149081,1,0,0:0:0:0:
142,58,149166,6,0,P|184:32|242:60,1,92,4|0,3:1|0:0,0:0:0:0:
283,204,149507,2,0,L|387:194,1,92,8|0,0:0|0:0,0:0:0:0:
439,109,149848,6,0,P|397:83|339:111,1,92,0|0,3:0|0:0,0:0:0:0:
256,291,150189,2,0,L|152:281,1,92,8|0,0:0|0:0,0:0:0:0:
70,189,150530,5,0,3:0:0:0:
70,189,150700,2,0,P|91:212|100:235,1,46,0|0,0:0|0:0,0:0:0:0:
171,354,150870,1,8,0:0:0:0:
171,354,151040,2,0,P|173:331|182:310,1,46,0|0,0:0|0:0,0:0:0:0:
281,205,151211,5,0,3:0:0:0:
363,347,151382,1,2,0:0:0:0:
367,319,151467,1,2,0:0:0:0:
371,291,151552,1,8,0:0:0:0:
451,161,151723,1,2,0:0:0:0:
454,169,151808,1,2,0:0:0:0:
457,177,151893,6,0,L|362:169,1,64.399998034668,4|0,3:1|0:0,0:0:0:0:
310,79,152064,2,0,P|288:101|275:131,1,64.399998034668,0|0,3:0|0:0,0:0:0:0:
194,190,152234,2,0,P|206:219|228:242,1,64.399998034668,0|0,3:0|0:0,0:0:0:0:
311,327,152405,2,0,L|406:319,1,64.399998034668,0|0,3:0|0:0,0:0:0:0:
465,258,152575,5,0,3:0:0:0:
469,273,152660,1,0,3:0:0:0:
352,169,152831,1,0,3:0:0:0:
356,154,152916,2,0,P|315:125|265:137,1,92,2|0,0:0|0:0,0:0:0:0:
161,273,153257,1,0,3:0:0:0:
68,62,153427,5,2,0:0:0:0:
138,39,153598,5,2,0:0:0:0:
201,91,153768,5,2,0:0:0:0:
185,182,153939,5,2,0:0:0:0:
287,141,154109,5,2,0:0:0:0:
402,173,154280,5,0,0:0:0:0:
450,292,154450,5,2,0:0:0:0:
236,349,154620,6,0,L|234:312,1,36.8,4|0,0:1|0:0,0:0:0:0:
311,289,154791,2,0,L|313:253,1,36.8,2|0,0:2|0:0,0:0:0:0:
229,185,154961,1,8,0:2:0:0:
148,300,155132,1,2,0:2:0:0:
137,299,155217,1,2,0:2:0:0:
126,298,155302,1,0,0:0:0:0:
115,297,155387,1,2,0:2:0:0:
103,296,155473,2,0,L|152:285,1,36.8,2|0,0:2|0:0,0:0:0:0:
264,193,155643,2,0,L|215:182,1,36.8,10|0,0:2|0:0,0:0:0:0:
135,162,155814,1,0,0:0:0:0:
352,326,155984,6,0,P|360:305|363:287,1,36.8,0|0,0:0|0:0,0:0:0:0:
286,77,156155,2,0,P|278:98|275:116,1,36.8,2|0,0:2|0:0,0:0:0:0:
246,282,156325,1,8,0:2:0:0:
431,187,156495,1,0,0:0:0:0:
431,187,156581,1,0,0:0:0:0:
431,187,156666,2,0,L|488:177,2,36.8,0|2|2,0:0|0:2|0:2,0:0:0:0:
196,158,157007,1,10,0:2:0:0:
352,326,157177,1,0,0:0:0:0:
316,200,157348,6,0,L|326:104,1,73.6,0|2,0:0|0:2,0:0:0:0:
335,46,157603,1,0,0:0:0:0:
337,35,157689,1,8,0:2:0:0:
176,141,157859,1,2,0:2:0:0:
176,141,157944,1,2,0:2:0:0:
176,141,158030,1,0,0:0:0:0:
176,141,158115,1,2,0:2:0:0:
176,141,158200,2,0,L|213:143,1,36.8,2|0,0:2|0:0,0:0:0:0:
432,224,158370,2,0,L|395:226,1,36.8,10|0,0:2|0:0,0:0:0:0:
219,343,158541,1,0,0:0:0:0:
382,111,158711,5,0,0:0:0:0:
174,258,158882,1,2,0:2:0:0:
422,356,159052,1,8,0:2:0:0:
318,187,159223,1,0,0:0:0:0:
313,196,159308,1,0,0:0:0:0:
309,206,159393,1,0,0:0:0:0:
308,217,159478,1,2,0:2:0:0:
310,227,159564,1,2,0:2:0:0:
181,124,159734,1,8,0:2:0:0:
395,225,159905,1,2,0:2:0:0:
211,313,160075,5,0,0:0:0:0:
267,137,160245,2,0,P|266:100|245:65,1,73.6,2|8,0:2|0:2,0:0:0:0:
99,215,160586,1,2,0:2:0:0:
94,220,160672,1,0,0:0:0:0:
89,225,160757,2,0,L|178:220,1,73.6,2|0,0:2|0:0,0:0:0:0:
260,216,161012,1,0,0:0:0:0:
260,216,161098,1,10,0:2:0:0:
130,126,161268,1,2,0:2:0:0:
238,331,161439,5,0,0:0:0:0:
346,167,161609,2,0,L|354:224,1,36.8,2|0,0:2|0:0,0:0:0:0:
446,270,161780,2,0,L|451:233,1,36.8,10|0,0:2|0:0,0:0:0:0:
387,93,161950,1,0,0:0:0:0:
352,81,162035,1,0,0:0:0:0:
316,85,162120,1,2,0:2:0:0:
285,106,162205,1,0,0:0:0:0:
267,137,162290,1,0,0:0:0:0:
390,338,162461,1,10,0:2:0:0:
346,167,162632,1,2,0:2:0:0:
210,290,162802,6,0,L|134:283,2,73.6,0|0|8,0:0|0:0|0:2,0:0:0:0:
126,282,163314,5,2,0:2:0:0:
116,281,163399,1,2,0:2:0:0:
107,280,163484,1,0,0:0:0:0:
98,279,163569,1,2,0:2:0:0:
89,278,163654,1,2,0:2:0:0:
325,298,163825,1,10,0:2:0:0:
177,71,163995,1,0,0:0:0:0:
301,173,164166,6,0,L|377:166,2,73.6,0|0|8,0:0|0:0|0:2,0:0:0:0:
385,165,164678,5,2,0:2:0:0:
395,164,164763,1,2,0:2:0:0:
404,163,164848,1,0,0:0:0:0:
413,162,164933,1,2,0:2:0:0:
422,161,165018,1,2,0:2:0:0:
179,182,165189,1,10,0:2:0:0:
398,24,165359,1,0,0:0:0:0:
329,269,165530,6,0,L|246:262,1,73.6,4|2,0:1|0:2,0:0:0:0:
50,322,165870,2,0,L|133:315,1,73.6,8|2,0:2|0:2,0:0:0:0:
157,306,166126,1,2,0:2:0:0:
157,317,166211,1,0,0:0:0:0:
156,328,166297,1,2,0:2:0:0:
155,339,166382,1,2,0:2:0:0:
100,114,166552,1,10,0:2:0:0:
255,262,166723,1,0,0:0:0:0:
54,205,166893,5,0,0:0:0:0:
299,141,167064,2,0,L|231:131,1,36.8,2|0,0:2|0:0,0:0:0:0:
183,124,167234,1,8,0:2:0:0:
242,340,167405,1,0,0:0:0:0:
278,340,167490,1,0,0:0:0:0:
310,323,167575,1,0,0:0:0:0:
331,293,167660,1,2,0:2:0:0:
334,257,167745,2,0,L|331:221,1,36.8,2|0,0:2|0:0,0:0:0:0:
186,87,167916,2,0,L|182:123,1,36.8,10|0,0:2|0:0,0:0:0:0:
125,256,168086,1,0,0:0:0:0:
302,125,168257,6,0,P|347:123|398:150,1,73.6,0|2,0:0|0:2,0:0:0:0:
252,217,168598,1,8,0:2:0:0:
396,52,168768,1,2,0:2:0:0:
396,52,168853,1,2,0:2:0:0:
396,52,168939,2,0,L|392:14,2,36.8,0|2|2,0:0|0:2|0:2,0:0:0:0:
430,258,169280,1,10,0:2:0:0:
246,120,169450,1,0,0:0:0:0:
406,168,169620,6,0,L|303:164,1,73.6,0|2,0:0|0:2,0:0:0:0:
140,234,169961,1,8,0:2:0:0:
206,68,170132,1,0,0:0:0:0:
199,81,170217,1,0,0:0:0:0:
197,95,170302,1,0,0:0:0:0:
201,108,170387,1,2,0:2:0:0:
209,120,170473,2,0,L|253:119,1,36.8,2|0,0:2|0:0,0:0:0:0:
403,208,170643,2,0,L|359:207,1,36.8,10|0,0:2|0:0,0:0:0:0:
227,279,170814,1,0,0:0:0:0:
378,366,170984,6,0,P|392:322|381:278,1,92,4|0,1:0|0:0,0:0:0:0:
404,172,171325,2,0,P|373:136|322:124,1,101.200003088379,4|0,1:0|0:0,0:0:0:0:
250,54,171666,2,0,P|200:60|159:108,1,110.399996630859,4|0,1:0|0:0,0:0:0:0:
69,126,172007,2,0,P|47:177|76:246,1,119.599994525147,4|0,1:0|0:0,0:0:0:0:
117,344,172348,1,0,3:0:0:0:
117,344,172689,5,0,3:0:0:0:
69,126,172859,1,2,0:0:0:0:
65,235,173030,5,0,3:0:0:0:
250,54,173200,1,2,0:0:0:0:
160,102,173370,5,2,3:2:0:0:
404,172,173541,1,0,0:0:0:0:
210,278,173711,5,2,2:0:0:0:
213,250,173882,1,0,3:0:0:0:
216,222,174052,1,0,3:0:0:0:
296,305,174223,5,2,2:0:0:0:
299,277,174394,1,0,3:0:0:0:
302,249,174564,1,0,3:0:0:0:
381,332,174734,5,2,2:0:0:0:
384,304,174905,1,0,3:0:0:0:
387,276,175075,5,2,1:2:0:0:
385,266,175160,1,0,1:0:0:0:
383,256,175245,1,0,1:0:0:0:
381,246,175331,1,0,1:0:0:0:
355,215,175416,5,0,1:0:0:0:
386,211,175501,1,0,1:0:0:0:
417,208,175586,1,0,1:0:0:0:
449,205,175672,1,0,1:0:0:0:
480,201,175757,5,0,1:0:0:0:
434,194,175842,1,0,1:0:0:0:
388,187,175927,1,0,1:0:0:0:
342,181,176012,1,0,1:0:0:0:
295,174,176098,6,0,L|258:168,6,23,2|2|2|2|2|2|2,1:2|0:0|0:0|0:0|0:0|0:0|0:0,0:0:0:0:
188,153,176439,5,4,3:1:0:0:
267,339,176609,1,2,0:0:0:0:
276,333,176694,1,0,0:0:0:0:
285,327,176780,2,0,P|253:311|219:311,1,64.399998034668,8|0,0:0|0:0,0:0:0:0:
68,350,176950,1,2,0:0:0:0:
254,217,177120,5,0,3:0:0:0:
64,95,177291,1,2,0:0:0:0:
64,95,177376,1,0,0:0:0:0:
64,95,177461,2,0,L|69:167,1,64.399998034668,8|0,0:0|0:0,0:0:0:0:
153,260,177632,2,0,L|159:193,1,64.399998034668,2|0,0:0|0:0,0:0:0:0:
247,95,177802,5,0,3:0:0:0:
55,233,177973,1,2,0:0:0:0:
301,343,178143,1,10,0:0:0:0:
233,220,178314,1,0,0:0:0:0:
231,228,178399,1,2,0:0:0:0:
230,237,178484,5,0,0:0:0:0:
377,165,178655,6,0,P|386:129|375:97,1,64.399998034668,2|0,3:2|0:0,0:0:0:0:
495,269,178825,2,0,P|481:297|455:316,1,64.399998034668,10|0,0:0|0:0,0:0:0:0:
301,343,178995,2,0,P|270:334|247:312,1,64.399998034668,0|0,0:0|0:0,0:0:0:0:
168,149,179166,5,0,3:0:0:0:
80,334,179336,2,0,B|44:293|69:245|69:245|116:231,1,128.799996069336,2|8,0:0|0:0,0:0:0:0:
313,259,179677,1,2,0:0:0:0:
154,304,179848,5,0,3:0:0:0:
318,174,180018,1,2,0:0:0:0:
368,193,180103,1,0,0:0:0:0:
397,239,180188,1,8,0:0:0:0:
392,293,180273,1,0,0:0:0:0:
355,332,180358,1,2,0:0:0:0:
470,128,180530,5,0,3:0:0:0:
313,259,180700,1,2,0:0:0:0:
205,75,180870,1,10,0:0:0:0:
318,174,181041,2,0,L|392:164,2,64.399998034668,0|2|0,0:0|0:0|0:0,0:0:0:0:
140,124,181382,6,0,P|155:152|160:183,1,64.399998034668,2|0,3:2|0:0,0:0:0:0:
100,324,181552,2,0,P|125:304|155:293,1,64.399998034668,10|0,0:0|0:0,0:0:0:0:
253,237,181723,2,0,P|284:243|312:258,1,64.399998034668,0|0,0:0|0:0,0:0:0:0:
402,353,181893,5,0,3:0:0:0:
497,210,182064,2,0,B|366:184,1,128.799996069336,2|8,0:0|0:0,0:0:0:0:
161,142,182405,1,2,0:0:0:0:
264,329,182575,5,0,3:0:0:0:
251,163,182745,2,0,L|239:34,1,128.799996069336,2|8,0:0|0:0,0:0:0:0:
61,140,183086,1,2,0:0:0:0:
195,281,183257,6,0,P|246:244|308:256,1,128.799996069336,0|2,3:0|0:0,0:0:0:0:
380,309,183512,1,0,0:0:0:0:
394,327,183598,1,10,0:0:0:0:
471,193,183768,1,0,0:0:0:0:
264,329,183939,5,2,0:0:0:0:
166,141,184109,2,0,P|197:132|229:131,1,64.399998034668,0|2,0:0|0:0,0:0:0:0:
376,226,184280,2,0,P|344:217|312:216,1,64.399998034668,8|0,0:0|0:0,0:0:0:0:
195,281,184450,1,2,0:0:0:0:
328,122,184620,5,2,3:2:0:0:
328,122,184791,1,0,0:0:0:0:
360,343,184961,2,0,B|385:318|385:318|372:191,1,128.799996069336,10|0,0:0|0:0,0:0:0:0:
203,56,185302,5,2,3:2:0:0:
203,56,185473,1,0,0:0:0:0:
171,277,185643,2,0,B|146:252|146:252|159:125,1,128.799996069336,10|0,0:0|0:0,0:0:0:0:
275,328,185984,5,2,3:2:0:0:
44,204,186155,1,2,0:0:0:0:
291,130,186325,5,10,0:0:0:0:
167,361,186496,1,2,0:0:0:0:
129,197,186666,5,0,3:0:0:0:
129,197,186751,2,0,B|238:189,1,92,10|0,0:0|0:0,0:0:0:0:
355,73,187007,6,0,P|370:103|374:137,1,69.0000026321412,8|0,0:0|0:0,0:0:0:0:
426,284,187177,2,0,P|441:253|445:219,1,69.0000026321412,8|0,0:0|0:0,0:0:0:0:
489,103,187348,5,4,3:1:0:0:
315,241,187518,2,0,P|256:200|194:216,1,128.799996069336,2|8,0:0|0:0,0:0:0:0:
135,71,187859,1,2,0:0:0:0:
243,284,188030,5,0,3:0:0:0:
290,97,188200,1,2,0:0:0:0:
302,96,188285,1,0,0:0:0:0:
314,95,188371,1,8,0:0:0:0:
66,150,188541,1,2,0:0:0:0:
248,203,188711,5,0,3:0:0:0:
271,22,188882,1,2,0:0:0:0:
262,217,189052,5,10,0:0:0:0:
285,36,189223,2,0,L|365:46,1,64.399998034668,0|2,0:0|0:0,0:0:0:0:
475,60,189393,5,0,0:0:0:0:
452,241,189564,1,2,3:2:0:0:
503,83,189734,5,10,0:0:0:0:
484,229,189905,1,0,0:0:0:0:
359,138,190075,5,0,3:0:0:0:
486,157,190245,2,0,L|358:137,1,128.799996069336,2|8,0:0|0:0,0:0:0:0:
183,182,190586,1,2,0:0:0:0:
346,295,190757,5,0,3:0:0:0:
250,93,190927,1,2,0:0:0:0:
260,88,191012,1,0,0:0:0:0:
271,84,191098,2,0,P|289:120|284:155,1,64.399998034668,8|0,0:0|0:0,0:0:0:0:
221,257,191268,2,0,P|191:268|159:263,1,64.399998034668,2|0,0:0|0:0,0:0:0:0:
50,196,191439,5,0,3:0:0:0:
164,355,191609,1,2,0:0:0:0:
209,141,191780,1,10,0:0:0:0:
52,275,191950,5,0,0:0:0:0:
40,277,192036,1,2,0:0:0:0:
28,279,192121,1,0,0:0:0:0:
256,346,192291,1,2,3:2:0:0:
264,355,192377,1,0,0:0:0:0:
271,364,192462,1,10,0:0:0:0:
232,140,192631,1,0,1:0:0:0:
236,128,192717,1,0,1:0:0:0:
240,117,192802,5,4,1:0:0:0:
141,231,192973,2,0,B|123:234|123:234|93:191|102:103,2,128.799996069336,2|8|2,0:0|0:0|0:0,0:0:0:0:
320,97,193484,5,0,3:0:0:0:
374,304,193655,2,0,B|392:307|392:307|422:264|413:176,1,128.799996069336,2|8,0:0|0:0,0:0:0:0:
209,348,193995,1,2,0:0:0:0:
305,217,194166,6,0,P|242:195|158:196,1,128.799996069336,4|2,1:0|0:0,0:0:0:0:
91,218,194422,1,0,0:0:0:0:
70,228,194507,1,8,0:0:0:0:
250,103,194677,1,0,0:0:0:0:
187,332,194848,6,0,L|181:264,1,64.399998034668,0|0,3:0|0:0,0:0:0:0:
116,73,195018,1,2,0:0:0:0:
116,73,195103,1,0,0:0:0:0:
116,73,195189,2,0,L|110:141,1,64.399998034668,10|0,0:0|0:0,0:0:0:0:
53,248,195359,1,0,0:0:0:0:
329,199,195530,5,2,1:2:0:0:
111,320,195700,1,2,0:2:0:0:
367,359,195870,5,10,0:2:0:0:
149,238,196040,1,2,0:2:0:0:
351,103,196211,5,0,1:0:0:0:
205,351,196382,1,2,0:2:0:0:
141,65,196552,5,8,0:0:0:0:
287,313,196723,1,2,0:2:0:0:
249,155,196893,5,2,1:2:0:0:
257,152,196978,1,0,1:0:0:0:
267,152,197063,1,2,1:2:0:0:
276,153,197148,1,0,1:0:0:0:
284,156,197233,1,2,1:2:0:0:
293,160,197319,1,0,1:0:0:0:
300,165,197404,1,2,1:2:0:0:
306,172,197489,1,0,1:0:0:0:
313,195,197575,5,0,1:0:0:0:
280,226,197660,1,0,1:0:0:0:
236,239,197745,1,2,1:2:0:0:
191,229,197831,1,0,1:0:0:0:
162,195,197916,6,0,L|175:167,1,27.5999991577149,2|0,1:2|0:0,0:0:0:0:
132,161,198002,2,0,L|131:130,1,27.5999991577149,0|0,1:0|0:0,0:0:0:0:
88,152,198087,2,0,L|73:124,1,27.5999991577149,0|0,1:0|0:0,0:0:0:0:
44,166,198172,2,0,L|19:147,1,27.5999991577149,0|0,1:0|0:0,0:0:0:0:
15,213,198257,6,0,L|1:326,1,101.200003088379,4|0,3:1|0:0,0:0:0:0:
232,147,198598,2,0,L|219:46,1,101.200003088379,8|0,0:0|0:0,0:0:0:0:
219,46,198853,1,0,0:0:0:0:
219,46,198938,1,0,3:0:0:0:
137,269,199109,2,0,P|152:284|186:299,1,50.6000015441895,0|0,0:0|0:0,0:0:0:0:
180,322,199280,2,0,P|201:319|234:304,1,50.6000015441895,8|0,0:0|0:0,0:0:0:0:
249,323,199450,2,0,P|260:305|269:270,1,50.6000015441895,0|0,0:0|0:0,0:0:0:0:
319,189,199620,5,0,3:0:0:0:
137,76,199791,1,0,0:0:0:0:
361,125,199961,2,0,P|307:110|258:145,1,101.200003088379,8|0,0:0|0:0,0:0:0:0:
205,225,200217,1,0,0:0:0:0:
205,225,200302,1,0,3:0:0:0:
305,26,200473,1,2,0:0:0:0:
429,281,200643,1,10,0:0:0:0:
319,189,200814,1,0,0:0:0:0:
203,323,200984,6,0,B|193:302|193:302|207:206,1,101.200003088379,0|0,3:0|0:0,0:0:0:0:
394,133,201325,2,0,P|342:96|300:98,1,101.200003088379,8|0,0:0|0:0,0:0:0:0:
191,145,201581,1,0,0:0:0:0:
191,145,201666,1,0,3:0:0:0:
400,287,201836,2,0,L|392:350,1,50.6000015441895,0|0,0:0|0:0,0:0:0:0:
316,345,202007,2,0,L|323:295,1,50.6000015441895,8|0,0:0|0:0,0:0:0:0:
245,306,202177,2,0,L|237:369,1,50.6000015441895,0|0,0:0|0:0,0:0:0:0:
92,324,202348,6,0,L|107:204,1,101.200003088379,0|0,3:0|0:0,0:0:0:0:
131,34,202689,1,8,0:0:0:0:
117,128,202859,2,0,L|38:136,2,50.6000015441895,0|0|0,3:0|0:0|3:0,0:0:0:0:
365,102,203200,1,2,0:0:0:0:
245,45,203370,2,0,P|234:68|230:93,1,50.6000015441895,10|0,0:0|0:0,0:0:0:0:
184,194,203541,2,0,P|194:216|210:236,1,50.6000015441895,0|0,3:0|0:0,0:0:0:0:
308,310,203711,6,0,L|441:302,1,101.200003088379,0|0,3:0|0:0,0:0:0:0:
268,177,204052,1,8,0:0:0:0:
152,349,204223,1,0,0:0:0:0:
149,339,204308,1,0,0:0:0:0:
146,329,204393,1,0,3:0:0:0:
282,159,204564,1,0,0:0:0:0:
55,118,204734,1,8,0:0:0:0:
143,320,204905,1,0,0:0:0:0:
192,68,205075,6,0,L|248:63,1,50.6000015441895,0|0,3:0|0:0,0:0:0:0:
388,155,205245,2,0,L|332:150,1,50.6000015441895,2|0,0:0|0:0,0:0:0:0:
279,179,205416,2,0,L|335:174,1,50.6000015441895,8|0,0:0|0:0,0:0:0:0:
406,32,205586,2,0,L|350:27,1,50.6000015441895,2|0,0:0|0:0,0:0:0:0:
250,261,205757,6,0,L|306:266,1,50.6000015441895,0|0,3:0|0:0,0:0:0:0:
467,212,205927,2,0,L|411:217,1,50.6000015441895,2|0,0:0|0:0,0:0:0:0:
279,179,206098,2,0,L|329:183,1,50.6000015441895,10|0,0:0|0:0,0:0:0:0:
452,297,206268,2,0,L|401:301,1,50.6000015441895,0|0,0:0|0:0,0:0:0:0:
187,317,206439,6,0,P|162:260|196:202,1,101.200003088379,0|0,3:0|0:0,0:0:0:0:
337,150,206780,2,0,P|300:200|232:199,1,101.200003088379,8|0,0:0|0:0,0:0:0:0:
175,120,207035,1,0,0:0:0:0:
175,120,207120,1,0,3:0:0:0:
98,318,207291,1,0,0:0:0:0:
264,208,207461,1,8,0:0:0:0:
65,153,207632,1,0,0:0:0:0:
245,337,207802,6,0,P|292:310|343:318,1,101.200003088379,0|0,3:0|0:0,0:0:0:0:
472,275,208143,2,0,P|425:247|406:199,1,101.200003088379,10|0,0:0|0:0,0:0:0:0:
307,107,208399,1,0,0:0:0:0:
307,107,208484,2,0,P|306:161|253:208,1,119.599994525147,2|0,3:2|0:0,0:0:0:0:
147,227,208740,2,0,L|82:222,2,59.7999972625734,2|8|0,0:0|0:0|0:0,0:0:0:0:
318,313,208995,1,2,0:0:0:0:
235,363,209166,6,0,B|209:300|209:300|251:234,1,138,4|0,3:1|0:0,0:0:0:0:
346,132,209507,6,0,B|276:105|230:162|230:162|258:152|282:168,1,165.599994946289,2|0,0:0|0:0,0:0:0:0:
400,309,209762,2,0,B|447:379|524:316|501:284|501:284|448:332,1,165.599994946289,2|0,0:0|0:0,0:0:0:0:
379,225,210018,6,0,P|334:250|315:300,1,82.7999974731446,2|0,0:0|0:0,0:0:0:0:
235,363,210189,2,0,P|223:323|193:294,1,82.7999974731446,2|0,0:0|0:0,0:0:0:0:
68,235,210359,1,2,0:0:0:0:
196,170,210530,6,0,B|97:156|97:156|122:161|148:201,1,138,4|0,3:1|0:0,0:0:0:0:
271,265,210870,6,0,B|313:224|363:242|363:242|386:267|367:287|367:287|331:271,1,165.599994946289,2|0,0:0|0:0,0:0:0:0:
328,155,211126,2,0,B|367:148|410:167|410:167|449:201|455:244,1,165.599994946289,2|0,0:0|0:0,0:0:0:0:
355,360,211382,6,0,B|347:351|347:351|354:278,1,82.7999974731446,2|0,0:0|0:0,0:0:0:0:
234,98,211552,2,0,B|226:107|226:107|233:180,1,82.7999974731446,2|0,0:0|0:0,0:0:0:0:
169,341,211723,1,2,0:0:0:0:
115,226,211893,6,0,P|200:223|234:258,1,138,4|0,3:1|0:0,0:0:0:0:
335,325,212234,6,0,B|327:344|327:344|299:297|311:240|356:215,1,165.599994946289,2|0,0:0|0:0,0:0:0:0:
449,164,212490,2,0,B|447:181|436:186|436:186|425:146|376:109|319:138,1,165.599994946289,2|0,0:0|0:0,0:0:0:0:
233,257,212745,6,0,P|253:221|241:178,1,82.7999974731446,2|0,0:0|0:0,0:0:0:0:
98,73,212916,2,0,P|127:100|168:100,1,82.7999974731446,2|0,0:0|0:0,0:0:0:0:
342,33,213086,1,2,0:0:0:0:
412,240,213257,6,0,B|431:267|431:267|451:151,1,138,4|0,3:1|0:0,0:0:0:0:
333,124,213598,6,0,B|271:112|253:54|253:54|253:104|210:135,1,165.599994946289,2|0,0:0|0:0,0:0:0:0:
156,223,213853,2,0,B|193:174|269:189|269:189|239:251,1,165.599994946289,2|0,0:0|0:0,0:0:0:0:
317,321,214109,6,0,P|275:341|227:336,1,82.7999974731446,2|0,0:0|0:0,0:0:0:0:
84,162,214280,2,0,P|65:198|65:239,1,82.7999974731446,2|0,0:0|0:0,0:0:0:0:
33,345,214450,1,2,0:0:0:0:
251,225,214620,5,4,1:0:0:0:
256,192,214706,12,0,215643,0:0:0:0:
256,192,215814,12,0,216666,0:0:0:0:
256,192,216836,12,0,218711,0:0:0:0:
322,99,219393,6,0,P|339:134|337:169,3,69.0000026321412,2|2|2|2,3:2|3:2|3:2|3:2,0:0:0:0:
261,252,219734,2,0,L|222:250,1,34.5000013160706,8|0,3:0|0:0,0:0:0:0:
226,250,220075,6,0,L|327:241,1,101.200003088379,0|0,0:0|0:0,0:0:0:0:
465,352,220416,2,0,B|448:359|448:359|360:348,1,101.200003088379,8|0,0:0|0:0,0:0:0:0:
274,335,220672,1,0,0:0:0:0:
274,335,220757,1,0,3:0:0:0:
423,229,220927,2,0,L|417:167,1,50.6000015441895,0|0,0:0|0:0,0:0:0:0:
428,144,221098,2,0,L|372:116,1,50.6000015441895,8|0,0:0|0:0,0:0:0:0:
357,96,221268,2,0,L|303:128,1,50.6000015441895,0|0,0:0|0:0,0:0:0:0:
209,174,221439,6,0,B|196:179|196:179|76:165,1,101.200003088379,0|0,3:0|0:0,0:0:0:0:
213,68,221780,1,8,0:0:0:0:
274,243,221950,1,0,0:0:0:0:
245,263,222035,1,0,0:0:0:0:
209,265,222120,1,0,3:0:0:0:
405,289,222291,1,2,0:0:0:0:
209,174,222461,1,10,0:0:0:0:
424,290,222632,1,0,0:0:0:0:
214,358,222802,6,0,B|192:313|192:313|218:236,1,101.200003088379,0|0,3:0|0:0,0:0:0:0:
307,117,223143,2,0,B|329:162|329:162|303:239,1,101.200003088379,8|0,0:0|0:0,0:0:0:0:
282,308,223399,1,0,0:0:0:0:
282,308,223484,1,0,3:0:0:0:
83,169,223655,1,0,0:0:0:0:
118,279,223825,2,0,P|139:264|158:232,1,50.6000015441895,8|0,0:0|0:0,0:0:0:0:
217,165,223995,2,0,P|213:139|194:107,1,50.6000015441895,0|0,0:0|0:0,0:0:0:0:
131,44,224166,6,0,L|256:38,1,101.200003088379,0|0,3:0|0:0,0:0:0:0:
427,114,224507,2,0,B|381:134|381:134|327:121,1,101.200003088379,8|0,0:0|0:0,0:0:0:0:
372,32,224763,1,0,0:0:0:0:
372,32,224848,1,0,3:0:0:0:
217,165,225018,1,2,0:0:0:0:
446,230,225189,1,10,0:0:0:0:
331,122,225359,1,0,0:0:0:0:
320,222,225530,6,0,L|332:105,1,101.200003088379,0|0,3:0|0:0,0:0:0:0:
424,35,225870,2,0,L|434:135,1,101.200003088379,8|0,0:0|0:0,0:0:0:0:
446,230,226125,1,0,0:0:0:0:
450,255,226211,1,0,3:0:0:0:
231,171,226382,1,0,0:0:0:0:
314,345,226552,1,8,0:0:0:0:
346,252,226723,1,0,0:0:0:0:
212,331,226893,6,0,L|203:274,1,50.6000015441895,0|0,3:0|0:0,0:0:0:0:
151,171,227064,2,0,P|125:172|102:182,1,50.6000015441895,2|0,0:0|0:0,0:0:0:0:
39,293,227234,2,0,L|48:236,1,50.6000015441895,8|0,0:0|0:0,0:0:0:0:
100,133,227405,2,0,P|125:134|148:144,1,50.6000015441895,2|0,0:0|0:0,0:0:0:0:
279,226,227575,6,0,L|288:169,1,50.6000015441895,0|0,3:0|0:0,0:0:0:0:
340,66,227746,2,0,P|365:67|388:77,1,50.6000015441895,2|0,0:0|0:0,0:0:0:0:
452,188,227916,2,0,L|443:131,1,50.6000015441895,10|0,0:0|0:0,0:0:0:0:
391,28,228087,2,0,P|365:29|342:39,1,50.6000015441895,0|0,0:0|0:0,0:0:0:0:
244,160,228257,6,0,L|371:152,1,101.200003088379,0|0,3:0|0:0,0:0:0:0:
291,357,228598,2,0,B|277:309|277:309|311:244,1,101.200003088379,8|0,0:0|0:0,0:0:0:0:
465,326,228853,1,0,0:0:0:0:
465,326,228939,2,0,L|338:318,1,101.200003088379,0|0,3:0|0:0,0:0:0:0:
185,310,229280,1,8,0:0:0:0:
344,153,229450,1,0,0:0:0:0:
210,31,229620,6,0,P|189:81|200:148,1,101.200003088379,0|0,3:0|0:0,0:0:0:0:
444,166,229961,2,0,P|446:115|425:69,1,101.200003088379,10|0,0:0|0:0,0:0:0:0:
315,162,230217,1,0,0:0:0:0:
315,162,230302,2,0,P|321:115|341:156,1,119.599994525147,2|0,3:2|0:0,0:0:0:0:
299,274,230558,2,0,P|259:266|240:254,2,59.7999972625734,2|8|0,0:0|0:0|0:0,0:0:0:0:
462,249,230814,1,2,0:0:0:0:
294,361,230984,6,0,P|244:352|198:330,1,101.200003088379,4|0,3:1|0:0,0:0:0:0:
99,132,231325,2,0,P|77:177|68:227,1,101.200003088379,8|0,0:0|0:0,0:0:0:0:
94,333,231581,1,0,0:0:0:0:
94,333,231666,1,0,3:0:0:0:
295,201,231836,2,0,P|291:180|272:148,1,50.6000015441895,0|0,0:0|0:0,0:0:0:0:
290,132,232007,2,0,P|271:122|235:115,1,50.6000015441895,8|0,0:0|0:0,0:0:0:0:
234,92,232177,2,0,P|214:100|187:123,1,50.6000015441895,0|0,0:0|0:0,0:0:0:0:
166,281,232348,6,0,P|232:268|283:275,1,101.200003088379,0|0,3:0|0:0,0:0:0:0:
478,167,232689,2,0,P|412:154|361:161,1,101.200003088379,8|0,0:0|0:0,0:0:0:0:
306,168,232944,2,0,L|324:237,1,50.6000015441895,0|0,0:0|3:0,0:0:0:0:
353,352,233200,1,2,0:0:0:0:
417,236,233370,1,10,0:0:0:0:
227,348,233541,1,0,0:0:0:0:
153,189,233711,6,0,B|163:108|163:108|181:141,1,101.200003088379,0|0,3:0|0:0,0:0:0:0:
286,231,234052,2,0,B|295:248|295:248|305:167,1,101.200003088379,8|0,0:0|0:0,0:0:0:0:
321,67,234308,1,0,0:0:0:0:
321,67,234393,1,0,3:0:0:0:
180,35,234564,1,0,0:0:0:0:
462,95,234734,1,8,0:0:0:0:
180,35,234905,1,0,0:0:0:0:
193,245,235075,6,0,B|204:218|204:218|196:132,1,101.200003088379,0|0,3:0|0:0,0:0:0:0:
278,258,235416,2,0,B|267:285|267:285|275:371,1,101.200003088379,8|0,0:0|0:0,0:0:0:0:
273,356,235672,1,0,0:0:0:0:
273,356,235757,1,0,3:0:0:0:
403,279,235927,2,0,L|465:268,2,50.6000015441895,2|0|10,0:0|0:0|0:0,0:0:0:0:
114,315,236268,1,2,1:2:0:0:
114,315,236353,1,2,1:2:0:0:
114,315,236439,6,0,P|149:281|199:282,1,101.200003088379,4|0,1:0|0:0,0:0:0:0:
425,351,236780,2,0,P|375:352|340:319,1,101.200003088379,8|0,0:0|0:0,0:0:0:0:
320,214,237035,1,0,0:0:0:0:
320,214,237120,1,0,3:0:0:0:
474,125,237291,1,0,0:0:0:0:
240,33,237461,1,8,0:0:0:0:
355,123,237632,1,0,0:0:0:0:
278,285,237802,6,0,P|257:273|237:243,1,50.6000015441895,4|0,1:0|0:0,0:0:0:0:
242,278,237973,2,0,P|226:260|213:228,1,50.6000015441895,0|0,0:0|0:0,0:0:0:0:
207,261,238143,2,0,P|195:240|192:205,1,50.6000015441895,8|0,0:0|0:0,0:0:0:0:
180,237,238314,2,0,P|175:214|181:179,1,50.6000015441895,0|0,0:0|0:0,0:0:0:0:
149,93,238484,6,0,P|128:104|108:134,1,50.6000015441895,0|0,3:0|0:0,0:0:0:0:
113,100,238655,2,0,P|97:117|84:149,1,50.6000015441895,0|0,0:0|0:0,0:0:0:0:
78,117,238825,2,0,P|66:137|63:172,1,50.6000015441895,0|0,0:0|0:0,0:0:0:0:
51,141,238996,2,0,P|46:163|52:198,1,50.6000015441895,0|0,0:0|0:0,0:0:0:0:
31,302,239166,5,4,1:0:0:0:
299,225,239336,1,0,3:0:0:0:
130,174,239507,5,0,0:0:0:0:
176,359,239677,1,0,3:0:0:0:
382,174,239848,5,4,1:0:0:0:
336,359,240018,1,0,3:0:0:0:
213,225,240189,5,0,0:0:0:0:
481,302,240359,1,0,3:0:0:0:
353,104,240530,5,4,1:0:0:0:
317,137,240615,1,0,1:0:0:0:
309,186,240700,1,0,1:0:0:0:
333,229,240785,1,0,1:0:0:0:
379,248,240870,1,0,1:0:0:0:
426,234,240956,1,0,1:0:0:0:
455,193,241041,1,0,1:0:0:0:
452,144,241126,1,0,1:0:0:0:
382,174,241211,5,0,1:0:0:0:
380,186,241296,1,0,1:0:0:0:
379,199,241381,1,0,1:0:0:0:
378,211,241466,1,0,1:0:0:0:
377,224,241551,1,0,1:0:0:0:
375,236,241637,1,0,1:0:0:0:
374,249,241722,1,0,1:0:0:0:
373,262,241807,1,0,1:0:0:0:
371,287,241892,5,4,3:1:0:0:
215,305,250075,5,2,0:0:0:0:
301,315,250416,1,2,0:0:0:0:
188,208,250757,5,2,0:0:0:0:
102,218,251098,1,2,0:0:0:0:
215,305,251439,5,8,0:0:0:0:
350,261,251609,1,0,3:0:0:0:
221,292,251780,1,8,0:0:0:0:
356,248,251950,1,0,3:0:0:0:
356,248,252461,5,8,0:0:0:0:
136,178,252632,1,0,3:0:0:0:
350,235,252802,1,8,0:0:0:0:
130,165,252973,1,0,3:0:0:0:
130,165,253484,5,8,0:0:0:0:
399,66,253655,1,0,3:0:0:0:
136,152,253825,1,8,0:0:0:0:
405,53,253995,2,0,P|320:38|284:119,1,160.99999508667,0|0,3:0|0:0,0:0:0:0:
263,188,254507,6,0,L|268:267,1,73.6,10|0,0:0|0:0,0:0:0:0:
357,296,254848,2,0,L|352:222,1,73.6,0|0,3:0|0:0,0:0:0:0:
237,340,255189,1,10,0:0:0:0:
208,332,255359,1,0,0:0:0:0:
179,324,255530,5,0,3:0:0:0:
347,133,255700,1,0,0:0:0:0:
98,184,255870,1,10,0:0:0:0:
331,289,256041,1,0,0:0:0:0:
203,68,256211,1,0,3:0:0:0:
205,61,256297,1,10,0:0:0:0:
207,54,256382,1,0,0:0:0:0:
209,47,256467,1,0,0:0:0:0:
250,64,256552,6,0,L|295:72,1,25.3000007720948,10|0,0:0|0:0,0:0:0:0:
278,99,256637,2,0,L|313:127,1,25.3000007720948,0|0,0:0|0:0,0:0:0:0:
280,144,256722,2,0,L|298:185,1,25.3000007720948,2|0,0:0|0:0,0:0:0:0:
256,182,256808,2,0,L|252:227,1,25.3000007720948,0|0,0:0|0:0,0:0:0:0:
209,198,256893,5,4,3:1:0:0:
62,115,257064,2,0,B|84:131|84:131|210:123,1,128.799996069336,2|8,0:0|0:0,0:0:0:0:
412,102,257405,1,2,0:0:0:0:
290,332,257575,5,0,3:0:0:0:
321,168,257745,1,2,0:0:0:0:
329,177,257831,1,0,0:0:0:0:
332,189,257916,2,0,P|332:220|317:248,1,64.399998034668,8|0,0:0|0:0,0:0:0:0:
194,310,258086,2,0,P|162:308|135:290,1,64.399998034668,2|0,0:0|0:0,0:0:0:0:
81,161,258257,5,0,3:0:0:0:
290,332,258427,1,2,0:0:0:0:
415,128,258598,1,10,0:0:0:0:
230,208,258768,1,0,0:0:0:0:
238,210,258853,1,2,0:0:0:0:
247,211,258938,5,0,0:0:0:0:
43,255,259109,1,2,3:2:0:0:
146,72,259280,5,10,0:0:0:0:
190,276,259451,1,0,0:0:0:0:
397,193,259620,5,0,3:0:0:0:
229,352,259791,2,0,P|170:358|112:294,1,128.799996069336,2|8,0:0|0:0,0:0:0:0:
72,115,260132,1,2,0:0:0:0:
323,293,260302,5,0,3:0:0:0:
170,206,260473,1,2,0:0:0:0:
170,206,260558,1,0,0:0:0:0:
170,206,260643,2,0,L|236:200,1,64.399998034668,8|0,0:0|0:0,0:0:0:0:
402,111,260814,2,0,L|336:105,1,64.399998034668,2|0,0:0|0:0,0:0:0:0:
193,60,260984,5,0,3:0:0:0:
151,327,261155,1,2,0:0:0:0:
15,137,261325,1,10,0:0:0:0:
283,209,261495,1,0,0:0:0:0:
281,201,261580,1,2,0:0:0:0:
280,192,261665,5,0,0:0:0:0:
299,351,261836,1,2,3:2:0:0:
382,205,262007,5,10,0:0:0:0:
396,322,262178,1,0,0:0:0:0:
495,257,262348,5,0,3:0:0:0:
294,328,262518,2,0,L|134:306,1,128.799996069336,2|8,0:0|0:0,0:0:0:0:
76,121,262859,1,2,0:0:0:0:
266,202,263030,5,0,3:0:0:0:
91,360,263200,2,0,B|68:299|68:299|114:222,1,128.799996069336,2|8,0:0|0:0,0:0:0:0:
166,310,263456,1,0,0:0:0:0:
166,310,263541,1,2,0:0:0:0:
360,243,263711,5,0,3:0:0:0:
154,146,263882,1,2,0:0:0:0:
398,46,264052,1,10,0:0:0:0:
290,158,264223,1,0,0:0:0:0:
286,149,264308,1,2,0:0:0:0:
282,140,264393,6,0,L|274:238,1,64.399998034668,0|0,0:0|0:0,0:0:0:0:
178,361,264564,2,0,L|170:263,1,64.399998034668,2|0,3:2|0:0,0:0:0:0:
65,216,264734,2,0,P|109:197|142:197,1,64.399998034668,10|0,0:0|0:0,0:0:0:0:
299,291,264905,1,0,0:0:0:0:
405,129,265075,5,2,3:2:0:0:
440,321,265246,1,0,0:0:0:0:
494,220,265416,2,0,L|354:204,1,128.799996069336,10|0,0:0|0:0,0:0:0:0:
176,70,265757,5,2,3:2:0:0:
141,262,265928,1,0,0:0:0:0:
87,161,266098,2,0,L|227:145,1,128.799996069336,10|0,0:0|0:0,0:0:0:0:
381,50,266439,5,2,3:2:0:0:
284,331,266609,1,2,0:0:0:0:
495,243,266780,5,10,0:0:0:0:
214,146,266950,1,2,0:0:0:0:
335,263,267120,5,0,3:0:0:0:
335,263,267206,2,0,B|293:238|293:238|238:259,1,92,10|0,0:0|0:0,0:0:0:0:
182,338,267461,6,0,L|87:332,1,69.0000026321412,8|0,0:0|0:0,0:0:0:0:
16,213,267632,2,0,L|84:208,1,69.0000026321412,8|0,0:0|0:0,0:0:0:0:
214,146,267802,5,0,3:1:0:0:
407,317,267973,2,0,B|426:283|426:283|406:178,1,128.799996069336,2|8,0:0|0:0,0:0:0:0:
475,65,268314,1,2,0:0:0:0:
335,263,268484,5,0,3:0:0:0:
224,148,268655,1,2,0:0:0:0:
232,150,268740,1,0,0:0:0:0:
241,151,268825,1,8,0:0:0:0:
137,343,268995,1,2,0:0:0:0:
51,202,269166,5,0,3:0:0:0:
272,320,269336,2,0,P|282:289|283:257,1,64.399998034668,2|0,0:0|0:0,0:0:0:0:
331,98,269507,2,0,P|341:129|342:161,1,64.399998034668,10|0,0:0|0:0,0:0:0:0:
428,257,269677,6,0,L|505:250,2,64.399998034668,0|2|0,0:0|0:0|0:0,0:0:0:0:
184,274,270018,1,2,3:2:0:0:
406,293,270189,5,10,0:0:0:0:
203,238,270359,1,0,0:0:0:0:
379,130,270530,5,0,3:0:0:0:
306,353,270700,2,0,L|295:222,1,128.799996069336,2|8,0:0|0:0,0:0:0:0:
180,78,271041,1,2,0:0:0:0:
76,240,271211,5,0,3:0:0:0:
267,134,271382,2,0,P|339:141|388:203,1,128.799996069336,2|8,0:0|0:0,0:0:0:0:
402,275,271637,1,0,0:0:0:0:
395,291,271723,1,2,0:0:0:0:
496,145,271893,5,0,3:0:0:0:
295,224,272064,1,2,0:0:0:0:
508,141,272234,1,10,0:0:0:0:
350,42,272405,2,0,L|359:134,1,64.399998034668,0|2,0:0|0:0,0:0:0:0:
373,274,272575,1,0,0:0:0:0:
197,164,272745,5,2,3:2:0:0:
197,164,272831,1,0,0:0:0:0:
197,164,272916,1,10,0:0:0:0:
435,63,273086,1,0,1:0:0:0:
435,63,273171,1,0,1:0:0:0:
435,63,273257,5,0,1:0:0:0:
277,235,273427,2,0,P|283:287|293:233,2,128.799996069336,2|8|2,0:0|0:0|0:0,0:0:0:0:
436,177,273939,5,0,3:0:0:0:
358,341,274109,2,0,P|297:367|236:352,1,128.799996069336,2|8,0:0|0:0,0:0:0:0:
118,216,274450,1,2,0:0:0:0:
106,344,274620,6,0,L|118:209,1,128.799996069336,2|0,1:2|0:0,0:0:0:0:
128,112,274876,1,0,0:0:0:0:
130,85,274961,1,8,0:0:0:0:
334,142,275132,1,2,0:0:0:0:
219,238,275302,1,0,3:0:0:0:
300,60,275473,1,2,0:0:0:0:
347,53,275558,1,0,0:0:0:0:
390,73,275643,1,10,0:0:0:0:
417,112,275728,1,2,0:0:0:0:
419,160,275813,1,0,0:0:0:0:
304,338,275984,5,6,1:2:0:0:
334,142,276155,1,2,0:0:0:0:
194,282,276325,1,10,0:0:0:0:
213,160,276495,1,2,0:0:0:0:
105,210,276666,5,4,1:2:0:0:
389,251,276836,1,2,0:0:0:0:
249,57,277007,1,8,0:0:0:0:
304,338,277177,1,2,0:0:0:0:
209,164,277348,5,6,1:2:0:0:
178,187,277434,1,0,1:0:0:0:
167,223,277519,1,0,1:2:0:0:
155,254,277604,1,0,1:0:0:0:
127,274,277689,1,0,1:2:0:0:
94,277,277774,1,0,1:0:0:0:
63,262,277859,1,0,1:2:0:0:
45,233,277945,1,0,1:0:0:0:
45,199,278030,5,0,1:0:0:0:
63,170,278115,1,0,1:0:0:0:
93,155,278200,1,0,1:2:0:0:
132,159,278286,1,0,1:0:0:0:
178,187,278370,6,0,L|181:221,1,27.5999991577149,0|0,1:2|0:0,0:0:0:0:
200,190,278456,2,0,L|203:224,1,27.5999991577149,0|0,1:0|0:0,0:0:0:0:
224,194,278542,2,0,L|227:228,1,27.5999991577149,0|0,1:0|0:0,0:0:0:0:
246,197,278627,2,0,L|249:231,1,27.5999991577149,0|0,1:0|0:0,0:0:0:0:
296,201,278711,6,0,B|354:197|453:181|413:105|297:101|335:169|372:209|392:236|407:280|356:317,1,303.599990734864,2|0,0:0|0:0,0:0:0:0:
313,356,279734,2,0,L|292:354,6,13.7999995788574,2|2|2|2|2|2|2,0:0|0:0|0:0|0:0|0:0|0:0|0:0,0:0:0:0:
237,305,280075,6,0,P|183:292|128:295,1,101.200003088379,4|0,3:1|0:0,0:0:0:0:
39,147,280416,2,0,P|93:134|148:137,1,101.200003088379,8|0,0:0|0:0,0:0:0:0:
236,177,280672,1,0,0:0:0:0:
236,177,280757,1,0,3:0:0:0:
85,234,280927,1,0,0:0:0:0:
280,168,281098,1,8,0:0:0:0:
136,52,281268,1,0,0:0:0:0:
242,273,281439,6,0,P|305:279|352:254,1,101.200003088379,0|0,3:0|0:0,0:0:0:0:
413,133,281780,1,8,0:0:0:0:
486,264,281950,1,0,0:0:0:0:
486,264,282035,1,0,0:0:0:0:
486,264,282120,1,0,3:0:0:0:
340,213,282291,2,0,L|338:278,1,50.6000015441895,2|0,0:0|0:0,0:0:0:0:
266,356,282461,2,0,L|264:291,1,50.6000015441895,10|0,0:0|0:0,0:0:0:0:
185,230,282632,2,0,L|183:295,1,50.6000015441895,0|0,0:0|0:0,0:0:0:0:
353,347,282802,6,0,L|473:334,1,101.200003088379,0|0,3:0|0:0,0:0:0:0:
261,221,283143,1,8,0:0:0:0:
112,364,283314,2,0,L|110:299,2,50.6000015441895,0|0|0,0:0|0:0|3:0,0:0:0:0:
59,240,283655,2,0,P|87:224|118:221,1,50.6000015441895,0|0,0:0|0:0,0:0:0:0:
235,147,283825,2,0,P|207:131|176:128,1,50.6000015441895,8|0,0:0|0:0,0:0:0:0:
63,71,283995,1,0,0:0:0:0:
110,313,284166,6,0,B|151:289|194:295|194:295|184:323,1,101.200003088379,0|0,3:0|0:0,0:0:0:0:
340,329,284507,2,0,B|299:353|256:347|256:347|266:319,1,101.200003088379,8|0,0:0|0:0,0:0:0:0:
287,232,284763,1,0,0:0:0:0:
287,232,284848,1,0,3:0:0:0:
400,216,285018,2,0,P|374:197|350:190,1,50.6000015441895,2|0,0:0|0:0,0:0:0:0:
216,146,285189,2,0,P|212:178|218:202,1,50.6000015441895,10|0,0:0|0:0,0:0:0:0:
260,334,285359,2,0,P|289:320|307:303,1,50.6000015441895,0|0,0:0|0:0,0:0:0:0:
415,226,285530,6,0,L|404:111,1,101.200003088379,0|0,3:0|0:0,0:0:0:0:
225,45,285870,2,0,L|215:145,1,101.200003088379,8|0,0:0|0:0,0:0:0:0:
203,260,286126,1,0,0:0:0:0:
201,282,286211,1,0,3:0:0:0:
121,145,286382,1,0,0:0:0:0:
85,291,286552,1,8,0:0:0:0:
127,128,286723,1,0,0:0:0:0:
79,308,286893,6,0,L|86:373,1,50.6000015441895,0|0,3:0|0:0,0:0:0:0:
203,260,287064,2,0,P|241:256|268:265,1,50.6000015441895,2|0,0:0|0:0,0:0:0:0:
339,319,287234,2,0,P|350:341|353:367,1,50.6000015441895,8|0,0:0|0:0,0:0:0:0:
422,173,287405,2,0,P|457:159|477:160,1,50.6000015441895,2|0,0:0|0:0,0:0:0:0:
464,249,287575,6,0,L|457:314,1,50.6000015441895,0|0,3:0|0:0,0:0:0:0:
340,201,287746,2,0,P|302:197|275:206,1,50.6000015441895,2|0,0:0|0:0,0:0:0:0:
203,260,287916,2,0,P|192:282|189:307,1,50.6000015441895,10|0,0:0|0:0,0:0:0:0:
101,124,288087,2,0,P|66:110|46:111,1,50.6000015441895,0|0,0:0|0:0,0:0:0:0:
54,205,288257,6,0,L|165:194,1,101.200003088379,0|0,3:0|0:0,0:0:0:0:
376,331,288598,2,0,L|275:321,1,101.200003088379,8|0,0:0|0:0,0:0:0:0:
188,307,288854,1,0,0:0:0:0:
188,307,288939,1,0,3:0:0:0:
341,174,289109,1,0,0:0:0:0:
196,81,289280,2,0,L|202:145,1,50.6000015441895,8|0,0:0|0:0,0:0:0:0:
336,224,289450,2,0,L|340:173,1,50.6000015441895,0|0,0:0|0:0,0:0:0:0:
407,82,289620,6,0,P|371:50|297:70,1,101.200003088379,0|0,3:0|0:0,0:0:0:0:
253,206,289961,2,0,P|217:238|143:218,1,101.200003088379,10|0,0:0|0:0,0:0:0:0:
87,125,290217,1,0,0:0:0:0:
95,112,290302,2,0,P|156:110|188:164,1,119.599994525147,2|0,3:2|0:0,0:0:0:0:
91,225,290558,2,0,L|22:216,2,59.7999972625734,2|8|0,0:0|0:0|0:0,0:0:0:0:
243,325,290814,1,2,0:0:0:0:
369,156,290984,6,0,P|404:199|385:271,1,101.200003088379,4|0,3:1|0:0,0:0:0:0:
165,345,291325,2,0,P|167:296|200:259,1,101.200003088379,8|0,0:0|0:0,0:0:0:0:
329,222,291581,1,0,0:0:0:0:
329,222,291666,1,0,3:0:0:0:
460,305,291836,2,0,P|440:316|409:324,1,50.6000015441895,0|0,0:0|0:0,0:0:0:0:
404,358,292007,2,0,P|382:358|351:350,1,50.6000015441895,8|0,0:0|0:0,0:0:0:0:
327,374,292177,2,0,P|308:363|284:341,1,50.6000015441895,0|0,0:0|0:0,0:0:0:0:
199,259,292348,6,0,L|211:135,1,101.200003088379,0|0,3:0|0:0,0:0:0:0:
52,214,292689,1,8,0:0:0:0:
200,72,292859,1,0,0:0:0:0:
243,80,292944,1,0,0:0:0:0:
279,108,293030,1,0,3:0:0:0:
291,358,293200,1,2,0:0:0:0:
208,158,293370,1,10,0:0:0:0:
437,223,293541,1,0,0:0:0:0:
291,358,293711,6,0,B|279:347|279:347|293:246,1,101.200003088379,0|0,3:0|0:0,0:0:0:0:
323,94,294052,2,0,B|335:105|335:105|321:206,1,101.200003088379,8|0,0:0|0:0,0:0:0:0:
216,237,294308,2,0,B|191:238|191:238|165:227,1,50.6000015441895,0|0,0:0|3:0,0:0:0:0:
64,41,294564,2,0,L|72:104,1,50.6000015441895,0|0,0:0|0:0,0:0:0:0:
148,99,294735,2,0,L|141:49,1,50.6000015441895,8|0,0:0|0:0,0:0:0:0:
219,60,294905,2,0,L|227:123,1,50.6000015441895,0|0,0:0|0:0,0:0:0:0:
323,189,295075,6,0,B|355:200|402:177|402:177|363:150,1,101.200003088379,0|0,3:0|0:0,0:0:0:0:
170,175,295416,2,0,P|160:230|164:285,1,101.200003088379,8|0,0:0|0:0,0:0:0:0:
194,361,295672,1,0,0:0:0:0:
194,361,295757,1,0,3:0:0:0:
51,260,295927,1,2,0:0:0:0:
274,177,296098,1,10,0:0:0:0:
162,275,296268,1,0,1:0:0:0:
162,275,296353,1,0,1:0:0:0:
162,275,296439,6,0,B|143:228|143:228|161:173,1,101.200003088379,4|0,1:0|0:0,0:0:0:0:
424,272,296780,2,0,B|408:282|408:282|312:275,1,101.200003088379,8|0,0:0|0:0,0:0:0:0:
234,228,297035,1,0,0:0:0:0:
234,228,297120,1,0,3:0:0:0:
373,128,297291,1,0,0:0:0:0:
401,354,297461,1,8,0:0:0:0:
371,106,297632,1,0,0:0:0:0:
427,264,297802,6,0,P|404:255|379:229,1,50.6000015441895,4|0,1:0|0:0,0:0:0:0:
390,262,297973,2,0,P|371:247|352:217,1,50.6000015441895,0|0,0:0|0:0,0:0:0:0:
352,251,298143,2,0,P|336:232|327:198,1,50.6000015441895,8|0,0:0|0:0,0:0:0:0:
322,233,298314,2,0,P|313:211|312:175,1,50.6000015441895,0|0,0:0|0:0,0:0:0:0:
260,82,298484,6,0,P|237:90|212:116,1,50.6000015441895,0|0,0:0|0:0,0:0:0:0:
223,84,298655,2,0,P|204:98|185:128,1,50.6000015441895,0|0,0:0|0:0,0:0:0:0:
185,95,298825,2,0,P|169:113|160:147,1,50.6000015441895,8|0,0:0|0:0,0:0:0:0:
155,113,298996,2,0,P|146:134|145:170,1,50.6000015441895,0|0,0:0|0:0,0:0:0:0:
110,273,299166,5,4,1:0:0:0:
322,233,299336,1,0,3:0:0:0:
172,336,299507,5,8,0:0:0:0:
333,193,299677,1,0,3:0:0:0:
258,358,299848,5,4,1:0:0:0:
323,152,300018,1,0,3:0:0:0:
344,333,300189,5,8,0:0:0:0:
293,123,300359,1,0,3:0:0:0:
148,240,300530,5,4,1:0:0:0:
144,245,300615,1,0,1:0:0:0:
143,251,300700,1,0,1:0:0:0:
143,257,300785,1,0,1:0:0:0:
146,263,300870,1,0,1:0:0:0:
149,268,300956,1,0,1:0:0:0:
155,272,301041,1,0,1:0:0:0:
161,274,301126,1,0,1:0:0:0:
167,274,301211,5,0,1:0:0:0:
212,268,301297,1,0,1:0:0:0:
257,263,301382,1,0,1:0:0:0:
302,258,301467,1,0,1:0:0:0:
347,254,301552,2,0,L|382:251,6,25.3000007720948,0|0|0|0|0|0|0,1:0|1:0|1:0|1:0|1:0|1:0|1:0,0:0:0:0:
456,301,301893,6,0,B|462:195,1,73.6,4|0,0:1|0:0,0:0:0:0:
365,82,302234,2,0,B|369:155,1,73.6,0|0,0:0|0:0,0:0:0:0:
465,135,302575,1,0,0:0:0:0:
465,135,302745,1,0,0:0:0:0:
372,251,302916,2,0,B|368:325,1,73.6,0|0,0:0|0:0,0:0:0:0:
258,353,303257,6,0,B|262:279,1,73.6,0|0,0:0|0:0,0:0:0:0:
273,101,303598,2,0,B|268:174,1,73.6,0|0,0:0|0:0,0:0:0:0:
142,155,303939,1,0,0:0:0:0:
142,155,304109,1,0,0:0:0:0:
139,252,304280,2,0,B|143:325,1,73.6,0|0,0:0|0:0,0:0:0:0:
56,301,304620,6,0,B|50:195,1,73.6,0|0,0:0|0:0,0:0:0:0:
147,82,304961,2,0,B|142:155,1,73.6,0|0,0:0|0:0,0:0:0:0:
47,135,305302,1,0,0:0:0:0:
47,135,305472,1,0,0:0:0:0:
139,252,305643,2,0,B|143:325,1,73.6,0|0,0:0|0:0,0:0:0:0:
261,230,305984,5,0,0:0:0:0:
291,234,306155,1,0,0:0:0:0:
388,335,306325,1,0,0:0:0:0:
358,339,306495,1,0,0:0:0:0:
477,258,306666,1,2,0:2:0:0:
492,259,307007,5,2,0:2:0:0:
291,234,307177,1,2,0:2:0:0:
358,339,307348,6,0,P|372:302|368:259,1,73.6,0|0,0:0|0:0,0:0:0:0:
395,167,307689,2,0,P|367:138|326:124,1,73.6,0|0,0:0|0:0,0:0:0:0:
218,169,308030,1,0,0:0:0:0:
218,169,308200,1,0,0:0:0:0:
139,118,308370,2,0,P|166:89|207:75,1,73.6,0|0,0:0|0:0,0:0:0:0:
336,125,308711,6,0,P|341:164|327:205,1,73.6,0|0,0:0|0:0,0:0:0:0:
333,300,309052,2,0,P|299:321|256:326,1,73.6,0|0,0:0|0:0,0:0:0:0:
161,259,309393,1,0,0:0:0:0:
161,259,309563,1,0,0:0:0:0:
72,291,309734,2,0,P|92:324|128:348,1,73.6,0|0,0:0|0:0,0:0:0:0:
266,327,310075,6,0,P|283:291|284:248,1,73.6,0|0,0:0|0:0,0:0:0:0:
320,158,310416,2,0,P|295:126|256:108,1,73.6,0|0,0:0|0:0,0:0:0:0:
144,142,310757,1,0,0:0:0:0:
144,142,310927,1,0,0:0:0:0:
71,82,311097,2,0,P|101:56|143:46,1,73.6,0|0,0:0|0:0,0:0:0:0:
237,199,311439,1,2,0:2:0:0:
225,203,311780,5,2,0:2:0:0:
350,182,311950,1,2,0:2:0:0:
301,323,312120,5,2,0:2:0:0:
304,334,312206,1,2,0:2:0:0:
191,295,312376,1,2,0:2:0:0:
194,306,312462,1,2,0:2:0:0:
83,265,312632,1,2,0:2:0:0:
301,323,312802,6,0,L|395:313,1,73.6,4|0,0:1|0:0,0:0:0:0:
454,235,313143,2,0,L|360:225,1,73.6,0|0,0:0|0:0,0:0:0:0:
253,210,313484,1,0,0:0:0:0:
253,210,313655,1,0,0:0:0:0:
301,323,313825,2,0,L|395:313,1,73.6,0|0,0:0|0:0,0:0:0:0:
211,285,314166,6,0,L|117:275,1,73.6,0|0,0:0|0:0,0:0:0:0:
58,197,314507,2,0,L|152:187,1,73.6,0|0,0:0|0:0,0:0:0:0:
259,172,314848,1,0,0:0:0:0:
259,172,315019,1,0,0:0:0:0:
211,285,315189,2,0,L|117:275,1,73.6,0|0,0:0|0:0,0:0:0:0:
302,245,315530,6,0,L|396:235,1,73.6,0|0,0:0|0:0,0:0:0:0:
455,157,315871,2,0,L|361:147,1,73.6,0|0,0:0|0:0,0:0:0:0:
254,132,316212,1,0,0:0:0:0:
254,132,316383,1,0,0:0:0:0:
302,245,316553,2,0,L|396:235,1,73.6,0|0,0:0|0:0,0:0:0:0:
280,367,316893,5,0,0:2:0:0:
280,367,317064,1,0,0:0:0:0:
149,288,317234,1,0,0:2:0:0:
149,288,317405,1,0,0:0:0:0:
302,245,317575,1,0,0:2:0:0:
302,245,317745,1,0,0:0:0:0:
238,296,317916,5,2,0:2:0:0:
181,75,318086,1,2,0:2:0:0:
181,75,318172,1,2,0:2:0:0:
181,75,318257,5,2,0:2:0:0:
79,218,318598,1,8,0:0:0:0:
30,84,318939,5,8,0:0:0:0:
335,226,319280,1,8,0:0:0:0:
177,226,319620,5,8,0:0:0:0:
482,84,319961,1,8,0:0:0:0:
433,218,320302,5,8,0:0:0:0:
331,75,320643,1,8,0:0:0:0:
294,161,320814,1,0,0:0:0:0:
119,63,320984,6,0,L|223:55,1,73.6,8|8,0:0|0:0,0:0:0:0:
294,161,321325,2,0,L|190:153,1,73.6,8|8,0:0|0:0,0:0:0:0:
163,236,321666,2,0,L|236:241,1,73.6,8|8,0:0|0:0,0:0:0:0:
362,305,322007,1,8,0:0:0:0:
406,142,322177,1,10,0:2:0:0:
407,134,322262,1,2,0:2:0:0:
408,126,322348,5,8,0:0:0:0:
436,138,322433,1,8,0:0:0:0:
452,165,322518,1,8,0:0:0:0:
450,196,322603,1,8,0:0:0:0:
432,221,322688,1,8,0:0:0:0:
402,231,322774,1,8,0:0:0:0:
372,223,322859,1,8,0:0:0:0:
352,199,322944,1,8,0:0:0:0:
351,168,323030,5,0,3:0:0:0:
365,140,323115,2,0,L|243:146,1,92,8|0,0:0|0:0,0:0:0:0:
160,224,323370,6,8,L|123:217,2,23
262,298,323541,2,8,L|287:294,2,23
