osu file format v14

[General]
AudioFilename: cutie+chino.mp3
AudioLeadIn: 1000
PreviewTime: 176268
Countdown: 0
SampleSet: Soft
StackLeniency: 0.2
Mode: 2
LetterboxInBreaks: 0
WidescreenStoryboard: 1

[Editor]
Bookmarks: 4280,23651,45470,67288,89106,110924,119762,132742,154560,176379,198197,220015,241833,256833,280015,301833,308711
DistanceSpacing: 0.2
BeatDivisor: 8
GridSize: 16
TimelineZoom: 3.099998

[Metadata]
Title:Mahou Shoujo Chino (nenpulse bootleg remix)
TitleUnicode:魔法少女チノ (nenpulse bootleg remix)
Artist:Chino (CV:Minase Inori)
ArtistUnicode:チノ (CV:水瀬いのり)
Creator:Asahina Momoko
Version:Crystal's Captivation
Source:ご注文はうさぎですか??
Tags:gochuumon wa usagi desuka?? gochiusa is the order a rabbit?? cup of chino CLSW mokori m_o_k_o_r_i
BeatmapID:995964
BeatmapSetID:458983

[Difficulty]
HPDrainRate:5.5
CircleSize:4.2
OverallDifficulty:9.5
ApproachRate:9.5
SliderMultiplier:1.6
SliderTickRate:2

[Events]
//Background and Video events
0,0,"chinochinochinochinochinkochinochinochinkochino_waifu2x_art_noise3_scale.png",0,0
//Break Periods
2,133002,134493
2,242093,249550
//Storyboard Layer 0 (Background)
//Storyboard Layer 1 (Fail)
//Storyboard Layer 2 (Pass)
//Storyboard Layer 3 (Foreground)
//Storyboard Sound Samples

[TimingPoints]
530,340.909090909091,4,2,2,40,1,0
530,-83.3333333333333,4,2,2,40,0,0
870,-83.3333333333333,4,2,2,50,0,0
1211,-83.3333333333333,4,2,2,60,0,0
1552,-83.3333333333333,4,2,5,70,0,0
1893,-125,4,2,1,50,0,0
12120,-100,4,2,1,70,0,0
12461,-76.9230769230769,4,2,2,60,0,0
12802,-100,4,2,1,70,0,0
21666,-83.3333333333333,4,2,1,70,0,0
23370,-50,4,2,1,50,0,0
23626,-100,4,2,1,5,0,0
23711,-83.3333333333333,4,2,1,60,0,0
34024,-83.3333333333333,4,2,1,70,0,0
34280,-83.3333333333333,4,2,2,70,0,0
34620,-83.3333333333333,4,2,1,60,0,0
43655,-83.3333333333333,4,2,1,70,0,0
44507,-83.3333333333333,4,2,1,70,0,0
44848,-83.3333333333333,4,3,2,70,0,0
45189,-83.3333333333333,4,2,1,70,0,0
45530,-100,4,2,1,50,0,0
52348,-100,4,2,1,40,0,0
53711,-100,4,2,1,50,0,0
55075,-100,4,2,1,70,0,0
55416,-100,4,2,1,70,0,0
55757,-100,4,2,1,70,0,0
56098,-100,4,2,2,70,0,0
56439,-100,4,2,1,60,0,0
61552,-100,4,2,1,60,0,0
61893,-100,4,2,1,60,0,0
64620,-100,4,2,2,60,0,0
65302,-100,4,2,1,60,0,0
66155,-100,4,2,1,50,0,0
66325,-100,4,2,1,55,0,0
66495,-100,4,2,1,60,0,0
66666,-100,4,2,1,65,0,0
66836,-100,4,2,1,70,0,0
67007,-100,4,2,1,75,0,0
67177,-100,4,2,1,80,0,0
67348,-83.3333333333333,4,2,1,60,0,0
75189,-83.3333333333333,4,2,5,70,0,0
75530,-83.3333333333333,4,2,1,60,0,0
76893,-100,4,2,1,60,0,0
77916,-83.3333333333333,4,2,2,70,0,0
78257,-83.3333333333333,4,2,1,60,0,0
87802,-83.3333333333333,4,2,2,60,0,0
88143,-83.3333333333333,4,2,2,50,0,0
88484,-83.3333333333333,4,2,2,40,0,0
88825,-50,4,2,2,40,0,0
89166,-83.3333333333333,4,2,1,80,0,1
91126,-83.3333333333333,4,2,1,80,0,1
91382,-83.3333333333333,4,2,1,80,0,1
93768,-83.3333333333333,4,2,1,80,0,1
94109,-83.3333333333333,4,2,1,80,0,1
96495,-83.3333333333333,4,2,1,80,0,1
96836,-83.3333333333333,4,2,1,80,0,1
99393,-83.3333333333333,4,2,1,80,0,1
99734,-83.3333333333333,4,2,2,80,0,1
100075,-83.3333333333333,4,2,1,80,0,1
101950,-83.3333333333333,4,2,1,80,0,1
102291,-83.3333333333333,4,2,1,80,0,1
104677,-83.3333333333333,4,2,1,80,0,1
105018,-83.3333333333333,4,2,1,80,0,1
110643,-83.3333333333333,4,2,1,80,0,1
110984,-71.4285714285714,4,2,1,70,0,0
121211,-71.4285714285714,4,2,1,70,0,0
121893,-71.4285714285714,4,2,1,70,0,0
135189,-71.4285714285714,4,2,5,70,0,0
135530,-100,4,2,1,60,0,0
139620,-100,4,2,1,50,0,0
140984,-100,4,2,1,60,0,0
143030,-100,4,2,1,60,0,0
143370,-100,4,2,2,60,0,0
143711,-100,4,2,1,60,0,0
149166,-100,4,2,1,60,0,0
151893,-71.4285714285714,4,2,2,60,0,0
152575,-100,4,2,1,60,0,0
153427,-100,4,2,1,50,0,0
153598,-100,4,2,1,55,0,0
153768,-100,4,2,1,60,0,0
153939,-100,4,2,1,65,0,0
154109,-100,4,2,1,70,0,0
154280,-100,4,2,1,75,0,0
154450,-100,4,2,1,80,0,0
154620,-100,4,3,2,60,0,0
165530,-100,4,3,2,60,0,0
170984,-100,4,2,1,70,0,0
171325,-83.3333333333333,4,2,1,70,0,0
171666,-71.4285714285714,4,2,1,70,0,0
172007,-62.5,4,2,1,70,0,0
172348,-100,4,2,1,70,0,0
175757,-62.5,4,2,1,70,0,0
176439,-83.3333333333333,4,2,1,80,0,1
178314,-83.3333333333333,4,2,1,80,0,1
178655,-83.3333333333333,4,2,1,80,0,1
179848,-83.3333333333333,4,2,1,80,0,1
181041,-83.3333333333333,4,2,1,80,0,1
181382,-83.3333333333333,4,2,1,80,0,1
181893,-83.3333333333333,4,2,1,80,0,1
186666,-83.3333333333333,4,2,1,80,0,1
187007,-83.3333333333333,4,2,2,80,0,1
187348,-83.3333333333333,4,2,1,80,0,1
189223,-83.3333333333333,4,2,1,80,0,1
189564,-83.3333333333333,4,2,1,80,0,1
191950,-83.3333333333333,4,2,1,80,0,1
192291,-83.3333333333333,4,2,1,80,0,1
197916,-71.4285714285714,4,2,1,80,0,1
198257,-71.4285714285714,4,2,1,70,0,0
208484,-71.4285714285714,4,2,1,70,0,0
209166,-71.4285714285714,4,2,1,60,0,0
209507,-71.4285714285714,4,2,1,60,0,0
210530,-71.4285714285714,4,2,1,70,0,0
210870,-71.4285714285714,4,2,1,70,0,0
211893,-71.4285714285714,4,2,1,80,0,0
212234,-71.4285714285714,4,2,1,80,0,0
213257,-71.4285714285714,4,2,1,90,0,0
213598,-71.4285714285714,4,2,1,90,0,0
214706,-71.4285714285714,4,2,1,90,0,0
215814,-71.4285714285714,4,2,1,60,0,0
216836,-71.4285714285714,4,2,1,80,0,0
218711,-71.4285714285714,4,2,1,20,0,0
219393,-71.4285714285714,4,2,2,60,0,0
220075,-71.4285714285714,4,2,1,70,0,0
230302,-71.4285714285714,4,2,1,70,0,0
230984,-71.4285714285714,4,2,1,70,0,0
250075,-90.9090909090909,4,2,1,50,0,0
251439,-90.9090909090909,4,2,1,60,0,0
252461,-90.9090909090909,4,2,1,70,0,0
253484,-90.9090909090909,4,2,1,80,0,0
253995,-142.857142857143,4,2,1,80,0,0
254507,-125,4,2,1,60,0,0
256211,-83.3333333333333,4,2,5,60,0,0
256552,-83.3333333333333,4,2,5,70,0,0
256893,-83.3333333333333,4,2,1,80,0,1
258768,-83.3333333333333,4,2,1,80,0,1
259109,-83.3333333333333,4,2,1,80,0,1
261495,-83.3333333333333,4,2,1,80,0,1
261836,-83.3333333333333,4,2,1,80,0,1
264223,-83.3333333333333,4,2,1,80,0,1
264564,-83.3333333333333,4,2,1,80,0,1
267120,-83.3333333333333,4,2,1,80,0,1
267461,-83.3333333333333,4,2,2,80,0,1
267802,-83.3333333333333,4,2,1,80,0,1
269677,-83.3333333333333,4,2,1,80,0,1
270018,-83.3333333333333,4,2,1,80,0,1
272405,-83.3333333333333,4,2,1,80,0,1
272745,-83.3333333333333,4,2,1,80,0,1
278370,-83.3333333333333,4,2,1,80,0,1
278711,-166.666666666667,4,2,1,50,0,0
279734,-166.666666666667,4,2,1,30,0,0
279777,-166.666666666667,4,2,1,40,0,0
279819,-166.666666666667,4,2,1,50,0,0
279862,-166.666666666667,4,2,1,60,0,0
279905,-166.666666666667,4,2,1,70,0,0
279947,-166.666666666667,4,2,1,80,0,0
279990,-166.666666666667,4,2,1,90,0,0
280075,-71.4285714285714,4,2,1,70,0,1
280160,-71.4285714285714,4,2,1,70,0,0
290302,-71.4285714285714,4,2,1,70,0,0
290984,-71.4285714285714,4,2,1,70,0,0
301893,-125,4,3,2,50,0,0
316893,-125,4,3,1,50,0,0
318257,-100,4,2,1,50,0,0
322348,-83.3333333333333,4,2,1,50,0,0
323030,-83.3333333333333,4,2,1,70,0,0
323370,-83.3333333333333,4,2,1,40,0,0
323541,-83.3333333333333,4,2,1,60,0,0

[Colours]
Combo1 : 240,251,162
Combo2 : 132,255,132
Combo3 : 0,255,255
Combo4 : 255,128,192
Combo5 : 61,97,241

[HitObjects]
208,160,530,5,0,3:0:0:0:
336,160,700,2,0,L|340:210,1,47.9999985351563,0|2,0:0|3:2,0:0:0:0:
420,210,870,1,0,3:0:0:0:
257,213,1041,2,0,L|253:263,1,47.9999985351563,0|2,0:0|3:2,0:0:0:0:
173,263,1211,5,2,3:2:0:0:
253,260,1297,1,0,3:0:0:0:
335,264,1382,1,2,3:2:0:0:
415,266,1468,1,0,0:0:0:0:
221,237,1552,6,0,P|189:173|240:120,1,143.999995605469,8|0,0:0|0:0,0:0:0:0:
448,128,1893,6,0,L|454:195,1,64,4|0,3:1|0:0,0:0:0:0:
324,197,2234,2,0,L|318:264,1,64,8|0,0:1|0:0,0:0:0:0:
190,264,2575,2,0,L|257:270,1,64,0|0,3:0|0:0,0:0:0:0:
126,238,2916,2,0,L|59:232,1,64,8|0,0:1|0:0,0:0:0:0:
192,240,3257,5,0,3:0:0:0:
243,187,3427,1,0,0:0:0:0:
223,117,3597,1,8,0:1:0:0:
151,100,3768,1,0,0:0:0:0:
284,102,3939,2,0,L|290:169,1,64,0|0,3:0|0:0,0:0:0:0:
159,168,4280,2,0,L|153:235,1,64,8|0,0:1|0:0,0:0:0:0:
284,255,4620,6,0,L|217:249,1,64,0|0,3:0|0:0,0:0:0:0:
310,214,4961,2,0,L|243:208,1,64,8|0,0:1|0:0,0:0:0:0:
378,208,5302,2,0,L|445:214,1,64,0|0,3:0|0:0,0:0:0:0:
352,249,5643,2,0,L|419:255,1,64,8|0,0:1|0:0,0:0:0:0:
290,253,5984,6,0,L|281:190,1,64,0|0,3:0|0:0,0:0:0:0:
416,182,6325,2,0,L|425:245,1,64,8|0,0:1|0:0,0:0:0:0:
292,307,6666,2,0,L|355:298,1,64,0|8,3:0|0:1,0:0:0:0:
226,272,7007,1,4,3:0:0:0:
358,241,7177,1,8,3:0:0:0:
231,207,7348,6,0,L|151:207,1,64,0|0,3:0|0:0,0:0:0:0:
294,200,7689,2,0,L|302:264,1,64,8|0,0:1|0:0,0:0:0:0:
175,273,8030,2,0,L|255:273,1,64,0|0,3:0|0:0,0:0:0:0:
112,280,8371,2,0,L|104:216,1,64,8|0,0:1|0:0,0:0:0:0:
235,213,8711,5,0,3:0:0:0:
278,169,8881,1,0,0:0:0:0:
261,111,9051,1,8,0:1:0:0:
201,97,9222,1,0,0:0:0:0:
70,101,9393,2,0,L|62:165,1,64,0|0,3:0|0:0,0:0:0:0:
192,163,9734,2,0,L|200:227,1,64,8|0,0:1|0:0,0:0:0:0:
72,277,10075,6,0,L|136:269,1,64,0|0,3:0|0:0,0:0:0:0:
269,268,10416,2,0,L|333:260,1,64,8|0,0:1|0:0,0:0:0:0:
460,209,10757,2,0,L|396:217,1,64,0|0,3:0|0:0,0:0:0:0:
263,218,11098,2,0,L|199:226,1,64,8|0,0:1|0:0,0:0:0:0:
327,213,11439,6,0,L|335:149,1,64,0|0,3:0|0:0,0:0:0:0:
207,149,11780,2,0,L|199:85,1,64,10|2,0:0|3:2,0:0:0:0:
360,81,12120,6,0,L|314:82,1,40,0|10,3:0|0:0,0:0:0:0:
194,117,12376,2,0,L|240:118,1,40,0|2,3:0|3:2,0:0:0:0:
364,116,12632,1,2,3:2:0:0:
65,118,12802,6,0,L|57:211,1,80,4|2,3:1|0:0,0:0:0:0:
188,212,13143,2,0,L|196:305,1,80,8|2,0:1|0:0,0:0:0:0:
350,325,13484,2,0,L|257:317,1,80,0|2,3:0|0:0,0:0:0:0:
111,341,13825,2,0,L|204:333,1,80,8|2,0:1|0:0,0:0:0:0:
30,338,14166,6,0,L|39:253,1,80,0|2,3:0|0:0,0:0:0:0:
199,245,14507,2,0,L|190:160,1,80,8|2,0:1|0:0,0:0:0:0:
30,115,14848,2,0,L|123:107,1,80,0|2,3:0|0:0,0:0:0:0:
269,131,15189,2,0,L|176:123,1,80,10|2,0:0|0:0,0:0:0:0:
351,134,15530,5,0,3:0:0:0:
407,184,15700,1,2,0:0:0:0:
389,259,15870,1,8,0:0:0:0:
316,278,16041,1,2,0:0:0:0:
155,279,16211,2,0,L|67:284,1,80,0|2,3:0|0:0,0:0:0:0:
236,269,16552,2,0,L|324:264,1,80,8|2,0:0|0:0,0:0:0:0:
157,253,16893,5,0,3:0:0:0:
100,202,17063,1,2,0:0:0:0:
118,127,17233,1,8,0:0:0:0:
191,108,17404,1,2,0:0:0:0:
353,108,17574,2,0,L|441:103,1,80,0|2,3:0|3:0,0:0:0:0:
260,156,17916,1,8,0:3:0:0:
390,158,18086,2,0,L|351:160,1,40,0|0,1:0|1:0,0:0:0:0:
149,54,18257,6,0,L|257:58,1,80,4|0,3:1|0:0,0:0:0:0:
389,74,18598,2,0,L|281:78,1,80,8|0,0:0|0:0,0:0:0:0:
181,137,18939,6,0,L|260:134,1,80,0|0,3:0|0:0,0:0:0:0:
99,156,19280,2,0,L|20:154,1,80,8|0,0:0|0:0,0:0:0:0:
355,193,19620,6,0,L|447:193,1,80,4|0,3:1|0:0,0:0:0:0:
274,173,19961,2,0,L|360:138,1,80,8|0,0:0|0:0,0:0:0:0:
188,139,20302,2,0,L|255:75,1,80,0|0,3:0|0:0,0:0:0:0:
83,93,20643,2,0,L|121:8,1,80,8|0,0:0|3:0,0:0:0:0:
490,180,20984,5,0,3:0:0:0:
382,183,21155,1,0,1:0:0:0:
231,190,21325,1,8,0:0:0:0:
490,180,21495,1,0,1:0:0:0:
186,227,21666,6,0,L|127:227,1,47.9999985351563,4|2,3:1|0:0,0:0:0:0:
300,232,21836,2,0,L|311:195,2,23.9999992675781,2|0|0,1:2|0:0|1:0,0:0:0:0:
218,173,22007,2,0,L|266:173,1,47.9999985351563,2|0,1:2|0:0,0:0:0:0:
350,172,22177,1,4,1:0:0:0:
193,285,23370,6,0,P|113:263|38:125,1,240,0|0,0:0|0:0,0:0:0:0:
207,140,23711,6,0,L|308:130,1,95.9999970703126,6|0,3:2|0:0,0:0:0:0:
146,141,24052,2,0,L|136:242,1,95.9999970703126,8|0,0:0|0:0,0:0:0:0:
298,256,24393,2,0,L|197:266,1,95.9999970703126,0|0,3:0|0:0,0:0:0:0:
359,255,24734,2,0,L|369:154,1,95.9999970703126,8|0,0:0|0:0,0:0:0:0:
112,163,25075,6,0,L|8:159,1,95.9999970703126,0|0,3:0|0:0,0:0:0:0:
148,161,25416,2,0,L|152:265,1,95.9999970703126,10|0,0:0|0:0,0:0:0:0:
285,252,25757,2,0,L|392:256,1,95.9999970703126,2|0,3:2|0:0,0:0:0:0:
222,235,26098,2,0,L|218:128,1,95.9999970703126,10|0,0:0|0:0,0:0:0:0:
489,129,26439,6,0,L|368:122,3,95.9999970703126,2|0|8|0,3:2|0:0|0:0|0:0,0:0:0:0:
163,167,27120,2,0,L|284:160,3,95.9999970703126,2|0|8|0,3:2|0:0|0:0|0:0,0:0:0:0:
15,261,27802,6,0,L|20:153,1,95.9999970703126,2|0,3:2|0:0,0:0:0:0:
177,127,28143,2,0,L|69:122,1,95.9999970703126,10|0,0:0|0:0,0:0:0:0:
211,137,28484,2,0,L|319:142,1,95.9999970703126,2|0,3:2|0:0,0:0:0:0:
174,165,28825,2,0,L|169:273,1,95.9999970703126,10|0,0:0|0:0,0:0:0:0:
494,219,29166,6,0,L|486:123,1,95.9999970703126,2|0,3:2|0:0,0:0:0:0:
360,172,29507,2,0,L|352:76,1,95.9999970703126,8|0,0:0|0:0,0:0:0:0:
222,60,29848,2,0,L|318:52,1,95.9999970703126,0|2,3:0|0:0,0:0:0:0:
161,103,30189,2,0,L|153:199,1,95.9999970703126,10|0,0:0|0:0,0:0:0:0:
432,245,30530,5,2,3:2:0:0:
494,177,30700,1,0,0:0:0:0:
459,93,30870,1,8,0:0:0:0:
369,87,31041,1,0,0:0:0:0:
240,92,31211,2,0,L|141:100,1,95.9999970703126,0|0,3:0|0:0,0:0:0:0:
303,126,31552,2,0,L|402:134,1,95.9999970703126,8|0,0:0|0:0,0:0:0:0:
141,136,31893,6,0,L|133:235,1,95.9999970703126,2|0,3:2|0:0,0:0:0:0:
282,203,32234,1,10,0:0:0:0:
157,278,32405,2,0,L|262:267,1,95.9999970703126,2|0,0:0|3:0,0:0:0:0:
386,221,32745,2,0,L|287:229,2,95.9999970703126,0|10|0,0:0|0:0|0:0,0:0:0:0:
34,62,33257,6,0,L|144:55,1,95.9999970703126,2|0,3:2|0:0,0:0:0:0:
293,103,33598,2,0,L|183:110,1,95.9999970703126,10|2,0:0|3:2,0:0:0:0:
446,127,33939,6,0,L|451:181,1,47.9999985351563,0|10,3:0|0:0,0:0:0:0:
286,183,34194,2,0,L|281:237,1,47.9999985351563,0|2,0:0|3:2,0:0:0:0:
458,225,34450,1,0,3:0:0:0:
196,217,34620,6,0,L|78:212,1,95.9999970703126,6|0,3:2|0:0,0:0:0:0:
236,160,34961,1,8,0:0:0:0:
67,152,35132,1,0,0:0:0:0:
205,104,35302,2,0,L|323:109,1,95.9999970703126,0|0,3:0|0:0,0:0:0:0:
165,161,35643,1,8,0:0:0:0:
334,169,35814,1,0,0:0:0:0:
191,203,35984,6,0,L|186:303,1,95.9999970703126,0|0,3:0|0:0,0:0:0:0:
303,203,36325,2,0,L|308:303,1,95.9999970703126,10|0,0:0|0:0,0:0:0:0:
159,336,36666,1,2,3:2:0:0:
329,339,36836,1,0,0:0:0:0:
186,272,37007,2,0,L|86:269,1,95.9999970703126,10|0,0:0|0:0,0:0:0:0:
349,273,37348,6,0,L|355:169,1,95.9999970703126,2|0,3:2|0:0,0:0:0:0:
221,146,37689,1,8,0:0:0:0:
396,139,37859,1,0,0:0:0:0:
256,189,38030,2,0,L|152:195,1,95.9999970703126,2|0,3:2|0:0,0:0:0:0:
288,117,38371,1,8,0:0:0:0:
128,108,38541,1,0,0:0:0:0:
373,108,38711,6,0,L|479:110,1,95.9999970703126,2|0,3:2|0:0,0:0:0:0:
310,128,39052,2,0,L|204:130,1,95.9999970703126,10|0,0:0|0:0,0:0:0:0:
341,187,39393,2,0,L|426:274,1,95.9999970703126,2|0,3:2|0:0,0:0:0:0:
155,216,39734,1,10,0:0:0:0:
285,230,39905,2,0,L|290:281,1,47.9999985351563,0|0,0:0|3:0,0:0:0:0:
116,257,40075,6,0,L|13:260,1,95.9999970703126,4|0,3:1|0:0,0:0:0:0:
185,213,40416,1,10,0:0:0:0:
63,214,40586,1,0,0:0:0:0:
207,184,40757,2,0,L|208:87,1,95.9999970703126,0|2,3:0|0:0,0:0:0:0:
29,149,41098,2,0,L|28:52,1,95.9999970703126,10|0,0:0|0:0,0:0:0:0:
323,60,41439,6,0,L|222:57,1,95.9999970703126,2|0,3:2|0:0,0:0:0:0:
64,113,41780,2,0,L|165:110,1,95.9999970703126,8|2,0:0|0:0,0:0:0:0:
322,158,42120,1,0,3:0:0:0:
173,153,42291,1,2,0:0:0:0:
331,107,42461,2,0,L|432:104,1,95.9999970703126,8|0,0:0|0:0,0:0:0:0:
122,219,42802,5,2,3:2:0:0:
272,225,42973,1,0,0:0:0:0:
140,251,43143,1,8,0:0:0:0:
404,169,43314,2,0,L|222:163,1,143.999995605469,10|0,0:0|0:0,0:0:0:0:
181,170,43655,2,0,L|180:231,1,47.9999985351563,10|0,0:0|0:0,0:0:0:0:
339,240,43825,1,10,0:0:0:0:
207,285,43995,2,0,L|286:284,1,47.9999985351563,0|0,3:0|3:0,0:0:0:0:
448,190,44166,5,6,1:2:0:0:
320,192,44336,2,0,L|319:253,1,47.9999985351563,0|0,0:0|0:0,0:0:0:0:
229,234,44507,2,0,P|190:200|265:149,1,143.999995605469,0|0,3:0|0:0,0:0:0:0:
338,95,44848,6,0,L|277:96,3,47.9999985351563,0|0|0|0,0:0|0:0|0:0|0:0,0:0:0:0:
128,91,45189,1,8,0:0:0:0:
384,171,45530,6,0,L|277:167,1,80,4|0,3:1|0:0,0:0:0:0:
174,210,45870,2,0,L|281:206,1,80,0|0,3:0|0:0,0:0:0:0:
95,250,46211,2,0,L|202:246,1,80,0|0,3:0|0:0,0:0:0:0:
302,280,46552,2,0,L|195:276,1,80,0|0,3:0|0:0,0:0:0:0:
389,266,46893,6,0,L|393:159,1,80,0|2,3:0|0:0,0:0:0:0:
232,190,47234,2,0,L|228:83,1,80,0|2,3:0|0:0,0:0:0:0:
115,138,47575,2,0,L|117:58,1,80,0|0,0:0|0:0,0:0:0:0:
259,112,47916,2,0,L|263:5,1,80,0|0,3:0|0:0,0:0:0:0:
93,40,48257,5,0,3:0:0:0:
33,86,48427,1,0,0:0:0:0:
51,159,48597,1,0,3:0:0:0:
125,172,48768,1,0,0:0:0:0:
259,199,48939,2,0,L|171:203,1,80,0|0,3:0|0:0,0:0:0:0:
302,229,49280,2,0,L|390:225,1,80,0|0,3:0|0:0,0:0:0:0:
243,153,49620,6,0,L|322:156,1,80,0|2,3:0|0:0,0:0:0:0:
446,130,49961,2,0,L|366:126,1,80,0|2,3:0|0:0,0:0:0:0:
218,112,50302,2,0,L|222:24,1,80,0|0,0:0|0:0,0:0:0:0:
353,64,50643,1,0,3:0:0:0:
210,82,50814,1,0,3:0:0:0:
487,109,50984,6,0,L|407:108,1,80,0|0,3:0|0:0,0:0:0:0:
247,108,51325,2,0,L|167:107,1,80,8|0,0:0|0:0,0:0:0:0:
25,275,51666,2,0,L|104:275,1,80,0|0,3:0|0:0,0:0:0:0:
265,276,52007,2,0,L|344:276,1,80,8|0,0:0|0:0,0:0:0:0:
184,149,52348,6,0,L|181:234,1,80,0|0,3:0|0:0,0:0:0:0:
29,231,52689,2,0,L|26:316,1,80,10|0,0:0|0:0,0:0:0:0:
187,315,53030,2,0,L|190:230,1,80,2|0,3:2|0:0,0:0:0:0:
342,233,53371,2,0,L|345:148,1,80,10|0,0:0|0:0,0:0:0:0:
100,148,53711,6,0,L|180:148,1,80,0|0,3:0|0:0,0:0:0:0:
340,121,54052,2,0,L|260:121,1,80,8|0,0:0|0:0,0:0:0:0:
410,80,54393,2,0,L|490:80,1,80,0|0,3:0|0:0,0:0:0:0:
334,72,54734,2,0,L|254:72,1,80,8|0,0:0|0:0,0:0:0:0:
408,88,55075,6,0,L|409:170,1,80,0|0,3:0|0:0,0:0:0:0:
300,175,55416,2,0,L|301:257,1,80,10|0,0:0|0:0,0:0:0:0:
47,277,55757,6,0,L|107:277,1,40,0|10,3:0|0:0,0:0:0:0:
233,280,56012,2,0,L|173:280,1,40,0|2,0:0|3:2,0:0:0:0:
343,284,56268,1,2,3:2:0:0:
71,205,56439,6,0,L|163:206,1,80,4|0,3:2|0:0,0:0:0:0:
320,177,56780,2,0,L|228:178,1,80,8|0,0:0|0:0,0:0:0:0:
364,118,57120,2,0,L|272:119,1,80,0|2,3:0|0:0,0:0:0:0:
114,137,57461,2,0,L|206:138,1,80,8|0,0:0|0:0,0:0:0:0:
320,147,57802,5,0,3:0:0:0:
193,168,57973,1,2,0:0:0:0:
352,175,58143,2,0,L|358:258,1,80,8|2,0:0|0:0,0:0:0:0:
196,257,58484,1,0,0:0:0:0:
323,236,58655,1,0,0:0:0:0:
164,229,58825,2,0,L|158:146,1,80,8|0,0:0|0:0,0:0:0:0:
319,243,59166,5,0,3:0:0:0:
373,189,59336,1,0,0:0:0:0:
355,115,59506,1,8,0:0:0:0:
281,93,59677,1,0,0:0:0:0:
157,97,59848,2,0,L|70:98,2,80,0|2|8,3:0|0:0|0:0,0:0:0:0:
24,128,60359,1,0,0:0:0:0:
161,154,60530,6,0,L|164:240,1,80,0|2,3:0|0:0,0:0:0:0:
326,262,60870,2,0,L|240:265,1,80,8|2,0:0|0:0,0:0:0:0:
397,239,61211,2,0,L|400:153,1,80,0|0,3:0|0:0,0:0:0:0:
244,153,61552,1,8,0:0:0:0:
403,117,61723,2,0,L|443:118,1,40,0|0,3:2|3:2,0:0:0:0:
259,108,61893,6,0,L|254:197,1,80,4|0,3:1|0:0,0:0:0:0:
99,197,62234,2,0,L|104:286,1,80,8|0,0:0|0:0,0:0:0:0:
454,225,62575,2,0,L|459:136,1,80,4|0,3:1|0:0,0:0:0:0:
299,153,62916,2,0,L|294:64,1,80,8|0,0:0|0:0,0:0:0:0:
23,72,63257,6,0,L|118:72,1,80,4|0,3:1|0:0,0:0:0:0:
249,118,63598,2,0,L|154:118,1,80,8|0,0:0|0:0,0:0:0:0:
399,163,63939,2,0,L|304:163,1,80,4|2,3:1|0:0,0:0:0:0:
173,209,64280,2,0,L|268:209,1,80,8|2,0:0|0:0,0:0:0:0:
16,281,64620,5,4,3:1:0:0:
156,271,64791,1,0,3:0:0:0:
317,332,64961,1,0,3:0:0:0:
177,322,65132,1,0,3:0:0:0:
409,208,65302,2,0,L|462:214,1,40,0|0,3:0|3:0,0:0:0:0:
292,204,65558,2,0,L|239:210,1,40,0|2,3:0|0:0,0:0:0:0:
492,288,65814,1,0,0:0:0:0:
201,309,65984,5,0,3:0:0:0:
153,249,66154,1,2,0:0:0:0:
184,180,66324,1,2,0:0:0:0:
260,176,66495,1,2,0:0:0:0:
128,138,66666,2,0,L|31:135,1,80,2|2,0:0|0:0,0:0:0:0:
198,90,67007,1,0,0:0:0:0:
40,79,67177,1,2,0:0:0:0:
365,130,67348,6,0,L|353:225,1,95.9999970703126,4|0,3:1|0:0,0:0:0:0:
187,239,67689,1,8,0:0:0:0:
317,253,67859,1,0,0:0:0:0:
146,221,68030,2,0,L|158:126,1,95.9999970703126,0|0,3:0|0:0,0:0:0:0:
324,112,68371,1,8,0:0:0:0:
194,98,68541,1,0,0:0:0:0:
465,100,68711,6,0,L|475:197,1,95.9999970703126,0|0,3:0|0:0,0:0:0:0:
316,207,69052,2,0,L|306:304,1,95.9999970703126,8|0,0:0|0:0,0:0:0:0:
142,308,69393,1,0,3:0:0:0:
420,267,69564,1,2,0:0:0:0:
255,254,69734,1,8,0:0:0:0:
414,211,69905,1,2,0:0:0:0:
139,183,70075,6,0,L|28:178,1,95.9999970703126,0|0,3:0|0:0,0:0:0:0:
219,147,70416,1,8,0:0:0:0:
82,140,70586,1,0,0:0:0:0:
217,88,70757,2,0,L|328:93,1,95.9999970703126,0|0,3:0|0:0,0:0:0:0:
135,122,71098,1,8,0:0:0:0:
274,131,71268,1,0,0:0:0:0:
33,157,71439,6,0,L|25:261,1,95.9999970703126,0|0,3:0|0:0,0:0:0:0:
179,247,71780,2,0,L|187:351,1,95.9999970703126,8|0,0:0|0:0,0:0:0:0:
442,305,72120,1,0,3:0:0:0:
184,287,72291,1,2,0:0:0:0:
333,183,72461,2,0,L|222:178,1,95.9999970703126,8|2,0:0|0:0,0:0:0:0:
104,109,72802,5,4,1:0:0:0:
370,113,72973,1,0,1:0:0:0:
94,169,73314,5,4,1:0:0:0:
382,166,73485,1,0,1:0:0:0:
86,217,73825,5,4,1:0:0:0:
382,217,73995,1,0,1:0:0:0:
76,263,74336,5,4,1:0:0:0:
392,263,74507,1,0,1:0:0:0:
227,151,75018,6,0,L|311:148,1,47.9999985351563,0|0,3:0|3:0,0:0:0:0:
105,151,75189,2,0,L|106:264,1,95.9999970703126,8|0,0:0|0:0,0:0:0:0:
391,208,75530,6,0,L|265:206,1,95.9999970703126,0|0,3:0|0:0,0:0:0:0:
131,226,75870,2,0,L|257:224,1,95.9999970703126,8|0,0:0|0:0,0:0:0:0:
64,202,76211,2,0,L|62:76,1,95.9999970703126,0|0,3:0|0:0,0:0:0:0:
229,138,76552,2,0,L|231:12,1,95.9999970703126,8|0,0:0|0:0,0:0:0:0:
64,38,76893,5,0,0:0:0:0:
19,98,77063,1,0,0:0:0:0:
49,169,77233,1,8,0:0:0:0:
124,177,77404,1,0,3:0:0:0:
376,187,77575,6,0,L|311:186,1,40,0|10,0:0|0:0,0:0:0:0:
484,211,77831,2,0,L|488:267,1,40,0|2,0:0|3:2,0:0:0:0:
309,250,78086,1,0,3:0:0:0:
41,181,78257,6,0,L|155:176,1,95.9999970703126,4|0,3:1|0:0,0:0:0:0:
304,147,78598,1,8,0:0:0:0:
173,124,78768,1,0,0:0:0:0:
337,69,78939,2,0,L|223:74,1,95.9999970703126,0|0,3:0|0:0,0:0:0:0:
74,103,79280,1,8,0:0:0:0:
205,126,79450,1,0,0:0:0:0:
466,158,79620,6,0,L|472:269,1,95.9999970703126,0|0,3:0|0:0,0:0:0:0:
306,231,79961,2,0,L|300:342,1,95.9999970703126,8|0,0:0|0:0,0:0:0:0:
134,331,80302,1,0,3:0:0:0:
403,288,80473,1,2,0:0:0:0:
244,279,80643,2,0,L|128:275,1,95.9999970703126,8|2,0:0|0:0,0:0:0:0:
399,121,80984,6,0,L|517:121,1,95.9999970703126,0|0,3:0|0:0,0:0:0:0:
314,171,81325,2,0,L|432:171,1,95.9999970703126,8|0,0:0|0:0,0:0:0:0:
240,177,81666,2,0,L|122:177,1,95.9999970703126,0|0,3:0|0:0,0:0:0:0:
307,229,82007,2,0,L|189:229,1,95.9999970703126,8|0,0:0|0:0,0:0:0:0:
462,225,82348,5,0,3:0:0:0:
508,145,82518,1,0,0:0:0:0:
457,70,82688,1,8,0:0:0:0:
367,82,82859,1,0,0:0:0:0:
193,127,83030,1,0,3:0:0:0:
441,133,83200,1,2,0:0:0:0:
285,163,83370,1,8,0:0:0:0:
444,196,83541,2,0,L|387:197,1,47.9999985351563,2|0,0:0|0:0,0:0:0:0:
223,247,83711,6,0,P|165:217|210:151,1,143.999995605469,4|0,1:0|0:0,0:0:0:0:
276,123,84052,6,0,L|120:121,1,143.999995605469,4|0,1:0|0:0,0:0:0:0:
296,142,84393,6,0,P|354:112|309:46,1,143.999995605469,4|0,1:0|0:0,0:0:0:0:
125,62,84734,6,0,L|281:60,1,143.999995605469,4|0,1:0|0:0,0:0:0:0:
348,74,85075,1,0,0:0:0:0:
221,107,85245,1,0,3:0:0:0:
471,132,85416,6,0,L|477:241,1,95.9999970703126,8|2,0:0|0:0,0:0:0:0:
316,240,85757,1,0,3:0:0:0:
481,268,85927,1,2,0:0:0:0:
177,255,86098,2,0,L|61:259,1,95.9999970703126,2|0,3:2|0:0,0:0:0:0:
352,216,86439,6,0,L|340:103,1,95.9999970703126,12|0,1:0|0:0,0:0:0:0:
179,116,86780,1,0,3:0:0:0:
445,178,86950,2,0,L|334:179,1,95.9999970703126,12|0,1:0|0:0,0:0:0:0:
201,180,87291,1,0,3:0:0:0:
496,112,87461,1,12,1:0:0:0:
181,102,87632,1,0,0:0:0:0:
433,108,87802,5,0,3:0:0:0:
477,188,87972,1,0,0:0:0:0:
466,234,88057,1,0,0:0:0:0:
435,270,88142,1,0,3:0:0:0:
343,281,88313,1,0,0:0:0:0:
205,200,88484,2,0,L|355:203,1,143.999995605469,0|0,3:0|0:0,0:0:0:0:
170,148,88825,6,0,L|12:207,1,160,2|0,0:0|0:0,0:0:0:0:
331,128,89166,6,0,L|441:128,1,95.9999970703126,4|2,1:0|0:0,0:0:0:0:
167,161,89507,1,8,0:0:0:0:
330,178,89677,1,2,0:0:0:0:
355,217,89762,1,0,0:0:0:0:
348,263,89847,1,0,3:0:0:0:
184,279,90018,1,2,0:0:0:0:
448,318,90189,2,0,L|336:318,1,95.9999970703126,8|2,0:0|0:0,0:0:0:0:
91,242,90530,6,0,L|212:241,1,95.9999970703126,0|2,3:0|0:0,0:0:0:0:
33,241,90870,2,0,L|29:191,1,47.9999985351563,10|0,0:0|0:0,0:0:0:0:
114,188,91041,1,0,0:0:0:0:
283,146,91126,2,0,L|147:140,1,95.9999970703126,2|0,0:0|0:0,0:0:0:0:
270,114,91382,2,0,L|323:116,1,47.9999985351563,2|0,0:0|0:0,0:0:0:0:
163,113,91552,2,0,L|161:166,1,47.9999985351563,8|0,0:0|0:0,0:0:0:0:
240,175,91723,1,0,0:0:0:0:
480,256,91893,6,0,L|380:251,1,95.9999970703126,0|2,3:0|0:0,0:0:0:0:
119,244,92234,1,8,0:0:0:0:
277,206,92405,2,0,L|325:204,2,47.9999985351563,2|0|0,0:0|0:0|3:0,0:0:0:0:
119,244,92745,1,2,0:0:0:0:
377,250,92916,2,0,L|248:246,1,95.9999970703126,8|2,0:0|0:0,0:0:0:0:
49,110,93257,6,0,L|53:213,1,95.9999970703126,0|0,3:0|0:0,0:0:0:0:
217,209,93598,2,0,L|213:312,1,95.9999970703126,10|0,0:0|0:0,0:0:0:0:
413,313,93853,2,0,L|298:315,1,95.9999970703126,0|2,0:0|0:0,0:0:0:0:
227,292,94109,2,0,L|296:284,1,47.9999985351563,0|0,0:0|0:0,0:0:0:0:
112,290,94280,2,0,L|104:221,1,47.9999985351563,10|0,0:0|0:0,0:0:0:0:
192,235,94450,2,0,L|184:166,1,47.9999985351563,0|0,0:0|0:0,0:0:0:0:
18,149,94620,6,0,L|144:148,1,95.9999970703126,0|2,3:0|0:0,0:0:0:0:
362,148,94961,1,8,0:0:0:0:
195,120,95132,2,0,L|189:177,1,47.9999985351563,2|0,0:0|0:0,0:0:0:0:
269,172,95302,1,0,3:0:0:0:
436,197,95473,1,2,0:0:0:0:
200,261,95643,1,8,0:0:0:0:
66,253,95814,1,2,0:0:0:0:
332,199,95984,6,0,L|271:193,1,47.9999985351563,0|0,3:0|0:0,0:0:0:0:
198,175,96155,2,0,L|259:169,1,47.9999985351563,2|0,0:0|0:0,0:0:0:0:
474,167,96325,2,0,L|478:281,1,95.9999970703126,10|0,0:0|0:0,0:0:0:0:
431,290,96581,1,0,0:0:0:0:
264,276,96666,2,0,L|204:271,1,47.9999985351563,2|0,0:0|0:0,0:0:0:0:
382,223,96836,2,0,L|442:228,1,47.9999985351563,2|0,3:2|0:0,0:0:0:0:
269,183,97007,2,0,L|264:243,1,47.9999985351563,10|0,0:0|0:0,0:0:0:0:
351,238,97177,2,0,L|356:298,1,47.9999985351563
157,232,97348,6,0,L|61:231,1,95.9999970703126,2|0,3:2|0:0,0:0:0:0:
224,174,97689,2,0,L|128:173,1,95.9999970703126,10|0,0:0|0:0,0:0:0:0:
385,183,98030,2,0,L|481:182,1,95.9999970703126,2|0,3:2|0:0,0:0:0:0:
318,125,98371,2,0,L|414:124,1,95.9999970703126,10|0,0:0|0:0,0:0:0:0:
119,87,98711,5,2,3:2:0:0:
283,75,98882,1,2,0:0:0:0:
25,174,99052,1,10,0:0:0:0:
189,162,99223,1,2,0:0:0:0:
474,158,99393,6,0,L|480:205,1,47.9999985351563,0|10,3:0|0:0,0:0:0:0:
330,229,99649,2,0,L|382:228,1,47.9999985351563,0|2,0:0|1:2,0:0:0:0:
210,202,99905,1,0,1:0:0:0:
475,93,100075,6,0,L|484:196,1,95.9999970703126,4|2,3:1|0:0,0:0:0:0:
323,193,100416,1,8,0:0:0:0:
78,231,100586,2,0,L|134:228,1,47.9999985351563,2|0,0:0|0:0,0:0:0:0:
208,222,100757,1,0,3:0:0:0:
45,186,100927,1,2,0:0:0:0:
323,193,101098,2,0,L|310:294,1,95.9999970703126,8|2,0:0|0:0,0:0:0:0:
31,311,101439,6,0,L|161:313,1,95.9999970703126,0|2,3:0|0:0,0:0:0:0:
287,254,101780,2,0,L|184:251,1,95.9999970703126,10|0,0:0|0:0,0:0:0:0:
353,253,102035,2,0,L|356:158,1,95.9999970703126,0|0,0:0|0:0,0:0:0:0:
274,155,102291,2,0,L|274:105,1,47.9999985351563,2|0,3:2|0:0,0:0:0:0:
435,72,102461,2,0,L|373:71,1,47.9999985351563,10|0,0:0|0:0,0:0:0:0:
307,71,102632,1,0,3:0:0:0:
46,148,102802,6,0,L|173:148,1,95.9999970703126,0|2,3:0|0:0,0:0:0:0:
401,196,103143,1,8,0:0:0:0:
243,199,103314,2,0,L|185:198,2,47.9999985351563,2|0|0,0:0|0:0|3:0,0:0:0:0:
409,254,103655,1,2,0:0:0:0:
121,198,103825,2,0,L|118:303,1,95.9999970703126,8|2,0:0|0:0,0:0:0:0:
400,322,104166,6,0,L|296:318,1,95.9999970703126,0|2,3:0|0:0,0:0:0:0:
468,283,104507,2,0,L|470:179,1,95.9999970703126,10|0,0:0|3:0,0:0:0:0:
271,186,104762,2,0,L|366:184,1,95.9999970703126,2|0,0:0|0:0,0:0:0:0:
286,177,105018,2,0,L|286:127,1,47.9999985351563,2|0,3:2|0:0,0:0:0:0:
478,83,105189,1,8,1:0:0:0:
350,84,105359,2,0,L|298:85,1,47.9999985351563,0|0,1:0|1:0,0:0:0:0:
51,82,105530,6,0,L|39:189,1,95.9999970703126,4|2,1:0|0:0,0:0:0:0:
213,161,105870,2,0,L|225:268,1,95.9999970703126,8|2,0:0|0:0,0:0:0:0:
70,158,106211,2,0,L|58:265,1,95.9999970703126,0|2,3:0|0:0,0:0:0:0:
232,237,106552,2,0,L|244:344,1,95.9999970703126,8|2,0:0|0:0,0:0:0:0:
494,98,106893,6,0,L|379:93,1,95.9999970703126,2|0,1:2|0:0,0:0:0:0:
233,103,107234,2,0,L|348:98,1,95.9999970703126,8|2,0:0|0:0,0:0:0:0:
188,186,107575,2,0,L|303:181,1,95.9999970703126,0|0,0:0|0:0,0:0:0:0:
449,191,107916,2,0,L|334:186,1,95.9999970703126,10|0,0:0|0:0,0:0:0:0:
48,97,108257,5,0,1:0:0:0:
201,143,108427,1,2,0:2:0:0:
32,183,108598,1,10,0:2:0:0:
348,184,108768,1,2,0:2:0:0:
93,184,108939,1,0,1:0:0:0:
246,230,109109,1,2,0:2:0:0:
77,270,109280,1,8,0:2:0:0:
393,271,109450,1,2,0:2:0:0:
131,229,109620,6,0,L|63:223,1,47.9999985351563,2|0,1:2|1:0,0:0:0:0:
279,195,109791,2,0,L|285:127,1,47.9999985351563,2|0,1:2|1:0,0:0:0:0:
95,104,109961,2,0,L|142:108,1,47.9999985351563,8|0,1:2|1:0,0:0:0:0:
340,106,110132,2,0,L|334:38,1,47.9999985351563,2|0,1:2|1:0,0:0:0:0:
149,30,110302,6,0,L|102:26,1,47.9999985351563,0|0,1:0|1:0,0:0:0:0:
409,43,110473,2,0,L|414:74,2,23.9999992675781,2|0|0,1:2|0:0|1:0,0:0:0:0:
215,47,110643,6,0,L|185:41,1,23.9999992675781,8|0,1:2|0:0,0:0:0:0:
206,73,110728,2,0,L|177:72,1,23.9999992675781,0|0,1:0|0:0,0:0:0:0:
210,98,110814,2,0,L|184:102,1,23.9999992675781,0|0,1:0|0:0,0:0:0:0:
216,121,110899,1,0,1:0:0:0:
432,208,110984,6,0,P|476:172|396:122,1,167.999994873047,4|0,1:0|0:0,0:0:0:0:
211,203,111325,2,0,L|340:200,1,111.999996582031,10|0,0:0|0:0,0:0:0:0:
242,178,111581,2,0,P|204:140|239:106,1,111.999996582031,2|0,0:0|0:0,0:0:0:0:
316,84,111836,2,0,L|251:83,1,55.9999982910157,2|0,0:0|0:0,0:0:0:0:
183,40,112007,2,0,L|260:42,1,55.9999982910157,10|0,0:0|0:0,0:0:0:0:
398,94,112177,2,0,L|321:96,1,55.9999982910157,2|0,0:0|0:0,0:0:0:0:
178,99,112348,6,0,P|139:142|222:189,1,167.999994873047,2|0,3:2|0:0,0:0:0:0:
290,238,112689,2,0,L|131:232,1,111.999996582031,10|0,0:0|0:0,0:0:0:0:
338,201,112944,2,0,P|376:163|341:129,1,111.999996582031,2|0,0:0|0:0,0:0:0:0:
255,112,113200,2,0,L|180:111,1,55.9999982910157,2|0,0:0|0:0,0:0:0:0:
353,55,113370,2,0,L|428:54,1,55.9999982910157,10|0,0:0|0:0,0:0:0:0:
325,55,113541,2,0,L|250:54,1,55.9999982910157,2|0,0:0|0:0,0:0:0:0:
105,57,113711,6,0,L|284:60,1,167.999994873047,2|0,3:2|0:0,0:0:0:0:
76,92,114052,2,0,P|43:128|105:161,1,111.999996582031,10|0,0:0|0:0,0:0:0:0:
165,211,114308,2,0,L|18:212,1,111.999996582031,2|0,0:0|0:0,0:0:0:0:
211,208,114564,2,0,L|271:211,1,55.9999982910157,2|0,0:0|0:0,0:0:0:0:
53,227,114734,2,0,L|56:287,1,55.9999982910157,10|0,0:0|0:0,0:0:0:0:
227,298,114905,2,0,L|167:301,1,55.9999982910157,2|0,0:0|0:0,0:0:0:0:
17,208,115075,6,0,L|196:211,1,167.999994873047,2|0,3:2|0:0,0:0:0:0:
100,215,115416,2,0,P|67:251|129:284,1,111.999996582031,10|0,0:0|0:0,0:0:0:0:
257,314,115672,2,0,L|110:315,1,111.999996582031,2|0,0:0|0:0,0:0:0:0:
56,260,115927,2,0,L|59:195,1,55.9999982910157,2|0,0:0|0:0,0:0:0:0:
144,200,116098,2,0,L|141:135,1,55.9999982910157,10|0,0:0|0:0,0:0:0:0:
55,139,116268,2,0,L|58:74,1,55.9999982910157,2|0,0:0|0:0,0:0:0:0:
226,86,116439,6,0,P|298:101|337:197,1,167.999994873047,2|0,3:2|0:0,0:0:0:0:
175,189,116780,2,0,L|42:189,1,111.999996582031,10|0,0:0|0:0,0:0:0:0:
145,223,117035,2,0,L|268:223,1,111.999996582031,2|0,0:0|0:0,0:0:0:0:
339,243,117291,2,0,L|269:242,1,55.9999982910157,2|0,0:0|0:0,0:0:0:0:
444,239,117461,2,0,L|453:295,1,55.9999982910157,10|0,0:0|0:0,0:0:0:0:
261,292,117632,2,0,L|252:348,1,55.9999982910157,2|0,0:0|0:0,0:0:0:0:
425,345,117802,6,0,L|306:343,1,111.999996582031,0|2,3:0|0:0,0:0:0:0:
35,243,118143,2,0,L|154:241,1,111.999996582031,8|2,0:0|0:0,0:0:0:0:
305,161,118484,2,0,L|193:162,1,111.999996582031,0|2,3:0|0:0,0:0:0:0:
349,212,118825,2,0,L|460:213,1,111.999996582031,10|0,0:0|0:0,0:0:0:0:
214,204,119166,6,0,P|165:168|235:110,1,167.999994873047,2|0,3:2|0:0,0:0:0:0:
310,76,119507,2,0,L|178:73,1,111.999996582031,10|0,0:0|0:0,0:0:0:0:
364,103,119762,2,0,P|397:139|335:172,1,111.999996582031,2|0,0:0|0:0,0:0:0:0:
200,183,120018,2,0,L|128:183,1,55.9999982910157,2|0,0:0|0:0,0:0:0:0:
304,227,120189,2,0,L|376:227,1,55.9999982910157,10|0,0:0|0:0,0:0:0:0:
172,240,120359,2,0,L|100:240,1,55.9999982910157,2|0,0:0|0:0,0:0:0:0:
278,283,120530,6,0,P|327:247|329:183,1,111.999996582031,2|0,3:2|0:0,0:0:0:0:
93,153,120870,1,10,0:0:0:0:
249,142,121041,1,0,0:0:0:0:
16,235,121211,6,0,L|107:237,1,55.9999982910157,2|0,3:2|0:0,0:0:0:0:
219,265,121467,2,0,L|128:267,1,55.9999982910157,2|8,0:0|0:0,0:0:0:0:
406,234,121723,1,2,3:2:0:0:
80,208,121893,6,0,P|36:172|116:122,1,167.999994873047,4|0,3:1|0:0,0:0:0:0:
301,203,122234,2,0,L|172:200,1,111.999996582031,10|0,0:0|0:0,0:0:0:0:
270,178,122490,2,0,P|308:140|273:106,1,111.999996582031,2|0,0:0|0:0,0:0:0:0:
196,84,122745,2,0,L|261:83,1,55.9999982910157,2|0,0:0|0:0,0:0:0:0:
329,40,122916,2,0,L|252:42,1,55.9999982910157,10|0,0:0|0:0,0:0:0:0:
114,94,123086,2,0,L|191:96,1,55.9999982910157,2|0,0:0|0:0,0:0:0:0:
334,99,123257,6,0,P|373:142|290:189,1,167.999994873047,2|0,3:2|0:0,0:0:0:0:
222,238,123598,2,0,L|381:232,1,111.999996582031,10|0,0:0|0:0,0:0:0:0:
174,201,123853,2,0,P|136:163|171:129,1,111.999996582031,2|0,0:0|0:0,0:0:0:0:
257,112,124109,2,0,L|332:111,1,55.9999982910157,0|0,0:0|0:0,0:0:0:0:
159,55,124279,2,0,L|84:54,1,55.9999982910157,10|0,0:0|0:0,0:0:0:0:
187,55,124450,2,0,L|262:54,1,55.9999982910157,2|0,0:0|0:0,0:0:0:0:
407,57,124620,6,0,L|228:60,1,167.999994873047,2|0,3:2|0:0,0:0:0:0:
436,92,124961,2,0,P|469:128|407:161,1,111.999996582031,10|0,0:0|0:0,0:0:0:0:
347,211,125217,2,0,L|494:212,1,111.999996582031,2|0,0:0|0:0,0:0:0:0:
294,214,125473,2,0,L|234:217,1,55.9999982910157,2|0,0:0|0:0,0:0:0:0:
457,166,125643,2,0,L|460:106,1,55.9999982910157,10|0,0:0|0:0,0:0:0:0:
266,79,125814,2,0,L|326:76,1,55.9999982910157,2|0,0:0|0:0,0:0:0:0:
493,47,125984,6,0,L|314:50,1,167.999994873047,2|0,3:2|0:0,0:0:0:0:
407,74,126325,2,0,P|440:110|378:143,1,111.999996582031,10|0,0:0|0:0,0:0:0:0:
250,247,126581,2,0,L|397:248,1,111.999996582031,2|0,0:0|0:0,0:0:0:0:
456,260,126836,2,0,L|453:195,1,55.9999982910157,2|0,0:0|0:0,0:0:0:0:
294,173,127007,1,10,0:0:0:0:
427,124,127177,2,0,L|353:127,1,55.9999982910157,0|0,1:0|1:0,0:0:0:0:
178,240,127348,6,0,P|132:205|207:163,1,167.999994873047,4|0,1:0|0:0,0:0:0:0:
414,182,127689,2,0,L|290:183,1,111.999996582031,8|0,0:0|0:0,0:0:0:0:
466,212,127944,2,0,P|483:252|405:276,1,111.999996582031,0|0,0:0|0:0,0:0:0:0:
269,291,128200,2,0,L|194:286,1,55.9999982910157,0|0,0:0|0:0,0:0:0:0:
402,271,128370,2,0,L|407:196,1,55.9999982910157,8|0,0:0|0:0,0:0:0:0:
214,157,128541,2,0,L|269:160,1,55.9999982910157,0|0,0:0|0:0,0:0:0:0:
493,86,128711,5,4,1:0:0:0:
352,82,128882,2,0,L|348:197,1,111.999996582031,2|8,0:0|0:0,0:0:0:0:
487,187,129223,1,2,0:0:0:0:
184,246,129393,1,0,3:0:0:0:
484,256,129564,1,2,0:0:0:0:
213,300,129734,2,0,L|101:296,1,111.999996582031,10|0,0:0|0:0,0:0:0:0:
344,93,130075,5,4,1:0:0:0:
195,89,130245,1,0,3:0:0:0:
433,144,130416,1,8,0:2:0:0:
108,135,130586,1,0,3:0:0:0:
363,246,130757,1,4,1:0:0:0:
218,219,130927,1,0,3:0:0:0:
72,242,131098,1,8,0:2:0:0:
379,119,131268,1,0,3:0:0:0:
76,80,131439,6,0,L|66:141,1,55.9999982910157,4|0,1:0|1:0,0:0:0:0:
147,145,131609,2,0,L|168:202,1,55.9999982910157,0|0,1:0|1:0,0:0:0:0:
248,195,131780,2,0,L|295:234,1,55.9999982910157,0|0,1:0|1:0,0:0:0:0:
374,233,131950,2,0,L|435:242,1,55.9999982910157,0|0,1:0|1:0,0:0:0:0:
241,261,132120,6,0,L|179:271,1,55.9999982910157,0|0,1:0|1:0,0:0:0:0:
432,186,132291,2,0,L|435:147,2,27.9999991455078,0|0|0,1:0|0:0|0:0,0:0:0:0:
268,148,132461,2,0,L|195:146,1,55.9999982910157,0|0,1:0|1:0,0:0:0:0:
294,154,132632,2,0,L|350:155,1,55.9999982910157,0|0,1:0|1:0,0:0:0:0:
68,145,132802,1,4,3:1:0:0:
387,116,135018,5,0,3:0:0:0:
126,116,135189,2,0,P|88:160|176:216,1,167.999994873047,8|0,0:0|0:0,0:0:0:0:
332,148,135530,6,0,L|421:148,1,80,4|0,3:1|0:0,0:0:0:0:
252,121,135871,2,0,L|163:121,1,80,8|0,0:0|0:0,0:0:0:0:
334,46,136212,2,0,L|254:46,1,80,0|0,3:0|0:0,0:0:0:0:
94,73,136553,2,0,L|174:73,1,80,8|0,0:0|0:0,0:0:0:0:
21,76,136893,6,0,L|15:159,1,80,0|2,3:0|0:0,0:0:0:0:
175,153,137234,2,0,L|181:236,1,80,8|2,0:0|0:0,0:0:0:0:
342,240,137575,2,0,L|259:246,1,80,0|0,0:0|0:0,0:0:0:0:
392,288,137916,1,8,0:0:0:0:
237,293,138086,1,0,0:0:0:0:
497,104,138257,6,0,L|417:103,1,80,0|0,3:0|0:0,0:0:0:0:
257,103,138598,2,0,L|177:102,1,80,8|0,0:0|0:0,0:0:0:0:
336,161,138939,2,0,L|257:161,1,80,0|0,3:0|0:0,0:0:0:0:
96,162,139280,2,0,L|17:162,1,80,8|0,0:0|0:0,0:0:0:0:
174,158,139620,6,0,L|182:250,1,80,0|0,3:0|0:0,0:0:0:0:
342,230,139961,2,0,L|250:238,1,80,10|0,0:0|0:0,0:0:0:0:
425,219,140302,2,0,L|417:127,1,80,2|0,3:2|0:0,0:0:0:0:
257,147,140643,2,0,L|349:139,1,80,10|0,0:0|0:0,0:0:0:0:
84,139,140984,6,0,L|79:224,1,80,0|0,3:0|0:0,0:0:0:0:
237,210,141325,2,0,L|242:295,1,80,8|0,0:0|0:0,0:0:0:0:
403,286,141666,2,0,L|408:201,1,80,0|0,3:0|0:0,0:0:0:0:
250,215,142007,2,0,L|245:130,1,80,8|0,0:0|0:0,0:0:0:0:
482,94,142348,6,0,L|394:91,1,80,2|0,3:2|0:0,0:0:0:0:
242,97,142689,2,0,L|330:94,1,80,10|0,0:0|0:0,0:0:0:0:
16,173,143030,6,0,L|21:234,1,40,0|10,3:0|0:0,0:0:0:0:
151,221,143285,2,0,L|146:282,1,40,0|2,0:0|3:2,0:0:0:0:
310,258,143541,1,0,3:0:0:0:
68,318,143711,5,0,3:1:0:0:
14,264,143881,1,0,0:0:0:0:
32,190,144051,1,8,0:0:0:0:
106,168,144222,1,0,0:0:0:0:
271,133,144393,2,0,L|359:131,1,80,0|2,3:0|0:0,0:0:0:0:
191,129,144734,2,0,L|103:127,1,80,8|0,0:0|0:0,0:0:0:0:
273,160,145075,6,0,L|275:248,1,80,0|2,3:0|0:0,0:0:0:0:
436,263,145416,2,0,L|348:265,1,80,8|2,0:0|0:0,0:0:0:0:
193,267,145757,2,0,L|191:179,1,80,0|0,0:0|0:0,0:0:0:0:
30,164,146098,2,0,L|118:162,1,80,8|0,0:0|0:0,0:0:0:0:
349,144,146439,6,0,L|252:147,1,80,0|0,3:0|0:0,0:0:0:0:
404,210,146780,2,0,L|316:205,1,80,8|0,0:0|0:0,0:0:0:0:
169,224,147120,2,0,L|266:227,1,80,0|2,3:0|0:0,0:0:0:0:
114,290,147461,2,0,L|202:285,1,80,8|0,0:0|0:0,0:0:0:0:
353,308,147802,5,0,3:0:0:0:
426,284,147972,1,2,0:0:0:0:
452,212,148142,1,8,0:0:0:0:
409,147,148313,1,2,0:0:0:0:
254,104,148484,2,0,L|334:107,1,80
177,163,148825,1,8,0:0:0:0:
333,170,148995,2,0,L|293:170,1,40,0|0,0:0|0:0,0:0:0:0:
95,179,149166,6,0,L|4:182,1,80,4|0,3:1|0:0,0:0:0:0:
180,123,149507,2,0,L|183:214,1,80,8|0,0:0|0:0,0:0:0:0:
417,205,149848,2,8,L|508:202,1,80,4|8,3:1|0:0,0:0:0:0:
341,198,150189,2,0,L|338:107,1,80,8|0,0:0|0:0,0:0:0:0:
90,111,150530,6,0,L|181:108,1,80,4|0,3:1|0:0,0:0:0:0:
13,167,150870,2,0,L|16:258,1,80,8|0,0:0|0:0,0:0:0:0:
412,246,151211,2,0,L|321:249,1,80,4|2,3:1|0:0,0:0:0:0:
489,190,151552,2,0,L|486:99,1,80,8|2,0:0|0:0,0:0:0:0:
48,56,151893,5,4,3:1:0:0:
184,56,152064,1,0,3:0:0:0:
320,56,152234,1,0,3:0:0:0:
456,56,152405,1,0,3:0:0:0:
206,129,152575,2,0,L|201:183,1,40,0|0,3:0|3:0,0:0:0:0:
361,173,152831,2,0,L|366:227,1,40,0|2,3:0|0:0,0:0:0:0:
118,218,153086,1,0,0:0:0:0:
415,267,153257,6,0,L|419:176,1,80,0|2,3:0|0:0,0:0:0:0:
286,182,153598,2,0,L|323:99,1,80,2|2,0:0|0:0,0:0:0:0:
175,105,153939,2,0,L|241:42,1,80,2|2,0:0|0:0,0:0:0:0:
67,56,154280,2,0,L|151:22,1,80,0|2,0:0|0:0,0:0:0:0:
401,123,154620,6,0,L|292:125,1,80,4|2,0:1|0:2,0:0:0:0:
481,140,154961,2,0,L|486:231,1,80,8|2,0:2|0:2,0:0:0:0:
321,217,155302,2,0,L|323:273,1,40,0|2,0:0|0:2,0:0:0:0:
400,254,155473,2,0,L|402:310,1,40,2|0,0:2|0:0,0:0:0:0:
325,277,155643,2,0,L|327:368,1,80,10|0,0:2|0:0,0:0:0:0:
485,324,155984,6,0,L|376:326,1,80,0|2,0:0|0:2,0:0:0:0:
244,309,156325,1,8,0:2:0:0:
408,254,156495,2,0,L|410:198,1,40,0|0,0:0|0:0,0:0:0:0:
336,168,156666,2,0,L|382:169,1,40,0|2,0:0|0:2,0:0:0:0:
456,170,156836,1,2,0:2:0:0:
294,112,157007,2,0,L|374:114,1,80,10|0,0:2|0:0,0:0:0:0:
132,112,157348,6,0,L|129:196,1,80,0|2,0:0|0:2,0:0:0:0:
284,185,157689,2,0,L|287:269,1,80,8|2,0:2|0:2,0:0:0:0:
128,262,158030,2,0,L|127:313,1,40,0|2,0:0|0:2,0:0:0:0:
205,302,158200,2,0,L|204:353,1,40,2|0,0:2|0:0,0:0:0:0:
126,338,158370,1,10,0:2:0:0:
287,297,158541,1,0,0:0:0:0:
117,222,158711,6,0,L|220:224,1,80,0|2,0:0|0:2,0:0:0:0:
40,222,159052,1,8,0:2:0:0:
199,177,159223,2,0,L|248:177,1,40,0|0,0:0|0:0,0:0:0:0:
159,178,159393,2,0,L|160:127,1,40,0|2,0:0|0:2,0:0:0:0:
245,131,159564,1,2,0:2:0:0:
101,119,159734,2,0,L|20:118,1,80,8|2,0:2|0:2,0:0:0:0:
255,54,160075,6,0,L|342:56,1,80,0|2,0:0|0:2,0:0:0:0:
176,59,160416,1,8,0:2:0:0:
335,102,160586,2,0,L|290:102,1,40,2|0,0:2|0:0,0:0:0:0:
219,101,160757,2,0,L|218:149,1,40,2|0,0:2|0:0,0:0:0:0:
295,145,160927,1,0,0:0:0:0:
135,185,161098,2,0,L|232:189,1,80,10|2,0:2|0:2,0:0:0:0:
474,127,161439,6,0,L|384:127,1,80,0|2,0:0|0:2,0:0:0:0:
237,125,161780,2,0,L|321:127,1,80,10|0,0:2|0:0,0:0:0:0:
161,158,162120,2,0,L|112:158,1,40,2|0,0:2|0:0,0:0:0:0:
202,211,162291,2,0,L|153:211,1,40,0|0,0:0|0:0,0:0:0:0:
79,209,162461,2,0,L|77:297,1,80,10|2,0:2|0:2,0:0:0:0:
327,286,162802,6,0,L|231:283,1,80,0|0,0:0|0:0,0:0:0:0:
407,280,163143,1,8,0:2:0:0:
249,183,163314,2,0,L|206:181,1,40,2|0,0:2|0:0,0:0:0:0:
290,144,163485,2,0,L|333:142,1,40,0|0,0:0|0:0,0:0:0:0:
410,132,163655,1,2,0:2:0:0:
243,90,163825,2,0,L|331:90,1,80,10|0,0:2|0:0,0:0:0:0:
163,90,164166,6,0,L|160:183,1,80,0|0,0:0|0:0,0:0:0:0:
326,196,164507,1,8,0:2:0:0:
193,204,164677,2,0,L|141:207,1,40,2|0,0:2|0:0,0:0:0:0:
235,202,164848,2,0,L|238:254,1,40,0|2,0:0|0:2,0:0:0:0:
156,246,165018,1,2,0:2:0:0:
316,274,165189,2,0,L|230:275,1,80,10|0,0:2|0:0,0:0:0:0:
474,268,165530,6,0,L|470:176,1,80,4|2,0:1|0:2,0:0:0:0:
301,187,165870,2,0,L|305:95,1,80,8|2,0:2|0:2,0:0:0:0:
143,70,166211,2,0,L|183:71,1,40,0|2,0:0|0:2,0:0:0:0:
261,76,166382,2,0,L|262:116,1,40,2|0,0:2|0:0,0:0:0:0:
184,117,166552,1,10,0:2:0:0:
336,120,166723,1,0,0:0:0:0:
178,159,166893,6,0,L|268:160,1,80,0|2,0:0|0:2,0:0:0:0:
98,161,167234,1,8,0:2:0:0:
256,204,167405,2,0,L|299:200,1,40,0|0,0:0|0:0,0:0:0:0:
217,262,167575,2,0,L|260:258,1,40,0|2,0:0|0:2,0:0:0:0:
345,303,167745,1,2,0:2:0:0:
181,302,167916,2,0,L|91:303,1,80,10|0,0:2|0:0,0:0:0:0:
348,237,168257,6,0,L|349:147,1,80,0|2,0:0|0:2,0:0:0:0:
184,154,168598,2,0,L|183:64,1,80,8|2,0:2|0:2,0:0:0:0:
350,58,168939,2,0,L|350:107,1,40,0|2,0:0|0:2,0:0:0:0:
273,101,169109,2,0,L|273:150,1,40,2|0,0:2|0:0,0:0:0:0:
356,182,169280,2,0,L|276:181,1,80,10|0,0:2|0:0,0:0:0:0:
16,247,169620,6,0,L|125:248,1,80,0|2,0:0|0:2,0:0:0:0:
254,246,169961,1,8,0:2:0:0:
100,303,170132,2,0,L|101:355,1,40,0|0,0:0|0:0,0:0:0:0:
178,338,170302,2,0,L|230:337,1,40,0|0,0:0|0:0,0:0:0:0:
134,305,170473,1,2,0:2:0:0:
292,297,170643,2,0,L|371:296,1,80,10|0,0:2|0:0,0:0:0:0:
130,231,170984,6,0,L|116:102,1,120,4|0,1:0|0:0,0:0:0:0:
276,182,171325,6,0,L|291:34,1,143.999995605469,4|0,1:0|0:0,0:0:0:0:
97,51,171666,6,0,L|271:68,1,167.999994873047,4|0,1:0|0:0,0:0:0:0:
497,102,172007,6,0,L|302:123,1,192,4|0,1:0|0:0,0:0:0:0:
140,128,172348,6,0,L|134:222,1,80,4|0,3:1|0:0,0:0:0:0:
296,204,172689,2,0,L|302:298,1,80,0|0,3:0|0:0,0:0:0:0:
43,279,173030,1,4,3:1:0:0:
205,271,173200,2,0,L|202:187,1,80,0|2,0:0|3:2,0:0:0:0:
45,199,173541,1,0,0:0:0:0:
351,154,173711,5,4,3:1:0:0:
206,128,173882,1,0,3:0:0:0:
61,131,174052,1,0,3:0:0:0:
406,107,174223,1,4,3:1:0:0:
261,81,174394,1,0,3:0:0:0:
418,37,174564,1,0,3:0:0:0:
163,59,174734,1,4,3:1:0:0:
18,33,174905,1,0,3:0:0:0:
282,148,175075,6,0,L|355:150,1,40,2|0,1:2|1:0,0:0:0:0:
241,172,175245,2,0,L|168:174,1,40,0|0,1:0|1:0,0:0:0:0:
359,202,175416,2,0,L|432:204,1,40,0|0,1:0|1:0,0:0:0:0:
318,226,175586,2,0,L|245:228,1,40,0|0,1:0|1:0,0:0:0:0:
115,227,175757,6,0,L|111:298,1,64,0|0,1:0|1:0,0:0:0:0:
276,290,175927,1,0,1:0:0:0:
277,321,175969,1,0,0:0:0:0:
279,353,176012,1,0,1:0:0:0:
26,345,176098,6,0,L|155:347,1,128,2|2,1:2|0:0,0:0:0:0:
418,153,176439,6,0,L|307:153,1,95.9999970703126,4|2,3:1|0:0,0:0:0:0:
68,153,176780,1,8,0:0:0:0:
228,200,176950,2,0,L|276:203,2,47.9999985351563,2|0|0,0:0|0:0|3:0,0:0:0:0:
67,214,177291,1,2,0:0:0:0:
326,227,177461,2,0,L|437:227,1,95.9999970703126,8|2,0:0|0:0,0:0:0:0:
153,227,177802,6,0,L|151:125,1,95.9999970703126,0|2,3:0|0:0,0:0:0:0:
314,125,178143,2,0,L|212:126,1,95.9999970703126,10|0,0:0|0:0,0:0:0:0:
377,127,178399,2,0,L|381:225,1,95.9999970703126,2|0,0:0|0:0,0:0:0:0:
302,224,178655,2,0,L|298:282,1,47.9999985351563,2|0,3:2|0:0,0:0:0:0:
454,302,178825,2,0,L|394:302,1,47.9999985351563,10|0,0:0|0:0,0:0:0:0:
323,305,178995,2,0,L|263:305,1,47.9999985351563
436,260,179166,6,0,L|437:161,1,95.9999970703126,0|2,3:0|0:0,0:0:0:0:
193,143,179507,1,8,0:0:0:0:
355,176,179677,2,0,L|301:174,1,47.9999985351563,2|0,0:0|0:0,0:0:0:0:
221,177,179848,2,0,L|111:173,1,95.9999970703126,0|2,3:0|0:0,0:0:0:0:
388,222,180189,2,0,L|392:332,1,95.9999970703126,8|2,0:0|0:0,0:0:0:0:
117,265,180530,6,0,L|249:267,1,95.9999970703126,0|2,3:0|0:0,0:0:0:0:
51,221,180870,2,0,L|50:317,1,95.9999970703126,10|0,0:0|0:0,0:0:0:0:
255,309,181126,2,0,L|152:307,1,95.9999970703126,2|0,0:0|0:0,0:0:0:0:
248,282,181382,2,0,L|255:231,1,47.9999985351563,2|0,3:2|0:0,0:0:0:0:
98,216,181552,2,0,L|50:209,1,47.9999985351563,10|0,0:0|0:0,0:0:0:0:
138,205,181723,2,0,L|185:198,1,47.9999985351563
392,216,181893,6,0,L|495:215,1,95.9999970703126,0|2,3:0|0:0,0:0:0:0:
188,142,182234,1,8,0:0:0:0:
352,136,182405,2,0,L|355:192,1,47.9999985351563,2|0,0:0|0:0,0:0:0:0:
269,188,182575,1,0,3:0:0:0:
101,187,182745,1,2,0:0:0:0:
380,250,182916,2,0,L|492:245,1,95.9999970703126,8|2,0:0|0:0,0:0:0:0:
212,246,183257,6,0,L|205:188,1,47.9999985351563,0|0,3:0|0:0,0:0:0:0:
288,197,183427,2,0,L|295:139,1,47.9999985351563,2|0,0:0|0:0,0:0:0:0:
74,118,183598,2,0,L|177:117,1,95.9999970703126,10|0,0:0|0:0,0:0:0:0:
236,117,183853,1,0,0:0:0:0:
406,114,183939,2,0,L|401:168,1,47.9999985351563,2|0,0:0|0:0,0:0:0:0:
242,175,184109,2,0,L|188:174,1,47.9999985351563,2|0,0:0|0:0,0:0:0:0:
352,211,184280,2,0,L|357:265,1,47.9999985351563,10|0,0:0|0:0,0:0:0:0:
275,265,184450,2,0,L|221:264,1,47.9999985351563
65,222,184620,6,0,L|174:226,1,95.9999970703126,2|0,3:2|0:0,0:0:0:0:
321,157,184961,2,0,L|212:161,1,95.9999970703126,10|0,0:0|0:0,0:0:0:0:
484,158,185302,2,0,L|375:154,1,95.9999970703126,2|0,3:2|0:0,0:0:0:0:
228,223,185643,2,0,L|337:219,1,95.9999970703126,10|0,0:0|0:0,0:0:0:0:
37,133,185984,5,2,3:2:0:0:
286,125,186155,1,2,0:0:0:0:
32,202,186325,1,10,0:0:0:0:
191,198,186495,1,2,0:0:0:0:
473,196,186666,6,0,L|415:194,1,47.9999985351563,0|10,3:0|0:0,0:0:0:0:
274,167,186922,2,0,L|332:165,1,47.9999985351563,0|2,0:0|1:2,0:0:0:0:
481,143,187177,1,0,1:0:0:0:
94,153,187348,6,0,L|205:153,1,95.9999970703126,4|2,3:1|0:0,0:0:0:0:
444,153,187689,1,8,0:0:0:0:
284,200,187859,2,0,L|236:203,2,47.9999985351563,2|0|0,0:0|0:0|3:0,0:0:0:0:
445,214,188200,1,2,0:0:0:0:
186,227,188370,2,0,L|75:227,1,95.9999970703126,8|2,0:0|0:0,0:0:0:0:
359,227,188711,6,0,L|361:125,1,95.9999970703126,0|2,3:0|0:0,0:0:0:0:
198,125,189052,2,0,L|300:126,1,95.9999970703126,10|0,0:0|0:0,0:0:0:0:
135,127,189308,2,0,L|131:225,1,95.9999970703126,2|0,0:0|0:0,0:0:0:0:
210,224,189564,2,0,L|214:282,1,47.9999985351563,2|0,3:2|0:0,0:0:0:0:
58,302,189734,2,0,L|118:302,1,47.9999985351563,10|0,0:0|0:0,0:0:0:0:
189,305,189904,2,0,L|249:305,1,47.9999985351563,0|0,0:0|0:0,0:0:0:0:
76,260,190075,6,0,L|75:161,1,95.9999970703126,0|2,3:0|0:0,0:0:0:0:
319,143,190416,1,8,0:0:0:0:
157,176,190586,2,0,L|211:174,1,47.9999985351563,2|0,0:0|0:0,0:0:0:0:
291,177,190757,2,0,L|401:173,1,95.9999970703126,0|2,3:0|0:0,0:0:0:0:
124,222,191098,2,0,L|120:332,1,95.9999970703126,8|2,0:0|0:0,0:0:0:0:
395,265,191439,6,0,L|263:267,1,95.9999970703126,0|2,3:0|0:0,0:0:0:0:
461,221,191779,2,0,L|462:317,1,95.9999970703126,10|0,0:0|0:0,0:0:0:0:
257,309,192035,2,0,L|360:307,1,95.9999970703126,2|0,0:0|0:0,0:0:0:0:
264,282,192291,2,0,L|257:231,1,47.9999985351563,2|0,3:2|0:0,0:0:0:0:
422,190,192461,1,8,1:0:0:0:
292,183,192632,2,0,L|244:176,1,47.9999985351563,0|0,1:0|1:0,0:0:0:0:
494,252,192802,6,0,L|499:156,1,95.9999970703126,4|2,1:0|0:0,0:0:0:0:
367,155,193143,2,0,L|407:67,1,95.9999970703126,8|2,0:0|0:0,0:0:0:0:
251,96,193484,2,0,L|321:30,1,95.9999970703126,0|2,3:0|0:0,0:0:0:0:
168,67,193825,2,0,L|257:32,1,95.9999970703126,8|2,0:0|0:0,0:0:0:0:
18,252,194166,6,0,L|13:156,1,95.9999970703126,4|2,1:0|0:0,0:0:0:0:
145,155,194507,2,0,L|104:67,1,95.9999970703126,8|0,0:0|0:0,0:0:0:0:
261,96,194848,2,0,L|190:30,1,95.9999970703126,0|2,3:0|0:0,0:0:0:0:
344,67,195189,2,0,L|254:32,1,95.9999970703126,10|0,0:0|0:0,0:0:0:0:
491,122,195530,5,2,1:2:0:0:
338,133,195700,1,2,0:2:0:0:
192,143,195870,1,10,0:2:0:0:
455,191,196041,1,2,0:2:0:0:
21,122,196211,5,0,1:0:0:0:
174,133,196381,1,2,0:2:0:0:
320,143,196551,1,8,0:0:0:0:
57,191,196722,1,2,0:2:0:0:
494,204,196893,6,0,L|442:199,1,47.9999985351563,2|0,1:2|1:0,0:0:0:0:
287,191,197064,2,0,L|282:139,1,47.9999985351563,2|0,1:2|0:0,0:0:0:0:
443,148,197234,2,0,L|438:96,1,47.9999985351563,2|0,1:2|1:0,0:0:0:0:
283,95,197405,2,0,L|231:90,1,47.9999985351563,2|0,1:2|0:0,0:0:0:0:
46,129,197575,6,0,L|40:184,1,47.9999985351563,0|0,1:0|1:0,0:0:0:0:
252,128,197745,2,0,L|258:183,1,47.9999985351563,2|0,1:2|1:0,0:0:0:0:
37,210,197916,2,0,L|31:249,6,27.9999991455078,2|0|0|0|0|0|0,1:2|0:0|1:0|0:0|1:0|0:0|1:0,0:0:0:0:
236,222,198257,6,0,L|61:217,1,167.999994873047,4|0,3:1|0:0,0:0:0:0:
231,189,198598,2,0,P|268:148|231:130,1,111.999996582031,10|0,0:0|0:0,0:0:0:0:
147,103,198853,2,0,L|286:107,1,111.999996582031,2|0,0:0|0:0,0:0:0:0:
341,137,199109,2,0,L|277:138,1,55.9999982910157,2|0,0:0|0:0,0:0:0:0:
199,158,199280,2,0,L|263:159,1,55.9999982910157,10|0,0:0|0:0,0:0:0:0:
412,193,199450,2,0,L|348:194,1,55.9999982910157,2|0,0:0|0:0,0:0:0:0:
188,193,199620,6,0,P|142:239|212:290,1,167.999994873047,2|0,3:2|0:0,0:0:0:0:
291,258,199961,2,0,L|126:257,1,111.999996582031,10|0,0:0|0:0,0:0:0:0:
333,279,200217,2,0,P|367:249|329:198,1,111.999996582031,2|0,0:0|0:0,0:0:0:0:
256,178,200473,2,0,L|171:176,1,55.9999982910157,2|0,0:0|0:0,0:0:0:0:
370,157,200643,2,0,L|439:160,1,55.9999982910157,10|0,0:0|0:0,0:0:0:0:
345,131,200814,2,0,L|276:134,1,55.9999982910157,2|0,0:0|0:0,0:0:0:0:
456,119,200984,6,0,P|445:183|338:213,1,167.999994873047,2|0,3:2|0:0,0:0:0:0:
192,252,201325,2,0,L|307:255,1,111.999996582031,10|0,0:0|0:0,0:0:0:0:
223,237,201581,2,0,P|161:216|146:162,1,111.999996582031,2|0,0:0|0:0,0:0:0:0:
307,137,201836,2,0,L|316:72,1,55.9999982910157,2|0,0:0|0:0,0:0:0:0:
118,46,202007,2,0,L|174:46,1,55.9999982910157,10|0,0:0|0:0,0:0:0:0:
337,44,202177,2,0,L|281:44,1,55.9999982910157,2|0,0:0|0:0,0:0:0:0:
81,218,202348,6,0,L|261:221,1,167.999994873047,2|0,3:2|0:0,0:0:0:0:
325,182,202689,2,0,L|170:177,1,111.999996582031,10|0,0:0|3:0,0:0:0:0:
383,179,202944,2,0,L|382:303,1,111.999996582031,2|0,0:0|0:0,0:0:0:0:
297,291,203200,2,0,L|227:284,1,55.9999982910157,2|0,0:0|0:0,0:0:0:0:
410,222,203370,2,0,L|417:292,1,55.9999982910157,10|0,0:0|0:0,0:0:0:0:
334,311,203541,2,0,L|264:318,1,55.9999982910157,2|0,3:2|0:0,0:0:0:0:
444,318,203711,6,0,P|501:282|427:236,1,167.999994873047,2|0,3:2|0:0,0:0:0:0:
286,227,204052,2,0,L|150:222,1,111.999996582031,10|0,0:0|0:0,0:0:0:0:
257,176,204308,2,0,L|393:171,1,111.999996582031,2|0,0:0|0:0,0:0:0:0:
285,146,204564,2,0,L|279:81,1,55.9999982910157,2|0,0:0|0:0,0:0:0:0:
469,46,204734,2,0,L|404:52,1,55.9999982910157,10|0,0:0|0:0,0:0:0:0:
217,64,204905,2,0,L|152:70,1,55.9999982910157,2|0,0:0|0:0,0:0:0:0:
321,88,205075,6,0,L|327:206,1,111.999996582031,0|2,3:2|0:0,0:0:0:0:
74,188,205416,1,8,0:0:0:0:
226,196,205586,1,2,0:0:0:0:
69,266,205757,2,0,L|63:148,1,111.999996582031,0|2,3:0|0:0,0:0:0:0:
215,96,206098,1,10,0:0:0:0:
63,104,206268,1,0,0:0:0:0:
320,101,206439,6,0,P|374:134|322:208,1,167.999994873047,2|0,3:2|0:0,0:0:0:0:
251,217,206780,2,0,P|212:167|251:141,1,111.999996582031,8|0,0:0|0:0,0:0:0:0:
325,118,207035,2,0,L|181:114,1,111.999996582031,2|0,0:0|0:0,0:0:0:0:
377,56,207291,2,0,L|440:58,1,55.9999982910157,2|0,0:0|0:0,0:0:0:0:
269,61,207461,2,0,L|206:63,1,55.9999982910157,10|0,0:0|0:0,0:0:0:0:
410,100,207632,2,0,L|473:102,1,55.9999982910157,2|0,0:0|0:0,0:0:0:0:
302,103,207802,6,0,P|255:136|329:183,1,167.999994873047,2|0,3:2|0:0,0:0:0:0:
484,239,208143,2,0,L|364:237,1,111.999996582031,10|0,0:0|0:0,0:0:0:0:
123,234,208484,2,0,L|211:234,1,55.9999982910157,2|0,3:2|0:0,0:0:0:0:
46,232,208740,2,0,L|40:170,1,55.9999982910157,2|8,0:0|0:0,0:0:0:0:
301,147,208995,1,2,0:0:0:0:
31,111,209166,6,0,L|214:107,1,167.999994873047,4|0,3:1|0:0,0:0:0:0:
365,128,209507,2,0,L|251:133,1,111.999996582031,2|0,0:0|0:0,0:0:0:0:
343,151,209762,2,0,L|348:265,1,111.999996582031,2|0,0:0|0:0,0:0:0:0:
267,262,210018,1,2,0:0:0:0:
433,306,210189,1,2,0:0:0:0:
179,297,210359,1,2,0:0:0:0:
478,213,210530,6,0,L|295:217,1,167.999994873047,4|0,3:1|0:0,0:0:0:0:
144,196,210871,2,0,L|258:191,1,111.999996582031,2|0,0:0|0:0,0:0:0:0:
166,173,211126,2,0,L|161:59,1,111.999996582031,2|0,0:0|0:0,0:0:0:0:
242,59,211382,1,2,0:0:0:0:
86,65,211552,1,2,0:0:0:0:
330,106,211723,1,2,0:0:0:0:
29,186,211893,6,0,L|213:187,1,167.999994873047,4|0,3:1|0:0,0:0:0:0:
32,120,212234,2,0,L|191:119,1,111.999996582031,2|0,0:0|0:0,0:0:0:0:
230,100,212490,2,0,L|71:99,1,111.999996582031,2|0,0:0|0:0,0:0:0:0:
201,107,212745,1,0,0:0:0:0:
363,129,212916,1,2,0:0:0:0:
104,149,213086,1,2,0:0:0:0:
442,191,213257,6,0,L|258:190,1,167.999994873047,4|0,3:1|0:0,0:0:0:0:
439,257,213598,2,0,L|280:258,1,111.999996582031,2|0,0:0|0:0,0:0:0:0:
241,277,213854,2,0,L|400:278,1,111.999996582031,2|0,0:0|0:0,0:0:0:0:
270,270,214109,1,2,0:0:0:0:
108,248,214280,1,2,0:0:0:0:
367,228,214450,1,2,0:0:0:0:
28,199,214620,5,4,1:0:0:0:
169,194,214791,1,2,0:0:0:0:
16,119,214961,1,0,0:0:0:0:
255,111,215132,1,2,0:0:0:0:
484,199,215302,5,4,1:0:0:0:
343,194,215473,1,2,0:0:0:0:
496,119,215643,1,0,0:0:0:0:
257,111,215814,1,2,0:0:0:0:
19,81,215984,6,0,L|163:86,1,111.999996582031,4|2,1:0|0:0,0:0:0:0:
493,81,216325,2,0,L|349:86,1,111.999996582031,0|2,0:0|0:0,0:0:0:0:
80,142,216666,5,4,1:0:0:0:
329,153,216836,1,2,0:0:0:0:
183,153,217007,1,0,0:0:0:0:
432,142,217177,1,2,0:0:0:0:
175,226,217348,6,0,L|147:290,1,55.9999982910157,0|0,0:0|0:0,0:0:0:0:
337,158,217518,2,0,L|359:106,1,55.9999982910157,0|0,0:0|0:0,0:0:0:0:
154,195,217689,2,0,L|106:245,1,55.9999982910157
358,189,217859,2,0,L|397:149,1,55.9999982910157
128,164,218030,6,0,L|65:196,1,55.9999982910157
384,220,218200,2,0,L|420:234,2,27.9999991455078
119,144,218370,2,0,L|114:98,6,27.9999991455078,0|0|0|0|0|0|0,0:0|0:0|0:0|0:0|0:0|0:0|0:0,0:0:0:0:
276,165,218711,6,0,L|278:232,1,55.9999982910157,0|0,0:0|0:0,0:0:0:0:
194,219,218882,2,0,L|196:286,1,55.9999982910157,0|0,0:0|0:0,0:0:0:0:
278,267,219052,2,0,P|328:225|266:161,1,167.999994873047,0|0,0:0|0:0,0:0:0:0:
100,160,219393,6,0,L|168:161,3,55.9999982910157,2|2|2|2,3:2|3:2|3:2|3:2,0:0:0:0:
354,138,219734,1,8,3:0:0:0:
80,208,220075,6,0,P|36:172|116:122,1,167.999994873047,0|0,0:0|0:0,0:0:0:0:
301,203,220416,2,0,L|172:200,1,111.999996582031,10|0,0:0|0:0,0:0:0:0:
270,178,220672,2,0,P|308:140|273:106,1,111.999996582031,2|0,0:0|0:0,0:0:0:0:
196,84,220927,2,0,L|261:83,1,55.9999982910157,2|0,0:0|0:0,0:0:0:0:
329,40,221098,2,0,L|252:42,1,55.9999982910157,10|0,0:0|0:0,0:0:0:0:
114,94,221268,2,0,L|191:96,1,55.9999982910157,2|0,0:0|0:0,0:0:0:0:
334,99,221439,6,0,P|373:142|290:189,1,167.999994873047,2|0,3:2|0:0,0:0:0:0:
222,238,221780,2,0,L|381:232,1,111.999996582031,10|0,0:0|0:0,0:0:0:0:
174,201,222035,2,0,P|136:163|171:129,1,111.999996582031,2|0,0:0|0:0,0:0:0:0:
257,112,222291,2,0,L|332:111,1,55.9999982910157,2|0,0:0|0:0,0:0:0:0:
159,55,222461,2,0,L|84:54,1,55.9999982910157,10|0,0:0|0:0,0:0:0:0:
187,55,222632,2,0,L|262:54,1,55.9999982910157,2|0,0:0|0:0,0:0:0:0:
407,57,222802,6,0,L|228:60,1,167.999994873047,2|0,3:2|0:0,0:0:0:0:
436,92,223143,2,0,P|469:128|407:161,1,111.999996582031,10|0,0:0|0:0,0:0:0:0:
347,211,223399,2,0,L|494:212,1,111.999996582031,2|0,0:0|0:0,0:0:0:0:
301,208,223655,2,0,L|241:211,1,55.9999982910157,2|0,0:0|0:0,0:0:0:0:
459,227,223825,2,0,L|456:287,1,55.9999982910157,10|0,0:0|0:0,0:0:0:0:
285,298,223996,2,0,L|345:301,1,55.9999982910157,2|0,0:0|0:0,0:0:0:0:
495,208,224166,6,0,L|316:211,1,167.999994873047,2|0,3:2|0:0,0:0:0:0:
412,215,224507,2,0,P|445:251|383:284,1,111.999996582031,10|0,0:0|0:0,0:0:0:0:
255,314,224763,2,0,L|402:315,1,111.999996582031,2|0,0:0|0:0,0:0:0:0:
456,260,225018,2,0,L|453:195,1,55.9999982910157,2|0,0:0|0:0,0:0:0:0:
368,200,225189,2,0,L|371:135,1,55.9999982910157,10|0,0:0|0:0,0:0:0:0:
457,139,225359,2,0,L|454:74,1,55.9999982910157,2|0,0:0|0:0,0:0:0:0:
286,86,225530,6,0,P|214:101|175:197,1,167.999994873047,2|0,3:2|0:0,0:0:0:0:
337,189,225871,2,0,L|470:189,1,111.999996582031,10|0,0:0|0:0,0:0:0:0:
367,223,226126,2,0,L|244:223,1,111.999996582031,2|0,0:0|0:0,0:0:0:0:
173,243,226382,2,0,L|243:242,1,55.9999982910157,2|0,0:0|0:0,0:0:0:0:
60,239,226552,2,0,L|51:295,1,55.9999982910157,10|0,0:0|0:0,0:0:0:0:
251,292,226723,2,0,L|260:348,1,55.9999982910157,2|0,0:0|0:0,0:0:0:0:
95,345,226893,6,0,L|214:343,1,111.999996582031,0|2,3:0|0:0,0:0:0:0:
477,243,227234,2,0,L|358:241,1,111.999996582031,8|2,0:0|0:0,0:0:0:0:
207,161,227575,2,0,L|319:162,1,111.999996582031,0|2,3:0|0:0,0:0:0:0:
163,212,227916,2,0,L|52:213,1,111.999996582031,10|0,0:0|0:0,0:0:0:0:
298,204,228257,6,0,P|347:168|277:110,1,167.999994873047,2|0,3:2|0:0,0:0:0:0:
202,76,228598,2,0,L|334:73,1,111.999996582031,10|0,0:0|0:0,0:0:0:0:
148,103,228853,2,0,P|115:139|177:172,1,111.999996582031,2|0,0:0|0:0,0:0:0:0:
312,183,229109,2,0,L|384:183,1,55.9999982910157,2|0,0:0|0:0,0:0:0:0:
208,227,229280,2,0,L|136:227,1,55.9999982910157,10|0,0:0|0:0,0:0:0:0:
340,240,229450,2,0,L|412:240,1,55.9999982910157,2|0,0:0|0:0,0:0:0:0:
239,185,229621,6,0,P|178:228|175:278,1,111.999996582031,2|0,3:2|0:0,0:0:0:0:
419,153,229961,1,10,0:0:0:0:
263,142,230132,1,0,0:0:0:0:
496,235,230302,6,0,L|405:237,1,55.9999982910157,2|0,3:2|0:0,0:0:0:0:
293,265,230558,2,0,L|384:267,1,55.9999982910157,2|8,0:0|0:0,0:0:0:0:
106,234,230814,1,2,0:0:0:0:
432,208,230984,6,0,P|476:172|396:122,1,167.999994873047,4|0,3:1|0:0,0:0:0:0:
211,203,231325,2,0,L|340:200,1,111.999996582031,10|0,0:0|0:0,0:0:0:0:
242,178,231581,2,0,P|204:140|239:106,1,111.999996582031,2|0,0:0|0:0,0:0:0:0:
316,84,231836,2,0,L|251:83,1,55.9999982910157,2|0,0:0|0:0,0:0:0:0:
183,40,232007,2,0,L|260:42,1,55.9999982910157,10|0,0:0|0:0,0:0:0:0:
398,94,232177,2,0,L|321:96,1,55.9999982910157,2|0,0:0|0:0,0:0:0:0:
178,99,232348,6,0,P|139:142|222:189,1,167.999994873047,2|0,3:2|0:0,0:0:0:0:
290,238,232689,2,0,L|131:232,1,111.999996582031,10|0,0:0|0:0,0:0:0:0:
338,201,232944,2,0,P|376:163|341:129,1,111.999996582031,2|0,0:0|0:0,0:0:0:0:
255,112,233200,2,0,L|180:111,1,55.9999982910157,2|0,0:0|0:0,0:0:0:0:
353,55,233370,2,0,L|428:54,1,55.9999982910157,10|0,0:0|0:0,0:0:0:0:
325,55,233541,2,0,L|250:54,1,55.9999982910157,2|0,0:0|0:0,0:0:0:0:
105,57,233711,6,0,L|284:60,1,167.999994873047,2|0,3:2|0:0,0:0:0:0:
76,92,234052,2,0,P|43:128|105:161,1,111.999996582031,10|0,0:0|0:0,0:0:0:0:
165,211,234308,2,0,L|18:212,1,111.999996582031,2|0,0:0|0:0,0:0:0:0:
213,207,234564,2,0,L|216:147,1,55.9999982910157,2|0,0:0|0:0,0:0:0:0:
19,153,234734,2,0,L|82:142,1,55.9999982910157,10|0,0:0|0:0,0:0:0:0:
158,113,234905,2,0,L|218:110,1,55.9999982910157,2|0,0:0|0:0,0:0:0:0:
52,79,235075,6,0,L|231:82,1,167.999994873047,2|0,3:2|0:0,0:0:0:0:
131,119,235416,2,0,P|113:158|166:190,1,111.999996582031,10|0,0:0|0:0,0:0:0:0:
329,247,235672,2,0,L|182:248,1,111.999996582031,2|0,0:0|0:0,0:0:0:0:
137,254,235927,2,0,L|140:189,1,55.9999982910157,2|0,0:0|0:0,0:0:0:0:
302,143,236098,1,10,0:0:0:0:
172,131,236268,2,0,L|98:134,1,55.9999982910157,2|2,1:2|1:2,0:0:0:0:
334,240,236439,6,0,P|380:205|305:163,1,167.999994873047,4|0,1:0|0:0,0:0:0:0:
98,182,236780,2,0,L|222:183,1,111.999996582031,8|0,0:0|0:0,0:0:0:0:
46,212,237035,2,0,P|29:252|107:276,1,111.999996582031,0|0,0:0|0:0,0:0:0:0:
243,291,237291,2,0,L|318:286,1,55.9999982910157,0|0,0:0|0:0,0:0:0:0:
110,271,237461,2,0,L|105:196,1,55.9999982910157,8|0,0:0|0:0,0:0:0:0:
298,157,237632,2,0,L|243:160,1,55.9999982910157,0|0,0:0|0:0,0:0:0:0:
19,86,237802,5,4,1:0:0:0:
175,79,237973,2,0,L|290:75,1,111.999996582031,0|8,0:0|0:0,0:0:0:0:
126,126,238314,1,0,0:0:0:0:
389,171,238484,1,0,3:0:0:0:
90,181,238655,1,0,0:0:0:0:
354,245,238825,2,0,L|466:242,1,111.999996582031,8|0,0:0|0:0,0:0:0:0:
36,276,239166,5,4,1:0:0:0:
181,249,239336,1,0,3:0:0:0:
327,272,239507,1,0,0:0:0:0:
20,149,239677,1,0,3:0:0:0:
329,98,239848,1,4,1:0:0:0:
180,94,240018,1,0,3:0:0:0:
418,149,240189,1,0,0:0:0:0:
93,140,240359,1,0,3:0:0:0:
397,68,240530,6,0,L|407:129,1,55.9999982910157,4|0,1:0|1:0,0:0:0:0:
326,133,240700,2,0,L|305:190,1,55.9999982910157,0|0,1:0|1:0,0:0:0:0:
141,183,240870,2,0,L|131:244,1,55.9999982910157,0|0,1:0|1:0,0:0:0:0:
212,248,241040,2,0,L|233:305,1,55.9999982910157,0|0,1:0|1:0,0:0:0:0:
74,316,241211,6,0,L|12:326,1,55.9999982910157,0|0,1:0|1:0,0:0:0:0:
294,241,241382,2,0,L|297:202,2,27.9999991455078,0|0|0,1:0|0:0|0:0,0:0:0:0:
119,234,241552,2,0,L|192:232,1,55.9999982910157,0|0,1:0|0:0,0:0:0:0:
465,199,241723,2,0,L|409:200,1,55.9999982910157,0|0,1:0|0:0,0:0:0:0:
206,269,241893,1,4,3:1:0:0:
371,237,250075,5,2,0:0:0:0:
288,233,250416,1,2,0:0:0:0:
210,225,250757,1,2,0:0:0:0:
127,221,251098,1,2,0:0:0:0:
50,198,251439,5,8,0:0:0:0:
301,162,251609,1,0,3:0:0:0:
44,114,251780,1,8,0:0:0:0:
291,90,251950,1,0,3:0:0:0:
377,220,252461,5,8,0:0:0:0:
126,184,252631,1,0,3:0:0:0:
383,136,252802,1,8,0:0:0:0:
136,112,252972,1,0,3:0:0:0:
251,120,253484,5,8,0:0:0:0:
497,136,253655,1,0,3:0:0:0:
229,167,253825,1,8,0:0:0:0:
470,183,253995,1,0,3:0:0:0:
166,249,254507,6,0,L|160:178,1,64,10|0,0:0|0:0,0:0:0:0:
306,170,254848,2,0,L|235:176,1,64,0|0,3:0|0:0,0:0:0:0:
375,127,255189,2,0,L|381:56,1,64,10|0,0:0|0:0,0:0:0:0:
124,60,255530,5,0,3:0:0:0:
256,76,255700,1,0,0:0:0:0:
101,138,255870,1,10,0:0:0:0:
271,146,256041,1,0,0:0:0:0:
90,213,256211,6,0,L|42:213,1,47.9999985351563,0|10,3:0|0:0,0:0:0:0:
128,236,256382,2,0,L|176:236,1,47.9999985351563,0|0,0:0|0:0,0:0:0:0:
266,227,256552,2,0,L|218:227,1,47.9999985351563,10|0,0:0|0:0,0:0:0:0:
383,195,256723,2,0,L|431:195,1,47.9999985351563,2|0,0:0|0:0,0:0:0:0:
181,128,256893,6,0,L|71:128,1,95.9999970703126,4|2,3:1|0:0,0:0:0:0:
345,161,257234,1,8,0:0:0:0:
182,178,257404,1,2,0:0:0:0:
157,217,257489,1,0,0:0:0:0:
164,263,257574,1,0,3:0:0:0:
328,279,257745,1,2,0:0:0:0:
64,318,257916,2,0,L|176:318,1,95.9999970703126,8|2,0:0|0:0,0:0:0:0:
414,227,258257,6,0,L|416:125,1,95.9999970703126,0|2,3:0|0:0,0:0:0:0:
253,125,258598,2,0,L|355:126,1,95.9999970703126,10|0,0:0|0:0,0:0:0:0:
190,127,258854,2,0,L|186:225,1,95.9999970703126,2|0,0:0|0:0,0:0:0:0:
265,224,259110,2,0,L|269:282,1,47.9999985351563,2|0,3:2|0:0,0:0:0:0:
113,302,259280,2,0,L|173:302,1,47.9999985351563,10|0,0:0|0:0,0:0:0:0:
244,305,259450,2,0,L|304:305,1,47.9999985351563,0|0,0:0|0:0,0:0:0:0:
127,251,259620,6,0,L|32:256,1,95.9999970703126,0|2,3:0|0:0,0:0:0:0:
287,222,259961,1,8,0:0:0:0:
129,184,260132,2,0,L|211:184,1,47.9999985351563,2|0,0:0|0:0,0:0:0:0:
256,183,260302,1,0,3:0:0:0:
16,155,260472,1,2,0:0:0:0:
180,135,260643,2,0,L|309:131,1,95.9999970703126,8|2,0:0|0:0,0:0:0:0:
33,105,260984,6,0,L|29:208,1,95.9999970703126,0|0,3:0|0:0,0:0:0:0:
187,200,261325,2,0,L|191:303,1,95.9999970703126,10|0,0:0|0:0,0:0:0:0:
389,310,261580,2,0,L|274:312,1,95.9999970703126,0|0,0:0|0:0,0:0:0:0:
206,287,261836,2,0,L|137:279,1,47.9999985351563,2|0,3:2|0:0,0:0:0:0:
321,285,262007,2,0,L|329:216,1,47.9999985351563,10|0,0:0|0:0,0:0:0:0:
241,230,262177,2,0,L|249:161,1,47.9999985351563,0|0,0:0|0:0,0:0:0:0:
494,149,262348,6,0,L|368:148,1,95.9999970703126,0|2,3:0|0:0,0:0:0:0:
150,148,262689,1,8,0:0:0:0:
317,120,262860,2,0,L|323:177,1,47.9999985351563,2|0,0:0|0:0,0:0:0:0:
243,172,263030,1,0,3:0:0:0:
76,197,263201,1,2,0:0:0:0:
312,261,263371,1,8,0:0:0:0:
446,253,263542,1,2,0:0:0:0:
180,199,263712,6,0,L|241:193,1,47.9999985351563,0|0,3:0|0:0,0:0:0:0:
314,175,263883,2,0,L|253:169,1,47.9999985351563,2|0,0:0|0:0,0:0:0:0:
38,167,264053,2,0,L|34:281,1,95.9999970703126,10|0,0:0|0:0,0:0:0:0:
81,290,264309,1,2,0:0:0:0:
248,276,264394,2,0,L|308:271,1,47.9999985351563,2|0,0:0|0:0,0:0:0:0:
130,223,264564,2,0,L|70:228,1,47.9999985351563,2|0,3:2|0:0,0:0:0:0:
243,183,264735,2,0,L|248:243,1,47.9999985351563,10|0,0:0|0:0,0:0:0:0:
161,238,264905,2,0,L|156:298,1,47.9999985351563
356,323,265075,6,0,L|247:327,1,95.9999970703126,2|0,3:2|0:0,0:0:0:0:
100,258,265416,2,0,L|209:262,1,95.9999970703126,10|0,0:0|0:0,0:0:0:0:
30,257,265757,2,0,L|26:156,1,95.9999970703126,2|0,3:2|0:0,0:0:0:0:
288,170,266098,2,0,L|292:69,1,95.9999970703126,10|0,0:0|0:0,0:0:0:0:
24,60,266439,5,2,3:2:0:0:
293,37,266609,1,2,0:0:0:0:
16,128,266780,1,10,0:0:0:0:
165,129,266950,1,2,0:0:0:0:
415,180,267120,6,0,L|348:180,1,47.9999985351563,0|10,3:0|0:0,0:0:0:0:
217,239,267376,2,0,L|284:239,1,47.9999985351563,0|2,0:0|1:2,0:0:0:0:
133,243,267632,1,0,1:0:0:0:
418,153,267802,6,0,L|307:153,1,95.9999970703126,0|2,3:1|0:0,0:0:0:0:
68,153,268143,1,8,0:0:0:0:
228,200,268313,2,0,L|276:203,2,47.9999985351563,2|0|0,0:0|0:0|3:0,0:0:0:0:
67,214,268654,1,2,0:0:0:0:
326,227,268824,2,0,L|437:227,1,95.9999970703126,8|2,0:0|0:0,0:0:0:0:
153,234,269166,6,0,L|152:113,1,95.9999970703126,0|2,3:0|0:0,0:0:0:0:
312,124,269506,2,0,L|316:74,1,47.9999985351563,10|0,0:0|0:0,0:0:0:0:
231,71,269677,1,0,0:0:0:0:
415,185,269762,2,0,L|279:179,1,95.9999970703126,2|0,0:0|0:0,0:0:0:0:
241,154,270018,2,0,L|294:156,1,47.9999985351563,2|0,3:2|0:0,0:0:0:0:
133,150,270188,2,0,L|131:203,1,47.9999985351563,10|0,0:0|0:0,0:0:0:0:
209,200,270359,1,0,0:0:0:0:
472,245,270530,6,0,L|473:146,1,95.9999970703126,0|2,3:0|0:0,0:0:0:0:
229,128,270871,1,8,0:0:0:0:
391,161,271041,2,0,L|337:159,1,47.9999985351563,2|0,0:0|0:0,0:0:0:0:
257,162,271212,2,0,L|147:158,1,95.9999970703126,0|2,3:0|0:0,0:0:0:0:
424,207,271553,2,0,L|428:317,1,95.9999970703126,8|2,0:0|0:0,0:0:0:0:
161,297,271893,6,0,L|275:297,1,95.9999970703126,0|2,3:0|0:0,0:0:0:0:
92,294,272234,2,0,L|91:194,1,95.9999970703126,10|0,0:0|0:0,0:0:0:0:
286,155,272490,2,0,L|166:156,1,95.9999970703126,2|0,0:0|0:0,0:0:0:0:
104,143,272745,2,0,L|177:147,1,47.9999985351563,0|0,0:0|0:0,0:0:0:0:
314,124,272916,1,8,1:0:0:0:
190,155,273086,2,0,L|185:217,1,47.9999985351563,0|0,1:0|1:0,0:0:0:0:
402,164,273257,6,0,L|504:161,1,95.9999970703126,0|2,1:0|0:0,0:0:0:0:
333,217,273598,1,8,0:0:0:0:
489,222,273768,1,2,0:0:0:0:
331,238,273939,2,0,L|229:235,1,95.9999970703126,0|2,3:0|0:0,0:0:0:0:
400,291,274280,1,8,0:0:0:0:
244,296,274450,1,2,0:0:0:0:
15,173,274620,6,0,L|112:168,1,95.9999970703126,2|0,1:2|0:0,0:0:0:0:
289,144,274961,1,8,0:0:0:0:
152,131,275132,1,2,0:0:0:0:
331,136,275302,2,0,L|326:39,1,95.9999970703126,0|2,3:0|0:0,0:0:0:0:
194,53,275643,1,10,0:0:0:0:
358,80,275814,1,0,0:0:0:0:
97,120,275984,5,6,1:2:0:0:
228,120,276155,1,2,0:0:0:0:
71,196,276325,1,10,0:0:0:0:
337,194,276495,1,2,0:0:0:0:
32,218,276666,1,4,1:2:0:0:
182,228,276836,1,2,0:0:0:0:
324,243,277007,1,8,0:0:0:0:
55,257,277177,2,0,L|51:315,1,47.9999985351563,2|0,0:0|0:0,0:0:0:0:
385,121,277348,6,0,L|389:63,1,47.9999985351563,6|0,1:2|1:0,0:0:0:0:
224,60,277518,2,0,L|166:56,1,47.9999985351563,0|0,1:2|1:0,0:0:0:0:
16,62,277689,2,0,L|12:120,1,47.9999985351563,0|0,1:2|1:0,0:0:0:0:
177,123,277859,2,0,L|235:127,1,47.9999985351563,0|0,1:2|1:0,0:0:0:0:
66,155,278030,6,0,L|70:213,1,47.9999985351563,0|0,1:0|1:0,0:0:0:0:
333,155,278200,1,0,1:2:0:0:
331,178,278242,1,0,0:0:0:0:
329,202,278285,1,0,1:0:0:0:
156,242,278370,2,0,L|113:239,6,23.9999992675781,0|0|0|0|0|0|0,1:2|0:0|1:0|0:0|0:0|0:0|0:0,0:0:0:0:
349,214,278711,6,0,P|328:157|170:199,1,263.99999194336,2|2,0:0|0:0,0:0:0:0:
364,255,279734,6,0,L|367:270,6,11.9999996337891,2|2|2|2|2|2|2,0:0|0:0|0:0|0:0|0:0|0:0|0:0,0:0:0:0:
128,312,280075,6,0,L|303:307,1,167.999994873047,4|0,3:1|0:0,0:0:0:0:
95,263,280416,2,0,P|58:222|95:204,1,111.999996582031,10|0,0:0|0:0,0:0:0:0:
180,158,280671,2,0,L|41:162,1,111.999996582031,2|0,0:0|0:0,0:0:0:0:
151,133,280927,2,0,L|215:134,1,55.9999982910157,2|0,0:0|0:0,0:0:0:0:
285,99,281098,2,0,L|221:100,1,55.9999982910157,10|0,0:0|0:0,0:0:0:0:
392,103,281268,2,0,L|456:104,1,55.9999982910157,2|0,0:0|0:0,0:0:0:0:
280,139,281438,6,0,P|234:185|304:236,1,167.999994873047,2|0,3:2|0:0,0:0:0:0:
379,272,281779,2,0,L|214:271,1,111.999996582031,10|0,0:0|0:0,0:0:0:0:
427,268,282035,2,0,P|461:238|423:187,1,111.999996582031,2|0,0:0|0:0,0:0:0:0:
352,177,282291,2,0,L|267:175,1,55.9999982910157,2|0,0:0|0:0,0:0:0:0:
457,140,282461,2,0,L|454:71,1,55.9999982910157,10|0,0:0|0:0,0:0:0:0:
366,76,282632,2,0,L|297:79,1,55.9999982910157,2|0,0:0|0:0,0:0:0:0:
470,53,282802,6,0,P|459:117|352:147,1,167.999994873047,2|0,3:2|0:0,0:0:0:0:
204,181,283143,2,0,L|319:184,1,111.999996582031,10|0,0:0|0:0,0:0:0:0:
236,209,283399,2,0,P|174:188|159:134,1,111.999996582031,2|0,0:0|0:0,0:0:0:0:
323,138,283654,2,0,L|332:73,1,55.9999982910157,2|0,0:0|0:0,0:0:0:0:
139,78,283825,2,0,L|195:78,1,55.9999982910157,10|0,0:0|0:0,0:0:0:0:
356,42,283995,2,0,L|300:42,1,55.9999982910157,2|0,0:0|0:0,0:0:0:0:
138,105,284166,6,0,L|318:108,1,167.999994873047,2|0,3:2|0:0,0:0:0:0:
214,154,284507,2,0,L|59:149,1,111.999996582031,10|0,0:0|0:0,0:0:0:0:
259,184,284762,2,0,L|383:185,1,111.999996582031,2|0,0:0|0:0,0:0:0:0:
278,209,285018,2,0,L|274:281,1,55.9999982910157,2|0,0:0|0:0,0:0:0:0:
355,253,285188,2,0,L|362:323,1,55.9999982910157,10|0,0:0|0:0,0:0:0:0:
272,300,285359,2,0,L|265:370,1,55.9999982910157,2|0,0:0|0:0,0:0:0:0:
425,323,285529,6,0,P|482:287|408:241,1,167.999994873047,2|0,3:2|0:0,0:0:0:0:
248,180,285870,2,0,L|384:175,1,111.999996582031,10|0,0:0|0:0,0:0:0:0:
274,151,286126,2,0,L|138:146,1,111.999996582031,2|0,0:0|0:0,0:0:0:0:
253,148,286382,2,0,L|259:83,1,55.9999982910157,2|0,0:0|0:0,0:0:0:0:
96,47,286552,2,0,L|161:53,1,55.9999982910157,10|0,0:0|0:0,0:0:0:0:
348,65,286723,2,0,L|413:71,1,55.9999982910157,2|0,0:0|0:0,0:0:0:0:
215,259,286893,5,0,3:0:0:0:
64,228,287064,1,2,0:0:0:0:
233,193,287234,1,8,0:0:0:0:
97,181,287405,1,2,0:0:0:0:
251,138,287575,1,0,3:0:0:0:
370,112,287745,1,0,0:0:0:0:
230,85,287916,1,10,0:0:0:0:
331,54,288086,1,0,0:0:0:0:
80,57,288257,6,0,P|77:116|186:158,1,167.999994873047,2|0,3:2|0:0,0:0:0:0:
324,151,288598,2,0,L|166:155,1,111.999996582031,10|0,0:0|0:0,0:0:0:0:
367,193,288853,2,0,P|426:226|395:265,1,111.999996582031,2|0,0:0|0:0,0:0:0:0:
243,278,289109,2,0,L|182:280,1,55.9999982910157,2|0,0:0|0:0,0:0:0:0:
352,239,289280,2,0,L|413:237,1,55.9999982910157,10|0,0:0|0:0,0:0:0:0:
217,238,289450,2,0,L|156:236,1,55.9999982910157,2|0,0:0|0:0,0:0:0:0:
328,197,289620,6,0,P|388:163|354:102,1,111.999996582031,2|0,3:2|0:0,0:0:0:0:
85,70,289961,2,0,L|210:70,1,111.999996582031,10|0,0:0|0:0,0:0:0:0:
454,111,290302,6,0,L|460:181,1,55.9999982910157,2|0,3:2|0:0,0:0:0:0:
305,179,290558,2,0,L|299:249,1,55.9999982910157,2|8,0:0|0:0,0:0:0:0:
135,241,290813,1,2,0:0:0:0:
432,208,290984,6,0,P|476:172|396:122,1,167.999994873047,4|0,3:1|0:0,0:0:0:0:
211,203,291325,2,0,L|340:200,1,111.999996582031,10|0,0:2|0:0,0:0:0:0:
242,178,291581,2,0,P|204:140|239:106,1,111.999996582031,2|0,0:0|0:0,0:0:0:0:
316,84,291836,2,0,L|251:83,1,55.9999982910157,2|0,0:0|0:0,0:0:0:0:
183,40,292007,2,0,L|260:42,1,55.9999982910157,10|0,0:0|0:0,0:0:0:0:
398,94,292177,2,0,L|321:96,1,55.9999982910157,2|0,0:0|0:0,0:0:0:0:
182,102,292348,6,0,P|139:158|211:202,1,167.999994873047,2|0,3:2|0:0,0:0:0:0:
288,210,292689,2,0,P|325:253|289:295,1,111.999996582031,10|0,0:0|0:0,0:0:0:0:
134,308,292944,2,0,L|282:308,1,111.999996582031,2|0,0:0|0:0,0:0:0:0:
160,286,293200,2,0,L|156:222,1,55.9999982910157,2|0,0:0|0:0,0:0:0:0:
249,191,293370,2,0,L|185:187,1,55.9999982910157,10|0,0:0|0:0,0:0:0:0:
111,155,293541,2,0,L|175:151,1,55.9999982910157,2|0,0:0|0:0,0:0:0:0:
320,153,293711,6,0,P|294:92|181:56,1,167.999994873047,2|0,3:2|0:0,0:0:0:0:
31,67,294052,2,0,L|165:72,1,111.999996582031,10|0,0:0|0:0,0:0:0:0:
230,122,294308,2,0,L|86:116,1,111.999996582031,2|0,0:0|0:0,0:0:0:0:
282,148,294564,2,0,L|285:215,1,55.9999982910157,2|0,0:0|0:0,0:0:0:0:
91,234,294734,2,0,L|158:231,1,55.9999982910157,10|0,0:0|0:0,0:0:0:0:
308,248,294905,2,0,L|241:245,1,55.9999982910157,0|0,0:0|0:0,0:0:0:0:
91,306,295075,6,0,P|43:271|112:219,1,167.999994873047,2|0,3:2|0:0,0:0:0:0:
196,193,295416,2,0,L|346:190,1,111.999996582031,10|0,0:0|0:0,0:0:0:0:
139,193,295672,2,0,P|110:167|165:120,1,111.999996582031,2|0,0:0|0:0,0:0:0:0:
230,96,295927,2,0,L|147:92,1,55.9999982910157,2|0,0:0|0:0,0:0:0:0:
13,168,296098,2,0,L|143:174,1,111.999996582031,10|0,0:0|1:0,0:0:0:0:
202,169,296353,1,0,1:0:0:0:
398,194,296439,6,0,P|444:159|369:117,1,167.999994873047,4|0,1:0|0:0,0:0:0:0:
162,136,296780,2,0,L|286:137,1,111.999996582031,8|0,0:0|0:0,0:0:0:0:
110,166,297035,2,0,P|93:206|171:230,1,111.999996582031,0|0,0:0|0:0,0:0:0:0:
307,245,297291,2,0,L|382:240,1,55.9999982910157,0|0,0:0|0:0,0:0:0:0:
174,225,297461,2,0,L|169:150,1,55.9999982910157,8|0,0:0|0:0,0:0:0:0:
362,111,297632,2,0,L|307:114,1,55.9999982910157,0|0,0:0|0:0,0:0:0:0:
83,40,297802,5,4,1:0:0:0:
224,60,297973,2,0,L|339:56,2,111.999996582031,0|8|0,0:0|0:0|0:0,0:0:0:0:
492,177,298484,1,0,3:0:0:0:
162,174,298655,1,0,0:0:0:0:
427,265,298825,2,0,L|315:261,1,111.999996582031,8|0,0:0|0:0,0:0:0:0:
57,81,299166,5,4,1:0:0:0:
185,81,299336,1,0,3:0:0:0:
329,81,299507,1,8,0:0:0:0:
457,81,299677,1,0,3:0:0:0:
57,81,299848,1,4,1:0:0:0:
329,81,300018,1,0,3:0:0:0:
185,81,300189,1,8,0:0:0:0:
457,81,300359,1,0,3:0:0:0:
95,262,300530,6,0,L|111:204,1,55.9999982910157,4|0,1:0|1:0,0:0:0:0:
190,191,300700,2,0,L|248:207,1,55.9999982910157,0|0,1:0|1:0,0:0:0:0:
326,236,300870,2,0,L|380:250,1,55.9999982910157,0|0,1:0|1:0,0:0:0:0:
461,233,301040,2,0,L|476:179,1,55.9999982910157,0|0,1:0|1:0,0:0:0:0:
282,143,301211,6,0,L|266:201,1,55.9999982910157,0|0,1:0|1:0,0:0:0:0:
476,179,301382,1,0,1:0:0:0:
473,208,301424,1,0,0:0:0:0:
461,233,301467,1,0,1:0:0:0:
252,241,301552,2,0,L|219:241,6,27.9999991455078,0|0|0|0|0|0|0,1:0|1:0|1:0|0:0|1:0|1:0|1:0,0:0:0:0:
428,147,301893,6,0,L|348:147,1,64,4|0,0:1|0:0,0:0:0:0:
236,145,302234,2,0,L|228:209,1,64,0|0,0:0|0:0,0:0:0:0:
96,202,302575,2,0,L|176:202,1,64,0|0,0:0|0:0,0:0:0:0:
285,213,302916,2,0,L|293:149,1,64,0|0,0:0|0:0,0:0:0:0:
166,178,303256,5,0,0:0:0:0:
123,134,303426,1,0,0:0:0:0:
140,76,303598,1,0,0:0:0:0:
200,62,303767,1,0,0:0:0:0:
331,66,303938,2,0,L|339:130,1,64,0|0,0:0|0:0,0:0:0:0:
209,128,304279,2,0,L|201:192,1,64,0|0,0:0|0:0,0:0:0:0:
331,202,304620,6,0,L|413:205,1,64,0|0,0:0|0:0,0:0:0:0:
268,255,304961,2,0,L|186:252,1,64,0|0,0:0|0:0,0:0:0:0:
332,295,305302,2,0,L|250:298,1,64,0|0,0:0|0:0,0:0:0:0:
395,348,305643,2,0,L|477:345,1,64,0|0,0:0|0:0,0:0:0:0:
333,349,305984,5,0,0:0:0:0:
290,305,306154,1,0,0:0:0:0:
307,247,306324,1,0,0:0:0:0:
367,233,306495,1,0,0:0:0:0:
494,201,306666,2,0,L|413:202,1,64,2|0,0:2|0:0,0:0:0:0:
304,163,307007,1,2,0:2:0:0:
425,151,307177,1,2,0:2:0:0:
296,113,307348,6,0,L|211:107,1,64,0|0,0:0|0:0,0:0:0:0:
99,161,307689,2,0,L|184:155,1,64,0|0,0:0|0:0,0:0:0:0:
294,171,308030,2,0,L|379:177,1,64,0|0,0:0|0:0,0:0:0:0:
491,123,308371,2,0,L|406:129,1,64,0|0,0:0|0:0,0:0:0:0:
295,134,308711,6,0,L|380:128,1,64,0|0,0:0|0:0,0:0:0:0:
226,137,309052,2,0,L|220:222,1,64,0|0,0:0|0:0,0:0:0:0:
350,200,309393,2,0,L|356:285,1,64,0|0,0:0|0:0,0:0:0:0:
226,276,309734,2,0,L|311:270,1,64,0|0,0:0|0:0,0:0:0:0:
163,279,310075,5,0,0:0:0:0:
120,235,310245,1,0,0:0:0:0:
137,177,310415,1,0,0:0:0:0:
197,163,310586,1,0,0:0:0:0:
330,142,310757,2,0,L|411:143,1,64,0|0,0:0|0:0,0:0:0:0:
264,142,311098,2,0,L|183:143,1,64,0|0,0:0|0:0,0:0:0:0:
334,179,311439,6,0,L|340:246,1,64,2|0,0:2|0:0,0:0:0:0:
473,267,311780,1,2,0:2:0:0:
345,270,311950,1,2,0:2:0:0:
477,237,312120,6,0,L|481:201,1,32,2|2,0:2|0:2,0:0:0:0:
348,172,312376,2,0,L|384:176,1,32,2|2,0:2|0:2,0:0:0:0:
221,179,312632,1,2,0:2:0:0:
490,112,312802,6,0,L|409:108,1,64,4|0,0:1|0:0,0:0:0:0:
294,118,313143,2,0,L|375:114,1,64,0|0,0:0|0:0,0:0:0:0:
229,115,313484,2,0,L|148:111,1,64,0|0,0:0|0:0,0:0:0:0:
33,121,313825,2,0,L|114:117,1,64,0|0,0:0|0:0,0:0:0:0:
229,141,314166,6,0,L|236:209,1,64,0|0,0:0|0:0,0:0:0:0:
368,212,314507,2,0,L|375:280,1,64,0|0,0:0|0:0,0:0:0:0:
247,278,314848,2,0,L|240:210,1,64,0|0,0:0|0:0,0:0:0:0:
108,207,315189,2,0,L|101:139,1,64,0|0,0:0|0:0,0:0:0:0:
232,137,315530,6,0,L|310:137,1,64,0|0,0:0|0:0,0:0:0:0:
171,144,315870,2,0,L|171:222,1,64,0|0,0:0|0:0,0:0:0:0:
297,216,316211,2,0,L|219:216,1,64,0|0,0:0|0:0,0:0:0:0:
358,209,316552,2,0,L|358:131,1,64,0|0,0:0|0:0,0:0:0:0:
228,121,316893,6,0,L|154:121,1,64,0|0,0:2|0:0,0:0:0:0:
290,110,317234,2,0,L|364:110,1,64,0|0,0:2|0:0,0:0:0:0:
480,99,317575,2,0,L|406:99,1,64,0|0,0:2|0:0,0:0:0:0:
256,143,317916,1,2,0:2:0:0:
383,151,318086,2,0,L|381:202,1,32,2|2,0:2|0:2,0:0:0:0:
295,188,318257,6,0,L|205:189,1,80,2|0,0:2|0:0,0:0:0:0:
374,130,318598,2,0,L|284:131,1,80,8|0,0:0|0:0,0:0:0:0:
134,127,318939,2,0,L|224:128,1,80,8|0,0:0|0:0,0:0:0:0:
55,69,319280,2,0,L|145:70,1,80,8|0,0:0|0:0,0:0:0:0:
296,67,319620,6,0,L|301:147,1,80,8|0,0:0|0:0,0:0:0:0:
153,145,319961,2,0,L|148:225,1,80,8|0,0:0|0:0,0:0:0:0:
296,195,320302,2,0,L|301:275,1,80,8|0,0:0|0:0,0:0:0:0:
140,311,320643,1,8,0:0:0:0:
300,321,320814,1,0,0:0:0:0:
145,241,320984,6,0,L|246:242,1,80,8|8,0:0|0:0,0:0:0:0:
68,245,321325,2,0,L|61:153,1,80,8|8,0:0|0:0,0:0:0:0:
230,157,321666,2,0,L|129:156,1,80,8|8,0:0|0:0,0:0:0:0:
307,153,322007,2,0,L|314:245,1,80,8|10,0:0|0:2,0:0:0:0:
267,258,322262,1,2,0:2:0:0:
100,262,322348,6,0,L|94:213,1,47.9999985351563,8|8,0:0|0:0,0:0:0:0:
177,214,322518,2,0,L|171:165,1,47.9999985351563,8|8,0:0|0:0,0:0:0:0:
254,159,322689,2,0,L|248:110,1,47.9999985351563,8|8,0:0|0:0,0:0:0:0:
331,111,322859,2,0,L|325:62,1,47.9999985351563,8|8,0:0|0:0,0:0:0:0:
163,107,323030,6,0,L|157:58,1,47.9999985351563,8|8,3:2|0:0,0:0:0:0:
326,62,323200,2,0,L|329:22,2,23.9999992675781,0|0|8,0:0|0:0|0:0,0:0:0:0:
151,23,323370,6,0,L|146:61,8,23.9999992675781,8|8|8|8|8|8|8|8|0,0:0|0:0|0:0|0:0|0:0|0:0|0:0|0:0|0:0,0:0:0:0:
