osu file format v14

[General]
AudioFilename: audio.mp3
AudioLeadIn: 0
PreviewTime: 60059
Countdown: 1
SampleSet: None
StackLeniency: 0.7
Mode: 2
LetterboxInBreaks: 0
WidescreenStoryboard: 0

[Editor]
DistanceSpacing: 0.1
BeatDivisor: 3
GridSize: 4
TimelineZoom: 1

[Metadata]
Title:Kaerimichi skip
TitleUnicode:Kaerimichi skip
Artist:Chino (CV:Minase Inori)
ArtistUnicode:Chino (CV:Minase Inori)
Creator:dika312
Version:Skip!
Source:
Tags:
BeatmapID:1165182
BeatmapSetID:550130

[Difficulty]
HPDrainRate:6
CircleSize:4
OverallDifficulty:8.2
ApproachRate:8.2
SliderMultiplier:1.6
SliderTickRate:1

[Events]
//Background and Video events
0,0,"Sorry low res.jpg",0,0
//Break Periods
//Storyboard Layer 0 (Background)
//Storyboard Layer 1 (Fail)
//Storyboard Layer 2 (Pass)
//Storyboard Layer 3 (Foreground)
//Storyboard Sound Samples

[TimingPoints]
1245,444.444444444444,4,2,1,60,1,0
3911,-100,4,2,1,30,0,0
4800,-100,4,2,1,60,0,0
7467,-100,4,2,1,30,0,0
8356,-100,4,2,1,60,0,0
15467,-100,4,2,1,50,0,0
43022,-100,4,2,1,75,0,0
43319,-100,4,3,0,30,0,0
43911,-100,4,2,1,60,0,0
50578,-100,4,1,0,40,0,0
51022,-100,4,2,1,60,0,0
59319,-100,4,3,0,40,0,0
59911,-100,4,2,1,70,0,1
62578,-100,4,3,0,50,0,1
63022,-100,4,2,1,70,0,1
66133,-100,4,3,0,55,0,1
66578,-100,4,2,1,70,0,1
72356,-100,4,2,1,50,0,0
74133,-100,4,2,1,70,0,1
76800,-100,4,3,0,50,0,1
77244,-100,4,2,1,70,0,1
80356,-100,4,3,0,55,0,1
80800,-100,4,2,1,70,0,1
86578,-100,4,2,1,60,0,0
103022,-100,4,2,1,50,0,0
130133,-100,4,2,1,75,0,0
130430,-100,4,3,0,30,0,0
131022,-100,4,2,1,50,0,0
133689,-100,4,1,0,25,0,0
134578,-100,4,2,1,60,0,0
145541,-100,4,2,1,40,0,0
147022,-100,4,2,1,70,0,1
149689,-100,4,3,0,50,0,1
150430,-100,4,2,1,70,0,1
153244,-100,4,3,0,55,0,1
153689,-100,4,2,1,70,0,1
159467,-100,4,2,1,50,0,0
161244,-100,4,2,1,60,0,1
163911,-100,4,3,0,45,0,1
164356,-100,4,2,1,60,0,1
167467,-100,4,3,0,50,0,1
167911,-100,4,2,1,60,0,1
173689,-100,4,2,1,60,0,0
173789,-100,4,2,1,60,0,0
187022,-100,4,2,1,45,0,0
187911,-100,4,2,1,30,0,0
189689,-100,4,2,1,37,0,0
190133,-100,4,2,1,43,0,0
190578,-100,4,2,1,47,0,0
193096,-100,4,2,1,70,0,0
193985,-100,4,2,1,40,0,0
194430,-100,4,1,0,60,0,0
195022,-100,4,2,1,75,0,1
197689,-100,4,3,0,60,0,1
198133,-100,4,2,1,75,0,1
200356,-100,4,2,1,55,0,0
202133,-100,4,2,1,75,0,1
208356,-100,4,3,0,60,0,1
208800,-100,4,2,1,75,0,1
211911,-100,4,3,0,60,0,1
212356,-100,4,2,1,75,0,1
214578,-100,4,2,1,55,0,0
216356,-100,4,2,1,70,0,1
219022,-100,4,3,0,55,0,1
219467,-100,4,2,1,70,0,1
222578,-100,4,3,0,55,0,1
223022,-100,4,2,1,70,0,1
223467,-100,4,2,1,80,0,1
227022,-100,4,2,1,60,0,1
228800,-100,4,2,1,60,0,0
230578,-100,4,2,1,80,0,1
234133,-100,4,2,1,60,0,1
235911,-100,4,2,1,60,0,0
236207,-100,4,2,1,40,0,0
237689,-100,4,2,1,60,0,0
240356,-100,4,3,0,40,0,0
241244,-100,4,2,1,60,0,0
243911,-100,4,3,0,60,0,0
244356,-100,4,2,1,60,0,0

[HitObjects]
312,292,1245,6,0,P|376:176|312:64,1,266.666666666667
139,113,2133,2,0,P|91:233|144:287,1,213.333333333333
360,282,2874,1,0,0:0:0:0:
144,208,3911,5,8,3:0:0:0:
260,208,4059,1,8,3:0:0:0:
144,208,4207,1,8,3:0:0:0:
260,208,4356,1,8,3:0:0:0:
356,272,4800,6,0,P|404:160|395:57,1,213.333333333333
150,271,5689,2,0,P|102:159|107:104,1,160
398,240,6430,1,0,0:0:0:0:
250,234,7467,5,8,3:0:0:0:
376,238,7615,1,8,3:0:0:0:
250,234,7763,1,8,3:0:0:0:
376,238,7911,2,0,P|403:186|356:153,1,106.666666666667,8|0,3:0|0:0,0:0:0:0:
248,160,8356,6,0,L|141:160,1,106.666666666667,4|0,0:0|0:0,0:0:0:0:
300,243,8800,2,0,L|284:105,1,106.666666666667,0|0,0:0|0:0,0:0:0:0:
145,165,9244,2,0,L|35:166,1,106.666666666667,0|0,0:0|0:0,0:0:0:0:
201,250,9689,2,0,L|178:123,1,106.666666666667,0|0,0:0|0:0,0:0:0:0:
335,162,10133,6,0,L|453:162,1,106.666666666667,0|0,0:0|0:0,0:0:0:0:
278,162,10578,2,0,L|149:163,1,106.666666666667,0|0,0:0|0:0,0:0:0:0:
86,162,11022,1,0,0:0:0:0:
171,162,11319,1,0,0:0:0:0:
321,164,11467,1,0,0:0:0:0:
14,174,11763,6,0,L|173:169,1,160,4|0,0:0|0:0,0:0:0:0:
326,136,12356,2,0,L|200:131,1,106.666666666667
272,170,12800,2,0,L|440:168,1,160
399,170,13393,1,0,0:0:0:0:
249,168,13541,1,0,0:0:0:0:
214,169,13689,1,0,0:0:0:0:
249,168,13985,1,0,0:1:0:0:
459,171,14133,1,0,0:1:0:0:
117,175,14578,1,0,0:1:0:0:
162,175,15467,5,4,0:0:0:0:
336,180,15911,1,0,0:0:0:0:
198,176,16207,1,0,0:0:0:0:
162,175,16356,1,0,0:0:0:0:
284,177,16652,1,0,0:0:0:0:
320,178,16801,1,0,0:0:0:0:
198,176,17096,1,0,0:0:0:0:
360,176,17244,1,0,0:0:0:0:
431,182,17689,5,0,0:0:0:0:
206,175,17985,1,0,0:0:0:0:
231,174,18133,1,0,0:0:0:0:
330,173,18430,1,0,0:0:0:0:
355,172,18578,1,0,0:0:0:0:
461,173,18874,1,0,0:0:0:0:
317,175,19022,6,0,P|275:122|328:51,1,160,0|0,0:0|0:0,0:0:0:0:
348,115,19763,1,0,0:0:0:0:
210,112,19911,1,0,0:0:0:0:
121,204,20207,1,0,0:0:0:0:
172,203,20356,1,0,0:0:0:0:
288,206,20652,1,0,0:0:0:0:
146,209,20800,6,0,L|40:208,1,106.666666666667,2|0,0:0|0:0,0:0:0:0:
175,180,21244,2,0,L|290:181,1,106.666666666667
415,179,21689,2,0,P|463:146|499:37,2,160,2|2|2,0:0|0:0|0:0,0:0:0:0:
255,199,23022,1,0,0:0:0:0:
189,197,23319,1,0,0:0:0:0:
46,196,23467,1,0,0:0:0:0:
139,197,23763,1,0,0:0:0:0:
281,196,23911,1,0,0:0:0:0:
370,198,24207,1,0,0:0:0:0:
225,201,24356,1,0,0:0:0:0:
186,201,24800,5,0,0:0:0:0:
122,202,25096,1,0,0:0:0:0:
146,200,25244,1,0,0:0:0:0:
406,198,25541,1,0,0:0:0:0:
379,198,25689,1,0,0:0:0:0:
123,197,25985,1,0,0:0:0:0:
10,196,26133,6,0,L|14:77,1,106.666666666667
142,113,26578,2,0,L|142:229,1,106.666666666667
275,207,27022,2,0,L|276:88,1,106.666666666667
425,116,27467,2,0,L|296:115,1,106.666666666667
101,118,27911,5,0,1:0:0:0:
465,121,28356,1,0,1:0:0:0:
190,121,28800,1,0,1:0:0:0:
304,125,28948,1,0,1:0:0:0:
172,122,29096,1,0,1:0:0:0:
323,128,29244,1,0,1:0:0:0:
163,121,29541,1,0,1:0:0:0:
330,128,29689,1,0,0:0:0:0:
103,131,30133,6,0,L|126:24,1,106.666666666667
281,38,30578,1,0,0:0:0:0:
302,40,30874,1,0,0:0:0:0:
144,46,31022,1,0,0:0:0:0:
251,40,31319,1,0,0:0:0:0:
93,46,31467,1,0,0:0:0:0:
248,49,31911,6,0,L|295:175,1,106.666666666667
244,156,32356,1,0,0:0:0:0:
73,159,32652,1,0,0:0:0:0:
227,163,32800,1,0,0:0:0:0:
31,158,33096,1,0,0:0:0:0:
184,162,33244,2,0,L|302:164,1,106.666666666667
448,166,33689,5,0,0:0:0:0:
473,167,33985,1,0,0:0:0:0:
312,169,34133,2,0,L|340:45,1,106.666666666667
487,166,34578,1,0,0:0:0:0:
464,168,34726,1,0,0:0:0:0:
444,168,34874,1,0,0:0:0:0:
418,169,35022,2,0,L|289:169,1,106.666666666667,2|0,0:0|0:0,0:0:0:0:
157,171,35467,6,0,L|173:65,1,106.666666666667
333,172,35911,2,0,L|315:66,1,106.666666666667,2|0,0:0|0:0,0:0:0:0:
253,68,36356,1,0,0:0:0:0:
315,66,36504,1,0,0:0:0:0:
253,68,36652,1,0,0:0:0:0:
315,66,36800,6,0,L|351:190,1,106.666666666667
128,177,37244,2,0,B|74:177|74:177|75:119,1,106.666666666667
237,103,37689,2,0,L|238:223,1,106.666666666667
401,207,38133,2,0,L|400:80,1,106.666666666667
237,103,38578,2,0,L|176:217,1,106.666666666667
170,238,39022,5,0,0:0:0:0:
470,248,39319,2,0,P|488:186|466:77,2,160
429,262,40356,2,0,L|300:260,1,106.666666666667
102,196,40800,2,0,L|217:195,1,106.666666666667
374,146,41244,2,0,L|260:148,1,106.666666666667
109,154,41689,5,0,0:0:0:0:
473,154,41985,1,4,0:0:0:0:
473,154,42430,1,0,0:0:0:0:
312,153,42578,1,0,0:0:0:0:
77,156,42874,1,0,0:0:0:0:
287,160,43022,1,0,0:0:0:0:
163,159,43170,5,0,0:0:0:0:
105,160,43319,1,0,0:0:0:0:
65,159,43467,1,0,0:0:0:0:
49,122,43615,1,0,0:0:0:0:
115,124,43763,1,0,0:0:0:0:
360,133,43911,6,0,B|430:143|430:143|362:236,1,160,4|0,0:0|0:0,0:0:0:0:
278,225,44652,1,0,0:0:0:0:
261,224,44800,1,0,0:0:0:0:
133,221,45244,1,0,0:0:0:0:
101,221,45393,1,0,0:0:0:0:
99,203,45541,1,0,0:0:0:0:
133,221,45689,1,0,0:0:0:0:
228,230,45985,5,0,0:0:0:0:
259,231,46133,1,0,0:0:0:0:
366,235,46430,1,0,0:0:0:0:
387,235,46578,1,0,0:0:0:0:
463,234,46874,1,0,0:0:0:0:
495,234,47023,1,0,0:0:0:0:
497,216,47171,1,0,0:0:0:0:
463,234,47319,1,0,0:0:0:0:
301,242,47467,6,0,L|188:242,1,106.666666666667,4|0,0:0|0:0,0:0:0:0:
359,194,47911,2,0,L|358:77,1,106.666666666667
197,195,48356,2,0,L|197:75,1,106.666666666667
40,98,48800,1,0,0:0:0:0:
330,110,49096,2,0,B|373:144|373:144|266:220,1,160,4|0,0:0|0:0,0:0:0:0:
141,219,49689,2,0,L|282:215,1,106.666666666667
317,154,50133,2,0,L|196:158,1,106.666666666667
141,219,50578,1,0,0:0:0:0:
289,222,50726,1,0,0:0:0:0:
438,225,50874,1,0,0:0:0:0:
216,219,51022,6,0,L|93:215,1,106.666666666667,4|0,0:0|0:0,0:0:0:0:
270,224,51467,1,0,0:0:0:0:
314,225,51615,1,0,0:0:0:0:
270,224,51763,1,0,0:0:0:0:
109,215,51911,2,0,L|112:78,1,106.666666666667
273,183,52356,1,0,0:0:0:0:
256,185,52504,1,2,0:0:0:0:
273,183,52652,1,2,0:0:0:0:
433,128,52800,6,0,L|430:274,1,106.666666666667,2|0,0:0|0:0,0:0:0:0:
257,186,53244,1,0,0:0:0:0:
274,188,53392,1,0,0:0:0:0:
257,186,53540,1,0,0:0:0:0:
109,215,53689,2,0,L|112:78,1,106.666666666667
272,139,54133,1,0,0:0:0:0:
340,139,54282,1,0,0:0:0:0:
272,139,54430,1,0,0:0:0:0:
41,153,54578,6,0,L|137:45,1,106.666666666667,4|0,0:0|0:0,0:0:0:0:
325,140,55022,2,0,L|191:142,1,106.666666666667
7,168,55467,2,0,L|141:167,1,106.666666666667,4|0,0:0|0:0,0:0:0:0:
327,168,55911,2,0,L|455:168,1,106.666666666667
212,173,56356,2,0,P|138:113|115:42,2,160,4|0|0,0:0|0:0|0:0,0:0:0:0:
322,181,57541,5,0,0:0:0:0:
161,188,57689,1,0,0:0:0:0:
512,194,58133,1,4,0:0:0:0:
349,194,59319,5,4,0:0:0:0:
349,194,59467,1,4,0:0:0:0:
157,186,59911,5,0,0:0:0:0:
317,180,60059,1,0,0:0:0:0:
183,185,60207,1,0,0:0:0:0:
344,183,60356,1,0,0:0:0:0:
421,184,60652,1,0,0:0:0:0:
258,185,60800,6,0,L|244:60,1,106.666666666667
408,123,61244,2,0,L|436:248,1,106.666666666667
210,224,61689,2,0,L|72:224,1,106.666666666667
264,195,62133,2,0,L|400:193,1,106.666666666667
211,161,62578,5,2,0:0:0:0:
158,161,62726,1,2,0:0:0:0:
211,161,62874,1,2,0:0:0:0:
158,161,63022,2,0,L|45:163,1,106.666666666667
271,115,63467,2,0,L|407:118,1,106.666666666667
219,169,63911,2,0,L|223:51,1,106.666666666667
383,66,64356,2,0,L|380:191,1,106.666666666667
218,176,64800,5,0,0:0:0:0:
178,150,64948,1,0,0:0:0:0:
217,136,65096,1,0,0:0:0:0:
308,159,65244,6,0,L|457:158,1,106.666666666667
195,160,65689,2,0,L|312:159,1,106.666666666667
82,164,66133,1,2,0:0:0:0:
23,164,66282,1,2,0:0:0:0:
82,164,66430,1,2,0:0:0:0:
299,179,66578,2,0,L|294:32,1,106.666666666667,4|0,0:0|0:0,0:0:0:0:
267,43,67022,5,0,0:0:0:0:
107,50,67170,1,0,0:0:0:0:
229,69,67319,1,0,0:0:0:0:
69,85,67467,1,0,0:0:0:0:
18,132,67763,1,0,0:0:0:0:
241,126,67911,6,0,L|369:124,1,106.666666666667
181,130,68356,2,0,L|179:248,1,106.666666666667
347,195,68800,2,0,L|466:193,1,106.666666666667
284,195,69244,2,0,L|173:197,1,106.666666666667
23,194,69689,1,0,0:0:0:0:
134,202,69985,5,8,3:0:0:0:
353,191,70133,2,0,L|494:190,1,106.666666666667
235,193,70578,2,0,L|237:69,1,106.666666666667
398,191,71022,2,0,L|397:72,1,106.666666666667
235,205,71467,2,0,L|233:54,1,106.666666666667
72,160,71911,2,0,L|178:164,1,106.666666666667
386,180,72356,6,0,L|449:181,1,53.3333333333333,0|0,3:0|0:0,0:0:0:0:
231,179,72652,2,0,L|143:173,1,53.3333333333333,0|0,3:0|0:0,0:0:0:0:
386,180,72948,2,0,L|449:181,1,53.3333333333333,0|0,3:0|0:0,0:0:0:0:
231,179,73244,1,2,0:0:0:0:
161,152,73393,1,0,0:0:0:0:
134,84,73541,1,0,0:0:0:0:
223,87,73689,1,0,0:0:0:0:
368,80,73985,5,0,0:0:0:0:
208,76,74133,2,0,L|88:76,1,106.666666666667,4|0,0:0|0:0,0:0:0:0:
263,72,74578,2,0,L|267:200,1,106.666666666667
426,64,75022,2,0,L|430:176,1,106.666666666667
269,189,75467,2,0,L|158:190,1,106.666666666667
10,190,75911,5,0,0:0:0:0:
129,191,76207,1,0,0:0:0:0:
290,190,76356,1,0,0:0:0:0:
448,189,76652,1,0,0:0:0:0:
498,189,76800,1,2,0:0:0:0:
448,189,76948,1,2,0:0:0:0:
498,189,77096,1,2,0:0:0:0:
326,155,77244,6,0,L|286:57,1,106.666666666667
124,189,77689,2,0,L|244:186,1,106.666666666667,4|0,0:0|0:0,0:0:0:0:
395,171,78133,1,0,0:0:0:0:
438,126,78282,1,0,0:0:0:0:
411,88,78430,1,0,0:0:0:0:
249,90,78578,2,0,L|187:211,1,106.666666666667
46,197,79022,1,0,0:0:0:0:
405,187,79319,1,4,0:0:0:0:
471,189,79763,5,0,0:0:0:0:
314,190,79911,1,0,0:0:0:0:
185,197,80207,1,0,0:0:0:0:
127,196,80356,1,2,0:0:0:0:
185,197,80504,1,2,0:0:0:0:
127,196,80652,1,2,0:0:0:0:
277,197,80800,2,0,L|398:197,1,106.666666666667
164,164,81244,6,0,L|115:44,1,106.666666666667,4|0,0:0|0:0,0:0:0:0:
284,155,81689,2,0,L|329:50,1,106.666666666667
114,167,82133,2,0,L|67:62,1,106.666666666667,4|0,0:0|0:0,0:0:0:0:
289,157,82578,2,0,L|342:31,1,106.666666666667
490,171,83022,6,0,L|362:171,1,106.666666666667,4|0,0:0|0:0,0:0:0:0:
171,174,83467,2,0,L|280:175,1,106.666666666667
483,183,83911,2,0,L|332:183,1,106.666666666667,4|0,0:0|0:0,0:0:0:0:
215,186,84356,1,0,0:0:0:0:
460,186,84652,2,0,P|445:113|349:65,1,160,4|0,0:0|0:0,0:0:0:0:
218,65,85244,6,0,L|217:205,1,106.666666666667
64,179,85689,1,0,0:0:0:0:
306,187,85985,1,0,0:0:0:0:
342,186,86133,1,0,0:0:0:0:
197,194,86282,1,0,0:0:0:0:
166,195,86430,1,0,0:0:0:0:
296,193,86578,1,8,3:0:0:0:
227,189,87022,5,4,0:0:0:0:
157,223,87319,1,0,0:0:0:0:
298,195,87467,1,0,0:0:0:0:
158,195,87615,1,0,0:0:0:0:
299,172,87763,1,0,0:0:0:0:
159,166,87911,2,0,L|39:166,1,106.666666666667,2|0,0:0|0:0,0:0:0:0:
80,142,88282,1,0,0:0:0:0:
118,139,88356,2,0,L|235:140,1,106.666666666667
378,140,88800,6,0,L|410:268,1,106.666666666667
260,248,89244,2,0,L|235:131,1,106.666666666667
77,194,89689,2,0,L|197:200,1,106.666666666667,2|0,0:0|0:0,0:0:0:0:
229,169,90133,2,0,L|103:167,1,106.666666666667,2|0,0:0|0:0,0:0:0:0:
86,159,90578,2,0,L|93:31,1,106.666666666667,2|0,0:0|0:0,0:0:0:0:
247,62,91022,6,0,L|246:198,1,106.666666666667,2|0,0:0|0:0,0:0:0:0:
399,188,91467,2,0,L|399:61,1,106.666666666667,2|0,0:0|0:0,0:0:0:0:
241,64,91911,2,0,L|137:153,1,106.666666666667,2|0,0:0|0:0,0:0:0:0:
16,153,92356,2,0,L|94:228,1,106.666666666667
253,255,92800,2,0,L|375:255,1,106.666666666667,2|0,0:0|0:0,0:0:0:0:
400,220,93244,2,0,L|268:219,1,106.666666666667
224,202,93689,2,0,L|392:203,3,160,2|2|2|2,0:0|0:0|0:0|0:0,0:0:0:0:
16,197,95467,6,0,L|15:73,1,106.666666666667,6|0,0:0|0:0,0:0:0:0:
163,95,95911,2,0,L|165:224,1,106.666666666667
316,207,96356,1,2,0:0:0:0:
160,209,96652,1,0,0:0:0:0:
316,207,96800,2,0,L|343:84,1,106.666666666667
185,99,97244,2,0,L|152:224,1,106.666666666667,2|0,0:0|0:0,0:0:0:0:
316,207,97689,1,0,0:0:0:0:
157,202,97985,5,0,0:0:0:0:
316,207,98133,1,2,0:0:0:0:
428,209,98430,1,0,0:0:0:0:
266,206,98578,2,0,L|154:211,1,106.666666666667
368,136,99022,2,0,L|483:138,1,106.666666666667,6|0,0:0|0:0,0:0:0:0:
322,134,99467,1,0,0:0:0:0:
127,133,99763,1,0,0:0:0:0:
94,135,99911,1,0,0:0:0:0:
227,136,100059,1,0,0:0:0:0:
360,141,100207,1,0,0:0:0:0:
494,144,100356,1,2,0:0:0:0:
424,142,100652,5,0,0:0:0:0:
216,290,100800,2,0,B|93:287|93:287|73:247|95:223|95:223|196:224|196:224|220:192|202:163|202:163|102:162|102:162|78:132|103:103|103:103|268:101,1,640,6|4,0:0|0:0,0:0:0:0:
348,107,103022,5,0,0:0:0:0:
239,111,103319,1,0,0:0:0:0:
199,111,103467,2,0,L|148:244,1,106.666666666667
317,225,103911,1,0,0:0:0:0:
401,228,104207,1,0,0:0:0:0:
250,226,104356,2,0,L|203:111,1,106.666666666667
357,128,104800,2,0,L|468:131,1,106.666666666667
495,137,105244,5,0,0:0:0:0:
355,142,105541,1,0,0:0:0:0:
205,144,105689,2,0,L|86:144,1,106.666666666667
27,130,106133,2,0,L|143:130,1,106.666666666667
185,130,106578,1,0,0:0:0:0:
334,135,106874,1,0,0:0:0:0:
185,130,107022,1,0,0:0:0:0:
427,142,107319,1,0,0:0:0:0:
278,132,107467,1,0,0:0:0:0:
155,129,107763,5,0,0:0:0:0:
138,129,107911,2,0,P|98:96|139:69,1,106.666666666667,2|0,0:0|0:0,0:0:0:0:
281,72,108356,1,0,0:0:0:0:
181,70,108652,1,0,0:0:0:0:
331,65,108800,2,0,L|336:183,1,106.666666666667,2|0,0:0|0:0,0:0:0:0:
487,182,109244,2,0,L|347:184,1,106.666666666667,2|0,0:0|0:0,0:0:0:0:
227,191,109689,2,0,L|228:311,1,106.666666666667,2|0,0:0|0:0,0:0:0:0:
270,307,110133,5,0,0:0:0:0:
409,304,110430,1,0,0:0:0:0:
270,307,110578,1,0,0:0:0:0:
227,297,110874,1,0,0:0:0:0:
74,303,111022,1,0,0:0:0:0:
32,302,111319,1,0,0:0:0:0:
185,302,111467,6,0,L|185:162,1,106.666666666667
151,189,111911,1,0,0:0:0:0:
31,181,112207,1,0,0:0:0:0:
71,186,112356,1,0,0:0:0:0:
324,198,112652,1,0,0:0:0:0:
277,198,112800,1,0,0:0:0:0:
58,194,113096,1,0,0:0:0:0:
206,201,113244,6,0,L|280:91,1,106.666666666667
418,190,113689,2,0,L|324:120,1,106.666666666667
176,131,114133,2,0,L|295:130,1,106.666666666667
491,128,114578,2,0,L|364:125,1,106.666666666667
176,131,115022,2,0,P|77:149|19:197,2,160
218,132,116059,1,0,0:0:0:0:
266,133,116207,1,0,0:0:0:0:
429,138,116356,2,0,B|495:138|495:138|399:138,1,160,0|4,0:0|0:0,0:0:0:0:
207,137,117244,6,0,L|85:140,1,106.666666666667
58,143,117689,1,0,0:0:0:0:
207,137,117985,1,0,0:0:0:0:
252,137,118133,1,0,0:0:0:0:
385,137,118430,1,0,0:0:0:0:
228,140,118578,2,0,L|182:243,1,106.666666666667
165,271,119022,1,0,0:0:0:0:
99,289,119319,5,0,0:0:0:0:
242,288,119467,1,0,0:0:0:0:
242,288,119763,1,0,0:0:0:0:
386,283,119911,1,0,0:0:0:0:
386,283,120207,1,0,0:0:0:0:
242,288,120356,2,0,L|126:288,1,106.666666666667
285,181,120800,2,0,L|286:305,1,106.666666666667
316,294,121244,1,0,0:0:0:0:
483,300,121541,5,0,0:0:0:0:
326,298,121689,2,0,L|213:298,1,106.666666666667
63,298,122133,2,0,L|175:262,1,106.666666666667,2|0,0:0|0:0,0:0:0:0:
323,235,122578,2,0,L|326:365,1,106.666666666667,0|2,0:0|0:0,0:0:0:0:
166,335,123022,1,2,0:0:0:0:
166,335,123319,1,0,0:0:0:0:
325,341,123467,2,0,L|425:251,1,106.666666666667
179,271,123911,6,0,B|112:269|112:269|199:275,1,106.666666666667,4|0,0:0|0:0,0:0:0:0:
196,273,124356,1,0,0:0:0:0:
317,273,124652,1,0,0:0:0:0:
472,273,124800,2,0,L|483:153,1,106.666666666667
326,176,125244,2,0,L|216:175,1,106.666666666667
59,174,125689,2,0,L|69:308,1,106.666666666667
108,285,126133,1,0,0:0:0:0:
358,285,126430,1,0,0:0:0:0:
108,285,126874,6,0,L|73:233,1,53.3333333333333
25,183,127319,1,0,0:0:0:0:
183,190,127467,2,0,L|312:191,1,106.666666666667
448,197,127911,2,0,L|457:70,1,106.666666666667
301,94,128356,2,0,L|195:92,1,106.666666666667
41,93,128800,1,0,0:0:0:0:
396,95,129096,1,4,0:0:0:0:
232,85,129541,1,0,0:0:0:0:
202,87,129689,2,0,P|139:114|96:164,1,106.666666666667
89,167,130133,5,0,0:0:0:0:
315,171,130282,1,0,0:0:0:0:
385,171,130430,1,0,0:0:0:0:
403,121,130578,1,0,0:0:0:0:
362,137,130726,1,0,0:0:0:0:
298,135,130874,1,0,0:0:0:0:
86,137,131022,2,0,B|5:138|5:138|205:34|205:34|43:173,1,480
471,62,132800,5,0,0:0:0:0:
110,78,133244,1,0,0:0:0:0:
435,85,133689,1,0,1:0:0:0:
492,85,133837,1,0,1:0:0:0:
435,85,133985,1,0,1:0:0:0:
492,85,134133,1,0,1:0:0:0:
234,95,134430,5,0,0:0:0:0:
198,95,134578,2,0,L|82:95,1,106.666666666667,4|0,0:0|0:0,0:0:0:0:
245,143,135022,2,0,L|383:144,1,106.666666666667
194,159,135467,1,0,0:0:0:0:
164,158,135763,1,0,0:0:0:0:
321,168,135911,1,0,0:0:0:0:
41,160,136207,6,0,P|19:103|105:42,1,160,4|0,0:0|0:0,0:0:0:0:
239,161,136800,2,0,P|261:104|207:62,1,106.666666666667
83,150,137244,2,0,L|199:153,1,106.666666666667
345,159,137689,1,0,0:0:0:0:
377,132,137837,1,0,0:0:0:0:
345,159,137985,1,0,0:0:0:0:
194,178,138133,6,0,B|133:178|133:178|216:179,1,106.666666666667,4|0,0:0|0:0,0:0:0:0:
345,159,138578,1,0,0:0:0:0:
391,133,138726,1,0,0:0:0:0:
345,159,138874,1,0,0:0:0:0:
183,191,139022,2,0,B|122:191|122:191|205:192,1,106.666666666667
345,159,139467,1,0,0:0:0:0:
408,144,139615,1,0,0:0:0:0:
345,159,139763,1,0,0:0:0:0:
177,210,139911,6,0,B|116:210|116:210|199:211,1,106.666666666667
345,159,140356,1,0,0:0:0:0:
417,157,140504,1,0,0:0:0:0:
345,159,140652,1,0,0:0:0:0:
168,219,140800,2,0,B|107:219|107:219|190:220,1,106.666666666667
293,212,141244,1,0,0:0:0:0:
433,221,141393,1,0,0:0:0:0:
324,213,141541,1,0,0:0:0:0:
463,221,141689,6,0,L|460:109,1,106.666666666667,4|0,0:0|0:0,0:0:0:0:
247,222,142133,2,0,L|246:95,1,106.666666666667
32,214,142578,2,0,L|32:96,1,106.666666666667
196,119,143022,2,0,L|351:121,1,106.666666666667
465,128,143467,2,0,L|469:258,1,106.666666666667
312,237,143911,5,0,0:0:0:0:
173,206,144207,1,0,0:0:0:0:
333,202,144356,1,0,0:0:0:0:
147,185,144652,1,0,0:0:0:0:
303,186,144800,1,4,0:0:0:0:
82,185,145096,1,0,0:0:0:0:
114,186,145244,1,0,0:0:0:0:
219,189,145541,5,0,3:0:0:0:
328,191,145689,1,0,1:0:0:0:
212,189,145837,1,0,3:0:0:0:
339,191,145985,1,0,1:0:0:0:
188,188,146134,1,0,1:0:0:0:
317,191,146282,1,0,1:0:0:0:
203,188,146430,1,0,3:0:0:0:
353,193,146578,1,0,1:0:0:0:
160,286,146874,5,0,1:0:0:0:
145,286,147022,1,0,0:0:0:0:
308,275,147170,1,0,0:0:0:0:
199,264,147319,1,0,0:0:0:0:
362,258,147467,1,0,0:0:0:0:
362,258,147763,5,0,0:0:0:0:
151,260,147911,2,0,L|51:197,1,106.666666666667
222,224,148356,2,0,L|294:270,2,53.3333333333333
59,282,148800,2,0,L|51:162,1,106.666666666667
216,280,149244,2,0,L|224:160,1,106.666666666667
387,280,149689,1,2,0:0:0:0:
445,282,149837,1,2,0:0:0:0:
387,280,149985,1,2,0:0:0:0:
445,282,150133,1,2,0:0:0:0:
212,284,150430,5,0,0:0:0:0:
369,288,150578,2,0,L|369:157,1,106.666666666667
207,196,151022,2,0,L|349:194,1,106.666666666667
470,191,151467,2,0,L|474:63,1,106.666666666667
308,97,151911,1,0,0:0:0:0:
422,93,152207,1,0,0:0:0:0:
262,91,152356,6,0,L|123:99,1,106.666666666667
361,52,152800,2,0,L|249:95,1,106.666666666667
473,107,153244,1,2,0:0:0:0:
412,103,153393,1,2,0:0:0:0:
473,107,153541,1,2,0:0:0:0:
412,103,153689,1,4,0:0:0:0:
252,137,154133,5,0,0:0:0:0:
84,137,154282,1,0,0:0:0:0:
216,122,154430,1,0,0:0:0:0:
52,124,154578,1,0,0:0:0:0:
188,123,154874,1,0,0:0:0:0:
342,133,155022,2,0,L|381:260,1,106.666666666667
404,246,155467,2,0,L|274:244,1,106.666666666667
134,238,155911,2,0,L|8:88,2,160
153,266,156948,1,0,0:0:0:0:
133,301,157096,1,0,0:0:0:0:
31,115,157244,1,0,0:0:0:0:
365,118,157689,6,0,L|369:270,1,106.666666666667,4|0,0:0|0:0,0:0:0:0:
501,197,158133,2,0,L|389:117,1,106.666666666667
256,132,158578,2,0,L|159:197,1,106.666666666667
8,133,159022,1,0,0:0:0:0:
135,137,159319,1,0,0:0:0:0:
170,139,159467,6,0,L|252:138,1,53.3333333333333,0|0,3:0|0:0,0:0:0:0:
434,135,159763,2,0,L|363:136,1,53.3333333333333,0|0,3:0|0:0,0:0:0:0:
169,150,160059,2,0,L|252:151,1,53.3333333333333,0|0,3:0|0:0,0:0:0:0:
434,171,160356,1,2,0:0:0:0:
497,149,160504,1,0,1:0:0:0:
433,128,160652,1,0,1:0:0:0:
494,111,160800,1,0,1:0:0:0:
374,124,161096,5,0,3:0:0:0:
217,118,161244,2,0,L|150:232,1,106.666666666667,4|0,0:0|0:0,0:0:0:0:
138,249,161689,1,0,0:0:0:0:
257,255,161985,1,0,0:0:0:0:
413,259,162133,2,0,L|414:145,1,106.666666666667
257,255,162578,2,0,L|257:142,1,106.666666666667
202,157,163022,1,0,0:0:0:0:
81,161,163319,1,0,0:0:0:0:
236,165,163467,1,0,0:0:0:0:
357,177,163763,5,0,0:0:0:0:
421,176,163911,1,2,0:0:0:0:
348,176,164059,1,2,0:0:0:0:
415,176,164207,1,2,0:0:0:0:
259,178,164356,2,0,L|131:181,1,106.666666666667
101,183,164800,2,0,B|12:184|12:184|114:182,1,160,4|0,0:0|0:0,0:0:0:0:
339,187,165541,1,0,0:0:0:0:
395,186,165689,2,0,B|484:187|484:187|382:185,1,160
114,184,166430,1,4,0:0:0:0:
197,188,166874,5,0,0:0:0:0:
35,190,167022,2,0,L|148:195,1,106.666666666667
303,195,167467,1,2,0:0:0:0:
372,193,167615,1,2,0:0:0:0:
303,195,167763,1,2,0:0:0:0:
372,193,167911,2,0,L|493:193,1,106.666666666667
270,167,168356,6,0,L|163:114,1,106.666666666667,4|0,0:0|0:0,0:0:0:0:
24,175,168800,2,0,L|148:137,1,106.666666666667
331,147,169244,2,0,L|226:99,1,106.666666666667,4|0,0:0|0:0,0:0:0:0:
28,183,169689,2,0,L|142:125,1,106.666666666667
278,196,170133,2,0,L|388:197,1,106.666666666667,4|0,0:0|0:0,0:0:0:0:
165,196,170578,2,0,L|35:194,1,106.666666666667
280,197,171022,2,0,L|293:75,1,106.666666666667,4|0,0:0|0:0,0:0:0:0:
137,82,171467,1,0,0:0:0:0:
415,66,171763,6,0,B|475:64|475:64|368:62,1,160,4|0,0:0|0:0,0:0:0:0:
221,61,172356,1,0,0:0:0:0:
190,63,172652,2,0,L|22:239,1,213.333333333333
72,224,173393,1,0,0:0:0:0:
120,224,173541,1,0,0:0:0:0:
168,224,173689,6,0,B|244:220|244:220|118:215,1,160
41,216,174430,1,0,0:0:0:0:
53,216,174578,2,0,L|209:216,1,106.666666666667
316,211,175022,2,0,L|456:209,1,106.666666666667
292,166,175467,1,0,0:0:0:0:
435,163,175763,1,0,0:0:0:0:
276,167,175911,1,0,0:0:0:0:
361,171,176207,1,0,0:0:0:0:
196,176,176356,1,0,0:0:0:0:
266,186,176652,1,0,0:0:0:0:
57,189,176800,1,0,0:0:0:0:
21,189,177096,6,0,L|83:188,1,53.3333333333333
286,189,177541,1,0,0:0:0:0:
236,189,177689,1,0,0:0:0:0:
28,182,177985,2,0,L|228:184,1,160
401,189,178578,1,4,0:0:0:0:
69,186,179022,2,0,P|16:125|99:108,1,160,4|0,0:0|0:0,0:0:0:0:
332,100,179763,5,0,0:0:0:0:
398,102,179911,1,0,0:0:0:0:
332,100,180059,1,0,0:0:0:0:
166,99,180207,1,0,0:0:0:0:
114,100,180356,1,0,0:0:0:0:
288,99,180652,1,0,0:0:0:0:
446,104,180800,2,0,B|484:220,1,106.666666666667
319,208,181244,6,0,L|224:210,2,53.3333333333333
482,213,181689,1,0,0:0:0:0:
223,202,181985,1,0,0:0:0:0:
165,200,182133,2,0,L|19:202,1,106.666666666667,4|0,0:0|0:0,0:0:0:0:
223,202,182578,1,4,0:0:0:0:
399,206,182874,5,0,0:0:0:0:
238,211,183022,1,0,0:0:0:0:
348,157,183319,1,0,0:0:0:0:
181,160,183467,1,4,0:0:0:0:
300,114,183763,1,0,0:0:0:0:
128,122,183911,1,0,0:0:0:0:
251,68,184207,1,0,0:0:0:0:
38,83,184356,2,0,P|9:156|41:248,2,160,4|0|0,0:0|0:0|0:0,0:0:0:0:
255,84,185541,5,0,1:0:0:0:
295,84,185689,1,2,0:0:0:0:
455,80,185837,1,0,3:0:0:0:
315,104,185985,1,0,1:0:0:0:
478,51,186133,2,0,P|388:229|271:282,2,320,4|2|0,0:0|0:0|0:0,0:0:0:0:
394,67,188356,5,0,0:0:0:0:
179,81,188800,1,0,0:0:0:0:
323,84,189244,1,0,0:0:0:0:
107,86,189689,1,2,0:0:0:0:
434,87,190133,1,2,0:0:0:0:
17,89,190578,1,2,0:0:0:0:
130,88,191022,1,0,0:0:0:0:
195,86,191319,5,0,0:0:0:0:
161,89,191467,1,0,0:0:0:0:
46,92,191911,1,0,0:0:0:0:
388,92,192356,1,0,0:0:0:0:
206,111,192800,1,0,0:0:0:0:
177,117,193096,5,0,0:0:0:0:
385,117,193244,1,0,1:0:0:0:
155,97,193541,5,0,0:0:0:0:
364,92,193689,1,0,1:0:0:0:
135,108,193985,5,0,0:0:0:0:
177,111,194133,1,0,0:0:0:0:
248,111,194430,5,0,0:0:0:0:
34,117,194578,1,0,0:0:0:0:
156,115,194726,1,0,0:0:0:0:
278,114,194874,1,0,0:0:0:0:
400,111,195022,1,0,0:0:0:0:
257,112,195170,1,0,0:0:0:0:
468,136,195319,1,0,0:0:0:0:
318,148,195467,6,0,L|256:56,1,106.666666666667
97,155,195911,2,0,L|9:55,1,106.666666666667
194,74,196356,2,0,L|323:73,1,106.666666666667
138,75,196800,2,0,L|16:76,1,106.666666666667
250,70,197244,2,0,L|392:66,1,106.666666666667
147,72,197689,1,0,0:0:0:0:
72,71,197837,1,0,0:0:0:0:
147,72,197985,1,0,0:0:0:0:
311,79,198133,6,0,L|444:77,1,106.666666666667,4|0,0:0|0:0,0:0:0:0:
254,93,198578,2,0,L|254:227,1,106.666666666667
199,199,199022,2,0,L|199:84,1,106.666666666667
301,97,199467,2,0,L|303:217,1,106.666666666667
142,216,199911,1,0,0:0:0:0:
413,214,200207,1,0,0:0:0:0:
282,219,200356,1,4,0:0:0:0:
163,226,200652,5,0,3:0:0:0:
297,228,200800,1,0,1:0:0:0:
181,225,200948,1,0,3:0:0:0:
316,231,201096,1,0,1:0:0:0:
163,226,201244,1,0,1:0:0:0:
305,231,201393,1,0,1:0:0:0:
181,225,201541,1,0,3:0:0:0:
334,230,201689,1,0,1:0:0:0:
379,229,202133,5,0,0:0:0:0:
233,232,202282,1,0,0:0:0:0:
445,219,202430,1,0,0:0:0:0:
298,215,202578,1,0,0:0:0:0:
498,207,202874,5,0,0:0:0:0:
280,212,203022,2,0,L|126:209,1,106.666666666667
137,211,203467,2,0,L|136:68,1,106.666666666667
295,106,203911,2,0,L|301:238,1,106.666666666667
87,222,204356,2,0,L|84:97,1,106.666666666667
239,102,204800,2,0,L|244:242,1,106.666666666667
87,222,205244,1,0,0:0:0:0:
61,222,205541,5,0,0:0:0:0:
221,218,205689,2,0,L|339:215,1,106.666666666667
488,217,206133,2,0,L|379:112,1,106.666666666667
355,132,206578,2,0,L|223:134,1,106.666666666667
88,141,207022,2,0,L|23:234,1,106.666666666667
189,222,207467,1,0,0:0:0:0:
399,177,207763,5,0,0:0:0:0:
241,186,207911,1,0,0:0:0:0:
65,131,208207,1,0,0:0:0:0:
229,135,208356,1,2,0:0:0:0:
303,135,208504,1,2,0:0:0:0:
229,135,208652,1,2,0:0:0:0:
21,136,208800,6,0,B|127:136,1,106.666666666667,4|0,0:0|0:0,0:0:0:0:
164,137,209244,1,0,0:0:0:0:
22,129,209393,1,0,0:0:0:0:
236,122,209541,1,0,0:0:0:0:
97,117,209689,1,0,0:0:0:0:
28,117,209985,5,0,0:0:0:0:
236,122,210133,2,0,L|362:122,1,106.666666666667
500,128,210578,1,0,0:0:0:0:
408,129,210874,1,0,0:0:0:0:
249,137,211022,2,0,L|105:137,1,106.666666666667
303,138,211467,2,0,L|417:139,1,106.666666666667
250,137,211911,1,2,0:0:0:0:
176,140,212059,1,2,0:0:0:0:
250,137,212207,1,2,0:0:0:0:
176,140,212356,6,0,L|175:278,1,106.666666666667
386,260,212800,2,0,L|388:137,1,106.666666666667,4|0,0:0|0:0,0:0:0:0:
228,145,213244,2,0,L|223:267,1,106.666666666667
63,263,213689,2,0,L|68:137,1,106.666666666667
227,158,214133,1,0,0:0:0:0:
490,165,214430,1,0,0:0:0:0:
457,166,214578,6,0,L|369:170,1,53.3333333333333,0|0,3:0|0:0,0:0:0:0:
194,178,214874,2,0,L|114:176,1,53.3333333333333,0|0,3:0|0:0,0:0:0:0:
351,178,215170,2,0,L|271:179,1,53.3333333333333,0|0,3:0|0:0,0:0:0:0:
86,186,215467,2,0,L|25:185,1,53.3333333333333,0|0,3:0|1:0,0:0:0:0:
172,188,215763,1,0,1:0:0:0:
312,191,215911,1,0,1:0:0:0:
451,200,216207,5,0,0:0:0:0:
488,201,216282,1,0,0:0:0:0:
451,200,216356,2,0,L|329:197,1,106.666666666667,4|0,0:0|0:0,0:0:0:0:
181,196,216800,2,0,L|50:195,1,106.666666666667
228,146,217244,2,0,L|341:147,1,106.666666666667
123,168,217689,2,0,L|11:169,1,106.666666666667
69,138,218133,2,0,L|196:134,1,106.666666666667
336,121,218578,1,0,0:0:0:0:
434,124,218874,5,0,0:0:0:0:
317,123,219022,1,2,0:0:0:0:
451,123,219170,1,2,0:0:0:0:
306,130,219319,1,2,0:0:0:0:
468,141,219467,2,0,L|497:251,1,106.666666666667
287,246,219911,6,0,L|171:246,1,106.666666666667,4|0,0:0|0:0,0:0:0:0:
18,241,220356,2,0,L|23:110,1,106.666666666667
80,137,220800,2,0,L|80:272,1,106.666666666667
132,246,221244,1,0,0:0:0:0:
486,246,221541,1,4,0:0:0:0:
323,248,221985,1,0,0:0:0:0:
486,246,222133,1,0,0:0:0:0:
323,248,222430,5,0,0:0:0:0:
242,244,222578,1,0,0:0:0:0:
323,248,222726,1,0,0:0:0:0:
242,244,222874,1,0,0:0:0:0:
323,248,223022,1,0,0:0:0:0:
323,248,223319,1,0,0:0:0:0:
159,250,223467,6,0,L|77:151,1,106.666666666667,4|0,0:0|0:0,0:0:0:0:
302,196,223911,2,0,L|371:278,1,106.666666666667
159,250,224356,6,0,L|158:122,1,106.666666666667,4|0,0:0|0:0,0:0:0:0:
370,277,224800,6,0,L|371:149,1,106.666666666667
76,212,225244,2,0,L|173:130,1,106.666666666667,4|0,0:0|0:0,0:0:0:0:
452,239,225689,2,0,L|355:157,1,106.666666666667
161,150,226133,2,0,L|60:208,1,106.666666666667,4|0,0:0|0:0,0:0:0:0:
121,212,226578,1,0,0:0:0:0:
434,233,226874,2,0,P|486:196|485:95,1,160,4|0,0:0|0:0,0:0:0:0:
443,97,227467,6,0,L|406:217,1,106.666666666667,4|0,0:0|0:0,0:0:0:0:
372,189,227911,2,0,L|341:73,1,106.666666666667
181,99,228356,2,0,L|144:219,1,106.666666666667
110,191,228800,2,0,L|79:75,1,106.666666666667
235,86,229244,1,0,0:0:0:0:
28,82,229541,2,0,L|293:88,1,213.333333333333
135,134,230430,5,0,0:0:0:0:
344,161,230578,2,0,L|344:41,1,106.666666666667,4|0,0:0|0:0,0:0:0:0:
135,160,231022,2,0,L|135:40,1,106.666666666667
346,124,231467,2,0,L|441:202,1,106.666666666667,4|0,0:0|0:0,0:0:0:0:
221,136,231911,2,0,L|126:214,1,106.666666666667
384,201,232356,2,0,L|302:134,1,106.666666666667,4|0,0:0|0:0,0:0:0:0:
58,203,232800,2,0,L|141:136,1,106.666666666667
349,142,233244,6,0,L|416:253,1,106.666666666667,4|0,0:0|0:0,0:0:0:0:
423,264,233689,1,0,0:0:0:0:
134,291,233985,2,0,B|55:293|55:293|44:262|44:262|168:255,1,213.333333333333,4|0,0:0|0:0,0:0:0:0:
266,253,235022,1,0,0:0:0:0:
376,257,235319,1,0,0:0:0:0:
398,256,235467,1,0,0:0:0:0:
0,249,235911,1,0,3:0:0:0:
155,256,236208,5,0,3:0:0:0:
260,258,236356,1,0,1:0:0:0:
148,256,236504,1,0,3:0:0:0:
271,258,236652,1,0,1:0:0:0:
124,255,236801,1,0,1:0:0:0:
249,258,236949,1,0,1:0:0:0:
139,255,237097,1,0,3:0:0:0:
285,260,237245,1,0,1:0:0:0:
174,280,237541,5,0,0:0:0:0:
332,280,237689,2,0,L|366:127,1,106.666666666667,4|0,0:0|0:0,0:0:0:0:
195,161,238133,2,0,L|166:278,1,106.666666666667
225,277,238578,2,0,L|358:280,1,106.666666666667
387,281,239022,2,0,L|424:159,1,106.666666666667
360,178,239467,2,0,L|242:179,1,106.666666666667
93,176,239911,1,0,0:0:0:0:
197,177,240207,5,0,0:0:0:0:
322,177,240356,1,2,0:0:0:0:
221,178,240504,1,2,0:0:0:0:
338,178,240652,1,2,0:0:0:0:
187,179,240800,1,4,0:0:0:0:
379,206,241244,6,0,B|443:205|443:205|363:203,1,106.666666666667
244,205,241689,1,0,0:0:0:0:
244,205,241985,1,0,0:0:0:0:
406,213,242133,2,0,B|470:212|470:212|390:210,1,106.666666666667
273,216,242578,1,0,0:0:0:0:
0,218,242874,1,4,0:0:0:0:
143,215,243319,5,0,0:0:0:0:
178,214,243467,2,0,L|321:214,1,106.666666666667
355,216,243911,1,2,0:0:0:0:
284,214,244059,1,2,0:0:0:0:
355,216,244207,1,2,0:0:0:0:
284,214,244356,1,0,0:0:0:0:
260,215,244504,1,0,0:0:0:0:
282,215,244652,1,0,0:0:0:0:
440,217,244800,6,0,L|435:99,1,106.666666666667,4|0,0:0|0:0,0:0:0:0:
276,218,245244,2,0,L|274:98,1,106.666666666667
115,215,245689,2,0,L|235:215,1,106.666666666667,4|0,0:0|0:0,0:0:0:0:
381,221,246133,2,0,L|380:81,1,106.666666666667
169,225,246578,2,0,L|101:122,1,106.666666666667,4|0,0:0|0:0,0:0:0:0:
381,221,247022,2,0,L|493:220,1,106.666666666667
266,218,247467,1,4,0:0:0:0:
161,213,247763,1,0,0:0:0:0:
331,215,247911,1,0,0:0:0:0:
48,222,248207,1,0,3:0:0:0:
256,192,248356,12,4,250133,0:0:0:0:
