osu file format v14

[General]
AudioFilename: audio.mp3
AudioLeadIn: 0
PreviewTime: 136585
Countdown: 0
SampleSet: Soft
StackLeniency: 0.7
Mode: 0
LetterboxInBreaks: 0
WidescreenStoryboard: 1

[Editor]
DistanceSpacing: 0.9
BeatDivisor: 2
GridSize: 4
TimelineZoom: 1.2

[Metadata]
Title:Mahou Shoujo Chino
TitleUnicode:魔法少女チノ
Artist:Chino (CV.Minase Inori)
ArtistUnicode:チノ(CV.水瀬いのり)
Creator:84461810
Version:Normal
Source:ご注文はうさぎですか?
Tags:チノ 魔法少女 水瀬いのり ごちうさ chino mahoushoujo mahou shoujo minase inori gochuumon wa usagi desu ka is the order a rabbit gochiusa Daloubot
BeatmapID:1565121
BeatmapSetID:577865

[Difficulty]
HPDrainRate:4
CircleSize:3
OverallDifficulty:5
ApproachRate:5.6
SliderMultiplier:1.00000000596046
SliderTickRate:1

[Events]
//Background and Video events
0,0,"bg.jpg",0,0
//Break Periods
2,85961,90298
2,170666,177828
//Storyboard Layer 0 (Background)
//Storyboard Layer 1 (Fail)
//Storyboard Layer 2 (Pass)
//Storyboard Layer 3 (Foreground)
//Storyboard Sound Samples

[TimingPoints]
1056,352.941176470588,4,2,1,50,1,0
63173,-100,4,2,1,55,0,1
85761,-100,4,2,1,50,0,0
136585,-100,4,2,1,55,0,1
159173,-100,4,2,1,50,0,0
185997,-100,4,2,1,55,0,1
208585,-100,4,2,1,50,0,0

[Colours]
Combo1 : 128,255,128
Combo2 : 63,179,248
Combo3 : 181,106,255
Combo4 : 255,128,128
Combo5 : 255,192,0

[HitObjects]
256,192,1056,12,0,5997,0:0:0:0:
358,230,6703,6,0,P|292:161|324:72,1,200.000001192092
380,144,7761,1,0,0:0:0:0:
444,208,8114,2,0,L|459:306,1,100.000000596046,0|0,0:0|0:0,0:0:0:0:
368,320,8820,1,0,0:0:0:0:
358,230,9173,1,0,0:0:0:0:
273,199,9526,6,0,P|238:285|137:289,1,200.000001192092
184,212,10585,1,0,0:0:0:0:
217,127,10938,2,0,L|311:95,1,100.000000596046,0|0,0:0|0:0,0:0:0:0:
356,172,11644,1,0,0:0:0:0:
272,200,11997,1,0,0:0:0:0:
184,212,12350,6,0,P|124:176|80:184,1,100.000000596046,0|0,0:0|0:0,0:0:0:0:
52,172,12879,2,0,L|32:296,1,100.000000596046
32,316,13408,1,0,0:0:0:0:
120,312,13761,2,0,P|158:342|207:346,2,100.000000596046,0|0|0,0:0|0:0|0:0,0:0:0:0:
192,260,14820,2,0,L|256:220,1,50.000000298023,0|0,0:0|0:0,0:0:0:0:
272,208,15173,6,0,L|336:120,1,100.000000596046,0|0,0:0|0:0,0:0:0:0:
356,88,15703,2,0,L|224:64,1,100.000000596046
220,96,16232,2,0,L|156:84,1,50.000000298023,0|0,0:0|0:0,0:0:0:0:
128,80,16585,1,0,0:0:0:0:
51,125,16938,1,0,0:0:0:0:
128,170,17291,1,0,0:0:0:0:
51,215,17644,1,0,0:0:0:0:
128,260,17997,6,0,L|220:304,1,100.000000596046,0|0,0:0|0:0,0:0:0:0:
300,340,18703,1,0,0:0:0:0:
384,308,19055,1,0,0:0:0:0:
424,228,19408,2,0,L|467:137,1,100.000000596046,0|0,0:0|0:0,0:0:0:0:
484,96,19938,1,0,0:0:0:0:
392,96,20291,2,0,L|324:64,1,50.000000298023,0|0,0:0|0:0,0:0:0:0:
256,64,20820,5,0,0:0:0:0:
256,152,21173,1,0,0:0:0:0:
208,228,21526,2,0,P|256:244|304:228,1,100.000000596046,0|0,0:0|0:0,0:0:0:0:
360,300,22232,2,0,P|392:244|384:196,1,100.000000596046,0|0,0:0|0:0,0:0:0:0:
369,170,22761,1,0,0:0:0:0:
308,107,23114,2,0,L|368:55,1,50.000000298023,0|0,0:0|0:0,0:0:0:0:
432,48,23644,5,0,0:0:0:0:
412,136,23997,1,0,0:0:0:0:
345,74,24350,2,0,L|307:41,2,50.000000298023,0|0|0,0:0|0:0|0:0,0:0:0:0:
287,142,25055,1,0,0:0:0:0:
307,230,25408,1,0,0:0:0:0:
374,168,25761,2,0,L|411:135,2,50.000000298023,0|0|0,0:0|0:0|0:0,0:0:0:0:
287,142,26467,5,0,0:0:0:0:
224,204,26820,1,0,0:0:0:0:
200,116,27173,2,0,L|184:60,2,50.000000298023,0|0|0,0:0|0:0|0:0,0:0:0:0:
140,184,27879,2,0,P|144:240|192:280,1,100.000000596046,0|0,0:0|0:0,0:0:0:0:
196,308,28408,2,0,L|76:352,1,100.000000596046
60,356,28938,2,0,L|44:308,1,50.000000298023,0|0,0:0|0:0,0:0:0:0:
32,264,29291,5,0,0:0:0:0:
52,176,29644,1,0,0:0:0:0:
97,100,29997,2,0,P|132:135|140:184,1,100.000000596046,0|0,0:0|0:0,0:0:0:0:
188,260,30703,2,0,P|222:224|230:176,1,100.000000596046,0|0,0:0|0:0,0:0:0:0:
224,132,31232,1,0,0:0:0:0:
296,80,31585,2,0,L|360:36,1,50.000000298023,0|0,0:0|0:0,0:0:0:0:
428,48,32114,5,0,0:0:0:0:
476,124,32467,1,0,0:0:0:0:
404,176,32820,2,0,L|304:248,1,100.000000596046,0|0,0:0|0:0,0:0:0:0:
244,276,33526,2,0,P|296:320|340:320,1,100.000000596046,0|0,0:0|0:0,0:0:0:0:
372,324,34055,1,0,0:0:0:0:
460,340,34408,2,0,L|460:272,1,50.000000298023,0|0,0:0|0:0,0:0:0:0:
488,204,34938,5,0,0:0:0:0:
404,176,35291,1,0,0:0:0:0:
320,144,35644,2,0,P|360:96|416:88,1,100.000000596046,0|0,0:0|0:0,0:0:0:0:
476,124,36350,1,0,0:0:0:0:
404,176,36703,1,0,0:0:0:0:
332,228,37055,2,0,P|306:229|241:170,1,100.000000596046,0|0,0:0|0:0,0:0:0:0:
192,116,37761,6,0,L|100:164,1,100.000000596046,0|0,0:0|0:0,0:0:0:0:
64,184,38291,2,0,P|92:232|92:284,1,100.000000596046
88,320,38820,1,0,0:0:0:0:
176,304,39173,2,0,P|213:336|262:347,1,100.000000596046,0|0,0:0|0:0,0:0:0:0:
256,256,39879,2,0,P|218:223|169:212,1,100.000000596046,0|0,0:0|0:0,0:0:0:0:
124,136,40585,5,0,0:0:0:0:
152,52,40938,2,0,P|184:72|212:148,1,100.000000596046,0|0,0:0|0:0,0:0:0:0:
300,126,41644,2,0,P|319:80|359:51,1,100.000000596046,0|0,0:0|0:0,0:0:0:0:
388,136,42350,1,0,0:0:0:0:
424,220,42703,2,0,L|468:336,1,100.000000596046,0|0,0:0|0:0,0:0:0:0:
369,313,43408,5,0,0:0:0:0:
281,317,43761,2,0,P|291:268|328:236,1,100.000000596046,0|0,0:0|0:0,0:0:0:0:
328,147,44467,2,0,P|291:115|281:67,1,100.000000596046,0|0,0:0|0:0,0:0:0:0:
369,71,45173,1,0,0:0:0:0:
413,149,45526,2,0,P|399:196|353:231,1,100.000000596046,0|0,0:0|0:0,0:0:0:0:
300,296,46232,6,0,L|284:364,1,50.000000298023
204,316,46761,2,0,L|215:267,1,50.000000298023
130,238,47291,2,0,L|114:306,1,50.000000298023,0|0,0:0|0:0,0:0:0:0:
34,258,47820,2,0,L|45:209,1,50.000000298023,0|0,0:0|0:0,0:0:0:0:
64,120,48350,2,0,P|124:72|160:76,1,100.000000596046,0|0,0:0|0:0,0:0:0:0:
188,76,48879,1,0,0:0:0:0:
220,108,49055,6,0,L|296:196,1,100.000000596046,0|0,0:0|0:0,0:0:0:0:
216,240,49761,2,0,L|150:164,1,100.000000596046,0|0,0:0|0:0,0:0:0:0:
143,71,50467,1,0,0:0:0:0:
220,108,50820,1,0,0:0:0:0:
302,71,51173,2,0,P|352:40|420:48,1,100.000000596046,0|0,0:0|0:0,0:0:0:0:
456,100,51879,5,0,0:0:0:0:
446,188,52232,2,0,P|401:169|373:128,1,100.000000596046,0|0,0:0|0:0,0:0:0:0:
302,71,52938,2,0,P|274:111|228:130,1,100.000000596046,0|0,0:0|0:0,0:0:0:0:
219,40,53644,1,0,0:0:0:0:
148,96,53997,2,0,P|140:128|184:204,1,100.000000596046,0|0,0:0|0:0,0:0:0:0:
244,224,54703,5,0,0:0:0:0:
308,164,55055,2,0,P|316:132|272:56,1,100.000000596046,0|0,0:0|0:0,0:0:0:0:
228,130,55761,2,0,L|100:134,1,100.000000596046,0|0,0:0|0:0,0:0:0:0:
48,180,56467,1,0,0:0:0:0:
68,268,56820,2,0,L|144:336,1,100.000000596046,0|0,0:0|0:0,0:0:0:0:
232,344,57526,5,0,0:0:0:0:
320,336,57879,1,0,0:0:0:0:
400,296,58232,1,0,0:0:0:0:
448,220,58585,1,0,0:0:0:0:
456,40,59291,1,0,0:0:0:0:
426,125,59644,2,0,P|387:95|368:50,1,100.000000596046,0|0,0:0|0:0,0:0:0:0:
280,68,60350,6,0,L|104:36,2,150.000000894069,0|0|0,0:0|0:0|0:0,0:0:0:0:
308,152,61761,2,0,P|348:180|368:228,1,100.000000596046,0|0,0:0|0:0,0:0:0:0:
332,308,62467,1,0,0:0:0:0:
280,236,62820,1,0,0:0:0:0:
220,168,63173,6,0,L|116:148,1,100.000000596046,0|0,0:0|0:0,0:0:0:0:
36,176,63879,2,0,P|40:112|72:72,1,100.000000596046,0|0,0:0|0:0,0:0:0:0:
148,64,64585,1,0,0:0:0:0:
121,149,64938,1,0,0:0:0:0:
121,149,65114,2,0,P|124:200|80:256,1,100.000000596046
60,264,65644,1,0,0:0:0:0:
48,352,65997,5,0,0:0:0:0:
132,320,66350,1,0,0:0:0:0:
216,288,66703,2,0,L|316:248,1,100.000000596046,0|0,0:0|0:0,0:0:0:0:
348,168,67409,1,0,0:0:0:0:
396,244,67761,1,0,0:0:0:0:
396,244,67938,2,0,B|424:312|424:312|452:332,1,100.000000596046
484,348,68467,1,0,0:0:0:0:
492,260,68820,6,0,L|452:160,1,100.000000596046,0|0,0:0|0:0,0:0:0:0:
456,76,69526,2,0,L|348:44,1,100.000000596046,0|0,0:0|0:0,0:0:0:0:
276,84,70232,1,0,0:0:0:0:
196,44,70585,1,0,0:0:0:0:
196,44,70761,2,0,P|188:108|224:156,1,100.000000596046
240,168,71291,1,0,0:0:0:0:
328,160,71644,5,0,0:0:0:0:
378,233,71997,1,0,0:0:0:0:
340,315,72350,1,0,0:0:0:0:
290,242,72703,1,0,0:0:0:0:
240,168,73055,2,0,L|156:176,2,50.000000298023,0|0|0,0:0|0:0|0:0,0:0:0:0:
284,160,73585,2,0,L|220:72,1,100.000000596046
196,44,74114,1,0,0:0:0:0:
132,108,74467,6,0,P|104:160|116:216,1,100.000000596046,0|0,0:0|0:0,0:0:0:0:
166,263,75173,2,0,P|194:211|182:155,1,100.000000596046,0|0,0:0|0:0,0:0:0:0:
284,160,75879,1,0,0:0:0:0:
344,224,76232,1,0,0:0:0:0:
344,224,76408,2,0,P|345:273|319:315,1,100.000000596046
276,332,76938,1,0,0:0:0:0:
188,348,77291,5,0,0:0:0:0:
104,328,77644,1,0,0:0:0:0:
73,243,77997,2,0,P|122:240|166:263,1,100.000000596046,0|0,0:0|0:0,0:0:0:0:
256,248,78703,1,0,0:0:0:0:
200,180,79055,1,0,0:0:0:0:
200,180,79232,2,0,P|172:164|100:152,1,100.000000596046
61,157,79761,1,0,0:0:0:0:
40,68,80114,6,0,P|90:61|128:28,1,100.000000596046,0|0,0:0|0:0,0:0:0:0:
216,32,80820,2,0,P|253:63|302:69,1,100.000000596046,0|0,0:0|0:0,0:0:0:0:
356,140,81526,1,0,0:0:0:0:
413,209,81879,1,0,0:0:0:0:
413,209,82055,2,0,P|442:169|444:120,1,100.000000596046
422,80,82585,1,0,0:0:0:0:
356,140,82938,6,0,P|327:179|325:229,1,100.000000596046,0|0,0:0|0:0,0:0:0:0:
348,268,83467,2,0,P|298:269|258:298,1,100.000000596046
184,348,84173,1,0,0:0:0:0:
184,348,84350,2,0,P|168:296|192:240,1,100.000000596046,0|0,0:0|0:0,0:0:0:0:
208,220,84879,2,0,L|244:104,1,100.000000596046
252,80,85408,1,0,0:0:0:0:
172,40,85761,5,0,0:0:0:0:
352,240,91408,6,0,P|446:246|479:334,1,200.000001192092,0|0,0:0|0:0,0:0:0:0:
392,320,92467,1,0,0:0:0:0:
304,316,92820,2,0,P|264:256|300:164,1,150.000000894069
364,148,93703,2,0,L|428:140,1,50.000000298023,0|0,0:0|0:0,0:0:0:0:
436,56,94232,6,0,B|376:64|340:40|340:40|312:72|244:64,1,200.000001192092
156,52,95291,1,0,0:0:0:0:
68,36,95644,2,0,P|80:100|168:144,1,150.000000894069
236,136,96526,2,0,L|220:196,1,50.000000298023,0|0,0:0|0:0,0:0:0:0:
143,223,97055,6,0,P|55:257|49:352,1,200.000001192092
128,312,98114,1,0,0:0:0:0:
216,324,98467,2,0,P|304:290|309:195,1,200.000001192092
232,236,99526,1,0,0:0:0:0:
159,177,99879,6,0,P|164:82|252:48,1,200.000001192092
236,136,100938,1,0,0:0:0:0:
309,195,101291,2,0,L|416:164,1,100.000000596046,0|0,0:0|0:0,0:0:0:0:
472,228,101997,2,0,L|441:335,1,100.000000596046,0|0,0:0|0:0,0:0:0:0:
372,268,102703,5,0,0:0:0:0:
304,328,103055,1,0,0:0:0:0:
224,284,103408,2,0,P|176:284|128:324,1,100.000000596046,0|0,0:0|0:0,0:0:0:0:
52,348,104114,2,0,P|44:312|84:240,1,100.000000596046,0|0,0:0|0:0,0:0:0:0:
100,224,104644,1,0,0:0:0:0:
60,144,104997,2,0,L|52:80,1,50.000000298023,0|0,0:0|0:0,0:0:0:0:
140,116,105526,5,0,0:0:0:0:
208,56,105878,1,0,0:0:0:0:
288,100,106232,2,0,P|336:100|384:60,1,100.000000596046,0|0,0:0|0:0,0:0:0:0:
460,36,106938,2,0,P|468:72|428:144,1,100.000000596046,0|0,0:0|0:0,0:0:0:0:
412,160,107467,1,0,0:0:0:0:
452,240,107820,2,0,L|460:304,1,50.000000298023,0|0,0:0|0:0,0:0:0:0:
372,268,108350,5,0,0:0:0:0:
328,188,108703,1,0,0:0:0:0:
339,99,109055,2,0,P|384:118|412:160,1,100.000000596046,0|0,0:0|0:0,0:0:0:0:
452,240,109761,1,0,0:0:0:0:
372,268,110114,1,0,0:0:0:0:
284,264,110467,2,0,P|273:312|237:345,1,100.000000596046,0|0,0:0|0:0,0:0:0:0:
196,264,111173,6,0,P|206:215|242:182,1,100.000000596046,0|0,0:0|0:0,0:0:0:0:
200,176,111703,2,0,P|151:165|118:129,1,100.000000596046
108,85,112232,1,0,0:0:0:0:
196,88,112585,2,0,P|229:51|277:41,1,100.000000596046,0|0,0:0|0:0,0:0:0:0:
360,76,113291,2,0,P|408:65|441:29,1,100.000000596046,0|0,0:0|0:0,0:0:0:0:
484,108,113997,5,0,0:0:0:0:
408,156,114350,2,0,P|340:160|300:140,1,100.000000596046,0|0,0:0|0:0,0:0:0:0:
292,60,115055,2,0,P|244:44|195:52,1,100.000000596046,0|0,0:0|0:0,0:0:0:0:
136,120,115761,1,0,0:0:0:0:
75,187,116114,2,0,P|48:146|46:97,1,100.000000596046,0|0,0:0|0:0,0:0:0:0:
112,32,116820,5,0,0:0:0:0:
136,120,117173,2,0,P|163:161|165:210,1,100.000000596046,0|0,0:0|0:0,0:0:0:0:
186,301,117879,2,0,P|137:299|96:272,1,100.000000596046,0|0,0:0|0:0,0:0:0:0:
75,187,118585,1,0,0:0:0:0:
165,210,118938,2,0,P|214:211|255:239,1,100.000000596046,0|0,0:0|0:0,0:0:0:0:
308,312,119644,6,0,L|368:340,1,50.000000298023
428,284,120173,2,0,L|473:262,1,50.000000298023
473,172,120703,2,0,L|427:193,1,50.000000298023,0|0,0:0|0:0,0:0:0:0:
353,144,121232,2,0,L|307:122,1,50.000000298023,0|0,0:0|0:0,0:0:0:0:
272,40,121761,2,0,P|228:80|220:128,1,100.000000596046,0|0,0:0|0:0,0:0:0:0:
228,164,122291,1,0,0:0:0:0:
196,196,122467,6,0,L|96:244,1,100.000000596046,0|0,0:0|0:0,0:0:0:0:
44,176,123173,2,0,L|134:132,1,100.000000596046,0|0,0:0|0:0,0:0:0:0:
164,48,123879,1,0,0:0:0:0:
219,117,124232,1,0,0:0:0:0:
308,108,124585,2,0,P|292:61|251:34,1,100.000000596046,0|0,0:0|0:0,0:0:0:0:
164,48,125291,6,0,L|72:92,1,100.000000596046,0|0,0:0|0:0,0:0:0:0:
44,176,125997,2,0,L|88:268,1,100.000000596046
168,304,126703,1,0,0:0:0:0:
168,304,127055,1,0,0:0:0:0:
244,352,127408,2,0,P|260:300|240:252,1,100.000000596046
168,212,128114,6,0,P|148:128|232:60,1,200.000001192092
308,96,129173,1,0,0:0:0:0:
324,184,129526,2,0,P|272:180|224:136,1,100.000000596046
226,60,130232,2,0,P|185:31|136:28,1,100.000000596046
152,116,130938,5,0,0:0:0:0:
234,152,131291,1,0,0:0:0:0:
308,96,131644,1,0,0:0:0:0:
392,64,131997,1,0,0:0:0:0:
428,236,132703,1,0,0:0:0:0:
379,311,133055,2,0,P|346:276|339:227,1,100.000000596046,0|0,0:0|0:0,0:0:0:0:
392,156,133761,6,0,P|468:116|476:36,2,150.000000894069,0|0|0,0:0|0:0|0:0,0:0:0:0:
305,139,135173,2,0,P|307:189|339:227,1,100.000000596046,0|0,0:0|0:0,0:0:0:0:
379,311,135879,1,0,0:0:0:0:
428,236,136232,1,0,0:0:0:0:
392,156,136585,6,0,P|384:96|324:56,1,100.000000596046,0|0,0:0|0:0,0:0:0:0:
305,139,137291,2,0,P|266:169|217:172,1,100.000000596046,0|0,0:0|0:0,0:0:0:0:
145,121,137997,1,0,0:0:0:0:
76,64,138350,1,0,0:0:0:0:
76,64,138526,2,0,P|56:128|80:180,1,100.000000596046
92,192,139055,1,0,0:0:0:0:
160,248,139408,5,0,0:0:0:0:
233,304,139761,1,0,0:0:0:0:
149,338,140114,2,0,P|102:321|74:275,1,100.000000596046,0|0,0:0|0:0,0:0:0:0:
92,192,140820,1,0,0:0:0:0:
145,121,141173,1,0,0:0:0:0:
145,121,141350,2,0,P|176:156|180:208,1,100.000000596046
160,248,141879,1,0,0:0:0:0:
233,304,142232,6,0,L|349:268,1,100.000000596046,0|0,0:0|0:0,0:0:0:0:
392,212,142938,2,0,P|352:168|352:116,1,100.000000596046,0|0,0:0|0:0,0:0:0:0:
398,54,143644,1,0,0:0:0:0:
436,136,143997,1,0,0:0:0:0:
436,136,144173,2,0,P|476:180|476:232,1,100.000000596046
464,260,144703,1,0,0:0:0:0:
428,342,145055,5,0,0:0:0:0:
340,348,145408,1,0,0:0:0:0:
286,278,145761,1,0,0:0:0:0:
322,196,146114,1,0,0:0:0:0:
232,204,146467,2,0,L|175:183,2,50.000000298023,0|0|0,0:0|0:0|0:0,0:0:0:0:
206,242,146997,2,0,P|197:290|217:334,1,100.000000596046
174,346,147526,1,0,0:0:0:0:
84,352,147879,6,0,P|79:303|47:266,1,100.000000596046,0|0,0:0|0:0,0:0:0:0:
47,175,148585,2,0,P|79:138|83:89,1,100.000000596046,0|0,0:0|0:0,0:0:0:0:
172,64,149291,1,0,0:0:0:0:
196,152,149644,1,0,0:0:0:0:
196,152,149820,2,0,P|244:120|260:68,1,100.000000596046
296,56,150350,1,0,0:0:0:0:
356,124,150703,5,0,0:0:0:0:
412,192,151055,1,0,0:0:0:0:
444,108,151408,2,0,P|423:63|380:38,1,100.000000596046,0|0,0:0|0:0,0:0:0:0:
296,56,152114,1,0,0:0:0:0:
272,142,152467,1,0,0:0:0:0:
272,142,152644,2,0,L|224:248,1,100.000000596046
212,276,153173,1,0,0:0:0:0:
288,324,153526,6,0,P|336:344|404:344,1,100.000000596046,0|0,0:0|0:0,0:0:0:0:
416,264,154232,2,0,P|368:244|300:244,1,100.000000596046,0|0,0:0|0:0,0:0:0:0:
230,233,154938,1,0,0:0:0:0:
152,184,155291,1,0,0:0:0:0:
152,184,155467,2,0,P|136:240|164:296,1,100.000000596046
136,320,155997,1,0,0:0:0:0:
226,327,156350,6,0,P|242:271|214:215,1,100.000000596046,0|0,0:0|0:0,0:0:0:0:
240,188,156879,2,0,P|223:132|170:99,1,100.000000596046
104,102,157585,1,0,0:0:0:0:
104,102,157761,2,0,P|120:157|173:190,1,100.000000596046,0|0,0:0|0:0,0:0:0:0:
108,204,158291,2,0,P|72:236|64:288,1,100.000000596046
72,328,158820,1,0,0:0:0:0:
148,278,159173,5,0,0:0:0:0:
256,192,159350,12,0,161291,0:0:0:0:
452,224,161997,6,0,P|464:296|440:344,1,100.000000596046,0|0,0:0|0:0,0:0:0:0:
376,276,162703,2,0,P|364:204|388:156,1,100.000000596046,0|0,0:0|0:0,0:0:0:0:
368,88,163408,2,0,P|416:101|452:136,2,100.000000596046,0|0|0,0:0|0:0|0:0,0:0:0:0:
372,180,164467,1,0,0:0:0:0:
332,260,164820,6,0,P|300:232|304:120,1,150.000000894069
184,56,165879,1,0,0:0:0:0:
164,144,166232,2,0,P|107:189|34:179,1,150.000000894069
72,308,167291,1,0,0:0:0:0:
160,320,167644,6,0,P|228:336|300:280,2,150.000000894069,0|0|0,0:0|0:0|0:0,0:0:0:0:
216,248,169055,2,0,P|347:225|356:358,1,300.000001788138,0|0,0:0|0:0,0:0:0:0:
292,294,170466,5,0,0:0:0:0:
400,64,178938,5,0,0:0:0:0:
476,112,179291,1,0,0:0:0:0:
400,160,179644,1,0,0:0:0:0:
324,112,179997,1,0,0:0:0:0:
268,184,180350,6,0,P|264:252|220:320,1,150.000000894069
92,272,181408,2,0,P|96:204|140:136,1,150.000000894069,0|0,0:0|0:0,0:0:0:0:
252,60,182467,2,0,B|324:112|324:112|400:96,1,150.000000894069
256,192,183173,12,0,185291,0:0:0:0:
464,316,185997,6,0,P|419:336|370:326,1,100.000000596046,0|0,0:0|0:0,0:0:0:0:
283,340,186703,2,0,P|287:290|319:253,1,100.000000596046,0|0,0:0|0:0,0:0:0:0:
363,176,187408,1,0,0:0:0:0:
411,252,187761,1,0,0:0:0:0:
411,252,187938,2,0,P|445:216|450:167,1,100.000000596046
436,124,188467,1,0,0:0:0:0:
363,176,188820,5,0,0:0:0:0:
288,124,189173,1,0,0:0:0:0:
200,144,189526,2,0,P|200:94|228:54,1,100.000000596046,0|0,0:0|0:0,0:0:0:0:
316,40,190232,1,0,0:0:0:0:
288,124,190585,1,0,0:0:0:0:
288,124,190761,2,0,P|287:173|259:213,1,100.000000596046
217,231,191291,1,0,0:0:0:0:
200,144,191644,6,0,L|80:120,1,100.000000596046,0|0,0:0|0:0,0:0:0:0:
28,180,192350,2,0,L|56:288,1,100.000000596046,0|0,0:0|0:0,0:0:0:0:
116,344,193055,1,0,0:0:0:0:
204,328,193408,1,0,0:0:0:0:
204,328,193585,2,0,P|180:280|136:256,1,100.000000596046
104,232,194114,1,0,0:0:0:0:
28,180,194467,5,0,0:0:0:0:
101,124,194820,1,0,0:0:0:0:
174,180,195173,1,0,0:0:0:0:
247,124,195526,1,0,0:0:0:0:
320,180,195879,2,0,L|320:232,2,50.000000298023,0|0|0,0:0|0:0|0:0,0:0:0:0:
336,140,196408,2,0,P|332:84|284:40,1,100.000000596046
264,28,196938,2,0,L|208:36,1,50.000000298023,0|0,0:0|0:0,0:0:0:0:
172,44,197291,6,0,P|165:92|133:130,1,100.000000596046,0|0,0:0|0:0,0:0:0:0:
102,213,197997,2,0,P|61:186|43:140,1,100.000000596046,0|0,0:0|0:0,0:0:0:0:
82,57,198703,1,0,0:0:0:0:
133,130,199055,1,0,0:0:0:0:
133,130,199232,2,0,P|173:157|191:203,1,100.000000596046
184,248,199761,1,0,0:0:0:0:
192,336,200114,5,0,0:0:0:0:
112,300,200467,1,0,0:0:0:0:
30,273,200820,2,0,P|56:232|102:213,1,100.000000596046,0|0,0:0|0:0,0:0:0:0:
184,248,201526,1,0,0:0:0:0:
264,284,201879,1,0,0:0:0:0:
264,284,202055,2,0,P|272:240|248:188,1,100.000000596046
280,156,202585,1,0,0:0:0:0:
352,208,202938,6,0,P|388:255|435:263,1,100.000000596046,0|0,0:0|0:0,0:0:0:0:
435,175,203644,2,0,P|398:127|351:119,1,100.000000596046,0|0,0:0|0:0,0:0:0:0:
280,156,204350,1,0,0:0:0:0:
352,208,204703,1,0,0:0:0:0:
352,208,204879,2,0,L|328:320,1,100.000000596046
296,332,205408,1,0,0:0:0:0:
224,280,205761,6,0,L|244:182,1,100.000000596046,0|0,0:0|0:0,0:0:0:0:
280,156,206291,2,0,P|332:120|384:128,1,100.000000596046
438,173,206997,1,0,0:0:0:0:
438,173,207173,2,0,P|454:111|428:65,1,100.000000596046,0|0,0:0|0:0,0:0:0:0:
408,48,207703,2,0,P|364:36|296:44,1,100.000000596046
268,52,208232,1,0,0:0:0:0:
180,44,208585,5,0,0:0:0:0:
256,192,208761,12,0,212820,0:0:0:0:
456,233,213526,6,0,P|458:184|486:144,1,100.000000596046,0|0,0:0|0:0,0:0:0:0:
480,56,214232,6,0,L|384:88,1,100.000000596046,0|0,0:0|0:0,0:0:0:0:
300,120,214938,1,0,0:0:0:0:
256,200,215291,1,0,0:0:0:0:
184,256,215644,6,0,P|164:208|184:144,1,100.000000596046,0|0,0:0|0:0,0:0:0:0:
200,128,216173,2,0,P|172:80|116:48,1,100.000000596046
92,44,216702,1,0,0:0:0:0:
52,124,217055,2,0,P|40:184|60:228,2,100.000000596046,0|0|0,0:0|0:0|0:0,0:0:0:0:
123,171,218114,2,0,L|172:161,1,50.000000298023,0|0,0:0|0:0,0:0:0:0:
216,164,218467,6,0,P|204:232|228:272,1,100.000000596046,0|0,0:0|0:0,0:0:0:0:
240,296,218997,2,0,P|281:268|330:261,1,100.000000596046
372,276,219526,2,0,L|436:288,1,50.000000298023,0|0,0:0|0:0,0:0:0:0:
460,260,219879,1,0,0:0:0:0:
440,172,220232,1,0,0:0:0:0:
360,132,220585,1,0,0:0:0:0:
276,160,220938,1,0,0:0:0:0:
244,244,221291,5,0,0:0:0:0:
244,244,221467,2,0,P|232:324|208:344,1,100.000000596046,0|0,0:0|0:0,0:0:0:0:
176,344,221997,2,0,P|128:324|72:336,1,100.000000596046
36,328,222526,1,0,0:0:0:0:
56,240,222879,6,0,P|60:188|28:132,1,100.000000596046,0|0,0:0|0:0,0:0:0:0:
56,104,223408,2,0,L|172:120,1,100.000000596046
200,104,223938,1,0,0:0:0:0:
256,192,224114,12,0,225526,0:0:0:0:
