osu file format v14

[General]
AudioFilename: audio.mp3
AudioLeadIn: 0
PreviewTime: 136585
Countdown: 0
SampleSet: Soft
StackLeniency: 0.9
Mode: 0
LetterboxInBreaks: 0
WidescreenStoryboard: 1

[Editor]
DistanceSpacing: 0.8
BeatDivisor: 2
GridSize: 4
TimelineZoom: 1.2

[Metadata]
Title:Mahou Shoujo Chino
TitleUnicode:魔法少女チノ
Artist:Chino (CV.Minase Inori)
ArtistUnicode:チノ(CV.水瀬いのり)
Creator:84461810
Version:Easy
Source:ご注文はうさぎですか?
Tags:チノ 魔法少女 水瀬いのり ごちうさ chino mahoushoujo mahou shoujo minase inori gochuumon wa usagi desu ka is the order a rabbit gochiusa Daloubot
BeatmapID:1235902
BeatmapSetID:577865

[Difficulty]
HPDrainRate:1
CircleSize:2
OverallDifficulty:2
ApproachRate:2
SliderMultiplier:0.8
SliderTickRate:1

[Events]
//Background and Video events
0,0,"bg.jpg",0,0
//Break Periods
2,85961,89848
2,170666,177378
2,213020,216907
//Storyboard Layer 0 (Background)
//Storyboard Layer 1 (Fail)
//Storyboard Layer 2 (Pass)
//Storyboard Layer 3 (Foreground)
//Storyboard Sound Samples

[TimingPoints]
1056,352.941176470588,4,2,1,90,1,0
16585,-100,4,2,1,50,0,0
17291,-100,4,2,1,40,0,0
17997,-100,4,2,1,80,0,0
40585,-100,4,2,1,70,0,0
57526,-100,4,2,1,80,0,0
63173,-100,4,2,1,95,0,1
82938,-100,4,2,1,100,0,1
85761,-100,4,2,1,100,0,0
91408,-100,4,2,1,70,0,0
102703,-100,4,2,1,80,0,0
113997,-100,4,2,1,70,0,0
136585,-100,4,2,1,95,0,1
156350,-100,4,2,1,100,0,1
159173,-100,4,2,1,100,0,0
163408,-100,4,2,1,90,0,0
170467,-100,4,2,1,60,0,0
185997,-100,4,2,1,95,0,1
208585,-100,4,2,1,80,0,0

[Colours]
Combo1 : 128,255,128
Combo2 : 63,179,248
Combo3 : 181,106,255
Combo4 : 255,128,128
Combo5 : 255,192,0

[HitObjects]
256,192,1056,12,0,5291,0:0:0:0:
464,192,6703,6,0,P|416:152|440:56,1,160,8|2,0:0|0:0,0:0:0:0:
320,200,8114,2,0,L|200:336,1,160,8|2,0:0|0:0,0:0:0:0:
144,268,9173,1,0,0:0:0:0:
131,180,9526,6,0,P|67:221|60:298,1,160,8|2,0:0|0:0,0:0:0:0:
216,212,10938,2,0,P|216:144|124:92,1,160,8|2,0:0|0:0,0:0:0:0:
64,124,11997,1,0,0:0:0:0:
132,180,12350,6,0,P|128:236|192:296,2,120,8|8|2,0:0|0:0|0:0,0:0:0:0:
216,212,13761,2,0,L|374:188,1,160,8|2,0:0|0:0,0:0:0:0:
472,40,15173,5,12,0:0:0:0:
120,64,16585,1,12,0:0:0:0:
216,212,17291,1,2,0:0:0:0:
352,100,17997,6,0,P|416:108|464:208,1,160,8|2,0:0|0:0,0:0:0:0:
432,356,19408,2,0,P|368:342|329:238,1,160,8|2,0:0|0:0,0:0:0:0:
374,188,20467,1,0,0:0:0:0:
352,100,20820,6,0,P|292:56|208:88,1,160,8|2,0:0|0:0,0:0:0:0:
72,180,22232,2,0,P|132:224|216:192,1,160,8|2,0:0|0:0,0:0:0:0:
276,144,23291,1,0,0:0:0:0:
215,79,23644,5,8,0:0:0:0:
388,44,24350,1,2,0:0:0:0:
448,208,25055,2,0,P|468:260|412:348,1,160,8|2,0:0|0:0,0:0:0:0:
376,264,26114,1,0,0:0:0:0:
364,176,26467,5,8,0:0:0:0:
215,79,27173,1,2,0:0:0:0:
172,247,27879,2,0,P|119:287|22:251,1,160,8|2,0:0|0:0,0:0:0:0:
96,200,28938,1,0,0:0:0:0:
174,159,29291,6,0,P|228:176|252:284,1,160,12|2,0:0|0:0,0:0:0:0:
96,200,30703,2,0,P|88:140|168:72,1,160,8|2,0:0|0:0,0:0:0:0:
241,74,31761,1,0,0:0:0:0:
264,160,32114,6,0,P|324:108|316:28,2,160,8|2|8,0:0|0:0|0:0,0:0:0:0:
412,260,34232,1,2,0:0:0:0:
456,336,34585,1,0,0:0:0:0:
368,337,34938,6,0,P|323:276|367:185,1,160,8|2,0:0|0:0,0:0:0:0:
166,200,36350,2,0,P|189:274|144:337,1,160,8|2,0:0|0:0,0:0:0:0:
100,260,37408,1,0,0:0:0:0:
82,173,37761,6,0,P|108:133|191:116,2,120,8|8|2,0:0|0:0|0:0,0:0:0:0:
166,200,39173,2,0,P|216:192|256:84,1,160,8|2,0:0|0:0,0:0:0:0:
432,64,40585,5,12,0:0:0:0:
444,240,41291,2,0,P|376:244|300:180,1,160,2|8,0:0|0:0,0:0:0:0:
140,256,42703,1,2,0:0:0:0:
165,339,43055,1,0,0:0:0:0:
80,320,43408,5,8,0:0:0:0:
68,144,44114,2,0,P|136:140|212:204,1,160,2|8,0:0|0:0,0:0:0:0:
372,128,45526,1,2,0:0:0:0:
347,45,45878,1,0,0:0:0:0:
432,64,46232,6,0,P|460:128|428:196,1,120,8|8,0:0|0:0,0:0:0:0:
320,204,47291,2,0,L|288:340,2,120,8|8|2,0:0|0:0|0:0,0:0:0:0:
240,48,49055,6,0,L|80:48,1,160,8|2,0:0|0:0,0:0:0:0:
53,220,50467,2,0,P|58:297|122:339,1,160,8|2,0:0|0:0,0:0:0:0:
136,252,51526,1,0,0:0:0:0:
148,164,51879,6,0,P|212:206|218:283,1,160,12|2,0:0|0:0,0:0:0:0:
392,308,53291,1,8,0:0:0:0:
451,142,53997,2,0,P|414:127|375:131,1,80,2|0,0:0|0:0,0:0:0:0:
364,220,54703,6,0,P|299:177|293:100,1,160,8|2,0:0|0:0,0:0:0:0:
120,76,56114,1,8,0:0:0:0:
60,241,56820,2,0,P|97:256|136:252,1,80,2|0,0:0|0:0,0:0:0:0:
148,164,57526,5,8,0:0:0:0:
296,263,58232,2,0,L|376:211,1,80,2|0,0:0|0:0,0:0:0:0:
472,80,59291,1,8,0:0:0:0:
384,68,59644,2,0,L|272:52,1,80,2|0,0:0|0:0,0:0:0:0:
220,82,60350,6,0,P|199:136|147:163,2,120,8|8|0,0:0|0:0|0:0,0:0:0:0:
132,76,61761,1,2,0:0:0:0:
368,340,63173,6,0,P|452:312|464:216,1,160,12|8,0:0|0:0,0:0:0:0:
428,174,64232,1,2,0:0:0:0:
343,150,64585,2,0,P|344:208|384:252,2,120,8|8|2,0:0|0:0|0:0,0:0:0:0:
292,76,65997,6,0,L|108:76,1,160,8|8,0:0|0:0,0:0:0:0:
48,104,67056,1,2,0:0:0:0:
112,164,67409,2,0,B|192:164|192:164|232:192,2,120,8|8|2,0:0|0:0|0:0,0:0:0:0:
52,228,68820,6,0,B|84:250|84:250|165:251|165:251|216:288,1,160,8|8,0:0|0:0,0:0:0:0:
260,336,69879,1,2,0:0:0:0:
348,340,70232,2,0,P|332:283|284:251,2,120,8|8|2,0:0|0:0|0:0,0:0:0:0:
436,352,71644,6,0,P|428:272|364:192,1,160,8|8,0:0|0:0,0:0:0:0:
306,166,72703,1,2,0:0:0:0:
303,77,73055,2,0,P|328:46|365:31,1,80,8|2,0:0|0:0,0:0:0:0:
445,72,73761,2,0,P|420:103|384:119,1,80,8|2,0:0|0:0,0:0:0:0:
384,207,74467,6,0,P|328:252|228:208,1,160,12|8,0:0|0:0,0:0:0:0:
305,166,75526,1,2,0:0:0:0:
303,77,75879,2,0,P|244:100|216:156,2,120,8|8|2,0:0|0:0|0:0,0:0:0:0:
305,166,77291,6,0,P|248:232|180:228,1,160,8|8,0:0|0:0,0:0:0:0:
128,156,78350,1,2,0:0:0:0:
142,66,78703,2,0,P|194:92|217:147,2,120,8|8|2,0:0|0:0|0:0,0:0:0:0:
128,156,80114,6,0,L|69:328,1,160,8|8,0:0|0:0,0:0:0:0:
152,352,81173,1,2,0:0:0:0:
228,308,81526,2,0,B|304:324|304:324|352:352,2,120,8|8|2,0:0|0:0|0:0,0:0:0:0:
260,224,82938,6,0,B|336:240|336:240|384:268,2,120,8|8|2,0:0|0:0|0:0,0:0:0:0:
215,145,84350,2,0,P|191:92|138:67,2,120,8|8|2,0:0|0:0|0:0,0:0:0:0:
128,156,85761,5,12,0:0:0:0:
52,196,91408,6,0,P|88:140|60:52,1,160,8|2,0:0|0:0,0:0:0:0:
228,120,92820,2,0,P|312:108|348:44,1,160,8|2,0:0|0:0,0:0:0:0:
488,156,94232,5,8,0:0:0:0:
448,328,94938,1,2,0:0:0:0:
284,264,95644,2,0,P|200:276|164:340,1,160,8|2,0:0|0:0,0:0:0:0:
52,196,97055,6,0,L|156:68,1,160,8|2,0:0|0:0,0:0:0:0:
300,172,98467,2,0,P|364:216|360:316,1,160,8|2,0:0|0:0,0:0:0:0:
220,208,99879,6,0,P|228:120|308:84,1,160,8|2,0:0|0:0,0:0:0:0:
440,168,101291,2,0,P|468:252|452:336,1,160,8|2,0:0|0:0,0:0:0:0:
284,264,102703,5,12,0:0:0:0:
124,340,103408,1,2,0:0:0:0:
48,184,104114,2,0,P|48:88|128:48,1,160,8|2,0:0|0:0,0:0:0:0:
180,68,105173,1,0,0:0:0:0:
259,105,105526,6,0,P|198:154|123:135,1,160,8|2,0:0|0:0,0:0:0:0:
232,276,106938,2,0,B|292:344|292:344|380:344,1,160,8|2,0:0|0:0,0:0:0:0:
448,340,107997,1,0,0:0:0:0:
456,252,108350,6,0,P|400:184|432:104,1,160,8|2,0:0|0:0,0:0:0:0:
255,48,109761,2,0,P|269:124|217:181,1,160,8|2,0:0|0:0,0:0:0:0:
129,172,110820,1,0,0:0:0:0:
73,103,111173,6,0,P|127:81|183:99,2,120,8|8|2,0:0|0:0|0:0,0:0:0:0:
42,186,112585,2,0,P|104:248|88:336,1,160,8|2,0:0|0:0,0:0:0:0:
256,232,113997,5,12,0:0:0:0:
411,315,114703,2,0,P|411:237|470:186,1,160,2|8,0:0|0:0,0:0:0:0:
336,72,116114,1,2,0:0:0:0:
256,112,116467,1,0,0:0:0:0:
176,72,116820,5,8,0:0:0:0:
188,248,117526,2,0,P|256:212|324:248,1,160,2|8,0:0|0:0,0:0:0:0:
256,84,118938,1,2,0:0:0:0:
176,124,119291,1,0,0:0:0:0:
117,192,119644,6,0,P|86:141|95:83,1,120,8|8,0:0|0:0,0:0:0:0:
224,48,120703,2,0,P|252:76|256:164,2,120,8|8|2,0:0|0:0|0:0,0:0:0:0:
208,224,122467,6,0,P|284:240|348:168,1,160,8|2,0:0|0:0,0:0:0:0:
176,122,123879,2,0,P|100:108|41:158,1,160,8|2,0:0|0:0,0:0:0:0:
124,196,124938,1,0,0:0:0:0:
208,224,125291,5,12,0:0:0:0:
332,348,125997,1,2,0:0:0:0:
378,178,126703,1,8,0:0:0:0:
472,28,127408,2,0,L|472:140,1,80,2|0,0:0|0:0,0:0:0:0:
464,196,128114,6,0,P|424:256|328:252,1,160,8|2,0:0|0:0,0:0:0:0:
170,213,129526,1,8,0:0:0:0:
40,96,130232,2,0,L|40:196,1,80,2|0,0:0|0:0,0:0:0:0:
40,264,130938,5,8,0:0:0:0:
196,344,131644,2,0,L|296:284,1,80,2|0,0:0|0:0,0:0:0:0:
432,248,132703,1,8,0:0:0:0:
378,178,133055,2,0,L|318:102,1,80,2|0,0:0|0:0,0:0:0:0:
239,126,133761,6,0,P|232:164|152:216,2,120,8|8|0,0:0|0:0|0:0,0:0:0:0:
152,128,135173,1,2,0:0:0:0:
436,336,136585,6,0,P|384:284|404:200,1,160,12|8,0:0|0:0,0:0:0:0:
460,140,137644,1,2,0:0:0:0:
460,52,137997,2,0,P|408:68|372:128,2,120,8|8|2,0:0|0:0|0:0,0:0:0:0:
460,140,139408,6,0,P|436:184|316:188,1,160,8|8,0:0|0:0,0:0:0:0:
292,124,140467,1,2,0:0:0:0:
228,64,140820,2,0,L|80:44,2,120,8|8|2,0:0|0:0|0:0,0:0:0:0:
208,152,142232,6,0,B|103:137|103:137|44:160,1,160,8|8,0:0|0:0,0:0:0:0:
36,244,143291,1,2,0:0:0:0:
52,332,143644,2,0,P|112:292|124:232,2,120,8|8|2,0:0|0:0|0:0,0:0:0:0:
36,244,145055,6,0,P|88:168|168:172,1,160,8|8,0:0|0:0,0:0:0:0:
228,124,146114,1,2,0:0:0:0:
312,96,146467,2,0,P|316:112|300:176,1,80,8|2,0:0|0:0,0:0:0:0:
224,212,147173,2,0,P|210:249|214:288,1,80,8|2,0:0|0:0,0:0:0:0:
281,346,147879,6,0,P|352:332|385:242,1,160,12|8,0:0|0:0,0:0:0:0:
342,182,148938,1,2,0:0:0:0:
255,159,149291,2,0,P|258:218|300:260,2,120,8|8|2,0:0|0:0|0:0,0:0:0:0:
318,98,150703,6,0,P|384:104|428:184,1,160,8|8,0:0|0:0,0:0:0:0:
342,182,151761,1,2,0:0:0:0:
255,159,152114,2,0,B|184:184|184:184|128:152,2,120,8|8|2,0:0|0:0|0:0,0:0:0:0:
228,76,153526,6,0,B|192:88|192:88|128:52|72:108,1,160,8|8,0:0|0:0,0:0:0:0:
63,187,154585,1,2,0:0:0:0:
106,263,154938,2,0,P|145:219|145:161,2,120,8|8|2,0:0|0:0|0:0,0:0:0:0:
60,188,156350,6,0,P|60:132|124:72,2,120,8|8|2,0:0|0:0|0:0,0:0:0:0:
145,161,157761,2,0,P|200:169|269:115,2,120,8|8|2,0:0|0:0|0:0,0:0:0:0:
185,80,159173,5,12,0:0:0:0:
256,192,159350,12,0,161997,0:0:0:0:
368,236,163408,6,0,P|297:268|281:343,1,160,8|2,0:0|0:0,0:0:0:0:
368,326,164467,1,0,0:0:0:0:
444,280,164820,6,0,P|456:224|416:160,1,120,8|8,0:0|0:0,0:0:0:0:
304,128,165879,1,2,0:0:0:0:
215,128,166232,2,0,P|232:73|299:38,1,120,8|8,0:0|0:0,0:0:0:0:
408,82,167291,1,2,0:0:0:0:
428,169,167644,6,0,P|374:144|317:159,2,120,8|8|2,0:0|0:0|0:0,0:0:0:0:
367,235,169055,6,0,P|232:197|311:70,1,320,8|12,0:0|0:0,0:0:0:0:
420,260,178938,5,8,0:0:0:0:
256,192,179644,1,2,0:0:0:0:
92,124,180350,6,0,B|52:168|52:168|92:216,1,120,8|2,0:0|0:0,0:0:0:0:
204,252,181408,2,0,B|242:205|242:205|202:161,1,120,8|2,0:0|0:0,0:0:0:0:
90,214,182467,2,0,B|50:258|50:258|89:305,1,120,8|2,0:0|0:0,0:0:0:0:
256,192,183173,12,0,184585,0:0:0:0:
52,176,185997,6,0,P|112:192|192:120,1,160,12|8,0:0|0:0,0:0:0:0:
104,100,187055,1,2,0:0:0:0:
176,48,187408,2,0,P|216:52|274:121,2,120,8|8|2,0:0|0:0|0:0,0:0:0:0:
186,137,188820,6,0,P|204:168|336:164,1,160,8|8,0:0|0:0,0:0:0:0:
380,120,189879,1,2,0:0:0:0:
402,205,190232,2,0,L|439:353,2,120,8|8|2,0:0|0:0|0:0,0:0:0:0:
441,125,191644,6,0,P|364:121|316:181,1,160,8|8,0:0|0:0,0:0:0:0:
328,268,192703,1,2,0:0:0:0:
246,235,193055,2,0,L|90:263,2,120,8|8|2,0:0|0:0|0:0,0:0:0:0:
260,324,194467,6,0,L|88:356,1,160,8|8,0:0|0:0,0:0:0:0:
44,286,195526,1,2,0:0:0:0:
127,256,195879,2,0,L|147:176,1,80,8|2,0:0|0:0,0:0:0:0:
92,108,196585,2,0,L|112:28,1,80,8|2,0:0|0:0,0:0:0:0:
196,51,197291,6,0,P|272:60|312:126,1,160,12|8,0:0|0:0,0:0:0:0:
276,208,198350,1,2,0:0:0:0:
194,242,198703,2,0,P|190:184|224:136,2,120,8|8|2,0:0|0:0|0:0,0:0:0:0:
276,208,200114,6,0,P|364:200|396:108,1,160,8|8,0:0|0:0,0:0:0:0:
311,127,201173,1,2,0:0:0:0:
368,60,201526,2,0,P|444:68|480:112,2,120,8|8|2,0:0|0:0|0:0,0:0:0:0:
397,144,202938,6,0,B|440:196|440:196|456:308,1,160,8|8,0:0|0:0,0:0:0:0:
380,340,203997,1,2,0:0:0:0:
292,340,204350,2,0,P|304:292|368:252,2,120,8|8|2,0:0|0:0|0:0,0:0:0:0:
204,324,205761,6,0,P|212:280|278:195,2,120,8|8|2,0:0|0:0|0:0,0:0:0:0:
116,304,207173,2,0,P|60:276|40:223,2,120,8|8|2,0:0|0:0|0:0,0:0:0:0:
128,216,208585,5,12,0:0:0:0:
256,192,208761,12,0,212820,0:0:0:0:
256,192,218467,12,0,219879,0:0:0:0:
241,262,221467,6,0,P|181:262|128:288,2,120,8|8|8,0:0|0:0|0:0,0:0:0:0:
324,292,222879,2,0,P|352:220|340:152,2,120,8|8|2,0:0|0:0|0:0,0:0:0:0:
256,192,224114,12,0,225526,0:0:0:0:
