osu file format v14

[General]
AudioFilename: audio.mp3
AudioLeadIn: 0
PreviewTime: 54603
Countdown: 0
SampleSet: Soft
StackLeniency: 0.4
Mode: 0
LetterboxInBreaks: 0
WidescreenStoryboard: 0

[Editor]
Bookmarks: 18603
DistanceSpacing: 0.9
BeatDivisor: 4
GridSize: 8
TimelineZoom: 1.6

[Metadata]
Title:Mirai Puzzle
TitleUnicode:未来パズル
Artist:Chino (CV. Inori Minase)
ArtistUnicode:チノ(CV.水瀬いのり)
Creator:LeQuack
Version:Light Insane
Source:ご注文はうさぎですか??
Tags:gochuumon wa usagi desu ka is the order a rabbit cup of chino Akitoshi Left is cute
BeatmapID:1352221
BeatmapSetID:536219

[Difficulty]
HPDrainRate:5
CircleSize:4
OverallDifficulty:7
ApproachRate:8.5
SliderMultiplier:1.6
SliderTickRate:1

[Events]
//Background and Video events
0,0,"chino.png",0,0
//Break Periods
//Storyboard Layer 0 (Background)
//Storyboard Layer 1 (Fail)
//Storyboard Layer 2 (Pass)
//Storyboard Layer 3 (Foreground)
//Storyboard Sound Samples

[TimingPoints]
603,375,4,2,99,65,1,0
5571,-100,4,2,99,5,0,0
5665,-100,4,2,99,65,0,0
12978,-100,4,2,1,65,0,0
13353,-100,4,2,99,65,0,0
13728,-100,4,2,1,65,0,0
14103,-100,4,2,99,65,0,0
15603,-111.111111111111,4,2,99,65,0,0
36790,-111.111111111111,4,2,1,65,0,0
38103,-111.111111111111,4,2,99,65,0,0
56853,-100,4,2,99,65,0,0
57228,-100,4,2,1,65,0,0
57603,-90.9090909090909,4,2,99,75,0,1
68853,-90.9090909090909,4,2,99,75,0,0
69603,-90.9090909090909,4,2,99,75,0,1
78978,-90.9090909090909,4,2,1,75,0,1
79353,-90.9090909090909,4,2,99,75,0,1
79728,-90.9090909090909,4,2,1,75,0,1
80103,-90.9090909090909,4,2,99,75,0,1
81603,-100,4,2,99,65,0,0
83571,-100,4,2,99,5,0,0
83665,-100,4,2,99,65,0,0
90603,-100,4,2,1,65,0,0
92103,-100,4,2,99,65,0,0

[Colours]
Combo1 : 128,0,128
Combo2 : 100,100,255
Combo3 : 255,0,255
Combo4 : 210,210,210

[HitObjects]
116,115,603,6,0,L|219:116,1,80,8|0,0:0|0:0,0:0:0:0:
266,226,978,2,0,L|163:227,1,80,8|0,0:0|0:0,0:0:0:0:
154,86,1353,2,0,L|257:87,1,80,8|0,0:0|0:0,0:0:0:0:
304,137,1634,1,8,0:0:0:0:
304,137,1728,1,8,0:0:0:0:
396,62,1915,1,4,0:3:0:0:
447,175,2103,5,2,0:0:0:0:
447,194,2196,1,0,0:0:0:0:
448,214,2290,1,4,0:3:0:0:
448,234,2384,1,0,0:0:0:0:
449,254,2478,2,0,L|458:301,3,40,2|0|4|0,0:0|0:0|0:3|0:0,0:0:0:0:
379,284,2853,2,0,L|370:331,3,40,2|0|0|0,0:0|0:0|0:3|0:0,0:0:0:0:
303,348,3228,2,0,L|255:348,1,40,2|0,0:0|0:0,0:0:0:0:
213,292,3415,2,0,L|169:292,1,40,2|0,0:0|0:0,0:0:0:0:
151,291,3603,6,0,P|137:249|147:193,1,80,6|0,0:1|0:0,0:0:0:0:
250,104,3978,2,0,L|156:104,1,80,8|0,0:0|0:0,0:0:0:0:
81,145,4353,1,2,0:1:0:0:
140,214,4540,1,0,0:0:0:0:
204,57,4728,2,0,L|298:57,1,80,8|0,0:0|0:0,0:0:0:0:
357,116,5103,5,2,0:1:0:0:
307,196,5290,2,0,P|267:145|281:65,1,120
283,56,5665,1,0,0:0:0:0:
283,56,6040,1,0,0:0:0:0:
170,104,6228,2,0,L|171:197,1,80,8|0,0:0|0:0,0:0:0:0:
242,287,6603,6,0,P|172:261|91:301,1,160,6|8,0:1|0:0,0:0:0:0:
256,192,7165,1,0,0:0:0:0:
256,192,7259,1,0,0:0:0:0:
256,192,7353,2,0,L|351:197,1,80,2|0,0:1|0:0,0:0:0:0:
249,99,7728,2,0,L|154:104,1,80,8|0,0:0|0:0,0:0:0:0:
377,133,8103,6,0,P|408:175|353:269,1,160,6|8,0:1|0:0,0:0:0:0:
470,122,8665,1,0,0:0:0:0:
470,122,8759,1,0,0:0:0:0:
470,122,8853,2,0,P|458:82|470:41,1,80,2|0,0:1|0:0,0:0:0:0:
328,52,9228,1,8,0:0:0:0:
288,56,9321,1,8,0:3:0:0:
248,51,9415,1,4,0:3:0:0:
121,159,9603,6,0,L|260:166,1,120,4|0,0:1|0:0,0:0:0:0:
276,167,9978,1,8,0:0:0:0:
295,260,10165,1,8,0:0:0:0:
314,353,10353,1,8,0:0:0:0:
407,106,10728,1,4,0:3:0:0:
404,96,10821,1,0,0:0:0:0:
403,86,10915,1,0,0:0:0:0:
403,76,11009,1,0,0:0:0:0:
404,66,11103,6,0,P|345:84|278:57,1,120,4|0,0:0|0:0,0:0:0:0:
258,52,11478,1,8,0:0:0:0:
257,151,11665,1,8,0:0:0:0:
258,250,11853,1,8,0:0:0:0:
258,250,12228,1,8,0:3:0:0:
348,295,12415,1,4,0:3:0:0:
257,151,12603,6,0,P|201:148|141:169,1,120,6|0,0:1|0:0,0:0:0:0:
128,262,12978,2,0,L|128:303,3,40,8|8|8|8,3:0|3:0|3:0|3:0,0:0:0:0:
141,329,13353,6,0,B|211:340|211:340|266:328,1,120,6|0,0:1|0:0,0:0:0:0:
348,295,13728,2,0,L|396:274,3,40,8|8|8|8,3:0|3:0|3:0|3:0,0:0:0:0:
412,266,14103,6,0,L|413:174,1,80,6|0,0:1|0:0,0:0:0:0:
255,43,14478,2,0,L|256:135,1,80,6|0,0:1|0:0,0:0:0:0:
326,215,14853,1,2,0:1:0:0:
357,83,15040,1,2,0:1:0:0:
255,122,15228,1,8,0:0:0:0:
153,83,15415,1,0,0:0:0:0:
184,215,15603,5,6,0:1:0:0:
110,310,15790,2,0,L|264:310,1,143.999995605469,0|0,0:0|0:0,0:0:0:0:
220,141,16353,2,0,P|183:134|142:144,1,71.9999978027344,2|0,0:1|0:0,0:0:0:0:
79,211,16728,1,8,0:0:0:0:
274,203,16915,6,0,P|299:154|261:70,1,143.999995605469,0|0,0:0|0:0,0:0:0:0:
189,39,17478,1,8,0:0:0:0:
189,39,17665,1,0,0:0:0:0:
349,47,17853,2,0,L|433:51,1,71.9999978027344,2|0,0:1|0:0,0:0:0:0:
220,141,18228,2,0,L|136:145,1,71.9999978027344,8|0,0:0|0:0,0:0:0:0:
43,71,18603,6,0,L|48:225,1,143.999995605469,2|8,0:1|0:0,0:0:0:0:
52,343,19165,1,0,0:0:0:0:
162,291,19353,2,0,P|174:247|167:208,1,71.9999978027344,2|0,0:1|0:0,0:0:0:0:
138,74,19728,2,0,P|136:109|147:143,1,71.9999978027344,8|0,0:0|0:0,0:0:0:0:
370,96,20103,6,0,L|213:98,1,143.999995605469,2|8,0:1|0:0,0:0:0:0:
98,206,20665,1,0,0:0:0:0:
237,183,20853,2,0,P|271:207|289:249,1,71.9999978027344,2|0,0:1|0:0,0:0:0:0:
284,337,21228,1,8,0:0:0:0:
284,337,21415,1,8,0:0:0:0:
304,130,21603,6,0,L|313:43,1,71.9999978027344,6|0,0:1|0:0,0:0:0:0:
403,190,21978,2,0,L|394:277,1,71.9999978027344,8|0,0:0|0:0,0:0:0:0:
296,201,22353,2,0,L|305:114,1,71.9999978027344,2|0,0:1|0:0,0:0:0:0:
395,261,22728,2,0,L|386:348,1,71.9999978027344,8|0,0:0|0:0,0:0:0:0:
296,201,23103,6,0,B|205:200|205:200|143:224,1,143.999995605469,2|8,0:1|0:0,0:0:0:0:
340,263,23665,2,0,P|372:214|341:140,1,143.999995605469
235,61,24228,1,8,0:0:0:0:
235,61,24603,6,0,L|406:63,1,143.999995605469,2|8,0:1|0:0,0:0:0:0:
460,167,25165,1,0,0:0:0:0:
340,263,25353,2,0,L|337:340,2,71.9999978027344,2|0|8,0:1|0:0|0:0,0:0:0:0:
274,172,25915,6,0,P|199:160|144:205,1,143.999995605469,4|0,0:0|0:0,0:0:0:0:
232,316,26478,2,0,P|233:280|223:245,1,71.9999978027344,8|0,0:0|0:0,0:0:0:0:
274,172,26853,2,0,P|273:131|285:97,1,71.9999978027344,8|0,0:0|0:0,0:0:0:0:
362,62,27134,1,0,0:0:0:0:
362,62,27228,2,0,P|399:67|453:58,1,71.9999978027344,8|0,0:0|0:0,0:0:0:0:
223,41,27603,5,6,0:1:0:0:
366,147,27790,2,0,L|451:150,1,71.9999978027344,0|8,0:0|0:0,0:0:0:0:
387,270,28165,1,0,0:0:0:0:
296,176,28353,2,0,P|290:138|307:101,1,71.9999978027344,2|0,0:1|0:0,0:0:0:0:
389,35,28728,1,8,0:0:0:0:
212,158,28915,6,0,P|151:177|91:121,1,143.999995605469,0|0,0:0|0:0,0:0:0:0:
158,31,29478,2,0,L|161:103,1,71.9999978027344,8|0,0:0|0:0,0:0:0:0:
165,279,29853,1,2,0:1:0:0:
212,158,30040,1,0,0:0:0:0:
87,260,30228,2,0,P|93:313|111:339,1,71.9999978027344,8|0,0:0|0:0,0:0:0:0:
308,281,30603,6,0,L|147:278,1,143.999995605469,2|8,0:1|0:0,0:0:0:0:
93,129,31165,1,0,0:0:0:0:
201,206,31353,2,0,L|281:207,1,71.9999978027344,2|0,0:1|0:0,0:0:0:0:
317,135,31728,2,0,L|236:133,1,71.9999978027344,8|0,0:0|0:0,0:0:0:0:
385,36,32103,6,0,B|385:88|385:88|400:129|400:129|400:204,1,143.999995605469,2|8,0:1|0:0,0:0:0:0:
389,331,32665,1,0,0:0:0:0:
316,206,32853,2,0,L|317:128,1,71.9999978027344,2|0,0:1|0:0,0:0:0:0:
465,73,33228,1,8,0:0:0:0:
465,73,33415,1,8,0:0:0:0:
468,253,33603,6,0,L|384:251,1,71.9999978027344,6|0,0:1|0:0,0:0:0:0:
244,132,33978,2,0,L|328:134,1,71.9999978027344,8|0,0:0|0:0,0:0:0:0:
415,291,34353,2,0,L|331:289,1,71.9999978027344,2|0,0:1|0:0,0:0:0:0:
191,170,34728,2,0,L|275:172,1,71.9999978027344,8|0,0:0|0:0,0:0:0:0:
465,73,35103,6,0,L|297:69,1,143.999995605469,2|8,0:1|0:0,0:0:0:0:
141,63,35665,1,0,0:0:0:0:
141,63,36040,1,8,0:0:0:0:
141,146,36228,1,8,0:0:0:0:
212,104,36415,1,0,3:0:0:0:
70,104,36603,5,4,0:0:0:0:
212,186,36790,2,0,L|261:186,2,35.9999989013672,8|8|8,0:1|0:1|0:1,0:0:0:0:
212,104,37353,5,4,0:0:0:0:
70,186,37540,2,0,L|21:186,2,35.9999989013672,8|8|8,0:1|0:1|0:1,0:0:0:0:
410,306,38103,5,4,0:0:0:0:
341,210,38290,1,0,0:0:0:0:
341,210,38384,1,0,0:0:0:0:
341,210,38478,1,2,0:1:0:0:
413,103,38665,1,0,0:0:0:0:
413,103,38759,1,0,0:0:0:0:
413,103,38853,2,0,P|419:62|409:22,2,71.9999978027344,0|0|8,3:0|3:0|0:0,0:0:0:0:
330,67,39415,1,0,3:0:0:0:
330,67,39509,1,0,3:0:0:0:
330,67,39603,6,0,L|228:65,1,71.9999978027344,4|8,1:0|0:0,0:0:0:0:
149,64,39978,1,8,0:0:0:0:
142,198,40165,1,0,0:0:0:0:
142,198,40353,2,0,P|164:151|144:57,1,143.999995605469,0|8,0:0|0:0,0:0:0:0:
210,285,41103,6,0,L|135:286,1,71.9999978027344,4|8,1:0|0:0,0:0:0:0:
43,287,41478,1,8,0:0:0:0:
56,144,41665,1,0,0:0:0:0:
56,144,41853,2,0,L|43:297,1,143.999995605469,0|0,0:0|0:0,0:0:0:0:
277,135,42603,6,0,P|321:144|402:85,1,143.999995605469,4|0,1:0|3:0,0:0:0:0:
315,49,43165,1,0,3:0:0:0:
403,196,43353,2,0,L|405:343,1,143.999995605469,4|0,1:0|3:0,0:0:0:0:
287,274,43915,1,0,3:0:0:0:
209,169,44103,6,0,P|201:129|213:92,1,71.9999978027344,4|0,0:0|0:0,0:0:0:0:
286,204,44478,2,0,P|294:244|282:281,1,71.9999978027344,4|0,0:0|0:0,0:0:0:0:
212,344,44852,1,4,0:0:0:0:
198,239,45040,1,0,0:0:0:0:
338,344,45228,1,8,0:0:0:0:
338,344,45321,1,8,0:3:0:0:
338,344,45415,1,4,0:3:0:0:
369,134,45603,6,0,L|295:134,1,71.9999978027344,4|8,1:0|0:0,0:0:0:0:
180,131,45978,1,8,0:0:0:0:
88,39,46165,1,0,0:0:0:0:
88,39,46353,2,0,P|102:89|190:130,1,143.999995605469,0|8,0:0|0:0,0:0:0:0:
338,344,47103,6,0,L|338:265,1,71.9999978027344,4|8,1:0|0:0,0:0:0:0:
337,169,47478,1,8,0:0:0:0:
359,29,47665,1,0,0:0:0:0:
359,29,47853,2,0,B|359:116|359:116|334:175,1,143.999995605469,0|8,0:0|0:0,0:0:0:0:
105,226,48603,6,0,P|113:269|90:335,2,107.999996704102,4|4|4,0:0|0:3|0:3,0:0:0:0:
67,128,49353,2,0,L|186:127,2,107.999996704102,4|4|4,0:0|0:3|0:3,0:0:0:0:
241,60,50103,2,0,P|266:102|263:162,2,107.999996704102,4|4|4,0:0|0:3|0:3,0:0:0:0:
187,232,50853,2,0,B|189:275|189:275|213:347,2,107.999996704102,4|4|4,0:0|0:3|0:3,0:0:0:0:
245,141,51603,6,0,L|322:140,1,71.9999978027344,12|0,0:0|0:0,0:0:0:0:
407,222,51978,2,0,L|330:223,1,71.9999978027344,8|0,0:0|0:0,0:0:0:0:
245,141,52353,1,8,0:0:0:0:
258,263,52540,1,0,0:0:0:0:
258,145,52728,1,8,0:0:0:0:
245,269,52915,1,0,0:0:0:0:
182,70,53103,6,0,P|120:69|95:77,1,71.9999978027344,12|0,0:0|0:0,0:0:0:0:
186,146,53478,2,0,P|248:147|273:139,1,71.9999978027344,8|0,0:0|0:0,0:0:0:0:
315,72,53853,1,8,0:0:0:0:
182,70,54040,1,0,0:0:0:0:
301,53,54228,1,8,0:0:0:0:
168,51,54415,1,0,0:0:0:0:
140,190,54603,6,0,P|139:241|158:271,1,71.9999978027344,8|0,0:0|0:0,0:0:0:0:
215,314,54978,1,8,0:0:0:0:
216,216,55165,1,0,0:0:0:0:
93,314,55353,1,8,0:0:0:0:
68,190,55540,1,4,0:3:0:0:
68,190,55634,1,4,0:3:0:0:
68,190,55728,2,0,L|148:190,1,71.9999978027344,8|0,0:0|0:0,0:0:0:0:
296,191,56103,1,4,0:0:0:0:
329,57,56853,6,0,B|339:92|331:112|331:112|293:130|293:130|283:155|298:197,1,160,4|8,1:0|3:0,0:0:0:0:
320,217,57321,1,8,0:1:0:0:
343,243,57415,1,8,0:1:0:0:
355,276,57509,1,8,0:1:0:0:
355,316,57603,6,0,L|261:316,1,88.000002685547,6|0,0:1|0:0,0:0:0:0:
92,242,57978,2,0,L|186:242,1,88.000002685547,8|0,0:0|0:0,0:0:0:0:
354,162,58353,2,0,L|260:162,1,88.000002685547,2|0,0:1|0:0,0:0:0:0:
185,73,58728,1,8,0:0:0:0:
303,41,58915,1,0,0:0:0:0:
192,167,59103,6,0,P|210:212|252:235,1,88.000002685547,2|0,0:1|0:0,0:0:0:0:
404,227,59478,2,0,P|386:182|344:159,1,88.000002685547,8|0,0:0|0:0,0:0:0:0:
192,167,59853,1,2,0:1:0:0:
330,232,60040,1,0,0:0:0:0:
276,104,60228,1,8,0:0:0:0:
242,232,60415,1,0,0:0:0:0:
345,62,60603,6,0,L|158:62,1,176.000005371094,6|8,0:1|0:0,0:0:0:0:
93,151,61165,1,0,0:0:0:0:
168,249,61353,2,0,L|166:339,1,88.000002685547,2|0,0:1|0:0,0:0:0:0:
277,191,61728,2,0,L|275:101,1,88.000002685547,8|0,0:0|0:0,0:0:0:0:
93,151,62103,6,0,L|186:152,1,88.000002685547,2|0,0:1|0:0,0:0:0:0:
366,150,62478,1,8,0:0:0:0:
366,150,62665,1,0,0:0:0:0:
300,263,62853,2,0,P|293:318|311:364,1,88.000002685547,2|0,0:1|0:0,0:0:0:0:
438,351,63228,2,0,P|445:296|427:250,1,88.000002685547,8|8,0:0|0:0,0:0:0:0:
366,150,63603,6,0,P|351:102|366:53,1,88.000002685547,6|0,0:1|0:0,0:0:0:0:
432,102,63978,1,8,0:0:0:0:
432,102,64165,1,0,0:0:0:0:
273,105,64353,2,0,L|175:105,1,88.000002685547,2|0,0:1|0:0,0:0:0:0:
83,106,64728,1,8,0:0:0:0:
83,106,64915,1,0,0:0:0:0:
124,261,65103,6,0,P|165:272|216:254,1,88.000002685547,2|0,0:1|0:0,0:0:0:0:
165,191,65478,1,8,0:0:0:0:
165,191,65665,1,0,0:0:0:0:
166,349,65853,1,2,0:1:0:0:
412,149,66228,2,0,P|424:105|410:60,1,88.000002685547,8|0,0:0|0:0,0:0:0:0:
244,105,66603,6,0,L|352:103,1,88.000002685547,4|0,0:1|0:0,0:0:0:0:
414,240,66978,2,0,L|306:242,1,88.000002685547,4|0,0:1|0:0,0:0:0:0:
188,64,67353,2,0,L|296:62,1,88.000002685547,4|0,0:1|0:0,0:0:0:0:
470,281,67728,2,0,L|362:283,1,88.000002685547,4|0,0:1|0:0,0:0:0:0:
159,270,68103,6,0,P|146:229|155:178,1,88.000002685547,8|0,0:0|0:0,0:0:0:0:
244,105,68478,1,8,0:0:0:0:
240,220,68665,1,0,0:0:0:0:
121,107,68853,1,8,0:0:0:0:
251,112,69040,1,4,0:3:0:0:
252,112,69134,1,4,0:3:0:0:
252,112,69228,2,0,L|348:111,1,88.000002685547,8|0,0:0|0:0,0:0:0:0:
240,220,69603,6,0,P|238:269|273:316,1,88.000002685547,6|0,0:1|0:0,0:0:0:0:
302,170,69978,2,0,P|260:143|202:150,1,88.000002685547,8|0,0:0|0:0,0:0:0:0:
315,248,70353,2,0,P|358:225|381:171,1,88.000002685547,2|0,0:1|0:0,0:0:0:0:
367,96,70728,1,8,0:0:0:0:
223,142,70915,1,0,0:0:0:0:
315,248,71103,6,0,P|325:294|310:347,1,88.000002685547,2|0,0:1|0:0,0:0:0:0:
224,227,71478,2,0,P|214:181|229:128,1,88.000002685547,8|0,0:0|0:0,0:0:0:0:
291,70,71853,1,2,0:1:0:0:
308,184,72040,1,0,0:0:0:0:
232,308,72228,2,0,P|185:314|138:303,1,88.000002685547,8|0,0:0|0:0,0:0:0:0:
66,173,72603,6,0,L|161:168,1,88.000002685547,2|0,0:1|0:0,0:0:0:0:
200,73,72978,2,0,L|105:68,1,88.000002685547,8|0,0:0|0:0,0:0:0:0:
183,247,73353,2,0,L|278:242,1,88.000002685547,2|0,0:1|0:0,0:0:0:0:
317,147,73728,2,0,L|222:142,1,88.000002685547,8|0,0:0|0:0,0:0:0:0:
66,173,74103,6,0,L|19:176,2,44.0000013427735,6|0|0,0:1|0:0|0:0,0:0:0:0:
101,303,74478,2,0,L|148:306,2,44.0000013427735,8|0|0,0:0|0:0|0:0,0:0:0:0:
191,201,74853,2,0,P|205:155|197:106,1,88.000002685547,2|0,0:1|0:0,0:0:0:0:
111,47,75228,1,8,0:0:0:0:
111,47,75321,1,8,0:3:0:0:
111,47,75415,1,4,0:3:0:0:
232,37,75603,6,0,L|376:40,1,132.00000402832,4|0,0:0|0:0,0:0:0:0:
403,41,75978,1,8,0:0:0:0:
391,146,76165,1,8,0:0:0:0:
379,251,76353,1,8,0:0:0:0:
162,100,76728,1,8,0:3:0:0:
151,101,76821,1,0,0:0:0:0:
140,101,76915,1,0,0:0:0:0:
129,100,77009,1,0,0:0:0:0:
118,98,77103,6,0,L|125:239,1,132.00000402832,4|0,0:1|0:0,0:0:0:0:
129,269,77478,1,8,0:0:0:0:
254,260,77665,1,8,0:0:0:0:
379,251,77853,1,8,0:0:0:0:
379,251,78228,1,8,0:3:0:0:
219,185,78415,1,4,0:3:0:0:
428,194,78603,6,0,P|455:252|417:317,1,132.00000402832,6|0,0:1|0:0,0:0:0:0:
340,336,78978,2,0,L|289:339,3,44.0000013427735,8|8|8|8,3:1|3:1|3:1|3:1,0:1:0:0:
259,331,79353,6,0,B|256:284|256:284|270:245|270:245|266:178,1,132.00000402832,6|0,0:1|0:0,0:0:0:0:
240,100,79728,2,0,P|211:96|186:97,3,44.0000013427735,8|8|8|8,3:1|3:1|3:1|3:1,0:1:0:0:
151,106,80103,6,0,B|134:190|134:190|151:292,2,176.000005371094,2|2|2,0:1|0:1|0:1,0:0:0:0:
151,106,81228,1,4,0:0:0:0:
151,106,81603,6,0,P|191:99|234:110,1,80,6|0,0:1|0:0,0:0:0:0:
317,199,81978,2,0,P|278:207|239:200,1,80,8|0,0:0|0:0,0:0:0:0:
151,106,82353,1,2,0:1:0:0:
259,80,82540,1,0,0:0:0:0:
131,248,82728,2,0,L|136:337,1,80,8|0,0:0|0:0,0:0:0:0:
170,177,83103,5,2,0:1:0:0:
170,177,83290,2,0,P|226:169|252:88,1,120
259,80,83665,1,0,0:0:0:0:
259,80,84040,1,0,0:0:0:0:
290,222,84228,2,0,L|290:309,1,80,8|0,0:0|0:0,0:0:0:0:
353,187,84603,6,0,P|319:155|221:200,1,160,6|8,0:1|0:0,0:0:0:0:
351,51,85165,1,0,0:0:0:0:
351,51,85259,1,0,0:0:0:0:
351,51,85353,2,0,L|447:53,1,80,2|0,0:1|0:0,0:0:0:0:
432,185,85728,2,0,L|336:187,1,80,8|0,0:0|0:0,0:0:0:0:
176,113,86103,6,0,P|200:193|149:288,1,160,6|8,0:1|0:0,0:0:0:0:
39,308,86665,1,0,0:0:0:0:
39,308,86759,1,0,0:0:0:0:
39,308,86853,2,0,L|144:311,1,80,2|0,0:1|0:0,0:0:0:0:
260,263,87228,1,8,0:0:0:0:
299,256,87321,1,8,0:3:0:0:
337,266,87415,1,4,0:3:0:0:
443,332,87603,6,0,B|420:299|420:299|417:197,1,120,4|0,0:1|0:0,0:0:0:0:
418,183,87978,1,8,0:0:0:0:
338,130,88165,1,8,0:0:0:0:
258,77,88353,1,8,0:0:0:0:
126,287,88728,1,4,0:3:0:0:
125,296,88821,1,0,0:0:0:0:
123,306,88915,1,0,0:0:0:0:
119,315,89009,1,0,0:0:0:0:
113,323,89103,6,0,L|258:324,1,120,4|0,0:1|0:0,0:0:0:0:
269,323,89478,1,8,0:0:0:0:
303,226,89665,1,8,0:0:0:0:
338,130,89853,1,8,0:0:0:0:
338,130,90228,1,8,0:3:0:0:
159,127,90415,1,4,0:3:0:0:
303,226,90603,6,0,P|295:288|250:330,1,120,4|0,0:0|0:0,0:0:0:0:
166,333,90978,2,0,L|118:336,3,40,8|8|8|8,3:0|3:0|3:0|3:0,0:0:0:0:
89,325,91353,6,0,B|81:237|81:237|96:189,1,120,4|0,0:0|0:0,0:0:0:0:
159,127,91728,2,0,L|211:126,3,40,8|8|8|8,3:0|3:0|3:0|3:0,0:0:0:0:
229,126,92103,6,0,L|310:126,1,80,4|0,1:0|0:0,0:0:0:0:
434,192,92478,2,0,L|353:192,1,80,4|0,1:0|0:0,0:0:0:0:
255,274,92853,1,4,1:0:0:0:
343,339,93040,1,4,0:3:0:0:
354,192,93228,1,4,0:0:0:0:
