osu file format v14

[General]
AudioFilename: audio.mp3
AudioLeadIn: 0
PreviewTime: 54603
Countdown: 0
SampleSet: Soft
StackLeniency: 0.4
Mode: 0
LetterboxInBreaks: 0
WidescreenStoryboard: 0

[Editor]
Bookmarks: 18228,18603
DistanceSpacing: 0.74
BeatDivisor: 4
GridSize: 8
TimelineZoom: 1

[Metadata]
Title:Mirai Puzzle
TitleUnicode:未来パズル
Artist:Chino (CV. Inori Minase)
ArtistUnicode:チノ(CV.水瀬いのり)
Creator:LeQuack
Version:Left's Insane
Source:ご注文はうさぎですか??
Tags:gochuumon wa usagi desu ka is the order a rabbit cup of chino Akitoshi Left is cute
BeatmapID:1209775
BeatmapSetID:536219

[Difficulty]
HPDrainRate:6
CircleSize:3.8
OverallDifficulty:8
ApproachRate:9
SliderMultiplier:1.8
SliderTickRate:1

[Events]
//Background and Video events
0,0,"chino.png",0,0
//Break Periods
//Storyboard Layer 0 (Background)
//Storyboard Layer 1 (Fail)
//Storyboard Layer 2 (Pass)
//Storyboard Layer 3 (Foreground)
//Storyboard Sound Samples

[TimingPoints]
603,375,4,2,99,65,1,0
2103,-200,4,2,99,65,0,0
3603,-100,4,2,99,65,0,0
7728,-100,4,2,99,65,0,0
8103,-100,4,2,99,65,0,0
9603,-100,4,2,99,65,0,0
10728,-200,4,2,99,65,0,0
11103,-100,4,2,99,65,0,0
12228,-200,4,2,99,65,0,0
12603,-100,4,2,99,65,0,0
14103,-66.6666666666667,4,2,99,65,0,0
15603,-100,4,2,99,65,0,0
56853,-71.4285714285714,4,2,99,65,0,0
57603,-86.9565217391304,4,2,99,75,0,1
66603,-66.6666666666667,4,2,99,75,0,1
67353,-58.8235294117647,4,2,99,75,0,1
68853,-86.9565217391304,4,2,99,75,0,0
69603,-86.9565217391304,4,2,99,75,0,1
75603,-86.9565217391304,4,2,99,75,0,1
76728,-200,4,2,99,75,0,1
77103,-86.9565217391304,4,2,99,75,0,1
80478,-71.4285714285714,4,2,99,75,0,1
80853,-57.1428571428571,4,2,99,75,0,1
81228,-50,4,2,99,75,0,1
81603,-100,4,2,99,65,0,0
87603,-100,4,2,99,65,0,0
88728,-200,4,2,99,65,0,0
89103,-100,4,2,99,65,0,0
92103,-66.6666666666667,4,2,99,65,0,0
92853,-50,4,2,99,65,0,0

[Colours]
Combo1 : 128,0,128
Combo2 : 100,100,255
Combo3 : 255,0,255
Combo4 : 210,210,210

[HitObjects]
149,282,603,5,8,0:0:0:0:
149,282,978,1,8,0:0:0:0:
149,282,1353,1,8,0:0:0:0:
154,286,1634,5,8,0:0:0:0:
154,286,1728,1,8,0:0:0:0:
137,363,1915,1,4,0:3:0:0:
71,172,2103,5,8,0:0:0:0:
283,220,2290,2,0,L|387:210,2,90,4|4|0,0:3|0:3|0:0,0:0:0:0:
225,279,3228,1,8,0:0:0:0:
210,261,3321,1,0,0:0:0:0:
202,240,3415,1,0,0:0:0:0:
200,218,3509,1,0,0:0:0:0:
206,197,3603,6,0,L|300:213,1,90,6|0,0:1|0:0,0:0:0:0:
390,289,3978,2,0,L|362:146,1,135,8|0,0:0|0:0,0:0:0:0:
366,139,4353,1,2,0:1:0:0:
323,341,4540,1,0,0:0:0:0:
257,288,4728,2,0,L|139:303,1,90,8|0,0:0|0:0,0:0:0:0:
302,216,5103,5,2,0:1:0:0:
109,355,5290,2,0,L|-9:340,1,90,0|8,0:0|0:0,0:0:0:0:
165,83,5665,2,0,L|179:180,1,90,0|2,0:0|0:1,0:0:0:0:
11,177,6040,1,0,0:0:0:0:
81,233,6228,2,0,L|98:133,1,90,8|0,0:0|0:0,0:0:0:0:
215,77,6603,6,0,B|31:93,1,180,6|8,0:1|0:0,0:0:0:0:
123,218,7165,1,0,0:0:0:0:
128,191,7259,1,0,0:0:0:0:
134,165,7353,2,0,L|144:289,1,90,2|0,0:1|0:0,0:0:0:0:
74,305,7728,1,8,0:0:0:0:
74,305,7915,1,0,0:0:0:0:
215,77,8103,6,0,B|16:95,1,180,6|8,0:1|0:0,0:0:0:0:
123,218,8665,1,0,0:0:0:0:
128,191,8759,1,0,0:0:0:0:
134,165,8853,2,0,L|144:289,1,90,2|0,0:1|0:0,0:0:0:0:
74,305,9228,1,8,0:0:0:0:
74,305,9321,1,8,0:3:0:0:
74,305,9415,1,4,0:3:0:0:
287,366,9603,6,0,L|304:196,1,135,4|2,0:1|0:0,0:0:0:0:
284,154,9978,1,10,0:0:0:0:
284,154,10165,1,10,0:0:0:0:
284,154,10353,1,10,0:0:0:0:
278,299,10728,6,0,L|288:375,1,67.5,4|0,0:3|0:0,0:0:0:0:
287,366,11103,6,0,L|304:196,1,135,4|2,0:0|0:0,0:0:0:0:
262,76,11478,1,10,0:0:0:0:
262,76,11665,1,10,0:0:0:0:
262,76,11853,1,10,0:0:0:0:
278,299,12228,5,8,0:3:0:0:
282,332,12415,1,4,0:3:0:0:
287,366,12603,6,0,L|304:196,1,135,6|0,0:1|0:0,0:0:0:0:
220,203,12978,5,8,3:0:0:0:
180,223,13071,1,8,3:0:0:0:
161,262,13165,1,8,3:0:0:0:
168,306,13259,1,8,0:3:0:0:
206,336,13353,2,0,L|223:166,1,135,6|0,0:1|0:0,0:0:0:0:
139,173,13728,5,8,3:0:0:0:
99,193,13821,1,8,3:0:0:0:
80,232,13915,1,8,3:0:0:0:
87,276,14009,1,8,3:0:0:0:
125,307,14103,2,0,L|140:158,1,135.000005149842,6|0,0:1|0:0,0:0:0:0:
338,43,14478,2,0,L|353:192,1,135.000005149842,6|0,0:1|0:0,0:0:0:0:
370,356,14853,5,2,0:1:0:0:
256,115,15040,1,2,0:1:0:0:
468,254,15228,5,2,0:1:0:0:
218,305,15415,1,0,0:0:0:0:
302,323,15603,5,6,0:1:0:0:
218,305,15790,2,0,L|208:200,1,90,0|0,0:0|0:0,0:0:0:0:
297,34,16165,1,0,0:0:0:0:
227,85,16353,1,2,0:1:0:0:
227,85,16540,2,0,L|111:70,1,90,0|8,0:0|0:0,0:0:0:0:
26,220,16915,6,0,L|115:208,1,90,0|0,0:0|0:0,0:0:0:0:
268,258,17290,1,0,0:0:0:0:
197,200,17478,2,0,L|179:314,1,90,8|0,0:0|0:0,0:0:0:0:
248,341,17853,1,2,0:1:0:0:
217,120,18040,1,0,0:0:0:0:
197,200,18228,5,8,0:0:0:0:
277,180,18415,1,0,0:0:0:0:
332,341,18603,6,0,B|360:156,1,180,2|8,0:1|0:0,0:0:0:0:
275,92,19165,1,0,0:0:0:0:
275,92,19353,2,0,L|381:79,1,90,2|0,0:1|0:0,0:0:0:0:
181,227,19728,2,0,L|75:217,1,90,8|0,0:0|0:0,0:0:0:0:
38,150,20103,6,0,L|79:344,1,180,2|8,0:1|0:0,0:0:0:0:
206,197,20665,1,0,0:0:0:0:
124,179,20853,1,2,0:1:0:0:
145,259,21040,1,0,0:0:0:0:
188,73,21228,1,8,0:0:0:0:
188,73,21415,1,8,0:0:0:0:
266,108,21603,6,0,L|390:98,1,90,6|0,0:1|0:0,0:0:0:0:
251,272,21978,2,0,L|375:262,1,90,8|0,0:0|0:0,0:0:0:0:
257,191,22353,2,0,L|381:181,1,90,2|0,0:1|0:0,0:0:0:0:
241,352,22728,2,0,L|365:342,1,90,8|0,0:0|0:0,0:0:0:0:
434,158,23103,6,0,L|410:369,1,180,2|8,0:1|0:0,0:0:0:0:
370,108,23665,1,0,0:0:0:0:
444,79,23853,1,0,0:0:0:0:
294,142,24040,5,0,0:0:0:0:
294,142,24228,2,0,L|284:48,1,90,8|0,0:0|0:0,0:0:0:0:
75,229,24603,6,0,L|60:334,1,90,2|0,0:1|0:0,0:0:0:0:
218,373,24978,1,8,0:0:0:0:
199,293,25165,1,0,0:0:0:0:
140,348,25353,5,2,0:1:0:0:
280,316,25540,1,0,0:0:0:0:
171,176,25728,5,8,0:0:0:0:
218,373,25915,1,4,0:0:0:0:
218,373,26290,5,0,0:0:0:0:
280,316,26477,1,8,0:0:0:0:
359,335,26665,1,0,0:0:0:0:
201,293,26853,5,8,0:0:0:0:
340,254,27040,1,2,0:0:0:0:
340,254,27134,1,2,0:0:0:0:
340,254,27228,1,8,0:0:0:0:
382,121,27415,1,0,0:0:0:0:
171,37,27603,5,6,0:1:0:0:
97,69,27790,1,0,0:0:0:0:
97,69,27978,2,0,L|-3:61,1,90,8|0,0:0|0:0,0:0:0:0:
114,201,28353,1,2,0:1:0:0:
171,37,28540,1,0,0:0:0:0:
114,201,28728,1,8,0:0:0:0:
175,258,28915,6,0,L|164:364,1,90,0|0,0:0|0:0,0:0:0:0:
326,180,29290,1,0,0:0:0:0:
326,180,29478,2,0,L|312:81,1,90,8|0,0:0|0:0,0:0:0:0:
257,226,29853,1,2,0:1:0:0:
416,291,30040,1,0,0:0:0:0:
352,342,30228,5,8,0:0:0:0:
338,261,30415,1,0,0:0:0:0:
504,200,30603,6,0,B|316:178,1,180,2|8,0:1|0:0,0:0:0:0:
227,78,31165,1,0,0:0:0:0:
227,78,31353,2,0,L|249:191,1,90,2|0,0:1|0:0,0:0:0:0:
86,312,31728,2,0,L|97:212,1,90,8|0,0:0|0:0,0:0:0:0:
18,189,32103,6,0,L|226:176,1,180,2|8,0:1|0:0,0:0:0:0:
223,35,32665,1,0,0:0:0:0:
172,99,32853,1,2,0:1:0:0:
252,113,33040,1,0,0:0:0:0:
420,32,33228,1,8,0:0:0:0:
420,32,33415,1,8,0:0:0:0:
483,87,33603,6,0,L|474:212,1,90,6|0,0:1|0:0,0:0:0:0:
319,140,33978,2,0,L|310:265,1,90,8|0,0:0|0:0,0:0:0:0:
401,113,34353,2,0,L|392:238,1,90,2|0,0:1|0:0,0:0:0:0:
236,164,34728,2,0,L|227:289,1,90,8|0,0:0|0:0,0:0:0:0:
129,299,35103,6,0,B|345:272,1,180,0|8,0:1|0:0,0:0:0:0:
160,139,35665,1,0,0:0:0:0:
146,217,35853,1,0,0:0:0:0:
96,85,36040,5,8,0:0:0:0:
223,191,36228,1,8,0:0:0:0:
66,249,36415,1,0,3:0:0:0:
250,26,36603,5,4,0:0:0:0:
330,45,36790,1,8,0:0:0:0:
330,45,36884,1,8,0:0:0:0:
330,45,36978,1,8,0:0:0:0:
260,337,37353,5,4,0:0:0:0:
340,311,37540,1,8,0:0:0:0:
340,311,37634,1,8,0:0:0:0:
340,311,37728,1,8,0:0:0:0:
250,26,38103,5,4,0:0:0:0:
330,45,38290,1,8,0:0:0:0:
330,45,38384,1,8,0:0:0:0:
330,45,38478,1,8,0:0:0:0:
271,107,38665,1,0,0:0:0:0:
319,273,38853,5,8,3:2:0:0:
319,273,38946,1,8,3:0:0:0:
319,273,39040,1,8,3:0:0:0:
436,144,39228,1,8,0:0:0:0:
271,107,39415,1,0,3:0:0:0:
280,146,39509,1,0,3:0:0:0:
291,188,39603,5,4,1:0:0:0:
379,19,39790,1,8,0:0:0:0:
138,66,39978,1,8,0:0:0:0:
138,66,40727,1,8,0:0:0:0:
138,66,40821,1,8,0:3:0:0:
138,66,40915,1,8,0:3:0:0:
106,141,41103,5,4,1:0:0:0:
328,181,41290,1,8,0:0:0:0:
170,355,41478,1,8,0:0:0:0:
170,355,42228,1,8,0:0:0:0:
170,355,42321,1,4,0:3:0:0:
170,355,42415,1,4,0:3:0:0:
140,278,42603,6,0,B|288:262,1,135,4|0,1:0|0:0,0:0:0:0:
281,181,42978,2,0,L|218:187,3,45,8|8|8|8,3:0|3:0|3:0|3:0,0:0:0:0:
281,181,43353,6,0,B|133:165,1,135,4|0,1:0|0:0,0:0:0:0:
148,85,43728,2,0,L|211:91,3,45,8|8|8|8,3:0|3:0|3:0|3:0,0:0:0:0:
148,85,44103,6,0,B|296:69,1,135,4|0,0:0|0:0,0:0:0:0:
281,181,44478,2,0,B|133:165,1,135,4|0,0:0|0:0,0:0:0:0:
140,278,44853,2,0,B|288:262,1,135,4|0,0:0|0:0,0:0:0:0:
327,330,45228,1,8,0:0:0:0:
327,330,45321,1,8,0:3:0:0:
327,330,45415,1,4,0:3:0:0:
353,249,45603,5,4,1:0:0:0:
141,295,45790,1,8,0:0:0:0:
203,90,45978,1,8,0:0:0:0:
203,90,46728,1,8,0:0:0:0:
203,90,46821,1,8,0:3:0:0:
203,90,46915,1,8,0:3:0:0:
272,39,47103,5,4,1:0:0:0:
234,247,47290,1,8,0:0:0:0:
69,117,47478,1,8,0:0:0:0:
69,117,48228,1,8,0:0:0:0:
69,117,48321,1,4,0:3:0:0:
69,117,48415,1,4,0:3:0:0:
136,171,48603,5,4,0:1:0:0:
151,125,48884,1,8,0:3:0:0:
144,78,49165,1,4,0:3:0:0:
144,78,49353,5,4,0:1:0:0:
231,118,49634,1,8,0:3:0:0:
319,96,49915,1,4,0:3:0:0:
319,96,50103,5,4,0:1:0:0:
259,205,50384,1,8,0:3:0:0:
286,328,50665,1,4,0:3:0:0:
286,328,50853,5,4,0:1:0:0:
147,237,51134,1,8,0:3:0:0:
0,289,51415,1,4,0:3:0:0:
0,289,51603,6,0,L|12:192,1,90,12|0,0:0|0:0,0:0:0:0:
171,181,51978,2,0,L|160:271,1,90,8|0,0:0|0:0,0:0:0:0:
80,281,52353,2,0,L|92:184,1,90,8|0,0:0|0:0,0:0:0:0:
251,173,52728,2,0,L|240:263,1,90,8|0,0:0|0:0,0:0:0:0:
79,66,53103,6,0,L|91:163,1,90,12|0,0:0|0:0,0:0:0:0:
250,173,53478,2,0,L|239:84,1,90,8|0,0:0|0:0,0:0:0:0:
159,74,53853,2,0,L|171:171,1,90,8|0,0:0|0:0,0:0:0:0:
330,181,54228,2,0,L|319:92,1,90,8|0,0:0|0:0,0:0:0:0:
256,37,54603,5,8,0:0:0:0:
243,117,54790,1,0,0:0:0:0:
319,92,54978,5,8,0:0:0:0:
162,142,55165,1,0,0:0:0:0:
399,190,55353,5,8,0:0:0:0:
175,64,55540,1,4,0:3:0:0:
175,64,55634,1,0,0:0:0:0:
175,64,55728,1,8,0:0:0:0:
274,305,55915,5,0,0:0:0:0:
332,50,56103,1,4,0:0:0:0:
332,50,56853,6,0,L|352:335,1,251.999992309571,4|8,1:0|3:0,0:0:0:0:
306,173,57321,1,8,3:0:0:0:
314,133,57415,1,8,3:0:0:0:
322,93,57509,1,8,3:0:0:0:
332,50,57603,6,0,L|204:69,1,103.500001974106,6|0,0:1|0:0,0:0:0:0:
131,128,57978,2,0,L|153:15,1,103.500001974106,8|0,0:0|0:0,0:0:0:0:
289,233,58353,2,0,L|311:368,1,103.500001974106,2|0,0:1|0:0,0:0:0:0:
218,298,58728,1,8,0:0:0:0:
424,213,58915,1,0,0:0:0:0:
352,165,59103,6,0,L|366:52,1,103.500001974106,2|0,0:1|0:0,0:0:0:0:
159,241,59478,2,0,L|182:362,1,103.500001974106,8|0,0:0|0:0,0:0:0:0:
251,271,59853,1,2,0:1:0:0:
80,182,60040,1,0,0:0:0:0:
158,240,60228,2,0,L|170:137,1,103.500001974106,8|0,0:0|0:0,0:0:0:0:
302,72,60603,6,0,B|85:94,1,207.000003948212,6|8,0:1|0:0,0:0:0:0:
370,173,61165,1,0,0:0:0:0:
370,173,61353,2,0,L|388:59,1,103.500001974106,2|0,0:1|0:0,0:0:0:0:
302,219,61728,1,8,0:0:0:0:
503,337,61915,1,0,0:0:0:0:
448,276,62103,6,0,L|324:291,1,103.500001974106,2|0,0:1|0:0,0:0:0:0:
189,328,62478,1,8,0:0:0:0:
203,244,62665,1,0,0:0:0:0:
107,137,62853,5,2,0:1:0:0:
265,298,63040,1,0,0:0:0:0:
40,339,63228,1,8,0:0:0:0:
40,339,63415,1,8,0:0:0:0:
89,268,63603,5,6,0:1:0:0:
238,324,63790,1,0,0:0:0:0:
152,326,63978,1,8,0:0:0:0:
311,269,64165,1,0,0:0:0:0:
238,324,64353,1,2,0:1:0:0:
324,186,64540,1,0,0:0:0:0:
311,269,64728,1,8,0:0:0:0:
284,112,64915,1,0,0:0:0:0:
238,185,65103,5,2,0:1:0:0:
367,116,65290,1,0,0:0:0:0:
324,186,65478,5,8,0:0:0:0:
225,49,65665,1,0,0:0:0:0:
303,23,65853,2,0,L|412:39,1,103.500001974106,2|0,0:1|0:0,0:0:0:0:
310,212,66228,1,8,0:0:0:0:
390,199,66415,1,0,0:0:0:0:
70,167,66603,6,0,L|93:321,1,135.000005149842,4|0,0:1|0:0,0:0:0:0:
390,199,66978,2,0,L|363:338,1,135.000005149842,4|0,0:1|0:0,0:0:0:0:
53,151,67353,6,0,L|96:328,1,153.000002918243,4|0,0:1|0:0,0:0:0:0:
411,185,67728,2,0,L|358:351,1,153.000002918243,4|0,0:1|0:0,0:0:0:0:
37,140,68103,5,8,0:0:0:0:
303,224,68290,1,0,0:0:0:0:
34,247,68478,5,8,0:0:0:0:
282,117,68665,1,0,0:0:0:0:
166,185,68853,5,8,0:0:0:0:
166,185,69040,1,4,0:3:0:0:
166,185,69134,1,4,0:3:0:0:
166,185,69228,1,8,0:0:0:0:
177,266,69415,1,0,0:0:0:0:
52,85,69603,6,0,L|175:102,1,103.500001974106,6|0,0:1|0:0,0:0:0:0:
248,163,69978,2,0,L|225:29,1,103.500001974106,8|0,0:0|0:0,0:0:0:0:
66,245,70353,2,0,L|52:371,1,103.500001974106,2|0,0:1|0:0,0:0:0:0:
15,176,70728,1,8,0:0:0:0:
219,291,70915,1,0,0:0:0:0:
284,240,71103,6,0,L|431:225,1,103.500001974106,2|0,0:1|0:0,0:0:0:0:
208,67,71478,2,0,L|78:54,1,103.500001974106,8|0,0:0|0:0,0:0:0:0:
255,233,71853,1,2,0:1:0:0:
283,29,72040,1,0,0:0:0:0:
229,153,72228,5,8,0:0:0:0:
310,167,72415,1,0,0:0:0:0:
143,143,72603,2,0,L|164:271,1,103.500001974106,2|0,0:1|0:0,0:0:0:0:
221,315,72978,2,0,L|93:336,1,103.500001974106,8|0,0:0|0:0,0:0:0:0:
308,355,73353,6,0,L|287:227,1,103.500001974106,2|0,0:1|0:0,0:0:0:0:
229,185,73728,2,0,L|357:164,1,103.500001974106,8|0,0:0|0:0,0:0:0:0:
450,272,74103,6,0,B|472:57,1,207.000003948212,6|8,0:1|0:0,0:0:0:0:
371,226,74665,1,0,0:0:0:0:
441,168,74853,2,0,L|451:293,1,103.500001974106,2|0,0:1|0:0,0:0:0:0:
289,237,75228,1,8,0:0:0:0:
289,237,75321,1,8,0:3:0:0:
289,237,75415,1,4,0:3:0:0:
226,43,75603,6,0,B|59:66,1,155.250002961159,4|0,0:0|0:0,0:0:0:0:
51,145,75978,1,8,0:0:0:0:
51,145,76165,1,8,0:0:0:0:
51,145,76353,1,8,0:0:0:0:
159,33,76728,6,0,L|238:44,1,67.5,0|0,0:0|0:0,0:0:0:0:
226,43,77103,6,0,B|59:66,1,155.250002961159,4|0,0:1|0:0,0:0:0:0:
29,228,77478,1,8,0:0:0:0:
29,228,77665,1,8,0:0:0:0:
29,228,77853,1,8,0:0:0:0:
159,33,78228,5,8,0:3:0:0:
192,37,78415,1,4,0:3:0:0:
226,43,78603,6,0,B|59:66,1,155.250002961159,6|0,0:1|0:0,0:0:0:0:
104,140,78978,5,8,3:0:0:0:
138,177,79071,1,8,3:0:0:0:
188,186,79165,1,8,3:0:0:0:
234,164,79259,1,8,3:0:0:0:
258,119,79353,2,0,B|91:142,1,155.250002961159,6|0,0:1|0:0,0:0:0:0:
143,214,79728,5,8,3:0:0:0:
177,251,79821,1,8,3:0:0:0:
227,260,79915,1,8,3:0:0:0:
273,238,80009,1,8,3:0:0:0:
296,192,80103,2,0,B|129:215,1,155.250002961159,2|0,0:1|0:0,0:0:0:0:
245,120,80478,6,0,P|312:105|383:201,1,188.999994232178,2|0,0:1|0:0,0:0:0:0:
336,346,80853,6,0,B|282:306|282:306|326:116,1,236.250002253056,2|0,0:1|0:0,0:0:0:0:
380,48,81228,6,0,B|313:17|251:62|251:62|175:105|105:69,1,270,4|0,0:0|0:0,0:0:0:0:
24,24,81603,6,0,L|45:135,1,90,6|0,0:1|0:0,0:0:0:0:
224,248,81978,2,0,L|238:145,1,90,8|0,0:0|0:0,0:0:0:0:
170,112,82353,1,2,0:1:0:0:
132,301,82540,1,0,0:0:0:0:
96,226,82728,2,0,L|-10:237,1,90,8|0,0:0|0:0,0:0:0:0:
109,380,83103,5,2,0:1:0:0:
164,175,83290,2,0,L|187:58,1,90,0|8,0:0|0:0,0:0:0:0:
238,245,83665,2,0,L|140:265,1,90,0|2,0:0|0:1,0:0:0:0:
133,86,84040,1,0,0:0:0:0:
75,157,84228,2,0,L|173:177,1,90,8|0,0:0|0:0,0:0:0:0:
253,134,84603,6,0,B|56:159,1,180,6|8,0:1|0:0,0:0:0:0:
202,302,85165,1,0,0:0:0:0:
192,323,85259,1,0,0:0:0:0:
183,346,85353,2,0,L|172:243,1,90,2|0,0:1|0:0,0:0:0:0:
247,219,85728,1,8,0:0:0:0:
247,219,85915,1,0,0:0:0:0:
74,156,86103,6,0,B|253:134,1,180,6|8,0:1|0:0,0:0:0:0:
202,302,86665,1,0,0:0:0:0:
192,323,86759,1,0,0:0:0:0:
183,346,86853,2,0,L|172:243,1,90,2|0,0:1|0:0,0:0:0:0:
247,219,87228,1,8,0:0:0:0:
247,219,87321,1,8,0:3:0:0:
247,219,87415,1,4,0:3:0:0:
449,259,87603,6,0,B|428:115,1,135,4|2,0:1|0:0,0:0:0:0:
353,96,87978,1,10,0:0:0:0:
353,96,88165,1,8,0:0:0:0:
353,96,88353,1,10,0:0:0:0:
457,192,88728,6,0,L|448:264,1,67.5,4|0,0:3|0:0,0:0:0:0:
449,259,89103,6,0,B|428:115,1,135,4|2,0:1|0:0,0:0:0:0:
275,69,89478,1,10,0:0:0:0:
275,69,89666,1,10,0:0:0:0:
275,69,89853,1,10,0:0:0:0:
461,193,90228,5,8,0:3:0:0:
455,226,90415,1,4,0:3:0:0:
449,259,90603,6,0,B|428:115,1,135,4|0,0:0|0:0,0:0:0:0:
350,126,90978,5,8,3:0:0:0:
318,156,91071,1,8,3:0:0:0:
310,200,91165,1,8,3:0:0:0:
330,239,91259,1,8,3:0:0:0:
370,260,91353,2,0,B|349:116,1,135,4|0,0:0|0:0,0:0:0:0:
268,123,91728,5,8,3:0:0:0:
236,153,91821,1,8,3:0:0:0:
228,197,91915,1,8,3:0:0:0:
248,237,92009,1,8,3:0:0:0:
288,257,92103,2,0,B|267:113,1,135,4|0,1:0|0:0,0:0:0:0:
315,55,92478,1,4,1:0:0:0:
254,302,92853,6,0,L|269:112,1,180,4|4,1:0|0:3,0:0:0:0:
235,51,93228,1,4,0:0:0:0:
