osu file format v14

[General]
AudioFilename: audio.mp3
AudioLeadIn: 0
PreviewTime: 54603
Countdown: 0
SampleSet: Soft
StackLeniency: 0.4
Mode: 0
LetterboxInBreaks: 0
WidescreenStoryboard: 0

[Editor]
Bookmarks: 18603
DistanceSpacing: 0.9
BeatDivisor: 2
GridSize: 8
TimelineZoom: 1

[Metadata]
Title:Mirai Puzzle
TitleUnicode:未来パズル
Artist:Chino (CV. Inori Minase)
ArtistUnicode:チノ(CV.水瀬いのり)
Creator:LeQuack
Version:Easy
Source:ご注文はうさぎですか??
Tags:gochuumon wa usagi desu ka is the order a rabbit cup of chino Akitoshi Left is cute
BeatmapID:1138411
BeatmapSetID:536219

[Difficulty]
HPDrainRate:2
CircleSize:3
OverallDifficulty:4
ApproachRate:4
SliderMultiplier:0.999999999999999
SliderTickRate:1

[Events]
//Background and Video events
0,0,"chino.png",0,0
//Break Periods
//Storyboard Layer 0 (Background)
//Storyboard Layer 1 (Fail)
//Storyboard Layer 2 (Pass)
//Storyboard Layer 3 (Foreground)
//Storyboard Sound Samples

[TimingPoints]
603,375,4,2,99,65,1,0
2103,-100,4,2,99,65,0,0
3603,-100,4,2,99,65,0,0
7728,-100,4,2,99,65,0,0
8103,-100,4,2,99,65,0,0
9603,-100,4,2,99,65,0,0
15603,-100,4,2,99,65,0,0
56853,-100,4,2,99,65,0,0
57603,-100,4,2,99,75,0,1
68853,-100,4,2,99,75,0,0
69603,-100,4,2,99,75,0,1
75603,-100,4,2,99,75,0,1
81603,-100,4,2,99,65,0,0
87603,-100,4,2,99,65,0,0

[Colours]
Combo1 : 128,0,128
Combo2 : 100,100,255
Combo3 : 255,0,255
Combo4 : 210,210,210

[HitObjects]
87,50,603,6,0,L|97:158,1,99.9999999999999,8|8,0:0|0:0,0:0:0:0:
179,184,1353,2,0,L|201:77,1,99.9999999999999,8|8,0:0|0:0,0:0:0:0:
280,47,2103,2,0,P|350:59|287:225,1,300,0|8,0:0|0:0,0:0:0:0:
303,135,3603,6,0,L|202:144,1,99.9999999999999,6|8,0:1|0:0,0:0:0:0:
122,184,4353,2,0,P|120:238|148:286,1,99.9999999999999,2|8,0:1|0:0,0:0:0:0:
226,304,5103,2,0,P|308:221|403:339,1,300,2|8,0:1|0:0,0:0:0:0:
316,312,6603,6,0,L|290:101,1,200,6|2,0:1|0:1,0:0:0:0:
224,53,7728,1,8,0:0:0:0:
143,93,8103,2,0,L|118:292,1,200,6|2,0:1|0:1,0:0:0:0:
189,347,9228,1,8,0:0:0:0:
255,286,9603,6,0,L|365:272,2,99.9999999999999,4|8|8,0:1|0:0|0:0,0:0:0:0:
341,128,11103,2,0,L|231:114,2,99.9999999999999,4|8|8,0:0|0:0|0:0,0:0:0:0:
440,279,12603,6,0,P|455:235|444:172,1,99.9999999999999,6|0,0:1|3:0,0:0:0:0:
381,124,13353,2,0,P|366:168|377:231,1,99.9999999999999,6|0,0:1|3:0,0:0:0:0:
302,276,14103,2,0,L|201:292,2,99.9999999999999,6|6|2,0:1|0:1|0:1,0:0:0:0:
387,304,15228,1,8,0:0:0:0:
446,236,15603,6,0,L|437:123,1,99.9999999999999,6|8,0:1|0:0,0:0:0:0:
358,95,16353,2,0,L|349:208,1,99.9999999999999,2|8,0:1|0:0,0:0:0:0:
280,251,17103,1,2,0:1:0:0:
194,222,17478,1,8,0:0:0:0:
104,234,17853,2,0,P|89:285|108:331,1,99.9999999999999,2|8,0:1|0:0,0:0:0:0:
194,338,18603,6,0,L|300:335,1,99.9999999999999,2|8,0:1|0:0,0:0:0:0:
367,283,19353,1,2,0:1:0:0:
448,321,19728,1,8,0:0:0:0:
475,235,20103,2,0,P|454:184|414:152,1,99.9999999999999,2|8,0:1|0:0,0:0:0:0:
351,97,20853,1,2,0:1:0:0:
273,142,21228,1,8,0:0:0:0:
186,118,21603,6,0,P|134:105|94:66,1,99.9999999999999,6|8,0:1|0:0,0:0:0:0:
17,38,22353,2,0,L|23:144,1,99.9999999999999,2|8,0:1|0:0,0:0:0:0:
81,206,23103,2,0,L|236:200,1,150,2|0,0:1|0:0,0:0:0:0:
318,180,24040,2,0,P|307:150|287:127,1,50,0|8,0:0|0:0,0:0:0:0:
207,116,24603,6,0,L|101:119,1,99.9999999999999,2|8,0:1|0:0,0:0:0:0:
44,183,25353,2,0,P|52:248|148:287,1,150,2|4,0:1|0:0,0:0:0:0:
254,282,26478,2,0,L|362:267,2,99.9999999999999,8|8|8,0:0|0:0|0:0,0:0:0:0:
164,294,27603,5,6,0:1:0:0:
97,233,27978,2,0,P|76:182|92:136,1,99.9999999999999,8|2,0:0|0:1,0:0:0:0:
150,75,28728,1,8,0:0:0:0:
233,109,29103,2,0,P|290:119|361:92,1,99.9999999999999,2|8,0:1|0:0,0:0:0:0:
409,63,29853,1,2,0:1:0:0:
405,153,30228,1,8,0:0:0:0:
377,238,30603,6,0,P|321:240|271:213,1,99.9999999999999,2|8,0:1|0:0,0:0:0:0:
198,187,31353,1,2,0:1:0:0:
116,225,31728,1,8,0:0:0:0:
151,307,32103,2,0,L|266:309,1,99.9999999999999,2|8,0:1|0:0,0:0:0:0:
330,266,32853,1,2,0:1:0:0:
412,301,33228,1,8,0:0:0:0:
455,221,33603,6,0,P|465:163|453:118,1,99.9999999999999,6|8,0:1|0:0,0:0:0:0:
370,94,34353,2,0,P|360:152|372:197,1,99.9999999999999,2|8,0:1|0:0,0:0:0:0:
326,272,35103,2,0,P|277:302|190:251,1,150,2|0,0:1|0:0,0:0:0:0:
135,203,36040,2,0,L|167:158,1,50,8|8,0:0|0:0,0:0:0:0:
231,102,36603,6,0,L|305:176,1,99.9999999999999,4|0,0:0|0:0,0:0:0:0:
386,143,37353,2,0,L|312:69,1,99.9999999999999,4|0,0:0|0:0,0:0:0:0:
231,102,38103,2,0,L|124:106,2,99.9999999999999,4|2|0,0:0|0:1|3:0,0:0:0:0:
290,169,39228,1,8,0:0:0:0:
301,258,39603,6,0,L|195:272,1,99.9999999999999,4|8,1:0|0:0,0:0:0:0:
45,181,40728,1,8,0:0:0:0:
45,91,41103,2,0,L|151:105,1,99.9999999999999,4|8,1:0|0:0,0:0:0:0:
323,89,42228,1,0,0:0:0:0:
410,65,42603,6,0,P|446:188|383:242,2,200,4|4|4,1:0|1:0|0:0,0:0:0:0:
323,89,44478,1,4,0:0:0:0:
233,89,44853,2,0,L|129:83,1,99.9999999999999,4|8,0:0|0:0,0:0:0:0:
57,131,45603,6,0,L|67:234,1,99.9999999999999,4|8,1:0|0:0,0:0:0:0:
229,306,46728,1,8,0:0:0:0:
310,267,47103,2,0,L|300:164,1,99.9999999999999,4|8,1:0|0:0,0:0:0:0:
154,62,48228,1,8,0:0:0:0:
66,80,48603,6,0,P|50:167|127:243,1,200,4|4,0:0|0:0,0:0:0:0:
299,276,50103,2,0,P|315:189|238:113,1,200,4|4,0:0|0:0,0:0:0:0:
62,115,51603,6,0,L|64:220,1,99.9999999999999,12|8,0:0|0:0,0:0:0:0:
151,237,52353,2,0,L|149:132,1,99.9999999999999,8|8,0:0|0:0,0:0:0:0:
214,74,53103,2,0,P|276:63|320:83,1,99.9999999999999,12|8,0:0|0:0,0:0:0:0:
359,150,53853,2,0,P|297:161|253:141,1,99.9999999999999,8|8,0:0|0:0,0:0:0:0:
173,155,54603,6,0,P|118:200|168:324,2,200,8|8|4,0:0|0:0|0:0,0:0:0:0:
327,246,56853,2,0,L|432:247,1,99.9999999999999,4|0,1:0|3:0,0:0:0:0:
430,156,57603,6,0,P|411:105|366:83,1,99.9999999999999,6|8,0:1|0:0,0:0:0:0:
293,126,58353,2,0,P|237:137|192:118,1,99.9999999999999,2|8,0:1|0:0,0:0:0:0:
112,95,59103,2,0,P|55:121|36:156,2,99.9999999999999,2|8|2,0:1|0:0|0:1,0:0:0:0:
193,56,60228,1,8,0:0:0:0:
209,144,60603,6,0,P|250:216|369:199,1,200,6|2,0:1|0:1,0:0:0:0:
300,140,61728,1,8,0:0:0:0:
242,70,62103,2,0,P|185:68|143:101,1,99.9999999999999,2|8,0:1|0:0,0:0:0:0:
154,181,62853,2,8,P|150:235|132:288,1,99.9999999999999,2|8,0:1|0:0,0:0:0:0:
49,261,63603,6,0,L|51:149,1,99.9999999999999,6|8,0:1|0:0,0:0:0:0:
91,80,64353,2,0,P|145:63|202:82,1,99.9999999999999,2|8,0:1|0:0,0:0:0:0:
274,55,65103,2,0,L|393:66,2,99.9999999999999,2|8|2,0:1|0:0|0:1,0:0:0:0:
185,37,66228,1,8,0:0:0:0:
100,66,66603,6,0,P|61:103|50:156,1,99.9999999999999,4|4,0:1|0:1,0:0:0:0:
139,149,67353,2,0,P|137:202|167:247,1,99.9999999999999,4|4,0:1|0:1,0:0:0:0:
250,241,68103,2,0,P|323:261|248:328,1,200,8|8,0:0|0:0,0:0:0:0:
181,310,69228,1,8,0:0:0:0:
96,278,69603,6,0,P|81:224|91:173,1,99.9999999999999,6|8,0:1|0:0,0:0:0:0:
163,131,70353,2,0,P|215:140|264:121,1,99.9999999999999,2|8,0:1|0:0,0:0:0:0:
336,79,71103,2,0,L|446:90,2,99.9999999999999,2|8|2,0:1|0:0|0:1,0:0:0:0:
254,39,72228,1,8,0:0:0:0:
170,73,72603,6,0,L|179:183,1,99.9999999999999,2|8,0:1|0:0,0:0:0:0:
263,145,73353,2,0,L|254:255,1,99.9999999999999,2|8,0:1|0:0,0:0:0:0:
169,272,74103,2,0,L|62:269,1,99.9999999999999,6|8,0:1|0:0,0:0:0:0:
110,189,74853,2,0,L|3:186,1,99.9999999999999,2|8,0:1|0:0,0:0:0:0:
46,104,75603,6,0,P|103:88|144:103,2,99.9999999999999,4|8|8,0:0|0:0|0:0,0:0:0:0:
203,190,77103,2,0,P|146:206|105:191,2,99.9999999999999,4|8|8,0:1|0:0|0:0,0:0:0:0:
339,71,78603,6,0,P|292:147|367:261,2,200,6|6|2,0:1|0:1|0:1,0:0:0:0:
425,95,80478,2,0,L|432:200,1,99.9999999999999,2|2,0:1|0:1,0:0:0:0:
416,283,81228,1,4,0:0:0:0:
329,306,81603,6,0,P|276:310|225:328,1,99.9999999999999,6|8,0:1|0:0,0:0:0:0:
141,317,82353,2,0,P|93:301|43:298,1,99.9999999999999,2|8,0:1|0:0,0:0:0:0:
63,210,83103,2,0,P|120:132|274:229,1,300,2|8,0:1|0:0,0:0:0:0:
324,284,84603,6,0,L|452:110,1,200,6|2,0:1|0:1,0:0:0:0:
363,78,85728,1,8,0:0:0:0:
279,112,86103,2,0,P|221:129|88:77,1,200,6|2,0:1|0:1,0:0:0:0:
17,35,87228,1,8,0:0:0:0:
12,124,87603,6,0,L|8:230,2,99.9999999999999,4|8|8,0:1|0:0|0:0,0:0:0:0:
188,161,89103,2,0,L|192:267,2,99.9999999999999,4|8|8,0:1|0:0|0:0,0:0:0:0:
333,54,90603,6,0,L|440:68,1,99.9999999999999,4|0,0:0|3:0,0:0:0:0:
422,156,91353,2,0,L|315:170,1,99.9999999999999,4|0,0:0|3:0,0:0:0:0:
245,214,92103,2,0,P|184:224|142:200,2,99.9999999999999,4|4|4,1:0|1:0|1:0,0:0:0:0:
322,168,93228,1,4,0:0:0:0:
