osu file format v14

[General]
AudioFilename: audio.mp3
AudioLeadIn: 0
PreviewTime: 54603
Countdown: 0
SampleSet: Soft
StackLeniency: 0.4
Mode: 0
LetterboxInBreaks: 0
WidescreenStoryboard: 1

[Editor]
Bookmarks: 18603
DistanceSpacing: 0.6
BeatDivisor: 4
GridSize: 8
TimelineZoom: 1

[Metadata]
Title:Mirai Puzzle
TitleUnicode:未来パズル
Artist:Chino (CV. Inori Minase)
ArtistUnicode:チノ(CV.水瀬いのり)
Creator:LeQuack
Version:Barista
Source:ご注文はうさぎですか??
Tags:gochuumon wa usagi desu ka is the order a rabbit cup of chino Akitoshi Left is cute
BeatmapID:1347936
BeatmapSetID:536219

[Difficulty]
HPDrainRate:6
CircleSize:4
OverallDifficulty:8.5
ApproachRate:9
SliderMultiplier:1.95
SliderTickRate:1

[Events]
//Background and Video events
0,0,"chino.png",0,0
//Break Periods
//Storyboard Layer 0 (Background)
//Storyboard Layer 1 (Fail)
//Storyboard Layer 2 (Pass)
//Storyboard Layer 3 (Foreground)
//Storyboard Sound Samples

[TimingPoints]
603,375,4,2,99,65,1,0
12978,-100,4,2,1,65,0,0
13353,-100,4,2,99,65,0,0
13728,-100,4,2,1,65,0,0
14103,-100,4,2,99,65,0,0
15603,-111.111111111111,4,2,99,65,0,0
36790,-111.111111111111,4,2,1,65,0,0
38665,-111.111111111111,4,2,99,65,0,0
42978,-111.111111111111,4,2,1,65,0,0
43353,-111.111111111111,4,2,99,65,0,0
43728,-111.111111111111,4,2,1,65,0,0
44103,-111.111111111111,4,2,99,65,0,0
48603,-90.9090909090909,4,2,99,65,0,0
48790,-90.9090909090909,4,2,99,5,0,0
48884,-90.9090909090909,4,2,99,65,0,0
49071,-90.9090909090909,4,2,99,5,0,0
49165,-90.9090909090909,4,2,99,65,0,0
49353,-83.3333333333333,4,2,99,65,0,0
49540,-83.3333333333333,4,2,99,5,0,0
49634,-83.3333333333333,4,2,99,65,0,0
49821,-83.3333333333333,4,2,99,5,0,0
49915,-83.3333333333333,4,2,99,65,0,0
50103,-76.9230769230769,4,2,99,65,0,0
50290,-76.9230769230769,4,2,99,5,0,0
50384,-76.9230769230769,4,2,99,65,0,0
50571,-76.9230769230769,4,2,99,5,0,0
50665,-76.9230769230769,4,2,99,65,0,0
50853,-71.4285714285714,4,2,99,65,0,0
51040,-71.4285714285714,4,2,99,5,0,0
51134,-71.4285714285714,4,2,99,65,0,0
51321,-71.4285714285714,4,2,99,5,0,0
51415,-71.4285714285714,4,2,99,65,0,0
56853,-111.111111111111,4,2,99,65,0,0
57228,-133.333333333333,4,2,1,65,0,0
57603,-100,4,2,99,75,0,1
68853,-100,4,2,99,75,0,0
69603,-100,4,2,99,75,0,1
78978,-100,4,2,1,75,0,1
79353,-100,4,2,99,75,0,1
79728,-100,4,2,1,75,0,1
80103,-100,4,2,99,75,0,1
81603,-100,4,2,99,65,0,0
90978,-100,4,2,1,65,0,0
91353,-100,4,2,99,65,0,0
91728,-100,4,2,1,65,0,0
92103,-100,4,2,99,65,0,0

[Colours]
Combo1 : 128,0,128
Combo2 : 100,100,255
Combo3 : 255,0,255
Combo4 : 210,210,210

[HitObjects]
300,94,603,5,8,0:0:0:0:
468,46,790,1,0,0:0:0:0:
318,191,978,1,8,0:0:0:0:
492,197,1165,1,0,0:0:0:0:
313,288,1353,1,8,0:0:0:0:
481,336,1540,1,0,0:0:0:0:
481,336,1634,1,8,0:0:0:0:
481,336,1728,1,8,0:0:0:0:
377,228,1915,1,4,0:3:0:0:
217,307,2103,5,0,0:0:0:0:
195,310,2196,1,0,0:0:0:0:
175,304,2290,1,4,0:3:0:0:
159,289,2384,1,0,0:0:0:0:
152,269,2478,1,0,0:0:0:0:
156,247,2571,1,0,0:0:0:0:
169,230,2665,1,4,0:3:0:0:
189,221,2759,1,0,0:0:0:0:
210,222,2853,6,0,L|221:174,1,48.75,2|0,0:3|0:0,0:0:0:0:
326,129,3040,2,0,L|315:177,1,48.75,0|0,0:0|0:0,0:0:0:0:
234,97,3228,2,0,L|245:49,1,48.75,8|0,0:0|0:0,0:0:0:0:
350,4,3415,2,0,L|339:52,1,48.75,0|0,0:0|0:0,0:0:0:0:
234,97,3603,6,0,L|125:102,1,97.5,6|0,0:1|0:0,0:0:0:0:
315,176,3978,2,0,L|414:185,1,97.5,8|0,0:0|0:0,0:0:0:0:
272,340,4353,1,2,0:1:0:0:
236,182,4540,1,0,0:0:0:0:
379,272,4728,1,8,0:0:0:0:
191,274,4915,1,0,0:0:0:0:
296,56,5103,5,2,0:1:0:0:
326,224,5290,2,0,L|424:225,1,97.5,0|8,0:0|0:0,0:0:0:0:
236,182,5665,2,0,P|228:233|242:275,1,97.5,0|2,0:0|0:1,0:0:0:0:
331,341,6040,1,0,0:0:0:0:
326,224,6228,1,8,0:0:0:0:
197,347,6415,1,0,0:0:0:0:
61,215,6603,6,0,P|40:125|126:76,1,195,6|8,0:1|0:0,0:0:0:0:
299,64,7165,1,0,0:0:0:0:
299,64,7259,1,0,0:0:0:0:
299,64,7353,2,0,L|396:68,1,97.5,2|0,0:1|0:0,0:0:0:0:
208,149,7728,2,0,L|109:154,1,97.5,8|0,0:0|0:0,0:0:0:0:
348,270,8103,6,0,P|373:227|505:236,1,195,6|8,0:1|0:0,0:0:0:0:
313,124,8665,1,0,0:0:0:0:
313,124,8759,1,0,0:0:0:0:
313,124,8853,2,0,P|304:72|328:28,1,97.5,2|0,0:1|0:0,0:0:0:0:
199,77,9228,1,8,0:0:0:0:
155,77,9321,1,8,0:3:0:0:
111,77,9415,1,4,0:3:0:0:
175,229,9603,6,0,P|230:207|281:215,1,97.5,4|0,0:1|0:0,0:0:0:0:
348,270,9884,1,2,0:0:0:0:
348,270,9978,1,10,0:0:0:0:
241,323,10165,1,10,0:0:0:0:
229,73,10353,1,10,0:0:0:0:
229,73,10728,1,4,0:3:0:0:
231,83,10821,1,0,0:0:0:0:
231,94,10915,1,0,0:0:0:0:
231,105,11009,1,0,0:0:0:0:
229,116,11103,6,0,P|176:129|126:116,1,97.5,4|0,0:0|0:0,0:0:0:0:
73,58,11384,1,2,0:0:0:0:
73,58,11478,1,10,0:0:0:0:
68,184,11665,1,10,0:0:0:0:
306,159,11853,1,10,0:0:0:0:
306,159,12229,5,8,0:3:0:0:
303,169,12322,1,0,0:0:0:0:
302,180,12416,1,4,0:3:0:0:
302,191,12510,1,0,0:0:0:0:
304,202,12603,6,0,P|312:250|295:297,1,97.5,6|0,0:1|0:0,0:0:0:0:
435,217,12978,1,8,3:0:0:0:
435,184,13071,1,8,3:0:0:0:
436,151,13165,1,8,3:0:0:0:
437,118,13259,1,8,0:1:0:0:
437,85,13353,2,0,P|391:73|341:82,1,97.5,6|0,0:1|0:0,0:0:0:0:
222,138,13728,1,8,3:0:0:0:
192,151,13821,1,8,3:0:0:0:
159,155,13915,1,8,3:0:0:0:
127,149,14009,1,8,3:0:0:0:
98,134,14103,5,6,0:1:0:0:
98,134,14478,1,6,0:1:0:0:
98,134,14853,1,2,0:1:0:0:
166,53,15040,1,2,0:1:0:0:
104,220,15228,1,2,0:1:0:0:
2,73,15415,1,0,0:0:0:0:
202,152,15603,5,6,0:1:0:0:
29,210,15790,2,0,P|39:260|153:278,1,175.499994644165,0|0,0:0|0:0,0:0:0:0:
253,248,16353,1,2,0:1:0:0:
104,220,16540,1,0,0:0:0:0:
203,348,16728,1,8,0:0:0:0:
286,174,16915,6,0,L|465:182,1,175.499994644165,0|0,0:0|0:0,0:0:0:0:
471,276,17478,1,8,0:0:0:0:
390,346,17665,1,0,0:0:0:0:
291,258,17853,2,0,P|278:211|287:171,1,87.7499973220826,2|0,0:1|0:0,0:0:0:0:
384,261,18228,2,0,P|397:308|388:348,1,87.7499973220826,8|0,0:0|0:0,0:0:0:0:
179,348,18603,6,0,L|177:169,1,175.499994644165,2|8,0:1|0:0,0:0:0:0:
228,82,19165,1,0,0:0:0:0:
324,163,19353,2,0,L|419:171,1,87.7499973220826,2|0,0:1|0:0,0:0:0:0:
426,37,19728,2,0,L|331:45,1,87.7499973220826,8|0,0:0|0:0,0:0:0:0:
177,172,20103,6,0,P|242:208|326:161,1,175.499994644165,2|8,0:1|0:0,0:0:0:0:
248,117,20665,1,0,0:0:0:0:
215,278,20853,2,0,P|210:315|231:369,1,87.7499973220826,2|0,0:1|0:0,0:0:0:0:
308,308,21228,1,8,0:0:0:0:
122,193,21415,1,8,0:0:0:0:
309,108,21603,6,0,L|405:114,1,87.7499973220826,6|0,0:1|0:0,0:0:0:0:
210,190,21978,2,0,L|119:194,1,87.7499973220826,8|0,0:0|0:0,0:0:0:0:
309,272,22353,2,0,L|398:277,1,87.7499973220826,2|0,0:1|0:0,0:0:0:0:
210,354,22728,2,0,L|117:358,1,87.7499973220826,8|0,0:0|0:0,0:0:0:0:
40,89,23103,6,0,L|216:92,1,175.499994644165,2|8,0:1|0:0,0:0:0:0:
184,233,23665,2,0,L|-3:237,1,175.499994644165,0|0,0:0|0:0,0:0:0:0:
266,169,24228,1,8,0:0:0:0:
266,169,24603,6,0,P|299:126|272:11,1,175.499994644165,2|8,0:1|0:0,0:0:0:0:
215,91,25165,1,0,0:0:0:0:
222,234,25353,2,0,P|263:250|320:224,1,87.7499973220826,2|0,0:1|0:0,0:0:0:0:
434,75,25728,1,8,0:0:0:0:
413,285,25915,5,4,0:0:0:0:
413,285,26290,1,0,0:0:0:0:
163,236,26478,1,8,0:0:0:0:
358,228,26665,1,0,0:0:0:0:
122,305,26853,1,8,0:0:0:0:
276,256,27040,1,2,0:0:0:0:
277,223,27134,1,2,0:0:0:0:
268,191,27228,1,8,0:0:0:0:
191,116,27415,1,0,0:0:0:0:
182,352,27603,5,6,0:1:0:0:
276,256,27790,2,0,P|303:238|366:234,1,87.7499973220826,0|8,0:0|0:0,0:0:0:0:
342,330,28165,1,0,0:0:0:0:
432,180,28353,2,0,P|400:151|358:140,1,87.7499973220826,2|0,0:1|0:0,0:0:0:0:
434,285,28728,1,8,0:0:0:0:
226,341,28915,6,0,P|184:290|211:181,1,175.499994644165,0|0,0:0|0:0,0:0:0:0:
276,256,29478,1,8,0:0:0:0:
276,256,29665,1,0,0:0:0:0:
112,321,29853,1,2,0:1:0:0:
203,188,30040,1,0,0:0:0:0:
313,330,30228,2,0,L|218:342,1,87.7499973220826,8|0,0:0|0:0,0:0:0:0:
133,74,30603,6,0,L|310:74,1,175.499994644165,2|8,0:1|0:0,0:0:0:0:
431,108,31165,1,0,0:0:0:0:
349,189,31353,2,0,P|343:236|360:285,1,87.7499973220826,2|0,0:1|0:0,0:0:0:0:
449,312,31728,2,0,P|455:265|438:216,1,87.7499973220826,8|0,0:0|0:0,0:0:0:0:
251,298,32103,6,0,P|165:312|96:225,1,175.499994644165,2|8,0:1|0:0,0:0:0:0:
69,120,32665,1,0,0:0:0:0:
207,133,32853,2,0,P|209:177|192:216,1,87.7499973220826,2|0,0:1|0:0,0:0:0:0:
64,347,33228,1,8,0:0:0:0:
64,347,33415,1,8,0:0:0:0:
286,223,33603,6,0,P|312:242|334:297,1,87.7499973220826,6|0,0:1|0:0,0:0:0:0:
192,216,33978,2,0,P|165:196|144:142,1,87.7499973220826,8|0,0:0|0:0,0:0:0:0:
252,297,34353,2,0,P|256:329|233:383,1,87.7499973220826,2|0,0:1|0:0,0:0:0:0:
226,142,34728,2,0,P|221:109|244:55,1,87.7499973220826,8|0,0:0|0:0,0:0:0:0:
175,324,35103,6,0,P|123:318|63:217,1,175.499994644165,0|8,0:1|0:0,0:0:0:0:
160,226,35665,1,0,0:0:0:0:
160,226,36040,5,8,0:0:0:0:
290,174,36228,1,8,0:0:0:0:
180,88,36415,1,0,3:0:0:0:
290,332,36602,5,4,0:0:0:0:
290,174,36790,1,8,0:1:0:0:
290,142,36884,1,8,0:1:0:0:
290,109,36978,1,8,0:1:0:0:
180,88,37353,5,4,0:0:0:0:
180,246,37541,1,8,0:1:0:0:
180,278,37635,1,8,0:1:0:0:
180,311,37729,1,8,0:1:0:0:
242,33,38103,5,4,0:0:0:0:
318,170,38291,1,8,0:1:0:0:
354,178,38384,1,8,0:1:0:0:
391,177,38478,1,8,0:1:0:0:
473,129,38665,5,0,0:0:0:0:
455,284,38853,1,8,3:2:0:0:
419,288,38946,1,8,3:0:0:0:
383,284,39040,1,8,3:0:0:0:
265,273,39228,1,8,0:0:0:0:
175,114,39415,1,0,3:0:0:0:
166,154,39508,1,0,3:0:0:0:
171,195,39602,5,4,1:0:0:0:
332,73,39790,1,8,0:0:0:0:
265,273,39978,1,8,0:0:0:0:
282,162,40165,1,0,0:0:0:0:
171,195,40353,2,0,P|126:207|38:128,1,175.499994644165,0|8,0:0|0:0,0:0:0:0:
38,102,40821,1,8,0:3:0:0:
45,76,40915,1,8,0:3:0:0:
205,28,41103,5,4,1:0:0:0:
38,128,41290,1,8,0:0:0:0:
240,117,41478,1,8,0:0:0:0:
123,122,41665,1,0,0:0:0:0:
256,193,41853,2,0,P|314:138|284:54,1,175.499994644165,0|8,0:0|0:0,0:0:0:0:
263,43,42322,1,4,0:3:0:0:
236,41,42415,1,4,0:3:0:0:
123,122,42603,5,4,1:0:0:0:
367,196,42978,1,8,3:0:0:0:
371,228,43071,1,8,3:0:0:0:
363,260,43165,1,8,3:0:0:0:
345,287,43259,1,8,3:0:0:0:
318,305,43353,5,4,1:0:0:0:
73,157,43728,1,8,3:0:0:0:
105,157,43821,1,8,3:0:0:0:
138,158,43915,1,8,3:0:0:0:
171,159,44009,1,8,3:0:0:0:
204,160,44103,5,4,0:0:0:0:
429,342,44478,1,4,0:0:0:0:
474,56,44853,1,4,0:0:0:0:
326,172,45040,1,0,0:0:0:0:
466,291,45228,1,8,0:0:0:0:
453,321,45321,1,8,0:3:0:0:
428,341,45415,1,4,0:3:0:0:
185,256,45603,5,4,1:0:0:0:
387,269,45790,1,8,0:0:0:0:
187,368,45978,1,8,0:0:0:0:
284,310,46165,1,0,0:0:0:0:
231,190,46353,2,0,P|145:187|110:283,1,175.499994644165,0|8,0:0|0:0,0:0:0:0:
110,283,46822,1,8,0:3:0:0:
123,305,46915,1,8,0:3:0:0:
284,310,47103,5,4,1:0:0:0:
233,105,47290,1,8,0:0:0:0:
187,368,47478,1,8,0:0:0:0:
105,257,47665,1,0,0:0:0:0:
231,190,47853,2,0,B|316:161|316:231|416:185,1,175.499994644165,0|8,0:0|0:0,0:0:0:0:
423,176,48322,1,4,0:3:0:0:
431,151,48415,1,4,0:3:0:0:
192,118,48603,6,0,P|151:170|159:231,1,107.25000327301,4|0,0:1|0:0,0:0:0:0:
164,237,48884,2,0,L|36:236,1,107.25000327301,8|0,0:3|0:0,0:0:0:0:
26,236,49165,1,4,0:3:0:0:
231,190,49353,6,0,B|293:189|293:189|351:165,1,116.999996429443,4|0,0:1|0:0,0:0:0:0:
378,101,49634,2,0,P|389:171|434:207,1,116.999996429443,8|0,0:3|0:0,0:0:0:0:
459,125,49915,1,4,0:3:0:0:
258,53,50103,6,0,B|125:53,1,126.749994197846,4|0,0:1|0:0,0:0:0:0:
38,45,50384,2,0,P|61:108|27:184,1,126.749994197846,8|0,0:3|0:0,0:0:0:0:
10,241,50665,1,4,0:3:0:0:
136,302,50853,6,0,P|200:283|273:302,1,136.499995834351,4|0,0:1|0:0,0:0:0:0:
357,312,51134,2,0,L|377:172,1,136.499995834351,8|0,0:3|0:0,0:0:0:0:
295,99,51415,1,4,0:3:0:0:
357,312,51603,5,12,0:0:0:0:
455,163,51790,1,0,0:0:0:0:
433,349,51978,1,8,0:0:0:0:
401,103,52165,1,0,0:0:0:0:
493,286,52353,5,8,0:0:0:0:
331,229,52540,1,0,0:0:0:0:
455,163,52728,1,8,0:0:0:0:
418,266,52915,1,0,0:0:0:0:
346,41,53103,5,12,0:0:0:0:
376,176,53290,1,0,0:0:0:0:
458,25,53478,1,8,0:0:0:0:
418,266,53665,1,0,0:0:0:0:
306,120,53853,5,8,0:0:0:0:
476,103,54040,1,0,0:0:0:0:
376,176,54228,1,8,0:0:0:0:
346,41,54415,1,0,0:0:0:0:
294,278,54603,5,8,0:0:0:0:
476,103,54790,1,0,0:0:0:0:
197,103,54978,1,8,0:0:0:0:
395,350,55165,1,0,0:0:0:0:
346,41,55353,1,8,0:0:0:0:
234,347,55540,1,4,0:3:0:0:
492,194,55728,1,8,0:0:0:0:
171,234,55915,1,0,0:0:0:0:
506,351,56103,5,4,0:0:0:0:
506,351,56853,2,0,P|470:322|448:279,1,87.7499973220826,4|0,1:0|0:0,0:0:0:0:
373,39,57228,1,8,3:0:0:0:
372,88,57321,1,8,3:0:0:0:
372,137,57415,1,8,3:0:0:0:
371,186,57509,1,8,3:0:0:0:
371,235,57603,6,0,P|331:255|279:254,1,97.5,6|0,0:1|0:0,0:0:0:0:
141,184,57978,2,0,P|183:171|234:181,1,97.5,8|0,0:0|0:0,0:0:0:0:
322,332,58353,1,2,0:1:0:0:
191,269,58540,1,0,0:0:0:0:
307,160,58728,1,8,0:0:0:0:
233,345,58915,1,0,0:0:0:0:
141,184,59103,6,0,L|42:188,1,97.5,2|0,0:1|0:0,0:0:0:0:
145,341,59478,2,0,L|244:345,1,97.5,8|0,0:0|0:0,0:0:0:0:
338,233,59853,1,2,0:1:0:0:
251,96,60040,1,0,0:0:0:0:
141,184,60228,2,0,P|138:235|166:273,1,97.5,8|0,0:0|0:0,0:0:0:0:
251,96,60603,6,0,L|48:91,1,195,6|8,0:1|0:0,0:0:0:0:
53,226,61165,1,0,0:0:0:0:
224,319,61353,2,0,P|242:272|215:215,1,97.5,2|0,0:1|0:0,0:0:0:0:
383,211,61728,2,0,P|365:258|392:315,1,97.5,8|0,0:0|0:0,0:0:0:0:
406,88,62103,6,0,L|301:89,1,97.5,2|0,0:1|0:0,0:0:0:0:
228,228,62478,1,8,0:0:0:0:
378,301,62665,1,0,0:0:0:0:
248,130,62853,2,0,P|235:76|267:30,1,97.5,2|0,0:1|0:0,0:0:0:0:
336,364,63228,1,8,0:0:0:0:
336,364,63415,1,8,0:0:0:0:
272,210,63603,5,6,0:1:0:0:
175,308,63790,1,0,0:0:0:0:
202,152,63978,1,8,0:0:0:0:
263,336,64165,1,0,0:0:0:0:
276,134,64353,5,2,0:1:0:0:
196,384,64540,1,0,0:0:0:0:
220,81,64728,1,8,0:0:0:0:
263,336,64915,1,0,0:0:0:0:
85,211,65103,5,2,0:1:0:0:
345,234,65290,1,0,0:0:0:0:
126,331,65478,1,8,0:0:0:0:
293,58,65665,1,0,0:0:0:0:
360,334,65853,2,0,L|253:336,1,97.5,2|0,0:1|0:0,0:0:0:0:
112,140,66228,2,0,P|110:192|140:237,1,97.5,8|0,0:0|0:0,0:0:0:0:
365,168,66603,5,4,0:1:0:0:
112,140,66790,1,0,0:0:0:0:
405,186,66978,1,4,0:1:0:0:
107,165,67165,1,0,0:0:0:0:
448,163,67353,1,4,0:1:0:0:
111,196,67540,1,0,0:0:0:0:
465,118,67728,1,4,0:1:0:0:
132,230,67915,1,0,0:0:0:0:
147,43,68103,5,8,0:0:0:0:
230,194,68290,1,0,0:0:0:0:
147,35,68478,1,8,0:0:0:0:
132,230,68665,1,0,0:0:0:0:
147,27,68853,1,8,0:0:0:0:
230,194,69040,1,4,0:3:0:0:
272,201,69133,1,4,0:3:0:0:
315,194,69227,1,8,0:0:0:0:
316,91,69415,1,0,0:0:0:0:
351,296,69603,6,0,L|452:289,1,97.5,6|0,0:1|0:0,0:0:0:0:
413,96,69978,2,0,L|310:90,1,97.5,8|0,0:0|0:0,0:0:0:0:
161,130,70353,1,2,0:1:0:0:
356,198,70540,1,0,0:0:0:0:
248,21,70728,1,8,0:0:0:0:
246,250,70915,1,0,0:0:0:0:
84,112,71103,6,0,P|109:71|153:53,1,97.5,2|0,0:1|0:0,0:0:0:0:
246,250,71478,2,0,L|146:241,1,97.5,8|0,0:0|0:0,0:0:0:0:
161,130,71853,1,2,0:1:0:0:
325,251,72040,1,0,0:0:0:0:
245,56,72228,1,8,0:0:0:0:
187,324,72415,1,0,0:0:0:0:
313,10,72603,6,0,P|327:60|311:107,1,97.5,2|0,0:1|0:0,0:0:0:0:
246,250,72978,2,0,P|232:200|248:153,1,97.5,8|0,0:0|0:0,0:0:0:0:
326,26,73353,2,0,P|340:76|324:123,1,97.5,2|0,0:1|0:0,0:0:0:0:
259,266,73728,2,0,P|245:216|261:169,1,97.5,8|0,0:0|0:0,0:0:0:0:
422,162,74103,5,6,0:1:0:0:
436,184,74197,1,0,0:0:0:0:
440,209,74290,1,0,0:0:0:0:
360,342,74478,1,8,0:0:0:0:
346,320,74572,1,0,0:0:0:0:
342,295,74665,1,0,0:0:0:0:
268,205,74853,6,0,P|220:196|166:217,1,97.5,2|0,0:1|0:0,0:0:0:0:
55,251,75228,1,8,0:0:0:0:
53,294,75321,1,8,0:3:0:0:
68,335,75415,1,4,0:3:0:0:
227,291,75603,6,0,P|258:241|268:203,1,97.5,4|0,0:0|0:0,0:0:0:0:
256,80,75884,1,0,0:0:0:0:
256,80,75978,1,8,0:0:0:0:
145,141,76165,1,8,0:0:0:0:
401,127,76353,1,8,0:0:0:0:
401,127,76728,5,0,0:0:0:0:
403,137,76821,1,0,0:0:0:0:
403,148,76915,1,0,0:0:0:0:
403,159,77009,1,0,0:0:0:0:
400,169,77103,6,0,P|391:222|411:263,1,97.5,4|0,0:1|0:0,0:0:0:0:
476,321,77384,1,0,0:0:0:0:
476,320,77478,1,8,0:0:0:0:
471,206,77665,1,8,0:0:0:0:
267,204,77853,1,8,0:0:0:0:
267,204,78228,5,8,0:3:0:0:
265,214,78321,1,0,0:0:0:0:
264,225,78415,1,4,0:3:0:0:
263,236,78509,1,0,0:0:0:0:
264,247,78603,5,6,0:1:0:0:
286,83,78978,1,8,3:0:0:0:
253,82,79071,1,8,3:0:0:0:
220,82,79165,1,8,3:0:0:0:
187,82,79259,1,8,3:0:0:0:
154,82,79353,5,6,0:1:0:0:
278,311,79728,1,8,3:0:0:0:
310,310,79821,1,8,3:0:0:0:
343,310,79915,1,8,3:0:0:0:
376,310,80009,1,8,3:0:0:0:
409,310,80103,5,2,0:1:0:0:
409,310,80478,1,2,0:1:0:0:
409,310,80853,1,2,0:1:0:0:
409,310,81228,2,0,P|397:263|405:212,1,97.5,4|0,0:0|0:0,0:0:0:0:
460,102,81603,6,0,L|360:97,1,97.5,6|0,0:1|0:0,0:0:0:0:
227,181,81978,2,0,L|327:176,1,97.5,8|0,0:0|0:0,0:0:0:0:
475,179,82353,1,2,0:1:0:0:
281,98,82540,1,0,0:0:0:0:
312,248,82728,1,8,0:0:0:0:
460,102,82915,1,0,0:0:0:0:
381,273,83103,6,0,P|381:321|407:369,1,97.5,2|0,0:1|0:0,0:0:0:0:
476,297,83478,1,8,0:0:0:0:
307,331,83665,2,0,L|206:317,1,97.5,0|2,0:0|0:1,0:0:0:0:
140,194,84040,1,0,0:0:0:0:
238,230,84228,1,8,0:0:0:0:
130,305,84415,1,0,0:0:0:0:
63,134,84603,6,0,P|150:95|231:159,1,195,6|8,0:1|0:0,0:0:0:0:
399,62,85165,1,0,0:0:0:0:
399,62,85259,1,0,0:0:0:0:
399,62,85353,2,0,L|296:67,1,97.5,2|0,0:1|0:0,0:0:0:0:
385,165,85728,2,0,L|488:170,1,97.5,8|0,0:0|0:0,0:0:0:0:
315,339,86103,6,0,B|295:285|295:285|305:214|305:214|279:146,1,195,6|8,0:1|0:0,0:0:0:0:
128,222,86665,1,0,0:0:0:0:
128,222,86759,1,0,0:0:0:0:
128,222,86853,2,0,L|232:220,1,97.5,2|0,0:1|0:0,0:0:0:0:
385,165,87228,1,8,0:0:0:0:
394,122,87321,1,8,0:3:0:0:
382,81,87415,1,4,0:3:0:0:
131,78,87603,6,0,P|151:118|211:154,1,97.5,4|2,0:1|0:0,0:0:0:0:
295,127,87884,1,2,0:0:0:0:
295,127,87978,1,10,0:0:0:0:
248,39,88165,1,8,0:0:0:0:
243,267,88353,1,10,0:0:0:0:
243,267,88728,1,4,0:3:0:0:
253,268,88821,1,0,0:0:0:0:
264,268,88915,1,0,0:0:0:0:
275,268,89009,1,0,0:0:0:0:
286,267,89103,6,0,P|330:263|380:191,1,97.5,4|2,0:1|0:0,0:0:0:0:
394,137,89384,1,2,0:0:0:0:
394,137,89478,1,10,0:0:0:0:
295,127,89665,1,10,0:0:0:0:
371,338,89853,1,10,0:0:0:0:
371,338,90228,1,8,0:3:0:0:
381,338,90321,1,0,0:0:0:0:
392,338,90415,1,4,0:3:0:0:
403,338,90509,1,0,0:0:0:0:
414,338,90603,5,4,0:0:0:0:
208,239,90979,1,8,3:0:0:0:
191,210,91072,1,8,3:0:0:0:
182,179,91166,1,8,3:0:0:0:
181,146,91260,1,8,3:0:0:0:
188,114,91354,5,4,0:0:0:0:
294,337,91728,1,8,3:0:0:0:
261,337,91821,1,8,3:0:0:0:
228,337,91915,1,8,3:0:0:0:
195,337,92009,1,8,3:0:0:0:
162,337,92103,5,4,1:0:0:0:
162,337,92478,1,4,1:0:0:0:
162,337,92853,1,4,1:0:0:0:
188,114,93040,1,4,0:3:0:0:
294,337,93228,1,4,0:0:0:0:
