osu file format v14

[General]
AudioFilename: audio.mp3
AudioLeadIn: 0
PreviewTime: 54603
Countdown: 0
SampleSet: Soft
StackLeniency: 0.4
Mode: 0
LetterboxInBreaks: 0
WidescreenStoryboard: 0

[Editor]
Bookmarks: 18603,93228
DistanceSpacing: 1
BeatDivisor: 4
GridSize: 8
TimelineZoom: 1

[Metadata]
Title:Mirai Puzzle
TitleUnicode:未来パズル
Artist:Chino (CV. Inori Minase)
ArtistUnicode:チノ(CV.水瀬いのり)
Creator:LeQuack
Version:Akitoshi's Normal
Source:ご注文はうさぎですか??
Tags:gochuumon wa usagi desu ka is the order a rabbit cup of chino Akitoshi Left is cute
BeatmapID:1151255
BeatmapSetID:536219

[Difficulty]
HPDrainRate:4
CircleSize:3.3
OverallDifficulty:4
ApproachRate:5
SliderMultiplier:1.1
SliderTickRate:1

[Events]
//Background and Video events
0,0,"chino.png",0,0
//Break Periods
//Storyboard Layer 0 (Background)
//Storyboard Layer 1 (Fail)
//Storyboard Layer 2 (Pass)
//Storyboard Layer 3 (Foreground)
//Storyboard Sound Samples

[TimingPoints]
603,375,4,2,99,65,1,0
2103,-100,4,2,99,65,0,0
3603,-100,4,2,99,65,0,0
7728,-100,4,2,99,65,0,0
8103,-100,4,2,99,65,0,0
9603,-100,4,2,99,65,0,0
15603,-100,4,2,99,65,0,0
56853,-100,4,2,99,65,0,0
57603,-100,4,2,99,75,0,1
68853,-100,4,2,99,75,0,0
69603,-100,4,2,99,75,0,1
75603,-100,4,2,99,75,0,1
81603,-100,4,2,99,65,0,0
87603,-100,4,2,99,65,0,0

[Colours]
Combo1 : 128,0,128
Combo2 : 100,100,255
Combo3 : 255,0,255
Combo4 : 210,210,210

[HitObjects]
12,50,603,6,0,L|129:45,1,110,8|8,0:0|0:0,0:0:0:0:
231,34,1353,2,0,P|247:78|241:145,1,110,8|8,0:0|0:0,0:0:0:0:
210,184,1915,1,4,0:3:0:0:
210,184,2103,6,0,L|220:300,1,110,0|0,0:0|0:0,0:0:0:0:
225,348,2665,2,0,P|287:361|348:339,1,110,4|2,0:3|0:3,0:0:0:0:
378,320,3228,1,8,0:0:0:0:
436,227,3603,6,0,B|441:170|441:170|421:103,1,110,6|8,0:1|0:0,0:0:0:0:
337,54,4353,2,0,L|267:56,1,55,2|0,0:1|0:0,0:0:0:0:
243,94,4728,2,0,L|173:96,1,55,8|0,0:0|0:0,0:0:0:0:
149,134,5103,2,0,P|131:181|151:252,1,110,2|8,0:1|0:0,0:0:0:0:
172,283,5665,1,0,0:0:0:0:
275,319,6040,2,0,L|273:381,2,55,0|8|0,0:0|0:0|0:0,0:0:0:0:
299,269,6603,6,0,B|353:261|353:261|417:266,1,110,6|8,0:1|0:0,0:0:0:0:
467,276,7165,1,0,0:0:0:0:
467,276,7353,2,0,P|483:232|470:172,1,110,2|8,0:1|0:0,0:0:0:0:
397,88,8103,2,0,L|282:92,1,110,6|8,0:1|0:0,0:0:0:0:
236,99,8665,1,0,0:0:0:0:
236,99,8853,2,0,B|226:156|226:156|241:229,1,110,2|8,0:1|0:0,0:0:0:0:
254,315,9603,6,0,P|204:334|141:327,1,110,4|8,0:1|0:0,0:0:0:0:
45,290,10353,1,8,0:0:0:0:
0,189,10728,1,4,0:3:0:0:
45,88,11103,2,0,L|165:79,1,110,4|8,0:0|0:0,0:0:0:0:
264,72,11853,1,8,0:0:0:0:
350,139,12228,2,0,P|356:169|356:196,1,55,8|4,0:3|0:3,0:0:0:0:
351,247,12603,6,0,P|397:278|451:282,1,110,6|0,0:1|3:0,0:0:0:0:
506,187,13353,2,0,P|510:132|487:83,1,110,6|0,0:1|3:0,0:0:0:0:
395,22,14103,1,6,0:1:0:0:
286,37,14478,1,6,0:1:0:0:
234,134,14853,2,0,L|164:136,1,55,2|2,0:1|0:1,0:0:0:0:
140,174,15228,2,0,L|70:176,1,55,8|0,0:0|0:0,0:0:0:0:
46,214,15603,6,0,P|36:270|67:330,1,110,6|8,0:1|0:0,0:0:0:0:
158,357,16353,2,0,L|280:352,1,110,2|8,0:1|0:0,0:0:0:0:
326,349,16915,1,0,0:0:0:0:
326,349,17103,2,0,B|329:293|329:293|317:230,1,110,2|8,0:1|0:0,0:0:0:0:
285,135,17853,2,0,P|338:131|400:165,1,110,2|8,0:1|0:0,0:0:0:0:
432,195,18415,1,0,0:0:0:0:
432,195,18603,6,0,L|426:321,2,110,2|8|2,0:1|0:0|0:1,0:0:0:0:
439,84,19728,1,8,0:0:0:0:
342,30,20103,2,0,P|292:25|228:57,2,110,2|8|2,0:1|0:0|0:1,0:0:0:0:
306,134,21228,2,0,L|308:202,1,55,8|8,0:0|0:0,0:0:0:0:
304,244,21603,6,0,B|247:251|247:251|182:235,2,110,6|8|2,0:1|0:0|0:1,0:0:0:0:
411,220,22728,1,8,0:0:0:0:
473,129,23103,2,0,P|446:75|400:44,1,110,2|8,0:1|0:0,0:0:0:0:
352,52,23665,2,0,B|299:60|299:60|239:49,1,110,0|0,0:0|0:0,0:0:0:0:
189,37,24228,1,8,0:0:0:0:
108,112,24603,6,0,L|112:225,1,110,2|8,0:1|0:0,0:0:0:0:
172,313,25353,2,0,L|171:378,2,55,2|0|8,0:1|0:0|0:0,0:0:0:0:
210,274,25915,2,0,P|260:256|323:269,1,110,4|0,0:0|0:0,0:0:0:0:
362,293,26478,1,8,0:0:0:0:
470,277,26853,2,0,L|467:210,1,55,8|0,0:0|0:0,0:0:0:0:
428,183,27228,2,0,L|425:116,1,55,8|0,0:0|0:0,0:0:0:0:
386,89,27603,6,0,P|332:71|272:80,1,110,6|8,0:1|0:0,0:0:0:0:
191,142,28353,2,0,L|193:196,2,55,2|0|8,0:1|0:0|0:0,0:0:0:0:
180,88,28915,2,0,B|120:77|120:77|50:94,1,110,0|0,0:0|0:0,0:0:0:0:
20,108,29478,1,8,0:0:0:0:
2,216,29853,2,0,P|8:274|51:328,1,110,2|8,0:1|0:0,0:0:0:0:
82,354,30415,1,0,0:0:0:0:
82,354,30603,6,0,L|203:347,2,110,2|8|2,0:1|0:0|0:1,0:0:0:0:
6,276,31728,1,8,0:0:0:0:
100,225,32103,2,0,P|118:173|110:120,2,110,2|8|2,0:1|0:0|0:1,0:0:0:0:
9,164,33228,2,0,L|9:100,1,55,8|8,0:0|0:0,0:0:0:0:
22,55,33603,6,0,P|61:21|132:15,2,110,6|8|2,0:1|0:0|0:1,0:0:0:0:
110,120,34728,1,8,0:0:0:0:
192,193,35103,2,0,L|308:187,1,110,2|8,0:1|0:0,0:0:0:0:
356,184,35665,2,0,P|379:230|375:303,1,110,0|8,0:0|0:0,0:0:0:0:
352,335,36228,2,0,L|275:333,1,55,8|0,0:0|3:0,0:0:0:0:
249,305,36603,6,0,L|132:302,1,110,4|0,0:0|0:0,0:0:0:0:
93,202,37353,2,0,L|210:199,1,110,4|0,0:0|0:0,0:0:0:0:
312,194,38103,2,0,B|321:140|321:140|311:76,1,110,4|2,0:0|0:1,0:0:0:0:
203,90,38853,2,0,B|194:144|194:144|204:208,1,110,0|8,3:0|0:0,0:0:0:0:
259,292,39603,6,0,L|264:348,2,55,4|8|8,1:0|0:0|0:0,0:0:0:0:
100,139,40728,1,8,0:0:0:0:
32,226,41103,2,0,L|27:282,2,55,4|8|8,1:0|0:0|0:0,0:0:0:0:
172,56,42228,1,0,0:0:0:0:
264,115,42603,6,0,B|320:122|320:122|378:114,1,110,4|0,1:0|3:0,0:0:0:0:
465,54,43353,2,0,P|483:105|472:168,1,110,4|0,1:0|3:0,0:0:0:0:
444,204,43915,1,0,3:0:0:0:
444,204,44103,2,0,L|452:317,1,110,4|4,0:0|0:0,0:0:0:0:
345,343,44853,2,0,L|337:230,1,110,4|8,0:0|0:0,0:0:0:0:
268,147,45603,6,0,L|272:77,2,55,4|8|8,1:0|0:0|0:0,0:0:0:0:
118,308,46728,1,8,0:0:0:0:
16,265,47103,2,0,L|20:195,2,55,4|8|8,1:0|0:0|0:0,0:0:0:0:
219,350,48228,1,8,0:0:0:0:
305,282,48603,6,0,P|326:201|278:127,1,165,4|4,0:0|0:3,0:0:0:0:
236,113,49353,2,0,B|172:109|172:109|132:129|132:129|60:123,1,165,4|4,0:0|0:3,0:0:0:0:
20,121,50103,2,0,B|10:227|10:227|43:284,1,165,4|4,0:0|0:3,0:0:0:0:
84,309,50853,2,0,B|161:337|169:279|251:315,1,165,4|4,0:0|0:3,0:0:0:0:
296,333,51603,6,0,B|352:339|352:339|403:323,1,110,12|8,0:0|0:0,0:0:0:0:
499,269,52353,1,8,0:0:0:0:
499,159,52728,1,8,0:0:0:0:
403,103,53103,2,0,B|347:97|347:97|295:112,1,110,12|8,0:0|0:0,0:0:0:0:
201,169,53853,1,8,0:0:0:0:
201,279,54228,1,8,0:0:0:0:
128,362,54603,6,0,P|72:354|28:313,1,110,8|8,0:0|0:0,0:0:0:0:
11,275,55165,1,0,0:0:0:0:
11,275,55353,2,0,L|18:152,1,110,8|8,0:0|0:0,0:0:0:0:
95,87,56103,1,4,0:0:0:0:
285,197,56853,2,0,P|366:205|422:150,1,165,4|0,1:0|3:0,0:0:0:0:
430,95,57603,6,0,B|378:77|378:77|311:80,1,110,6|8,0:1|0:0,0:0:0:0:
213,89,58353,1,2,0:1:0:0:
162,186,58728,2,0,P|160:216|162:242,1,55,8|0,0:0|0:0,0:0:0:0:
170,295,59103,2,0,P|121:310|58:298,1,110,2|8,0:1|0:0,0:0:0:0:
0,210,59853,2,0,L|3:146,1,55,2|0,0:1|0:0,0:0:0:0:
44,119,60228,2,0,L|47:55,1,55,8|0,0:0|0:0,0:0:0:0:
89,29,60603,6,0,P|144:25|196:61,1,110,6|8,0:1|0:0,0:0:0:0:
230,97,61165,1,0,0:0:0:0:
230,97,61353,2,0,L|339:89,1,110,2|8,0:1|0:0,0:0:0:0:
449,78,62103,2,0,B|473:125|473:125|467:187,1,110,2|8,0:1|0:0,0:0:0:0:
461,240,62665,1,0,0:0:0:0:
461,240,62853,2,0,P|410:247|353:229,1,110,2|8,0:1|0:0,0:0:0:0:
267,163,63603,6,0,L|139:163,1,110,6|8,0:1|0:0,0:0:0:0:
106,167,64165,1,0,0:0:0:0:
106,167,64353,2,0,P|87:218|95:274,1,110,2|8,0:1|0:0,0:0:0:0:
173,348,65103,2,0,P|224:367|280:359,1,110,2|8,0:1|0:0,0:0:0:0:
369,299,65853,1,2,0:1:0:0:
383,190,66228,2,0,L|375:124,1,55,8|0,0:0|0:0,0:0:0:0:
358,83,66603,6,0,P|310:68|244:81,1,110,4|4,0:1|0:1,0:0:0:0:
154,128,67353,1,4,0:1:0:0:
154,238,67728,1,4,0:1:0:0:
56,288,68103,2,0,P|16:250|4:196,1,110,8|8,0:0|0:0,0:0:0:0:
3,87,68853,1,8,0:0:0:0:
92,22,69228,1,8,0:0:0:0:
194,62,69603,6,0,L|313:55,1,110,6|8,0:1|0:0,0:0:0:0:
413,50,70353,1,2,0:1:0:0:
489,128,70728,2,0,P|495:157|491:187,1,55,8|0,0:0|0:0,0:0:0:0:
469,232,71103,2,0,B|411:233|411:233|349:204,1,110,2|8,0:1|0:0,0:0:0:0:
273,148,71853,2,0,L|208:151,1,55,2|0,0:1|0:0,0:0:0:0:
179,189,72228,2,0,L|114:192,1,55,8|0,0:0|0:0,0:0:0:0:
85,229,72603,6,0,P|72:283|86:336,1,110,2|8,0:1|0:0,0:0:0:0:
189,374,73353,1,2,0:1:0:0:
292,336,73728,1,8,0:0:0:0:
341,237,74103,2,0,L|334:119,1,110,6|8,0:1|0:0,0:0:0:0:
238,73,74853,2,0,L|231:191,1,110,2|8,0:1|0:0,0:0:0:0:
227,241,75415,1,4,0:3:0:0:
227,240,75603,6,0,P|174:254|121:243,1,110,4|8,0:0|0:0,0:0:0:0:
22,193,76353,1,8,0:0:0:0:
17,83,76728,1,0,0:0:0:0:
121,48,77103,2,0,B|176:37|176:37|243:47,1,110,4|8,0:1|0:0,0:0:0:0:
336,67,77853,1,8,0:0:0:0:
396,158,78228,2,0,P|399:188|396:223,1,55,8|4,0:3|0:3,0:0:0:0:
363,256,78603,6,0,L|251:250,1,110,6|0,0:1|3:0,0:0:0:0:
156,197,79353,2,0,P|143:246|164:314,1,110,6|0,0:1|3:0,0:0:0:0:
192,351,79915,1,0,3:0:0:0:
192,351,80103,2,0,L|304:357,1,110,2|2,0:1|0:1,0:0:0:0:
399,306,80853,2,0,B|411:254|411:254|402:192,1,110,2|4,0:1|0:0,0:0:0:0:
380,90,81603,6,0,P|326:76|257:101,1,110,6|8,0:1|0:0,0:0:0:0:
203,173,82353,2,0,L|144:172,1,55,2|0,0:1|0:0,0:0:0:0:
107,209,82728,2,0,L|48:208,1,55,8|0,0:0|0:0,0:0:0:0:
4,235,83103,2,0,P|-11:292|4:351,1,110,2|8,0:1|0:0,0:0:0:0:
39,378,83665,1,0,0:0:0:0:
136,327,84040,2,0,L|196:328,2,55,0|8|0,0:0|0:0|0:0,0:0:0:0:
92,294,84603,6,0,L|98:172,1,110,6|8,0:1|0:0,0:0:0:0:
107,134,85165,1,0,0:0:0:0:
107,134,85353,2,0,P|160:111|218:120,1,110,2|8,0:1|0:0,0:0:0:0:
297,185,86103,2,0,L|421:178,1,110,6|8,0:1|0:0,0:0:0:0:
465,178,86665,1,0,0:0:0:0:
465,178,86853,2,0,B|471:123|471:123|455:63,1,110,2|8,0:1|0:0,0:0:0:0:
354,30,87603,6,0,L|224:27,1,110,4|8,0:1|0:0,0:0:0:0:
134,22,88353,1,8,0:0:0:0:
49,92,88728,1,4,0:3:0:0:
49,202,89103,2,0,P|58:257|93:305,1,110,4|8,0:1|0:0,0:0:0:0:
190,341,89853,1,8,0:0:0:0:
289,293,90228,2,0,P|326:290|344:292,1,55,8|4,0:3|0:3,0:0:0:0:
398,294,90603,6,0,B|404:231|404:231|391:179,1,110,4|0,0:0|3:0,0:0:0:0:
333,92,91353,2,0,P|377:75|451:90,1,110,4|0,0:0|3:0,0:0:0:0:
493,106,91915,1,0,3:0:0:0:
493,106,92103,2,0,L|494:226,1,110,4|4,1:0|1:0,0:0:0:0:
497,325,92853,2,0,P|479:345|439:360,1,55,4|4,1:0|0:3,0:0:0:0:
399,354,93228,5,4,0:0:0:0:
