osu file format v14

[General]
AudioFilename: audio.mp3
AudioLeadIn: 0
PreviewTime: 54603
Countdown: 0
SampleSet: Soft
StackLeniency: 0.4
Mode: 0
LetterboxInBreaks: 0
WidescreenStoryboard: 0

[Editor]
Bookmarks: 18603
DistanceSpacing: 1.3
BeatDivisor: 4
GridSize: 8
TimelineZoom: 1

[Metadata]
Title:Mirai Puzzle
TitleUnicode:未来パズル
Artist:Chino (CV. Inori Minase)
ArtistUnicode:チノ(CV.水瀬いのり)
Creator:LeQuack
Version:Advanced
Source:ご注文はうさぎですか??
Tags:gochuumon wa usagi desu ka is the order a rabbit cup of chino Akitoshi Left is cute
BeatmapID:1351579
BeatmapSetID:536219

[Difficulty]
HPDrainRate:4
CircleSize:3.7
OverallDifficulty:6
ApproachRate:6
SliderMultiplier:1.2
SliderTickRate:1

[Events]
//Background and Video events
0,0,"chino.png",0,0
//Break Periods
//Storyboard Layer 0 (Background)
//Storyboard Layer 1 (Fail)
//Storyboard Layer 2 (Pass)
//Storyboard Layer 3 (Foreground)
//Storyboard Sound Samples

[TimingPoints]
603,375,4,2,99,65,1,0
2103,-100,4,2,99,65,0,0
3603,-100,4,2,99,65,0,0
7728,-100,4,2,99,65,0,0
8103,-100,4,2,99,65,0,0
9603,-100,4,2,99,65,0,0
15603,-100,4,2,99,65,0,0
56853,-100,4,2,99,65,0,0
57603,-100,4,2,99,75,0,1
68853,-100,4,2,99,75,0,0
69603,-100,4,2,99,75,0,1
75603,-100,4,2,99,75,0,1
81603,-100,4,2,99,65,0,0
87603,-100,4,2,99,65,0,0

[Colours]
Combo1 : 128,0,128
Combo2 : 100,100,255
Combo3 : 255,0,255
Combo4 : 210,210,210

[HitObjects]
70,237,603,6,0,L|66:319,2,60,8|0|8,0:0|0:0|0:0,0:0:0:0:
166,114,1353,2,0,L|170:32,2,60,8|0|8,0:0|0:0|0:0,0:0:0:0:
239,252,2103,1,8,0:0:0:0:
314,234,2290,2,0,P|374:217|425:244,2,120,4|4|0,0:3|0:3|0:3,0:0:0:0:
364,293,3228,1,4,0:3:0:0:
256,181,3603,6,0,L|258:55,1,120,6|8,0:1|0:0,0:0:0:0:
101,59,4353,2,0,P|96:89|101:123,1,60,2|0,0:1|0:0,0:0:0:0:
146,180,4728,2,0,P|149:209|144:239,1,60,8|0,0:0|0:0,0:0:0:0:
92,297,5103,5,2,0:1:0:0:
92,297,5290,2,0,P|156:273|227:286,2,120
56,227,6228,2,0,P|60:195|55:160,1,60,8|0,0:0|0:0,0:0:0:0:
0,113,6603,6,0,L|119:114,1,120,6|8,0:1|0:0,0:0:0:0:
176,61,7165,1,0,0:0:0:0:
191,137,7353,2,0,B|191:175|191:175|171:214|171:214|171:261,1,120,0|8,0:0|0:0,0:0:0:0:
299,340,8103,6,0,B|361:359|361:325|426:347,1,120,6|8,0:1|0:0,0:0:0:0:
495,347,8665,1,0,0:0:0:0:
459,277,8853,2,0,P|453:214|467:155,1,120,2|8,0:1|0:0,0:0:0:0:
332,76,9603,6,0,L|210:87,1,120,4|8,0:1|0:0,0:0:0:0:
138,61,10165,1,8,0:0:0:0:
138,61,10353,1,8,0:0:0:0:
47,188,10728,1,4,0:3:0:0:
179,273,11103,6,0,P|246:263|302:285,1,120,4|8,0:0|0:0,0:0:0:0:
365,324,11665,1,8,0:0:0:0:
365,324,11853,1,8,0:0:0:0:
350,165,12228,2,0,P|351:130|356:106,1,60,8|4,0:3|0:3,0:0:0:0:
409,48,12603,6,0,P|319:61|222:40,1,180,6|0,0:1|3:0,0:0:0:0:
157,65,13353,2,0,B|155:130|155:130|178:186|178:186|177:264,1,180,6|0,0:1|3:0,0:0:0:0:
167,317,14103,1,6,0:1:0:0:
49,213,14478,1,6,0:1:0:0:
97,65,14853,2,0,L|168:64,1,60,2|2,0:1|0:1,0:0:0:0:
228,95,15228,2,0,L|299:94,1,60,8|0,0:0|0:0,0:0:0:0:
359,63,15603,5,6,0:1:0:0:
413,118,15790,2,0,P|426:190|412:238,1,120,0|0,0:0|0:0,0:0:0:0:
336,245,16353,2,0,P|302:239|265:243,1,60,2|0,0:1|0:0,0:0:0:0:
201,260,16728,1,8,0:0:0:0:
141,209,16915,6,0,B|142:132|142:132|157:77,1,120,0|0,0:0|0:0,0:0:0:0:
210,36,17478,2,0,P|226:62|231:95,1,60,8|0,0:0|0:0,0:0:0:0:
224,168,17853,2,0,L|293:175,1,60,2|0,0:1|0:0,0:0:0:0:
334,233,18228,2,0,L|403:226,1,60,8|0,0:0|0:0,0:0:0:0:
437,162,18603,6,0,P|471:229|409:303,1,180,2|0,0:1|0:0,0:0:0:0:
334,318,19353,2,0,L|185:305,1,120,2|8,0:1|0:0,0:0:0:0:
70,246,20103,6,0,B|73:184|73:184|106:137|106:137|111:68,1,180,2|0,0:1|0:0,0:0:0:0:
184,52,20853,2,0,P|251:65|310:48,1,120,2|8,0:1|0:0,0:0:0:0:
456,66,21603,6,0,L|456:200,1,120,6|8,0:1|0:0,0:0:0:0:
363,311,22353,2,0,L|363:177,1,120,2|8,0:1|0:0,0:0:0:0:
230,108,23103,6,0,P|165:107|120:151,1,120,2|8,0:1|0:0,0:0:0:0:
104,216,23665,1,0,0:0:0:0:
222,317,24040,2,0,P|256:322|293:317,1,60,0|8,0:0|0:0,0:0:0:0:
412,234,24603,6,0,L|421:95,1,120,2|8,0:1|0:0,0:0:0:0:
382,45,25165,1,0,0:0:0:0:
313,82,25353,2,0,P|281:88|239:78,1,60,2|0,0:1|0:0,0:0:0:0:
186,44,25728,2,0,P|156:40|127:46,1,60,8|4,0:0|0:0,0:0:0:0:
44,178,26290,6,0,P|39:210|47:239,1,60,0|8,0:0|0:0,0:0:0:0:
117,205,26665,2,0,P|131:234|154:253,1,60,0|8,0:0|0:0,0:0:0:0:
192,185,27040,2,0,P|220:200|250:203,2,60,0|8|0,0:0|0:0|0:0,0:0:0:0:
140,125,27603,5,6,0:1:0:0:
188,64,27790,2,0,P|221:68|258:64,1,60,0|8,0:0|0:0,0:0:0:0:
321,40,28165,2,0,P|350:37|380:42,1,60,0|2,0:0|0:1,0:0:0:0:
428,104,28540,2,0,P|432:136|426:171,1,60,0|8,0:0|0:0,0:0:0:0:
394,234,28915,6,0,L|246:234,1,120,0|0,0:0|0:0,0:0:0:0:
207,275,29478,1,8,0:0:0:0:
207,275,29665,1,0,0:0:0:0:
149,221,29853,2,0,P|144:189|154:158,1,60,2|0,0:1|0:0,0:0:0:0:
222,130,30228,2,0,P|229:101|224:71,1,60,8|0,0:0|0:0,0:0:0:0:
153,38,30603,6,0,P|96:42|41:153,1,180,2|0,0:1|0:0,0:0:0:0:
29,217,31353,2,0,B|154:220,1,120,2|8,0:1|0:0,0:0:0:0:
265,323,32103,6,0,L|260:135,1,180,2|0,0:1|0:0,0:0:0:0:
309,82,32853,2,0,P|243:66|198:95,1,120,2|8,0:1|0:0,0:0:0:0:
99,210,33603,6,0,L|109:333,1,120,6|8,0:1|0:0,0:0:0:0:
250,262,34353,2,0,L|260:139,1,120,2|8,0:1|0:0,0:0:0:0:
326,283,35103,2,0,P|288:333|228:337,1,120,2|8,0:1|0:0,0:0:0:0:
250,262,35665,1,0,0:0:0:0:
338,133,36040,2,0,L|420:134,2,60,8|8|0,0:0|0:0|3:0,0:0:0:0:
259,142,36603,6,0,B|195:145|195:145|135:116,1,120,4|0,0:0|0:0,0:0:0:0:
17,211,37353,2,0,B|51:264|51:264|56:331,1,120,4|0,0:0|0:0,0:0:0:0:
193,247,38103,6,0,P|263:242|309:267,1,120,4|2,0:0|0:1,0:0:0:0:
396,137,38853,2,0,L|402:69,2,60,0|0|8,3:0|3:0|0:0,0:0:0:0:
441,286,39603,6,0,L|445:349,2,60,4|8|8,1:0|0:0|0:0,0:0:0:0:
402,218,40165,1,0,0:0:0:0:
402,218,40353,2,0,P|336:241|256:206,1,120,0|8,0:0|0:0,0:0:0:0:
198,102,41103,6,0,L|129:99,2,60,4|8|8,1:0|0:0|0:0,0:0:0:0:
279,115,41665,1,0,0:0:0:0:
279,115,41853,2,0,P|298:172|284:240,1,120
436,279,42603,6,0,L|439:140,1,120,4|0,1:0|3:0,0:0:0:0:
360,23,43353,2,0,L|363:162,1,120,4|0,1:0|3:0,0:0:0:0:
343,297,44103,2,0,P|277:310|227:285,1,120,4|4,0:0|0:0,0:0:0:0:
166,145,44853,2,0,L|159:74,2,60,4|0|8,0:0|0:0|0:0,0:0:0:0:
89,281,45603,6,0,P|83:308|90:342,2,60,4|8|8,1:0|0:0|0:0,0:0:0:0:
154,237,46165,1,0,0:0:0:0:
154,237,46353,2,0,P|96:203|28:236,1,120,0|8,0:0|0:0,0:0:0:0:
63,60,47103,6,0,P|57:33|64:-1,2,60,4|8|8,1:0|0:0|0:0,0:0:0:0:
106,130,47665,1,0,0:0:0:0:
106,130,47853,2,0,L|238:131,1,120,0|8,0:0|0:0,0:0:0:0:
376,89,48603,6,0,P|393:151|304:227,1,180,4|4,0:0|0:3,0:0:0:0:
249,262,49353,2,0,B|309:258|309:258|372:277|372:277|436:271,1,180,4|4,0:0|0:3,0:0:0:0:
501,291,50103,2,0,P|417:289|383:375,1,180,4|4,0:0|0:3,0:0:0:0:
458,356,50853,2,0,L|223:357,1,180,4|4,0:0|0:3,0:0:0:0:
230,294,51603,6,0,P|199:290|166:293,1,60,12|0,0:0|0:0,0:0:0:0:
144,218,51978,2,0,P|175:214|208:217,1,60,8|0,0:0|0:0,0:0:0:0:
230,142,52353,2,0,P|199:138|166:141,1,60,8|0,0:0|0:0,0:0:0:0:
144,66,52728,2,0,P|175:62|208:65,1,60,8|0,0:0|0:0,0:0:0:0:
281,73,53103,6,0,L|352:76,1,60,12|0,0:0|0:0,0:0:0:0:
312,148,53478,2,0,L|381:163,1,60,8|0,0:0|0:0,0:0:0:0:
329,227,53853,2,0,L|394:254,1,60,8|0,0:0|0:0,0:0:0:0:
332,307,54228,2,0,L|391:345,1,60,8|0,0:0|0:0,0:0:0:0:
460,332,54603,6,0,L|460:256,1,60,8|0,0:0|0:0,0:0:0:0:
462,193,54978,1,8,0:0:0:0:
462,193,55165,1,0,0:0:0:0:
431,120,55353,2,0,P|406:103|377:93,1,60,8|4,0:0|0:3,0:0:0:0:
311,135,55728,2,0,P|282:125|257:108,1,60,8|0,0:0|0:0,0:0:0:0:
232,35,56103,1,4,0:0:0:0:
109,322,56853,6,0,P|93:261|106:202,1,120,4|0,1:0|3:0,0:0:0:0:
250,259,57603,6,0,L|382:256,2,120,6|8|2,0:1|0:0|0:1,0:0:0:0:
180,119,58728,1,8,0:0:0:0:
180,119,58915,1,0,0:0:0:0:
180,119,59103,6,0,P|194:184|172:239,1,120,2|8,0:1|0:0,0:0:0:0:
271,357,59853,2,0,L|337:359,1,60,2|0,0:1|0:0,0:0:0:0:
382,299,60228,2,0,L|448:297,1,60,8|0,0:0|0:0,0:0:0:0:
500,245,60603,6,0,P|493:186|449:132,1,120,6|8,0:1|0:0,0:0:0:0:
396,90,61165,1,0,0:0:0:0:
326,53,61353,2,0,P|291:49|266:56,1,60,2|0,0:1|0:0,0:0:0:0:
194,28,61728,2,0,P|190:63|197:88,1,60,8|0,0:0|0:0,0:0:0:0:
255,137,62103,6,0,B|257:200|257:200|245:267,1,120,2|8,0:1|0:0,0:0:0:0:
196,315,62665,1,0,0:0:0:0:
268,345,62853,2,0,L|401:346,1,120,2|8,0:1|0:0,0:1:0:0:
463,209,63603,6,0,L|463:146,1,60,6|0,0:1|0:0,0:0:0:0:
409,92,63978,1,8,0:0:0:0:
409,92,64165,1,0,0:0:0:0:
336,117,64353,2,0,P|305:122|273:115,1,60,2|0,0:1|0:0,0:0:0:0:
211,75,64728,1,8,0:0:0:0:
211,75,64915,1,0,0:0:0:0:
137,102,65103,6,0,P|132:135|135:164,1,60,2|0,0:1|0:0,0:0:0:0:
199,206,65478,2,0,P|204:235|202:265,1,60,8|0,0:0|0:0,0:0:0:0:
144,317,65853,1,2,0:1:0:0:
289,260,66228,2,0,L|355:261,1,60,8|0,0:0|0:0,0:0:0:0:
406,208,66603,5,4,0:1:0:0:
250,196,66978,1,4,0:1:0:0:
246,351,67353,1,4,0:1:0:0:
403,363,67728,1,4,0:1:0:0:
416,207,68103,6,0,L|406:84,1,120,8|8,0:0|0:0,0:0:0:0:
250,71,68853,2,0,L|244:207,1,120,8|8,0:0|0:0,0:0:0:0:
199,340,69603,6,0,P|266:344|321:322,2,120,6|8|2,0:1|0:0|0:1,0:0:0:0:
68,253,70728,1,8,0:0:0:0:
68,253,70915,1,0,0:0:0:0:
68,253,71103,6,0,P|53:196|74:136,1,120,2|8,0:1|0:0,0:0:0:0:
196,46,71853,2,0,P|229:46|257:59,1,60,2|0,0:1|0:0,0:0:0:0:
283,128,72228,2,0,P|311:139|340:137,1,60,8|0,0:0|0:0,0:0:0:0:
394,81,72603,6,0,P|451:92|484:141,1,120,2|8,0:1|0:0,0:0:0:0:
484,297,73353,2,0,P|450:345|393:356,1,120,2|8,0:1|0:0,0:0:0:0:
256,280,74103,2,0,P|223:276|193:279,1,60,6|0,0:1|0:0,0:0:0:0:
136,329,74478,2,0,P|106:331|76:327,1,60,8|0,0:0|0:0,0:0:0:0:
39,258,74853,2,0,L|43:124,1,120,2|8,0:1|0:0,0:0:0:0:
164,39,75603,6,0,P|227:27|288:49,1,120,4|8,0:0|0:0,0:0:0:0:
347,93,76165,1,8,0:0:0:0:
347,93,76353,1,8,0:0:0:0:
355,248,76728,1,0,0:0:0:0:
217,173,77103,6,0,L|85:175,1,120,4|8,0:1|0:0,0:0:0:0:
18,180,77665,1,8,0:0:0:0:
18,180,77853,1,8,0:0:0:0:
157,250,78228,2,0,P|159:283|145:309,1,60,8|4,0:3|0:3,0:0:0:0:
74,335,78603,6,0,L|268:341,1,180,6|0,0:1|3:0,0:0:0:0:
330,326,79353,2,0,B|338:282|338:282|330:246|330:246|333:205,1,120,6|0,0:1|3:0,0:0:0:0:
345,52,80103,5,2,0:1:0:0:
410,193,80478,1,2,0:1:0:0:
330,326,80853,1,2,0:1:0:0:
178,287,81228,2,0,P|144:284|109:289,1,60,4|0,0:0|0:0,0:0:0:0:
55,333,81603,6,0,P|81:278|67:211,1,120,6|8,0:1|0:0,0:0:0:0:
105,68,82353,2,0,L|170:74,1,60,2|0,0:1|0:0,0:0:0:0:
234,108,82728,2,0,L|299:102,1,60,8|0,0:0|0:0,0:0:0:0:
351,49,83103,5,2,0:1:0:0:
351,49,83290,2,0,P|373:112|331:170,1,120
247,274,84040,1,0,0:0:0:0:
174,243,84228,2,0,P|143:237|100:249,1,60,8|0,0:0|0:0,0:0:0:0:
61,298,84603,6,0,L|61:163,1,120,6|8,0:1|0:0,0:0:0:0:
63,100,85165,1,0,0:0:0:0:
120,46,85353,2,0,P|190:41|241:56,1,120,2|8,0:1|0:0,0:0:0:0:
347,164,86103,6,0,P|328:101|357:48,1,120,6|8,0:1|0:0,0:0:0:0:
403,111,86665,1,0,0:0:0:0:
460,58,86853,2,0,P|479:121|450:174,1,120,2|8,0:1|0:0,0:0:0:0:
395,311,87603,6,0,B|328:314|328:314|266:303,1,120,4|8,0:1|0:0,0:0:0:0:
206,270,88165,1,8,0:0:0:0:
206,270,88353,1,8,0:0:0:0:
199,114,88728,1,4,0:3:0:0:
337,186,89103,6,0,P|405:205|457:180,1,120,4|8,0:1|0:0,0:0:0:0:
472,112,89665,1,8,0:0:0:0:
472,112,89853,1,8,0:0:0:0:
476,267,90228,2,0,L|476:339,1,60,8|4,0:3|0:3,0:0:0:0:
400,347,90603,6,0,L|236:347,1,120,4|0,0:0|3:0,0:0:0:0:
202,343,91165,1,0,3:0:0:0:
142,291,91353,2,0,P|125:227|137:166,1,120,4|0,0:0|3:0,0:0:0:0:
159,101,91915,1,0,3:0:0:0:
236,113,92103,6,0,B|300:120|300:120|359:96,1,120,4|4,1:0|1:0,0:0:0:0:
461,210,92853,2,0,P|468:240|462:274,1,60,4|4,1:0|0:3,0:0:0:0:
390,242,93228,1,4,0:1:0:0:
