osu file format v14

[General]
AudioFilename: audio.mp3
AudioLeadIn: 0
PreviewTime: 77939
Countdown: 0
SampleSet: Normal
StackLeniency: 0.7
Mode: 1
LetterboxInBreaks: 0
WidescreenStoryboard: 1

[Editor]
DistanceSpacing: 0.5
BeatDivisor: 3
GridSize: 32
TimelineZoom: 0.2999999

[Metadata]
Title:winter*gift
TitleUnicode:winter*gift
Artist:Chino (CV: Minase Inori)
ArtistUnicode:チノ (CV: 水瀬いのり)
Creator:Faputa
Version:kantan
Source:ご注文はうさぎですか??
Tags:Anime Japanese short cut version Is the Order a Rabbit?? Gochuumon wa Usagi Desu ka?? Kafu 香風智乃 Birthday Song Series 09
BeatmapID:2254322
BeatmapSetID:1077286

[Difficulty]
HPDrainRate:8
CircleSize:2
OverallDifficulty:2
ApproachRate:10
SliderMultiplier:1.4
SliderTickRate:1

[Events]
//Background and Video events
0,0,"Chino.jpg",0,0
//Break Periods
//Storyboard Layer 0 (Background)
//Storyboard Layer 1 (Fail)
//Storyboard Layer 2 (Pass)
//Storyboard Layer 3 (Foreground)
//Storyboard Layer 4 (Overlay)
//Storyboard Sound Samples

[TimingPoints]
475,750,4,1,0,60,1,8
795,750,4,1,0,60,1,0
795,-68.9655172413793,4,1,0,60,0,0
27795,-68.9655172413793,4,1,0,100,0,0
28545,517.241379310345,4,1,0,100,1,8
30613,517.241379310345,4,1,0,100,1,0
51302,517.241379310345,4,1,0,90,1,0
51302,-100,4,1,0,90,0,0
67853,-100,4,1,0,95,0,0
78198,521.739130434783,4,1,0,100,1,1
78198,-99.009900990099,4,1,0,100,0,1
103241,594.059405940594,4,1,0,60,1,0
103241,-86.9565217391304,4,1,0,60,0,0
104429,600,4,1,0,60,1,8
104429,-86.2068965517241,4,1,0,60,0,0
105629,603.015075376884,4,1,0,50,1,0
105629,-85.4700854700855,4,1,0,50,0,0
107739,-85.4700854700855,4,1,0,40,0,0
110151,-85.4700854700855,4,1,0,20,0,0

[HitObjects]
256,192,795,5,8,0:0:0:0:
256,192,3795,1,0,0:0:0:0:
256,192,5295,1,0,0:0:0:0:
256,192,6795,1,8,0:0:0:0:
256,192,9795,1,0,0:0:0:0:
256,192,11295,1,8,0:0:0:0:
256,192,12795,1,0,0:0:0:0:
256,192,14295,1,0,0:0:0:0:
256,192,15795,1,8,0:0:0:0:
256,192,17295,1,0,0:0:0:0:
256,192,18795,1,8,0:0:0:0:
256,192,20295,1,8,0:0:0:0:
256,192,21795,1,8,0:0:0:0:
256,192,22545,1,8,0:0:0:0:
256,192,23295,1,8,0:0:0:0:
256,192,24795,1,0,0:0:0:0:
256,192,28545,1,8,0:0:0:0:
256,192,29062,1,0,0:0:0:0:
256,192,29579,1,8,0:0:0:0:
256,192,30613,1,12,0:0:0:0:
256,192,31647,1,8,0:0:0:0:
256,192,32681,1,8,0:0:0:0:
256,192,33199,1,0,0:0:0:0:
256,192,33716,1,8,0:0:0:0:
256,192,34750,1,8,0:0:0:0:
256,192,35785,1,0,0:0:0:0:
256,192,36819,1,8,0:0:0:0:
256,192,37337,1,8,0:0:0:0:
256,192,37854,1,8,0:0:0:0:
256,192,38888,1,12,0:0:0:0:
256,192,39923,1,8,0:0:0:0:
256,192,40957,1,8,0:0:0:0:
256,192,41475,1,0,0:0:0:0:
256,192,41992,1,8,0:0:0:0:
256,192,43026,1,0,0:0:0:0:
256,192,44061,1,8,0:0:0:0:
256,192,45095,1,8,0:0:0:0:
256,192,46130,1,0,0:0:0:0:
256,192,46647,1,8,0:0:0:0:
256,192,47164,1,0,0:0:0:0:
256,192,48716,1,8,0:0:0:0:
256,192,49233,1,0,0:0:0:0:
256,192,50785,1,0,0:0:0:0:
256,192,51302,1,8,0:0:0:0:
256,192,53370,1,8,0:0:0:0:
256,192,54405,1,8,0:0:0:0:
256,192,55439,1,0,0:0:0:0:
256,192,56474,1,8,0:0:0:0:
256,192,57508,1,8,0:0:0:0:
256,192,58026,1,8,0:0:0:0:
256,192,58543,1,8,0:0:0:0:
256,192,59577,1,8,0:0:0:0:
256,192,60612,1,0,0:0:0:0:
256,192,61646,1,8,0:0:0:0:
256,192,62681,1,0,0:0:0:0:
256,192,63715,1,8,0:0:0:0:
256,192,64750,1,8,0:0:0:0:
256,192,65267,1,0,0:0:0:0:
256,192,65784,1,8,0:0:0:0:
256,192,66819,1,0,0:0:0:0:
256,192,67853,1,0,0:0:0:0:
256,192,68888,1,0,0:0:0:0:
256,192,69922,1,8,0:0:0:0:
256,192,70957,1,8,0:0:0:0:
256,192,71991,1,0,0:0:0:0:
256,192,73026,1,8,0:0:0:0:
256,192,73543,1,0,0:0:0:0:
256,192,74060,1,8,0:0:0:0:
256,192,75095,1,8,0:0:0:0:
256,192,76129,1,0,0:0:0:0:
256,192,77164,1,0,0:0:0:0:
256,192,78198,1,12,0:0:0:0:
256,192,79241,1,0,0:0:0:0:
256,192,80284,1,8,0:0:0:0:
256,192,81328,1,8,0:0:0:0:
256,192,81850,1,8,0:0:0:0:
256,192,82371,1,0,0:0:0:0:
256,192,83415,1,8,0:0:0:0:
256,192,84458,1,0,0:0:0:0:
256,192,85502,1,8,0:0:0:0:
256,192,86024,1,0,0:0:0:0:
256,192,86545,1,8,0:0:0:0:
256,192,87589,1,0,0:0:0:0:
256,192,88632,1,8,0:0:0:0:
256,192,89676,1,0,0:0:0:0:
256,192,90198,1,8,0:0:0:0:
256,192,90719,1,0,0:0:0:0:
256,192,91763,1,0,0:0:0:0:
256,192,92806,1,8,0:0:0:0:
256,192,93328,1,8,0:0:0:0:
256,192,93850,1,0,0:0:0:0:
256,192,94371,1,8,0:0:0:0:
256,192,94893,1,4,0:0:0:0:
256,192,95937,1,0,0:0:0:0:
256,192,96980,1,8,0:0:0:0:
256,192,97502,1,8,0:0:0:0:
256,192,98024,1,0,0:0:0:0:
256,192,98545,1,0,0:0:0:0:
256,192,99067,1,12,0:0:0:0:
256,192,100111,1,8,0:0:0:0:
256,192,101154,1,0,0:0:0:0:
256,192,101676,1,0,0:0:0:0:
256,192,102198,1,12,0:0:0:0:
256,192,103241,1,0,0:0:0:0:
256,192,104429,1,8,0:0:0:0:
256,192,105629,1,8,0:0:0:0:
256,192,108041,1,0,0:0:0:0:
256,192,110453,8,0,115277,0:0:0:0:
