osu file format v14

[General]
AudioFilename: audio.mp3
AudioLeadIn: 0
PreviewTime: 77939
Countdown: 0
SampleSet: Normal
StackLeniency: 0.7
Mode: 1
LetterboxInBreaks: 0
WidescreenStoryboard: 0

[Editor]
DistanceSpacing: 0.5
BeatDivisor: 3
GridSize: 32
TimelineZoom: 1.2

[Metadata]
Title:winter*gift
TitleUnicode:winter*gift
Artist:Chino (CV: Minase Inori)
ArtistUnicode:チノ (CV: 水瀬いのり)
Creator:Faputa
Version:muzukashii
Source:ご注文はうさぎですか??
Tags:Anime Japanese short cut version Is the Order a Rabbit?? Gochuumon wa Usagi Desu ka?? Kafu 香風智乃 Birthday Song Series 09
BeatmapID:2254323
BeatmapSetID:1077286

[Difficulty]
HPDrainRate:6
CircleSize:2
OverallDifficulty:4
ApproachRate:10
SliderMultiplier:1.4
SliderTickRate:1

[Events]
//Background and Video events
0,0,"Chino.jpg",0,0
//Break Periods
//Storyboard Layer 0 (Background)
//Storyboard Layer 1 (Fail)
//Storyboard Layer 2 (Pass)
//Storyboard Layer 3 (Foreground)
//Storyboard Layer 4 (Overlay)
//Storyboard Sound Samples

[TimingPoints]
475,750,4,1,0,60,1,8
795,750,4,1,0,60,1,0
795,-86.9565217391304,4,1,0,60,0,0
27795,-86.9565217391304,4,1,0,100,0,0
28545,517.241379310345,4,1,0,100,1,8
28545,-83.3333333333333,4,1,0,100,0,0
30613,517.241379310345,4,1,0,100,1,0
30613,-83.3333333333333,4,1,0,100,0,0
38026,-82.6446280991736,4,1,0,100,0,0
38199,-81.9672131147541,4,1,0,100,0,0
38371,-81.3008130081301,4,1,0,100,0,0
38716,-80.6451612903226,4,1,0,100,0,0
38888,-80,4,1,0,100,0,0
51302,517.241379310345,4,1,0,90,1,0
51302,-86.9565217391304,4,1,0,90,0,0
67853,-83.3333333333333,4,1,0,95,0,0
78026,-80,4,1,0,95,0,0
78198,521.739130434783,4,1,0,100,1,1
78198,-79.3650793650794,4,1,0,100,0,1
103241,594.059405940594,4,1,0,60,1,0
103241,-72.463768115942,4,1,0,60,0,0
104429,600,4,1,0,60,1,8
104429,-71.9424460431655,4,1,0,60,0,0
105629,603.015075376884,4,1,0,50,1,0
105629,-71.4285714285714,4,1,0,50,0,0
107739,-71.4285714285714,4,1,0,40,0,0
110151,-71.4285714285714,4,1,0,20,0,0

[HitObjects]
256,192,795,5,8,0:0:0:0:
256,192,1545,1,8,0:0:0:0:
256,192,3295,1,0,0:0:0:0:
256,192,3545,1,0,0:0:0:0:
256,192,3795,1,8,0:0:0:0:
256,192,4545,1,0,0:0:0:0:
256,192,5295,1,8,0:0:0:0:
256,192,6045,1,8,0:0:0:0:
256,192,6795,1,8,0:0:0:0:
256,192,7545,1,8,0:0:0:0:
256,192,9295,1,0,0:0:0:0:
256,192,9545,1,0,0:0:0:0:
256,192,9795,1,8,0:0:0:0:
256,192,10545,1,8,0:0:0:0:
256,192,11295,1,0,0:0:0:0:
256,192,12045,1,8,0:0:0:0:
256,192,12795,1,0,0:0:0:0:
256,192,13545,1,8,0:0:0:0:
256,192,14045,1,8,0:0:0:0:
256,192,14295,1,0,0:0:0:0:
256,192,15545,1,0,0:0:0:0:
256,192,15795,1,8,0:0:0:0:
256,192,16545,1,0,0:0:0:0:
256,192,17045,1,8,0:0:0:0:
256,192,17295,1,0,0:0:0:0:
256,192,18045,1,8,0:0:0:0:
256,192,18795,1,8,0:0:0:0:
256,192,19545,1,0,0:0:0:0:
256,192,20295,1,8,0:0:0:0:
256,192,21045,1,0,0:0:0:0:
256,192,21545,1,0,0:0:0:0:
256,192,21795,1,8,0:0:0:0:
256,192,22545,1,8,0:0:0:0:
256,192,23295,1,8,0:0:0:0:
256,192,24045,1,0,0:0:0:0:
256,192,24545,1,0,0:0:0:0:
256,192,24795,1,8,0:0:0:0:
256,192,25045,1,0,0:0:0:0:
256,192,28545,1,8,0:0:0:0:
256,192,28717,1,0,0:0:0:0:
256,192,29062,1,0,0:0:0:0:
256,192,29407,1,8,0:0:0:0:
256,192,29579,1,8,0:0:0:0:
256,192,29751,1,0,0:0:0:0:
256,192,29924,1,8,0:0:0:0:
256,192,30096,1,8,0:0:0:0:
256,192,30269,1,0,0:0:0:0:
256,192,30613,1,12,0:0:0:0:
256,192,31130,1,0,0:0:0:0:
256,192,31647,1,8,0:0:0:0:
256,192,32164,1,8,0:0:0:0:
256,192,32509,1,0,0:0:0:0:
256,192,32681,1,8,0:0:0:0:
256,192,33199,1,0,0:0:0:0:
256,192,33716,1,8,0:0:0:0:
256,192,34406,1,0,0:0:0:0:
256,192,34578,1,8,0:0:0:0:
256,192,34750,1,8,0:0:0:0:
256,192,35440,1,8,0:0:0:0:
256,192,35613,1,8,0:0:0:0:
256,192,35785,1,0,0:0:0:0:
256,192,36475,1,0,0:0:0:0:
256,192,36647,1,0,0:0:0:0:
256,192,36819,1,8,0:0:0:0:
256,192,37337,1,0,0:0:0:0:
256,192,37854,1,8,0:0:0:0:
256,192,38371,1,0,0:0:0:0:
256,192,38544,1,0,0:0:0:0:
256,192,38716,1,0,0:0:0:0:
256,192,38888,1,12,0:0:0:0:
256,192,39406,1,8,0:0:0:0:
256,192,39923,1,8,0:0:0:0:
256,192,40440,1,0,0:0:0:0:
256,192,40785,1,0,0:0:0:0:
256,192,40957,1,8,0:0:0:0:
256,192,41475,1,0,0:0:0:0:
256,192,41992,1,8,0:0:0:0:
256,192,42509,1,0,0:0:0:0:
256,192,42854,1,8,0:0:0:0:
256,192,43026,1,8,0:0:0:0:
256,192,43371,1,0,0:0:0:0:
256,192,43544,1,8,0:0:0:0:
256,192,43888,1,8,0:0:0:0:
256,192,44061,1,8,0:0:0:0:
256,192,44406,1,8,0:0:0:0:
256,192,44750,1,0,0:0:0:0:
256,192,44923,1,0,0:0:0:0:
256,192,45095,1,8,0:0:0:0:
256,192,45613,1,0,0:0:0:0:
256,192,46130,1,8,0:0:0:0:
256,192,46647,1,8,0:0:0:0:
256,192,47164,1,0,0:0:0:0:
256,192,47681,1,8,0:0:0:0:
256,192,48026,1,8,0:0:0:0:
256,192,48199,1,0,0:0:0:0:
256,192,48716,1,8,0:0:0:0:
256,192,49233,1,0,0:0:0:0:
256,192,49578,1,0,0:0:0:0:
256,192,49750,1,8,0:0:0:0:
256,192,50095,1,0,0:0:0:0:
256,192,50268,1,0,0:0:0:0:
256,192,50785,1,0,0:0:0:0:
256,192,51302,1,8,0:0:0:0:
256,192,51819,1,8,0:0:0:0:
256,192,52164,1,0,0:0:0:0:
256,192,52336,1,8,0:0:0:0:
256,192,53198,1,0,0:0:0:0:
256,192,53370,1,8,0:0:0:0:
256,192,53715,1,8,0:0:0:0:
256,192,53888,1,8,0:0:0:0:
256,192,54233,1,0,0:0:0:0:
256,192,54405,1,8,0:0:0:0:
256,192,55267,1,0,0:0:0:0:
256,192,55439,1,8,0:0:0:0:
256,192,55957,1,8,0:0:0:0:
256,192,56302,1,8,0:0:0:0:
256,192,56474,1,8,0:0:0:0:
256,192,56991,1,0,0:0:0:0:
256,192,57508,1,0,0:0:0:0:
256,192,58026,1,8,0:0:0:0:
256,192,58370,1,0,0:0:0:0:
256,192,58543,1,8,0:0:0:0:
256,192,59060,1,0,0:0:0:0:
256,192,59577,1,8,0:0:0:0:
256,192,60095,1,8,0:0:0:0:
256,192,60439,1,0,0:0:0:0:
256,192,60612,1,0,0:0:0:0:
256,192,61129,1,8,0:0:0:0:
256,192,61474,1,0,0:0:0:0:
256,192,61646,1,8,0:0:0:0:
256,192,61991,1,8,0:0:0:0:
256,192,62164,1,8,0:0:0:0:
256,192,62508,1,0,0:0:0:0:
256,192,62681,1,8,0:0:0:0:
256,192,63026,1,8,0:0:0:0:
256,192,63198,1,0,0:0:0:0:
256,192,63543,1,0,0:0:0:0:
256,192,63715,1,8,0:0:0:0:
256,192,64233,1,0,0:0:0:0:
256,192,64577,1,8,0:0:0:0:
256,192,64750,1,8,0:0:0:0:
256,192,65267,1,0,0:0:0:0:
256,192,65612,1,8,0:0:0:0:
256,192,65784,1,8,0:0:0:0:
256,192,66302,1,8,0:0:0:0:
256,192,66646,1,8,0:0:0:0:
256,192,66819,1,0,0:0:0:0:
256,192,67164,1,0,0:0:0:0:
256,192,67336,1,8,0:0:0:0:
256,192,67853,1,0,0:0:0:0:
256,192,68026,1,0,0:0:0:0:
256,192,68198,1,0,0:0:0:0:
256,192,68370,1,8,0:0:0:0:
256,192,68715,1,8,0:0:0:0:
256,192,68888,1,0,0:0:0:0:
256,192,69405,1,8,0:0:0:0:
256,192,69922,1,8,0:0:0:0:
256,192,70095,1,8,0:0:0:0:
256,192,70267,1,8,0:0:0:0:
256,192,70439,1,0,0:0:0:0:
256,192,70784,1,0,0:0:0:0:
256,192,70957,1,8,0:0:0:0:
256,192,71474,1,8,0:0:0:0:
256,192,71991,1,0,0:0:0:0:
256,192,72336,1,8,0:0:0:0:
256,192,72508,1,8,0:0:0:0:
256,192,72681,1,0,0:0:0:0:
256,192,72853,1,0,0:0:0:0:
256,192,73026,1,8,0:0:0:0:
256,192,73543,1,0,0:0:0:0:
256,192,73715,1,8,0:0:0:0:
256,192,73888,1,8,0:0:0:0:
256,192,74060,1,0,0:0:0:0:
256,192,74577,1,8,0:0:0:0:
256,192,75095,1,0,0:0:0:0:
256,192,75612,1,8,0:0:0:0:
256,192,76129,1,0,0:0:0:0:
256,192,76646,1,8,0:0:0:0:
256,192,77164,1,8,0:0:0:0:
256,192,77336,1,0,0:0:0:0:
256,192,77508,1,0,0:0:0:0:
256,192,77681,1,12,0:0:0:0:
256,192,78198,1,12,0:0:0:0:
256,192,78371,1,8,0:0:0:0:
256,192,78545,1,0,0:0:0:0:
256,192,78719,1,8,0:0:0:0:
256,192,79067,1,0,0:0:0:0:
256,192,79241,1,8,0:0:0:0:
256,192,79763,1,0,0:0:0:0:
256,192,79937,1,8,0:0:0:0:
256,192,80111,1,8,0:0:0:0:
256,192,80284,1,8,0:0:0:0:
256,192,80806,1,0,0:0:0:0:
256,192,81328,1,8,0:0:0:0:
256,192,81850,1,8,0:0:0:0:
256,192,82371,1,0,0:0:0:0:
256,192,82545,1,8,0:0:0:0:
256,192,82719,1,8,0:0:0:0:
256,192,82893,1,0,0:0:0:0:
256,192,83241,1,8,0:0:0:0:
256,192,83415,1,0,0:0:0:0:
256,192,83937,1,8,0:0:0:0:
256,192,84111,1,0,0:0:0:0:
256,192,84284,1,0,0:0:0:0:
256,192,84458,1,0,0:0:0:0:
256,192,84980,1,8,0:0:0:0:
256,192,85502,1,8,0:0:0:0:
256,192,86024,1,0,0:0:0:0:
256,192,86545,1,8,0:0:0:0:
256,192,86893,1,0,0:0:0:0:
256,192,87067,1,8,0:0:0:0:
256,192,87415,1,8,0:0:0:0:
256,192,87589,1,0,0:0:0:0:
256,192,88111,1,8,0:0:0:0:
256,192,88458,1,8,0:0:0:0:
256,192,88632,1,8,0:0:0:0:
256,192,88980,1,0,0:0:0:0:
256,192,89154,1,8,0:0:0:0:
256,192,89502,1,8,0:0:0:0:
256,192,89676,1,0,0:0:0:0:
256,192,90198,1,8,0:0:0:0:
256,192,90719,1,8,0:0:0:0:
256,192,90893,1,8,0:0:0:0:
256,192,91067,1,0,0:0:0:0:
256,192,91241,1,0,0:0:0:0:
256,192,91763,1,8,0:0:0:0:
256,192,91937,1,8,0:0:0:0:
256,192,92111,1,0,0:0:0:0:
256,192,92284,1,0,0:0:0:0:
256,192,92632,1,0,0:0:0:0:
256,192,92806,1,8,0:0:0:0:
256,192,93328,1,8,0:0:0:0:
256,192,93676,1,0,0:0:0:0:
256,192,93850,1,8,0:0:0:0:
256,192,94198,1,8,0:0:0:0:
256,192,94371,1,8,0:0:0:0:
256,192,94893,1,4,0:0:0:0:
256,192,95067,1,0,0:0:0:0:
256,192,95241,1,8,0:0:0:0:
256,192,95415,1,8,0:0:0:0:
256,192,95937,1,0,0:0:0:0:
256,192,96111,1,0,0:0:0:0:
256,192,96284,1,8,0:0:0:0:
256,192,96458,1,8,0:0:0:0:
256,192,96806,1,0,0:0:0:0:
256,192,96980,1,8,0:0:0:0:
256,192,97502,1,8,0:0:0:0:
256,192,97850,1,0,0:0:0:0:
256,192,98024,1,8,0:0:0:0:
256,192,98371,1,8,0:0:0:0:
256,192,98545,1,8,0:0:0:0:
256,192,98893,1,0,0:0:0:0:
256,192,99067,1,12,0:0:0:0:
256,192,99415,1,0,0:0:0:0:
256,192,99589,1,0,0:0:0:0:
256,192,100111,1,8,0:0:0:0:
256,192,100458,1,0,0:0:0:0:
256,192,100632,1,0,0:0:0:0:
256,192,100980,1,8,0:0:0:0:
256,192,101154,1,8,0:0:0:0:
256,192,101502,1,0,0:0:0:0:
256,192,101676,1,8,0:0:0:0:
256,192,101850,1,0,0:0:0:0:
256,192,102024,1,0,0:0:0:0:
256,192,102198,1,12,0:0:0:0:
256,192,103241,1,0,0:0:0:0:
256,192,104429,1,8,0:0:0:0:
256,192,105029,1,0,0:0:0:0:
256,192,105629,1,8,0:0:0:0:
256,192,106232,1,0,0:0:0:0:
256,192,108041,1,0,0:0:0:0:
256,192,110453,8,0,115277,0:0:0:0:
