osu file format v14

[General]
AudioFilename: audio.mp3
AudioLeadIn: 0
PreviewTime: 51586
Countdown: 0
SampleSet: Soft
StackLeniency: 0.7
Mode: 3
LetterboxInBreaks: 0
SpecialStyle: 0
WidescreenStoryboard: 0

[Editor]
DistanceSpacing: 1.6
BeatDivisor: 4
GridSize: 32
TimelineZoom: 1.4

[Metadata]
Title:Sootto Blanket
TitleUnicode:そおっとブランケット
Artist:Chino (CV: Minase Inori)
ArtistUnicode:チノ (CV: 水瀬いのり)
Creator:RiP46
Version:Easy
Source:ご注文はうさぎですか??
Tags:香風 智乃 kafuu Kafū character song gochuumon wa usagi desu ka?? is the order a rabbit gochiusa ごちうさ cup of chino Japanese Pop short cut version ver anime buranketto Jpop J-pop Rhezie
BeatmapID:2386466
BeatmapSetID:1142756

[Difficulty]
HPDrainRate:7
CircleSize:4
OverallDifficulty:7
ApproachRate:5
SliderMultiplier:1.4
SliderTickRate:1

[Events]
//Background and Video events
0,0,"BG.jpg",0,0
//Break Periods
//Storyboard Layer 0 (Background)
//Storyboard Layer 1 (Fail)
//Storyboard Layer 2 (Pass)
//Storyboard Layer 3 (Foreground)
//Storyboard Layer 4 (Overlay)
//Storyboard Sound Samples

[TimingPoints]
595,344.827586206897,4,2,1,70,1,0
51629,-100,4,2,1,70,0,1
72319,-100,4,2,1,70,0,0

[HitObjects]
192,192,595,5,0,0:0:0:0:
192,192,939,1,0,0:0:0:0:
320,192,1284,1,8,0:0:0:0:
192,192,1457,1,2,0:0:0:0:
64,192,1629,128,12,1974:0:0:0:0:
320,192,1974,1,2,0:0:0:0:
448,192,1974,1,4,0:0:0:0:
64,192,2319,1,8,0:0:0:0:
320,192,2663,1,2,0:0:0:0:
192,192,2836,1,2,0:0:0:0:
64,192,3008,1,8,0:0:0:0:
448,192,3181,1,2,0:0:0:0:
192,192,3526,1,2,0:0:0:0:
448,192,3698,1,8,0:0:0:0:
64,192,4043,1,2,0:0:0:0:
192,192,4215,1,2,0:0:0:0:
320,192,4388,1,8,0:0:0:0:
64,192,4732,1,2,0:0:0:0:
192,192,4732,1,4,0:0:0:0:
448,192,5077,1,8,0:0:0:0:
192,192,5422,1,2,0:0:0:0:
320,192,5595,1,2,0:0:0:0:
448,192,5767,1,8,0:0:0:0:
64,192,5939,1,6,0:0:0:0:
320,192,6284,1,2,0:0:0:0:
64,192,6457,1,8,0:0:0:0:
448,192,6801,1,2,0:0:0:0:
320,192,6974,1,8,0:0:0:0:
192,192,7146,1,8,0:0:0:0:
64,192,7319,1,2,0:0:0:0:
448,192,7491,1,2,0:0:0:0:
448,192,8008,1,2,0:0:0:0:
64,192,8526,1,2,0:0:0:0:
64,192,9043,1,2,0:0:0:0:
320,192,9560,1,14,0:0:0:0:
192,192,9905,128,10,10250:0:0:0:0:
64,192,10250,1,2,0:0:0:0:
448,192,10250,1,4,0:0:0:0:
320,192,10595,1,8,0:0:0:0:
64,192,10939,1,2,0:0:0:0:
192,192,11112,1,0,0:0:0:70:Tom2.wav
320,192,11284,1,0,0:0:0:70:Tom3.wav
64,192,11457,128,2,13008:0:0:0:0:
448,192,11457,1,4,0:0:0:0:
448,192,13008,1,0,0:0:0:0:
448,192,13698,1,0,0:0:0:0:
192,192,14388,1,0,0:0:0:0:
192,192,15077,1,0,0:0:0:0:
320,192,15767,1,0,0:0:0:0:
320,192,16457,1,0,0:0:0:0:
64,192,17146,1,0,0:0:0:0:
64,192,17836,1,0,0:0:0:0:
448,192,18526,1,0,0:0:0:0:
448,192,19215,1,0,0:0:0:0:
192,192,19905,1,0,0:0:0:0:
192,192,20595,1,0,0:0:0:0:
320,192,21284,1,0,0:0:0:0:
320,192,21974,1,0,0:0:0:0:
448,192,22663,1,0,0:0:0:0:
64,192,22836,1,8,0:0:0:0:
320,192,23008,128,8,23353:0:0:0:0:
192,192,23353,128,0,23698:0:0:0:70:Tom2.wav
64,192,23698,1,0,0:0:0:70:Tom3.wav
320,192,24043,1,2,0:0:0:0:
448,192,24043,1,4,0:0:0:0:
64,192,24388,1,8,0:0:0:0:
320,192,24732,1,2,0:0:0:0:
192,192,24905,1,2,0:0:0:0:
64,192,25077,1,0,0:0:0:0:
448,192,25250,1,8,0:0:0:0:
192,192,25595,1,2,0:0:0:0:
320,192,25767,1,2,0:0:0:0:
448,192,25939,1,8,0:0:0:0:
192,192,26284,1,2,0:0:0:0:
448,192,26457,1,8,0:0:0:0:
64,192,26801,1,4,0:0:0:0:
192,192,26801,1,2,0:0:0:0:
448,192,27146,1,8,0:0:0:0:
192,192,27491,1,2,0:0:0:0:
320,192,27663,1,2,0:0:0:0:
64,192,28008,1,8,0:0:0:0:
448,192,28008,1,4,0:0:0:0:
320,192,28353,1,2,0:0:0:0:
64,192,28526,1,8,0:0:0:0:
192,192,28526,1,4,0:0:0:0:
448,192,28870,1,2,0:0:0:0:
320,192,29043,1,0,0:0:0:70:Tom2.wav
64,192,29215,1,8,0:0:0:0:
192,192,29388,1,0,0:0:0:70:Tom3.wav
320,192,29560,1,2,0:0:0:0:
64,192,29905,1,2,0:0:0:0:
448,192,29905,1,4,0:0:0:0:
192,192,30250,1,2,0:0:0:0:
320,192,30422,1,2,0:0:0:0:
64,192,30767,1,8,0:0:0:0:
448,192,31112,1,2,0:0:0:0:
320,192,31284,1,2,0:0:0:0:
192,192,31457,1,8,0:0:0:0:
64,192,31629,1,8,0:0:0:0:
320,192,31974,1,8,0:0:0:0:
64,192,32319,1,2,0:0:0:0:
192,192,32319,1,4,0:0:0:0:
320,192,32663,1,8,0:0:0:0:
64,192,32836,1,2,0:0:0:0:
448,192,32836,1,4,0:0:0:0:
192,192,33181,1,2,0:0:0:0:
320,192,33353,1,2,0:0:0:0:
64,192,33526,1,8,0:0:0:0:
448,192,33526,1,4,0:0:0:0:
320,192,33870,1,2,0:0:0:0:
192,192,34043,1,8,0:0:0:0:
64,192,34215,1,2,0:0:0:0:
448,192,34215,1,4,0:0:0:0:
192,192,34560,1,8,0:0:0:0:
320,192,34732,1,0,0:0:0:70:Tom1.wav
64,192,35077,1,2,0:0:0:0:
192,192,35077,1,4,0:0:0:0:
448,192,35767,1,8,0:0:0:0:
192,192,36457,1,2,0:0:0:0:
320,192,36686,1,2,0:0:0:0:
448,192,36916,1,2,0:0:0:0:
64,192,37146,1,8,0:0:0:0:
192,192,37146,1,4,0:0:0:0:
320,192,37836,1,2,0:0:0:0:
64,192,38526,1,8,0:0:0:0:
320,192,38698,1,2,0:0:0:0:
448,192,38698,1,4,0:0:0:0:
64,192,39043,1,2,0:0:0:0:
192,192,39043,1,4,0:0:0:0:
320,192,39560,1,8,0:0:0:0:
192,192,39905,1,8,0:0:0:0:
64,192,40250,1,8,0:0:0:0:
320,192,40422,1,2,0:0:0:0:
448,192,40422,1,4,0:0:0:0:
64,192,40939,1,8,0:0:0:0:
448,192,41284,1,2,0:0:0:0:
320,192,41457,1,2,0:0:0:0:
192,192,41629,1,8,0:0:0:0:
448,192,41974,128,8,42319:0:0:0:0:
320,192,42319,1,8,0:0:0:0:
64,192,42491,1,2,0:0:0:0:
192,192,42491,1,4,0:0:0:0:
64,192,42836,1,2,0:0:0:0:
320,192,43008,128,8,43353:0:0:0:0:
192,192,43353,1,2,0:0:0:0:
448,192,43353,1,4,0:0:0:0:
64,192,43698,1,8,0:0:0:0:
448,192,44043,1,2,0:0:0:0:
320,192,44215,1,2,0:0:0:0:
192,192,44388,1,8,0:0:0:0:
448,192,44732,1,2,0:0:0:0:
320,192,44905,1,2,0:0:0:0:
64,192,45077,1,8,0:0:0:0:
192,192,45250,1,8,0:0:0:0:
448,192,45595,1,2,0:0:0:0:
64,192,45767,1,8,0:0:0:0:
192,192,46112,1,2,0:0:0:0:
320,192,46112,1,4,0:0:0:0:
320,192,46457,1,8,0:0:0:0:
64,192,46801,1,2,0:0:0:0:
64,192,47146,1,8,0:0:0:0:
448,192,47491,1,2,0:0:0:0:
448,192,47836,1,8,0:0:0:0:
192,192,48181,1,2,0:0:0:0:
192,192,48526,1,0,0:0:0:70:Tom1.wav
64,192,48870,128,2,49560:0:0:0:0:
448,192,48870,1,4,0:0:0:0:
192,192,49560,1,2,0:0:0:0:
320,192,49560,128,4,50250:0:0:0:0:
64,192,50250,1,2,0:0:0:0:
448,192,50250,128,4,50882:0:0:0:0:
64,192,50882,128,0,51629:0:0:0:0:
320,192,51629,1,2,0:0:0:0:
448,192,51629,1,4,0:0:0:0:
448,192,51974,1,8,0:0:0:0:
64,192,52319,1,8,0:0:0:0:
320,192,52491,1,2,0:0:0:0:
64,192,52663,1,8,0:0:0:0:
320,192,52836,1,2,0:0:0:0:
192,192,53008,1,8,0:0:0:0:
192,192,53353,1,8,0:0:0:0:
448,192,53698,1,8,0:0:0:0:
64,192,53870,1,2,0:0:0:0:
448,192,54043,1,8,0:0:0:0:
64,192,54215,1,2,0:0:0:0:
320,192,54388,1,8,0:0:0:0:
320,192,54732,1,8,0:0:0:0:
448,192,55077,1,8,0:0:0:0:
192,192,55250,1,2,0:0:0:0:
448,192,55422,1,8,0:0:0:0:
192,192,55595,1,2,0:0:0:0:
64,192,55767,1,8,0:0:0:0:
64,192,56112,1,8,0:0:0:0:
192,192,56284,1,2,0:0:0:0:
448,192,56457,1,2,0:0:0:0:
320,192,56629,1,8,0:0:0:0:
192,192,56801,128,8,57146:0:0:0:0:
64,192,57146,1,2,0:0:0:0:
448,192,57146,1,4,0:0:0:0:
64,192,57491,1,8,0:0:0:0:
320,192,57836,1,2,0:0:0:0:
192,192,58008,1,2,0:0:0:0:
64,192,58181,1,8,0:0:0:0:
448,192,58526,1,6,0:0:0:0:
448,192,58870,1,8,0:0:0:0:
192,192,59215,1,2,0:0:0:0:
320,192,59388,1,2,0:0:0:0:
448,192,59560,1,8,0:0:0:0:
64,192,59905,128,10,60250:0:0:0:0:
192,192,60250,1,8,0:0:0:0:
320,192,60422,1,2,0:0:0:0:
448,192,60422,1,4,0:0:0:0:
64,192,60767,1,2,0:0:0:0:
192,192,60767,1,4,0:0:0:0:
320,192,61112,1,2,0:0:0:0:
448,192,61112,1,4,0:0:0:0:
192,192,61457,1,2,0:0:0:0:
64,192,61629,1,8,0:0:0:0:
448,192,61629,1,4,0:0:0:0:
320,192,61974,1,2,0:0:0:0:
192,192,62146,1,8,0:0:0:0:
448,192,62319,128,8,62663:0:0:0:0:
64,192,62663,1,12,0:0:0:0:
192,192,62663,1,2,0:0:0:0:
64,192,63008,1,8,0:0:0:0:
320,192,63353,1,8,0:0:0:0:
192,192,63526,1,2,0:0:0:0:
320,192,63698,1,8,0:0:0:0:
192,192,63870,1,2,0:0:0:0:
448,192,64043,1,8,0:0:0:0:
448,192,64388,1,8,0:0:0:0:
64,192,64732,1,8,0:0:0:0:
320,192,64905,1,2,0:0:0:0:
64,192,65077,1,8,0:0:0:0:
320,192,65250,1,2,0:0:0:0:
192,192,65422,1,8,0:0:0:0:
192,192,65767,1,8,0:0:0:0:
448,192,66112,1,8,0:0:0:0:
64,192,66284,1,2,0:0:0:0:
448,192,66457,1,8,0:0:0:0:
64,192,66629,1,8,0:0:0:0:
320,192,66801,1,4,0:0:0:0:
448,192,66801,1,2,0:0:0:0:
320,192,67146,1,8,0:0:0:0:
64,192,67319,1,4,0:0:0:0:
192,192,67319,1,2,0:0:0:0:
192,192,67663,1,2,0:0:0:0:
320,192,67836,128,0,68181:0:0:0:70:Tom1.wav
64,192,68181,1,4,0:0:0:0:
448,192,68181,1,2,0:0:0:0:
448,192,68526,1,8,0:0:0:0:
64,192,68870,1,2,0:0:0:0:
192,192,69043,1,2,0:0:0:0:
320,192,69215,1,8,0:0:0:0:
64,192,69560,1,2,0:0:0:0:
448,192,69732,1,2,0:0:0:0:
64,192,69905,1,8,0:0:0:0:
448,192,70250,1,2,0:0:0:0:
320,192,70422,1,2,0:0:0:0:
64,192,70595,1,8,0:0:0:0:
192,192,70767,1,0,0:0:0:70:Tom1.wav
320,192,70939,1,2,0:0:0:0:
448,192,70939,1,4,0:0:0:0:
64,192,71284,128,8,71629:0:0:0:0:
192,192,71629,128,0,71974:0:0:0:70:Tom1.wav
320,192,71974,128,0,72319:0:0:0:70:Tom2.wav
64,192,72319,1,4,0:0:0:0:
448,192,72319,128,2,73698:0:0:0:0:
320,192,73353,1,0,0:0:0:70:Tom3.wav
64,192,73698,1,2,0:0:0:0:
192,192,73698,1,4,0:0:0:0:
448,192,74043,1,8,0:0:0:0:
192,192,74388,1,2,0:0:0:0:
320,192,74560,1,2,0:0:0:0:
448,192,74732,1,0,0:0:0:0:
64,192,74905,1,8,0:0:0:0:
320,192,75250,1,2,0:0:0:0:
192,192,75595,1,8,0:0:0:0:
448,192,75767,1,8,0:0:0:0:
64,192,75939,1,2,0:0:0:0:
320,192,76112,1,8,0:0:0:0:
64,192,76457,1,2,0:0:0:0:
192,192,76457,1,4,0:0:0:0:
320,192,76974,1,2,0:0:0:0:
448,192,76974,1,4,0:0:0:0:
64,192,77491,1,2,0:0:0:0:
192,192,77491,1,4,0:0:0:0:
448,192,78008,1,0,0:0:0:70:Tom1.wav
320,192,78181,1,8,0:0:0:0:
192,192,78353,1,0,0:0:0:70:Tom2.wav
64,192,78526,1,8,0:0:0:0:
448,192,78870,1,8,0:0:0:0:
64,192,79215,1,2,0:0:0:0:
192,192,79215,1,4,0:0:0:0:
448,192,79560,1,8,0:0:0:0:
192,192,79905,1,2,0:0:0:0:
320,192,80077,1,2,0:0:0:0:
448,192,80250,1,8,0:0:0:0:
64,192,80422,1,2,0:0:0:0:
320,192,80767,1,2,0:0:0:0:
64,192,80939,1,8,0:0:0:0:
320,192,81284,1,2,0:0:0:0:
192,192,81457,1,2,0:0:0:0:
64,192,81629,1,8,0:0:0:0:
320,192,81974,1,2,0:0:0:0:
448,192,81974,1,4,0:0:0:0:
64,192,82319,1,8,0:0:0:0:
320,192,82663,1,2,0:0:0:0:
192,192,82836,1,2,0:0:0:0:
64,192,83008,1,8,0:0:0:0:
320,192,83181,1,2,0:0:0:0:
448,192,83181,1,4,0:0:0:0:
192,192,83526,1,2,0:0:0:0:
448,192,83698,1,8,0:0:0:0:
64,192,84043,1,2,0:0:0:0:
192,192,84215,1,8,0:0:0:0:
320,192,84388,1,8,0:0:0:0:
448,192,84560,1,8,0:0:0:0:
64,192,84732,1,2,0:0:0:0:
192,192,84732,1,4,0:0:0:0:
64,192,85250,1,2,0:0:0:0:
192,192,85250,1,4,0:0:0:0:
320,192,85767,1,2,0:0:0:0:
448,192,85767,1,4,0:0:0:0:
320,192,86284,1,2,0:0:0:0:
448,192,86284,1,4,0:0:0:0:
64,192,86801,128,8,87146:0:0:0:0:
192,192,86801,1,4,0:0:0:0:
448,192,87146,128,8,87491:0:0:0:0:
64,192,87491,1,2,0:0:0:0:
192,192,87491,1,4,0:0:0:0:
448,192,87836,1,8,0:0:0:0:
320,192,88181,1,8,0:0:0:0:
192,192,88526,1,0,0:0:0:70:Tom3.wav
64,192,88698,128,2,90250:0:0:0:0:
448,192,88698,1,4,0:0:0:0:
320,192,90250,1,2,0:0:0:0:
448,192,90250,1,4,0:0:0:0:
