osu file format v14

[General]
AudioFilename: audio.mp3
AudioLeadIn: 0
PreviewTime: 62651
Countdown: 0
SampleSet: Normal
StackLeniency: 0.7
Mode: 1
LetterboxInBreaks: 0
WidescreenStoryboard: 0

[Editor]
Bookmarks: 6530,6540,8812,14266,15619,15629,16048,16058,16550,16560,16575,16594,18516,42943,47232,69518,90304,103804,105497,105524,131232,136375,149575,158353,167153,174983,177389,179783,181061,186369,189493,190398,216969,237540,253183,254040
DistanceSpacing: 1.2
BeatDivisor: 4
GridSize: 32
TimelineZoom: 2.987999

[Metadata]
Title:Sentimental Gokko
TitleUnicode:センチメンタルごっこ
Artist:Chino (CV: Minase Inori)
ArtistUnicode:チノ (CV: 水瀬いのり)
Creator:Smallwu
Version:Pyoni (2019 ver.)
Source:ご注文はうさぎですか??
Tags:Cocoa chan is Kawaii Tyistiana , ごちうさ Gochiusa Gochuumon wa usagi desu ka Is the order a rabbit ぴょん Pyonpyon , Character Song Album 香風 智乃 kaffu chino hoto cocoa GNCA-0559 japanese anime キャラクターソロシリーズ character solo series
BeatmapID:1916815
BeatmapSetID:916708

[Difficulty]
HPDrainRate:6
CircleSize:5
OverallDifficulty:6
ApproachRate:6
SliderMultiplier:1.4
SliderTickRate:1

[Events]
//Background and Video events
0,0,"gochibg_chino_3.jpg",0,20
//Break Periods
2,62851,71886
2,76565,78743
2,117718,133610
2,158575,172725
2,184099,185318
//Storyboard Layer 0 (Background)
//Storyboard Layer 1 (Fail)
//Storyboard Layer 2 (Pass)
//Storyboard Layer 3 (Foreground)
//Storyboard Layer 4 (Overlay)
//Storyboard Sound Samples

[TimingPoints]
1090,454.545454545455,4,1,0,60,1,0
1090,-82.5082508250825,4,1,0,60,0,0
14255,454.545454545455,4,1,0,40,1,8
14255,-82.6446280991736,4,1,0,40,0,0
14709,-82.6446280991736,4,1,0,60,0,0
15050,-82.6446280991736,4,1,0,40,0,0
15391,-82.6446280991736,4,1,0,60,0,0
15618,454.545454545455,4,1,0,50,1,0
15618,-87.719298245614,4,1,0,50,0,0
15788,517.241379310345,4,1,0,50,1,8
15788,-80,4,1,0,50,0,0
16046,517.241379310345,4,1,0,30,1,0
16046,-82.6446280991736,4,1,0,30,0,0
16304,555.555555555556,4,1,0,50,1,8
16304,-80,4,1,0,50,0,8
16547,592.738947888368,4,1,0,30,1,0
16547,-83.3333333333333,4,1,0,30,0,8
17139,1374.5704467354,4,1,0,100,1,0
17139,-15.25,4,1,0,100,0,0
18513,214.285714285714,4,1,0,75,1,0
30512,214.285714285714,4,1,0,75,1,0
33940,214.285714285714,4,1,0,75,1,8
35225,214.285714285714,4,1,0,75,1,0
42082,214.285714285714,4,1,0,75,1,8
42510,214.285714285714,4,1,0,75,1,0
42939,214.285714285714,4,1,0,75,1,8
45510,214.285714285714,4,1,0,75,1,0
47224,214.285714285714,4,1,0,75,1,8
50652,428.571428571429,4,1,0,60,1,0
50652,-50,4,1,0,60,0,0
54080,214.285714285714,4,1,0,75,1,0
60937,428.571428571429,4,1,0,60,1,0
60937,-50,4,1,0,60,0,0
61365,-125,4,1,0,60,0,0
62651,214.285714285714,4,1,0,75,1,1
72936,-100,4,1,0,75,0,0
76365,-100,4,1,0,75,0,1
79793,-100,4,1,0,75,0,0
90079,454.545454545455,4,1,0,75,1,8
90378,285.714285714286,5,1,0,75,1,0
91806,857.142857142857,6,1,0,75,1,8
91806,-35.0877192982456,6,1,0,75,0,8
93520,428.571428571429,4,1,0,75,1,0
93520,-70.4225352112676,4,1,0,75,0,0
96948,285.714285714286,6,1,0,75,1,0
102090,-100,6,1,0,75,0,0
102233,-104.166666666667,6,1,0,75,0,0
102376,-108.695652173913,6,1,0,75,0,0
102519,-112.359550561798,6,1,0,75,0,0
102662,-117.647058823529,6,1,0,75,0,0
102805,-123.456790123457,6,1,0,75,0,0
102948,-129.87012987013,6,1,0,75,0,0
103090,-136.986301369863,6,1,0,75,0,0
103233,-142.857142857143,6,1,0,75,0,0
103376,-151.515151515152,6,1,0,75,0,0
103519,-161.290322580645,6,1,0,75,0,0
103662,-172.413793103448,6,1,0,75,0,0
103805,214.285714285714,4,1,0,75,1,0
103805,-105.263157894737,4,1,0,75,0,0
105519,214.285714285714,4,1,0,75,1,0
115804,428.571428571429,4,1,0,60,1,0
115804,-50,4,1,0,60,0,0
116661,-125,4,1,0,60,0,0
117518,214.285714285714,4,1,0,75,1,1
127803,-100,4,1,0,75,0,0
131232,-100,4,1,0,75,0,1
134660,-100,4,1,0,75,0,0
136375,200,11,1,0,95,1,0
140775,200,11,1,0,60,1,0
174975,200,6,1,0,60,1,0
179775,212.765957446809,6,1,0,60,1,0
181051,227.272727272727,6,1,0,40,1,0
182414,250,4,1,0,40,1,0
183198,312.5,4,1,0,30,1,8
183198,-96.1538461538461,4,1,0,30,0,8
183510,389.61038961039,4,1,0,30,1,8
183510,-97.0873786407767,4,1,0,30,0,8
183899,2500,4,1,0,30,1,0
183899,-20,4,1,0,30,0,0
186368,277.777777777778,4,1,0,30,1,0
186368,-131.578947368421,4,1,0,30,0,0
187479,250,4,1,0,40,1,0
187479,-120.481927710843,4,1,0,40,0,0
188479,-100,4,1,0,40,0,0
189479,227.272727272727,4,1,0,60,1,0
189479,-94.3396226415094,4,1,0,60,0,0
190388,214.285714285714,4,1,0,75,1,0
192102,214.285714285714,4,1,0,75,1,0
198959,428.571428571429,4,1,0,60,1,0
198959,-50,4,1,0,60,0,0
200673,428.571428571429,4,1,0,60,1,8
202280,-50,4,1,0,60,0,8
202387,214.285714285714,4,1,0,90,1,0
203244,214.285714285714,4,1,0,75,1,1
213529,-100,4,1,0,75,0,0
216958,-100,4,1,0,75,0,1
227243,-100,4,1,0,75,0,0
230672,-100,4,1,0,75,0,1
244386,-100,4,1,0,75,0,0
252958,214.285714285714,4,1,0,75,1,8
253172,214.285714285714,4,1,0,75,1,0
253185,-25,4,1,0,75,0,0
254029,-100,4,1,0,75,0,0

[HitObjects]
256,192,1090,5,0,0:0:0:0:
256,192,1544,1,2,0:0:0:0:
256,192,1999,1,2,0:0:0:0:
256,192,2453,1,2,0:0:0:0:
256,192,2908,5,0,0:0:0:0:
256,192,3362,1,2,0:0:0:0:
256,192,3817,1,2,0:0:0:0:
256,192,4271,1,2,0:0:0:0:
256,192,4726,5,0,0:0:0:0:
256,192,4953,1,2,0:0:0:0:
256,192,5180,1,2,0:0:0:0:
256,192,5408,1,0,0:0:0:0:
256,192,5635,1,2,0:0:0:0:
256,192,5862,1,0,0:0:0:0:
256,192,6090,1,2,0:0:0:0:
256,192,6317,1,2,0:0:0:0:
256,192,6545,5,0,0:0:0:0:
256,192,6658,1,0,0:0:0:0:
256,192,6772,1,0,0:0:0:0:
256,192,6886,1,2,0:0:0:0:
256,192,6999,1,0,0:0:0:0:
256,192,7225,1,0,0:0:0:0:
256,192,7339,1,2,0:0:0:0:
256,192,7453,1,0,0:0:0:0:
256,192,7680,1,0,0:0:0:0:
256,192,7794,1,2,0:0:0:0:
256,192,7907,1,0,0:0:0:0:
256,192,8021,1,0,0:0:0:0:
256,192,8135,1,0,0:0:0:0:
256,192,8248,1,2,0:0:0:0:
256,192,8362,1,2,0:0:0:0:
256,192,8816,5,2,0:0:0:0:
256,192,8930,1,2,0:0:0:0:
256,192,9044,1,0,0:0:0:0:
256,192,9157,1,0,0:0:0:0:
256,192,9271,1,0,0:0:0:0:
256,192,9385,1,0,0:0:0:0:
256,192,9498,1,2,0:0:0:0:
256,192,9612,1,0,0:0:0:0:
256,192,9725,1,2,0:0:0:0:
256,192,9839,1,2,0:0:0:0:
256,192,9953,1,0,0:0:0:0:
256,192,10066,1,0,0:0:0:0:
256,192,10180,1,0,0:0:0:0:
256,192,10294,1,0,0:0:0:0:
256,192,10407,1,2,0:0:0:0:
256,192,10521,1,2,0:0:0:0:
256,192,10635,1,2,0:0:0:0:
256,192,10748,1,0,0:0:0:0:
256,192,10862,1,0,0:0:0:0:
256,192,10975,1,2,0:0:0:0:
256,192,11089,1,0,0:0:0:0:
256,192,11203,1,2,0:0:0:0:
256,192,11316,1,0,0:0:0:0:
256,192,11430,1,2,0:0:0:0:
256,192,11544,1,0,0:0:0:0:
256,192,11657,1,2,0:0:0:0:
256,192,11771,1,0,0:0:0:0:
256,192,11885,1,2,0:0:0:0:
256,192,12226,5,2,0:0:0:0:
256,192,12454,1,2,0:0:0:0:
256,192,12567,1,2,0:0:0:0:
256,192,12681,1,0,0:0:0:0:
256,192,12795,1,0,0:0:0:0:
256,192,12908,1,0,0:0:0:0:
256,192,13022,1,0,0:0:0:0:
256,192,13136,1,2,0:0:0:0:
256,192,13249,1,2,0:0:0:0:
256,192,13363,1,0,0:0:0:0:
256,192,13476,1,2,0:0:0:0:
256,192,13590,1,2,0:0:0:0:
256,192,13704,1,0,0:0:0:0:
256,192,13817,1,2,0:0:0:0:
256,192,14255,5,0,0:0:0:0:
256,192,14709,5,2,0:0:0:0:
256,192,15050,5,0,0:0:0:0:
256,192,15391,5,2,0:0:0:0:
256,192,15618,5,0,0:0:0:0:
256,192,15788,1,0,0:0:0:0:
256,192,15852,1,0,0:0:0:0:
256,192,16046,5,2,0:0:0:0:
256,192,16304,5,0,0:0:0:0:
256,192,16338,1,0,0:0:0:0:
256,192,16547,1,2,0:0:0:0:
256,192,16584,1,2,0:0:0:0:
256,192,17139,5,4,0:0:0:0:
256,192,18513,5,4,0:0:0:0:
256,192,18727,1,0,0:0:0:0:
256,192,18941,1,2,0:0:0:0:
256,192,19155,1,0,0:0:0:0:
256,192,19263,1,2,0:0:0:0:
256,192,19370,1,0,0:0:0:0:
256,192,19477,1,2,0:0:0:0:
256,192,19584,1,0,0:0:0:0:
256,192,19691,1,0,0:0:0:0:
256,192,19798,1,2,0:0:0:0:
256,192,20012,1,0,0:0:0:0:
256,192,20227,5,0,0:0:0:0:
256,192,20441,1,2,0:0:0:0:
256,192,20655,1,2,0:0:0:0:
256,192,20870,1,0,0:0:0:0:
256,192,20977,1,2,0:0:0:0:
256,192,21084,1,2,0:0:0:0:
256,192,21191,1,2,0:0:0:0:
256,192,21298,1,2,0:0:0:0:
256,192,21405,1,0,0:0:0:0:
256,192,21512,1,2,0:0:0:0:
256,192,21727,1,2,0:0:0:0:
256,192,21941,5,0,0:0:0:0:
256,192,22155,1,2,0:0:0:0:
256,192,22370,1,0,0:0:0:0:
256,192,22584,1,2,0:0:0:0:
256,192,22691,1,2,0:0:0:0:
256,192,22798,1,0,0:0:0:0:
256,192,22905,1,0,0:0:0:0:
256,192,23012,1,2,0:0:0:0:
256,192,23120,1,0,0:0:0:0:
256,192,23227,1,2,0:0:0:0:
256,192,23334,1,0,0:0:0:0:
256,192,23441,1,0,0:0:0:0:
256,192,23655,5,6,0:0:0:0:
256,192,23870,1,0,0:0:0:0:
256,192,23977,1,0,0:0:0:0:
256,192,24030,1,0,0:0:0:0:
256,192,24084,1,2,0:0:0:0:
256,192,24191,1,2,0:0:0:0:
256,192,24298,1,0,0:0:0:0:
256,192,24512,5,4,0:0:0:0:
256,192,24727,1,2,0:0:0:0:
256,192,24834,1,2,0:0:0:0:
256,192,24887,1,0,0:0:0:0:
256,192,24941,1,2,0:0:0:0:
256,192,25048,1,0,0:0:0:0:
256,192,25155,1,2,0:0:0:0:
256,192,25370,5,0,0:0:0:0:
256,192,25584,1,2,0:0:0:0:
256,192,25691,1,2,0:0:0:0:
256,192,25905,1,0,0:0:0:0:
256,192,26012,1,2,0:0:0:0:
256,192,26120,1,2,0:0:0:0:
256,192,26227,1,0,0:0:0:0:
256,192,26441,1,2,0:0:0:0:
256,192,26548,1,0,0:0:0:0:
256,192,26762,1,2,0:0:0:0:
256,192,26870,1,0,0:0:0:0:
256,192,26923,1,0,0:0:0:0:
256,192,26977,1,0,0:0:0:0:
256,192,27030,1,0,0:0:0:0:
256,192,27084,5,2,0:0:0:0:
256,192,27191,1,0,0:0:0:0:
256,192,27298,1,0,0:0:0:0:
256,192,27405,1,2,0:0:0:0:
256,192,27512,1,0,0:0:0:0:
256,192,27566,1,2,0:0:0:0:
256,192,27620,1,0,0:0:0:0:
256,192,27727,1,2,0:0:0:0:
256,192,27834,1,0,0:0:0:0:
256,192,27941,1,2,0:0:0:0:
256,192,27995,1,2,0:0:0:0:
256,192,28048,1,0,0:0:0:0:
256,192,28155,1,0,0:0:0:0:
256,192,28262,1,2,0:0:0:0:
256,192,28316,1,2,0:0:0:0:
256,192,28370,1,0,0:0:0:0:
256,192,28477,1,0,0:0:0:0:
256,192,28584,1,2,0:0:0:0:
256,192,28637,1,2,0:0:0:0:
256,192,28691,1,2,0:0:0:0:
256,192,28745,1,2,0:0:0:0:
256,192,28798,5,4,0:0:0:0:
256,192,29227,1,2,0:0:0:0:
256,192,29280,1,2,0:0:0:0:
256,192,29334,1,2,0:0:0:0:
256,192,29387,1,2,0:0:0:0:
256,192,29441,1,0,0:0:0:0:
256,192,29495,1,0,0:0:0:0:
256,192,29548,1,0,0:0:0:0:
256,192,29602,1,0,0:0:0:0:
256,192,29655,5,2,0:0:0:0:
256,192,30030,1,2,0:0:0:0:
256,192,30298,1,2,0:0:0:0:
256,192,30512,5,0,0:0:0:0:
256,192,30726,1,2,0:0:0:0:
256,192,30940,1,0,0:0:0:0:
256,192,31154,1,2,0:0:0:0:
256,192,31262,1,0,0:0:0:0:
256,192,31476,1,0,0:0:0:0:
256,192,31583,1,2,0:0:0:0:
256,192,31690,1,2,0:0:0:0:
256,192,31797,1,0,0:0:0:0:
256,192,31904,1,0,0:0:0:0:
256,192,32011,1,2,0:0:0:0:
256,192,32226,1,0,0:0:0:0:
256,192,32440,1,2,0:0:0:0:
256,192,32547,1,0,0:0:0:0:
256,192,32654,1,0,0:0:0:0:
256,192,32761,1,2,0:0:0:0:
256,192,32869,1,2,0:0:0:0:
256,192,32976,1,0,0:0:0:0:
256,192,33029,1,0,0:0:0:0:
256,192,33083,1,2,0:0:0:0:
256,192,33190,1,2,0:0:0:0:
256,192,33297,5,2,0:0:0:0:
256,192,33511,5,2,0:0:0:0:
256,192,34582,5,2,0:0:0:0:
256,192,34797,1,0,0:0:0:0:
256,192,34904,1,2,0:0:0:0:
256,192,35118,1,0,0:0:0:0:
256,192,35225,5,4,0:0:0:0:
256,192,35439,1,2,0:0:0:0:
256,192,35653,1,0,0:0:0:0:
256,192,35867,1,2,0:0:0:0:
256,192,35975,1,2,0:0:0:0:
256,192,36082,1,0,0:0:0:0:
256,192,36296,1,2,0:0:0:0:
256,192,36510,1,0,0:0:0:0:
256,192,36725,1,2,0:0:0:0:
256,192,36832,1,0,0:0:0:0:
256,192,36939,1,2,0:0:0:0:
256,192,37153,1,0,0:0:0:0:
256,192,37367,1,0,0:0:0:0:
256,192,37475,1,2,0:0:0:0:
256,192,37689,1,2,0:0:0:0:
256,192,37796,1,0,0:0:0:0:
256,192,38010,1,2,0:0:0:0:
256,192,38224,1,0,0:0:0:0:
256,192,38439,1,2,0:0:0:0:
256,192,38546,1,0,0:0:0:0:
256,192,38653,1,2,0:0:0:0:
256,192,38867,1,0,0:0:0:0:
256,192,38974,1,2,0:0:0:0:
256,192,39189,1,2,0:0:0:0:
256,192,39296,1,2,0:0:0:0:
256,192,39510,1,0,0:0:0:0:
256,192,39724,1,2,0:0:0:0:
256,192,39832,1,0,0:0:0:0:
256,192,40046,1,0,0:0:0:0:
256,192,40153,1,0,0:0:0:0:
256,192,40367,1,2,0:0:0:0:
256,192,40582,1,0,0:0:0:0:
256,192,40796,1,2,0:0:0:0:
256,192,40903,1,2,0:0:0:0:
256,192,41117,1,2,0:0:0:0:
256,192,41332,1,0,0:0:0:0:
256,192,41439,1,2,0:0:0:0:
256,192,41546,1,2,0:0:0:0:
256,192,41653,1,0,0:0:0:0:
256,192,41760,1,0,0:0:0:0:
256,192,41867,1,2,0:0:0:0:
256,192,41921,1,2,0:0:0:0:
256,192,41974,1,2,0:0:0:0:
256,192,42028,1,2,0:0:0:0:
256,192,42082,5,0,0:0:0:0:
256,192,42510,5,6,0:0:0:0:
256,192,42939,5,0,0:0:0:0:
256,192,43153,1,2,0:0:0:0:
256,192,43367,1,0,0:0:0:0:
256,192,43581,1,2,0:0:0:0:
256,192,43689,1,0,0:0:0:0:
256,192,43796,1,2,0:0:0:0:
256,192,44010,1,2,0:0:0:0:
256,192,44224,1,2,0:0:0:0:
256,192,44331,1,0,0:0:0:0:
256,192,44546,1,2,0:0:0:0:
256,192,44760,1,0,0:0:0:0:
256,192,44867,1,2,0:0:0:0:
256,192,45081,1,0,0:0:0:0:
256,192,45296,1,2,0:0:0:0:
256,192,45510,5,4,0:0:0:0:
256,192,45724,1,0,0:0:0:0:
256,192,45938,1,6,0:0:0:0:
256,192,46152,1,2,0:0:0:0:
256,192,46367,1,4,0:0:0:0:
256,192,46581,1,2,0:0:0:0:
256,192,46795,1,4,0:0:0:0:
256,192,47010,1,2,0:0:0:0:
256,192,47117,1,2,0:0:0:0:
256,192,47224,5,0,0:0:0:0:
256,192,47438,1,2,0:0:0:0:
256,192,47652,1,0,0:0:0:0:
256,192,47759,1,2,0:0:0:0:
256,192,47866,1,0,0:0:0:0:
256,192,47974,1,2,0:0:0:0:
256,192,48027,1,2,0:0:0:0:
256,192,48081,1,0,0:0:0:0:
256,192,48188,1,0,0:0:0:0:
256,192,48295,1,2,0:0:0:0:
256,192,48402,1,2,0:0:0:0:
256,192,48509,1,0,0:0:0:0:
256,192,48616,1,2,0:0:0:0:
256,192,48724,1,2,0:0:0:0:
256,192,48777,1,2,0:0:0:0:
256,192,48831,1,2,0:0:0:0:
256,192,48884,1,2,0:0:0:0:
256,192,48938,5,0,0:0:0:0:
256,192,49045,1,0,0:0:0:0:
256,192,49152,1,2,0:0:0:0:
256,192,49259,1,2,0:0:0:0:
256,192,49366,1,2,0:0:0:0:
256,192,49474,1,0,0:0:0:0:
256,192,49581,1,2,0:0:0:0:
256,192,49688,1,2,0:0:0:0:
256,192,49795,1,2,0:0:0:0:
256,192,49902,1,0,0:0:0:0:
256,192,50009,1,2,0:0:0:0:
256,192,50116,1,0,0:0:0:0:
256,192,50223,1,2,0:0:0:0:
256,192,50277,1,0,0:0:0:0:
256,192,50331,1,0,0:0:0:0:
256,192,50384,1,0,0:0:0:0:
256,192,50438,1,2,0:0:0:0:
256,192,50491,1,0,0:0:0:0:
256,192,50545,1,0,0:0:0:0:
256,192,50652,5,4,0:0:0:0:
256,192,53223,5,0,0:0:0:0:
256,192,53437,1,2,0:0:0:0:
256,192,53866,1,2,0:0:0:0:
256,192,54080,5,4,0:0:0:0:
256,192,54294,1,2,0:0:0:0:
256,192,54508,1,0,0:0:0:0:
256,192,54615,1,2,0:0:0:0:
256,192,54722,1,2,0:0:0:0:
256,192,54830,1,0,0:0:0:0:
256,192,54937,1,2,0:0:0:0:
256,192,55151,1,0,0:0:0:0:
256,192,55258,1,2,0:0:0:0:
256,192,55472,1,0,0:0:0:0:
256,192,55580,1,2,0:0:0:0:
256,192,55687,1,2,0:0:0:0:
256,192,55794,1,0,0:0:0:0:
256,192,56008,1,2,0:0:0:0:
256,192,56222,1,2,0:0:0:0:
256,192,56437,1,0,0:0:0:0:
256,192,56651,5,2,0:0:0:0:
256,192,56758,1,0,0:0:0:0:
256,192,56865,1,2,0:0:0:0:
256,192,56972,1,2,0:0:0:0:
256,192,57079,1,0,0:0:0:0:
256,192,57187,1,0,0:0:0:0:
256,192,57294,1,2,0:0:0:0:
256,192,57401,1,0,0:0:0:0:
256,192,57508,5,2,0:0:0:0:
256,192,57722,1,0,0:0:0:0:
256,192,57937,1,2,0:0:0:0:
256,192,58151,1,0,0:0:0:0:
256,192,58365,5,2,0:0:0:0:
256,192,58472,1,0,0:0:0:0:
256,192,58579,1,2,0:0:0:0:
256,192,58687,1,0,0:0:0:0:
256,192,58740,1,0,0:0:0:0:
256,192,58794,1,2,0:0:0:0:
256,192,58901,1,0,0:0:0:0:
256,192,59008,1,2,0:0:0:0:
256,192,59115,1,2,0:0:0:0:
256,192,59222,5,0,0:0:0:0:
256,192,59437,1,0,0:0:0:0:
256,192,59651,5,6,0:0:0:0:
256,192,59865,1,2,0:0:0:0:
256,192,59972,1,2,0:0:0:0:
256,192,60079,1,0,0:0:0:0:
256,192,60294,1,0,0:0:0:0:
256,192,60508,5,6,0:0:0:0:
256,192,60722,1,2,0:0:0:0:
256,192,60937,5,0,0:0:0:0:
256,192,61365,5,2,0:0:0:0:
256,192,61401,1,2,0:0:0:0:
256,192,61794,5,2,0:0:0:0:
256,192,62222,5,0,0:0:0:0:
256,192,62651,5,4,0:0:0:0:
256,192,72936,5,2,0:0:0:0:
256,192,73043,1,2,0:0:0:0:
256,192,73150,1,0,0:0:0:0:
256,192,73258,1,0,0:0:0:0:
256,192,73365,1,0,0:0:0:0:
256,192,73472,1,2,0:0:0:0:
256,192,73579,1,0,0:0:0:0:
256,192,73686,1,0,0:0:0:0:
256,192,73793,1,2,0:0:0:0:
256,192,73847,1,2,0:0:0:0:
256,192,73900,1,2,0:0:0:0:
256,192,73954,1,2,0:0:0:0:
256,192,74008,1,0,0:0:0:0:
256,192,74115,1,0,0:0:0:0:
256,192,74222,1,2,0:0:0:0:
256,192,74275,1,2,0:0:0:0:
256,192,74329,1,0,0:0:0:0:
256,192,74383,1,0,0:0:0:0:
256,192,74436,1,2,0:0:0:0:
256,192,74543,1,0,0:0:0:0:
256,192,74650,1,2,0:0:0:0:
256,192,74704,1,2,0:0:0:0:
256,192,74758,1,0,0:0:0:0:
256,192,74811,1,0,0:0:0:0:
256,192,74865,1,2,0:0:0:0:
256,192,74918,1,2,0:0:0:0:
256,192,74972,1,0,0:0:0:0:
256,192,75079,1,0,0:0:0:0:
256,192,75133,1,2,0:0:0:0:
256,192,75186,1,0,0:0:0:0:
256,192,75240,1,0,0:0:0:0:
256,192,75293,1,2,0:0:0:0:
256,192,75347,1,2,0:0:0:0:
256,192,75400,1,2,0:0:0:0:
256,192,75508,1,2,0:0:0:0:
256,192,75561,1,0,0:0:0:0:
256,192,75615,1,0,0:0:0:0:
256,192,75668,1,0,0:0:0:0:
256,192,75722,1,2,0:0:0:0:
256,192,75775,1,2,0:0:0:0:
256,192,75829,1,2,0:0:0:0:
256,192,75883,1,2,0:0:0:0:
256,192,75936,1,0,0:0:0:0:
256,192,75990,1,2,0:0:0:0:
256,192,76043,1,0,0:0:0:0:
256,192,76097,1,0,0:0:0:0:
256,192,76150,1,2,0:0:0:0:
256,192,76204,1,2,0:0:0:0:
256,192,76258,1,2,0:0:0:0:
256,192,76311,1,2,0:0:0:0:
256,192,76365,5,0,0:0:0:0:
256,192,79793,5,0,0:0:0:0:
256,192,80650,5,2,0:0:0:0:
256,192,81079,5,2,0:0:0:0:
256,192,81508,5,6,0:0:0:0:
256,192,81615,1,0,0:0:0:0:
256,192,81722,1,0,0:0:0:0:
256,192,81829,1,6,0:0:0:0:
256,192,82043,1,2,0:0:0:0:
256,192,82097,1,2,0:0:0:0:
256,192,82150,1,2,0:0:0:0:
256,192,82258,1,2,0:0:0:0:
256,192,82365,5,4,0:0:0:0:
256,192,82472,1,2,0:0:0:0:
256,192,82525,1,0,0:0:0:0:
256,192,82579,1,2,0:0:0:0:
256,192,82686,1,4,0:0:0:0:
256,192,82900,1,0,0:0:0:0:
256,192,82954,1,0,0:0:0:0:
256,192,83008,1,0,0:0:0:0:
256,192,83115,1,0,0:0:0:0:
256,192,83222,5,2,0:0:0:0:
256,192,83329,1,0,0:0:0:0:
256,192,83383,1,0,0:0:0:0:
256,192,83436,1,2,0:0:0:0:
256,192,83543,1,0,0:0:0:0:
256,192,83650,1,2,0:0:0:0:
256,192,83704,1,2,0:0:0:0:
256,192,83758,1,0,0:0:0:0:
256,192,83865,1,2,0:0:0:0:
256,192,83972,1,0,0:0:0:0:
256,192,84079,5,2,0:0:0:0:
256,192,84133,1,2,0:0:0:0:
256,192,84186,1,0,0:0:0:0:
256,192,84240,1,2,0:0:0:0:
256,192,84293,1,0,0:0:0:0:
256,192,84400,1,0,0:0:0:0:
256,192,84508,1,2,0:0:0:0:
256,192,84561,1,2,0:0:0:0:
256,192,84615,1,0,0:0:0:0:
256,192,84722,1,2,0:0:0:0:
256,192,84829,1,0,0:0:0:0:
256,192,84936,5,6,0:0:0:0:
256,192,85258,5,4,0:0:0:0:
256,192,85579,5,6,0:0:0:0:
256,192,85900,5,4,0:0:0:0:
256,192,86222,5,2,0:0:0:0:
256,192,86436,1,2,0:0:0:0:
256,192,86650,5,4,0:0:0:0:
256,192,87012,5,6,0:0:0:0:
256,192,87293,5,4,0:0:0:0:
256,192,87655,5,6,0:0:0:0:
256,192,87936,5,6,0:0:0:0:
256,192,88150,5,6,0:0:0:0:
256,192,90378,5,2,0:0:0:0:
256,192,90663,5,0,0:0:0:0:
256,192,90949,5,0,0:0:0:0:
256,192,91235,5,0,0:0:0:0:
256,192,91520,5,0,0:0:0:0:
256,192,91806,5,2,0:0:0:0:
256,192,93520,5,4,0:0:0:0:
256,192,93948,1,2,0:0:0:0:
256,192,94234,1,2,0:0:0:0:
256,192,94377,1,0,0:0:0:0:
256,192,94805,1,2,0:0:0:0:
256,192,95091,1,2,0:0:0:0:
256,192,95234,5,6,0:0:0:0:
256,192,96377,5,0,0:0:0:0:
256,192,96948,5,6,0:0:0:0:
256,192,97233,1,2,0:0:0:0:
256,192,97519,1,2,0:0:0:0:
256,192,97662,1,0,0:0:0:0:
256,192,97805,1,2,0:0:0:0:
256,192,98090,1,2,0:0:0:0:
256,192,98233,1,2,0:0:0:0:
256,192,98376,1,2,0:0:0:0:
256,192,98519,1,0,0:0:0:0:
256,192,98662,1,2,0:0:0:0:
256,192,98948,1,2,0:0:0:0:
256,192,99233,1,0,0:0:0:0:
256,192,99376,1,0,0:0:0:0:
256,192,99519,1,2,0:0:0:0:
256,192,99805,1,0,0:0:0:0:
256,192,100090,1,2,0:0:0:0:
256,192,100233,1,2,0:0:0:0:
256,192,100376,1,0,0:0:0:0:
256,192,100662,1,2,0:0:0:0:
256,192,100948,1,0,0:0:0:0:
256,192,101090,1,2,0:0:0:0:
256,192,101233,1,2,0:0:0:0:
256,192,101376,1,0,0:0:0:0:
256,192,101519,1,2,0:0:0:0:
256,192,101662,1,0,0:0:0:0:
256,192,101805,1,2,0:0:0:0:
256,192,101948,1,2,0:0:0:0:
256,192,102090,5,0,0:0:0:0:
256,192,102233,1,0,0:0:0:0:
256,192,102376,1,2,0:0:0:0:
256,192,102519,1,2,0:0:0:0:
256,192,102662,1,2,0:0:0:0:
256,192,102805,1,0,0:0:0:0:
256,192,102948,1,0,0:0:0:0:
256,192,103090,1,0,0:0:0:0:
256,192,103233,1,2,0:0:0:0:
256,192,103376,1,0,0:0:0:0:
256,192,103519,1,0,0:0:0:0:
256,192,103662,1,0,0:0:0:0:
256,192,103805,5,4,0:0:0:0:
256,192,104019,1,2,0:0:0:0:
256,192,104233,1,0,0:0:0:0:
256,192,104447,1,2,0:0:0:0:
256,192,104662,1,0,0:0:0:0:
256,192,104876,1,2,0:0:0:0:
256,192,104983,1,2,0:0:0:0:
256,192,105037,1,2,0:0:0:0:
256,192,105090,1,0,0:0:0:0:
256,192,105197,1,0,0:0:0:0:
256,192,105305,1,2,0:0:0:0:
256,192,105519,5,4,0:0:0:0:
256,192,105733,1,2,0:0:0:0:
256,192,105840,1,2,0:0:0:0:
256,192,105947,1,0,0:0:0:0:
256,192,106161,1,2,0:0:0:0:
256,192,106269,1,0,0:0:0:0:
256,192,106376,1,2,0:0:0:0:
256,192,106483,1,2,0:0:0:0:
256,192,106536,1,2,0:0:0:0:
256,192,106590,1,0,0:0:0:0:
256,192,106697,1,0,0:0:0:0:
256,192,106804,1,2,0:0:0:0:
256,192,106911,1,0,0:0:0:0:
256,192,107019,1,2,0:0:0:0:
256,192,107126,1,2,0:0:0:0:
256,192,107233,1,0,0:0:0:0:
256,192,107340,1,0,0:0:0:0:
256,192,107447,1,2,0:0:0:0:
256,192,107554,1,0,0:0:0:0:
256,192,107661,1,2,0:0:0:0:
256,192,107769,1,0,0:0:0:0:
256,192,107876,1,2,0:0:0:0:
256,192,107983,1,2,0:0:0:0:
256,192,108090,1,0,0:0:0:0:
256,192,108197,1,0,0:0:0:0:
256,192,108251,1,0,0:0:0:0:
256,192,108304,1,2,0:0:0:0:
256,192,108411,1,2,0:0:0:0:
256,192,108519,1,0,0:0:0:0:
256,192,108572,1,0,0:0:0:0:
256,192,108626,1,2,0:0:0:0:
256,192,108679,1,0,0:0:0:0:
256,192,108733,1,2,0:0:0:0:
256,192,108840,1,2,0:0:0:0:
256,192,108947,5,4,0:0:0:0:
256,192,109161,1,2,0:0:0:0:
256,192,109269,1,0,0:0:0:0:
256,192,109376,1,0,0:0:0:0:
256,192,109483,1,0,0:0:0:0:
256,192,109590,1,2,0:0:0:0:
256,192,109697,1,0,0:0:0:0:
256,192,109804,1,2,0:0:0:0:
256,192,110019,1,2,0:0:0:0:
256,192,110233,1,0,0:0:0:0:
256,192,110340,1,0,0:0:0:0:
256,192,110447,1,2,0:0:0:0:
256,192,110554,1,0,0:0:0:0:
256,192,110661,1,2,0:0:0:0:
256,192,110715,1,2,0:0:0:0:
256,192,110769,1,0,0:0:0:0:
256,192,110876,1,2,0:0:0:0:
256,192,110983,1,0,0:0:0:0:
256,192,111090,1,2,0:0:0:0:
256,192,111144,1,0,0:0:0:0:
256,192,111197,1,0,0:0:0:0:
256,192,111251,1,0,0:0:0:0:
256,192,111304,1,2,0:0:0:0:
256,192,111411,1,2,0:0:0:0:
256,192,111518,1,0,0:0:0:0:
256,192,111572,1,2,0:0:0:0:
256,192,111626,1,0,0:0:0:0:
256,192,111679,1,0,0:0:0:0:
256,192,111733,1,2,0:0:0:0:
256,192,111840,1,2,0:0:0:0:
256,192,111893,1,2,0:0:0:0:
256,192,111947,1,0,0:0:0:0:
256,192,112054,1,2,0:0:0:0:
256,192,112108,1,0,0:0:0:0:
256,192,112161,1,2,0:0:0:0:
256,192,112268,1,2,0:0:0:0:
256,192,112376,5,0,0:0:0:0:
256,192,112429,1,0,0:0:0:0:
256,192,112483,1,0,0:0:0:0:
256,192,112590,1,2,0:0:0:0:
256,192,112697,1,2,0:0:0:0:
256,192,112751,1,2,0:0:0:0:
256,192,112804,1,0,0:0:0:0:
256,192,112858,1,0,0:0:0:0:
256,192,112911,1,0,0:0:0:0:
256,192,113018,1,2,0:0:0:0:
256,192,113126,1,2,0:0:0:0:
256,192,113233,1,0,0:0:0:0:
256,192,113286,1,2,0:0:0:0:
256,192,113340,1,0,0:0:0:0:
256,192,113393,1,2,0:0:0:0:
256,192,113447,1,2,0:0:0:0:
256,192,113554,1,2,0:0:0:0:
256,192,113661,1,0,0:0:0:0:
256,192,113715,1,0,0:0:0:0:
256,192,113768,1,0,0:0:0:0:
256,192,113822,1,0,0:0:0:0:
256,192,113876,1,2,0:0:0:0:
256,192,113929,1,0,0:0:0:0:
256,192,113983,1,2,0:0:0:0:
256,192,114036,1,2,0:0:0:0:
256,192,114090,5,0,0:0:0:0:
256,192,114304,1,0,0:0:0:0:
256,192,114518,5,6,0:0:0:0:
256,192,114733,1,2,0:0:0:0:
256,192,114840,1,2,0:0:0:0:
256,192,114947,5,0,0:0:0:0:
256,192,115161,1,0,0:0:0:0:
256,192,115376,5,6,0:0:0:0:
256,192,115483,1,2,0:0:0:0:
256,192,115590,1,2,0:0:0:0:
256,192,115697,1,2,0:0:0:0:
256,192,115804,1,0,0:0:0:0:
256,192,116661,5,0,0:0:0:0:
256,192,117089,1,0,0:0:0:0:
256,192,117518,5,4,0:0:0:0:
256,192,134660,5,0,0:0:0:0:
256,192,135517,1,2,0:0:0:0:
256,192,135946,1,2,0:0:0:0:
256,192,136375,5,4,0:0:0:0:
256,192,138375,5,0,0:0:0:0:
256,192,138575,1,0,0:0:0:0:
256,192,140775,5,2,0:0:0:0:
256,192,140975,1,0,0:0:0:0:
256,192,141175,1,0,0:0:0:0:
256,192,141375,1,2,0:0:0:0:
256,192,141575,1,0,0:0:0:0:
256,192,141775,1,0,0:0:0:0:
256,192,141975,1,2,0:0:0:0:
256,192,142175,1,2,0:0:0:0:
256,192,142375,1,0,0:0:0:0:
256,192,142575,1,0,0:0:0:0:
256,192,142775,1,2,0:0:0:0:
256,192,142975,5,2,0:0:0:0:
256,192,143175,1,0,0:0:0:0:
256,192,143375,1,2,0:0:0:0:
256,192,143575,1,2,0:0:0:0:
256,192,143775,1,0,0:0:0:0:
256,192,143975,1,2,0:0:0:0:
256,192,144175,1,2,0:0:0:0:
256,192,144375,1,0,0:0:0:0:
256,192,144575,1,2,0:0:0:0:
256,192,144775,1,0,0:0:0:0:
256,192,144975,1,0,0:0:0:0:
256,192,145175,5,2,0:0:0:0:
256,192,145475,1,0,0:0:0:0:
256,192,145575,1,0,0:0:0:0:
256,192,145775,1,2,0:0:0:0:
256,192,146075,1,0,0:0:0:0:
256,192,146175,1,0,0:0:0:0:
256,192,146375,1,2,0:0:0:0:
256,192,146575,1,2,0:0:0:0:
256,192,146775,1,0,0:0:0:0:
256,192,146975,1,0,0:0:0:0:
256,192,147175,1,0,0:0:0:0:
256,192,147375,5,2,0:0:0:0:
256,192,147575,1,0,0:0:0:0:
256,192,147775,1,0,0:0:0:0:
256,192,147975,1,2,0:0:0:0:
256,192,148175,1,0,0:0:0:0:
256,192,148275,1,2,0:0:0:0:
256,192,148375,1,0,0:0:0:0:
256,192,148575,1,2,0:0:0:0:
256,192,148775,1,0,0:0:0:0:
256,192,148975,1,0,0:0:0:0:
256,192,149175,1,2,0:0:0:0:
256,192,149375,1,2,0:0:0:0:
256,192,149575,5,4,0:0:0:0:
256,192,149975,1,2,0:0:0:0:
256,192,150175,1,0,0:0:0:0:
256,192,150475,1,0,0:0:0:0:
256,192,150575,1,0,0:0:0:0:
256,192,150775,1,0,0:0:0:0:
256,192,151175,1,0,0:0:0:0:
256,192,151375,1,2,0:0:0:0:
256,192,151575,1,2,0:0:0:0:
256,192,151775,5,0,0:0:0:0:
256,192,152175,1,2,0:0:0:0:
256,192,152375,1,0,0:0:0:0:
256,192,152675,1,0,0:0:0:0:
256,192,152775,1,0,0:0:0:0:
256,192,152975,1,0,0:0:0:0:
256,192,153375,1,0,0:0:0:0:
256,192,153575,1,2,0:0:0:0:
256,192,153775,1,2,0:0:0:0:
256,192,153975,5,0,0:0:0:0:
256,192,154375,1,2,0:0:0:0:
256,192,154575,1,0,0:0:0:0:
256,192,154775,1,0,0:0:0:0:
256,192,154875,1,2,0:0:0:0:
256,192,154975,1,0,0:0:0:0:
256,192,155175,1,0,0:0:0:0:
256,192,155575,1,0,0:0:0:0:
256,192,155775,1,2,0:0:0:0:
256,192,155975,1,2,0:0:0:0:
256,192,156175,5,0,0:0:0:0:
256,192,156575,1,2,0:0:0:0:
256,192,156775,1,0,0:0:0:0:
256,192,156975,1,2,0:0:0:0:
256,192,157075,1,0,0:0:0:0:
256,192,157175,1,2,0:0:0:0:
256,192,157375,1,0,0:0:0:0:
256,192,157675,1,0,0:0:0:0:
256,192,157775,1,0,0:0:0:0:
256,192,157975,1,2,0:0:0:0:
256,192,158175,1,2,0:0:0:0:
256,192,158375,5,4,0:0:0:0:
256,192,173775,5,0,0:0:0:0:
256,192,173975,1,0,0:0:0:0:
256,192,174075,1,0,0:0:0:0:
256,192,174125,1,0,0:0:0:0:
256,192,174175,1,0,0:0:0:0:
256,192,174275,1,2,0:0:0:0:
256,192,174375,1,0,0:0:0:0:
256,192,174425,1,0,0:0:0:0:
256,192,174475,1,0,0:0:0:0:
256,192,174575,1,0,0:0:0:0:
256,192,174675,1,0,0:0:0:0:
256,192,174775,1,2,0:0:0:0:
256,192,174875,1,2,0:0:0:0:
256,192,174975,5,4,0:0:0:0:
256,192,176175,5,6,0:0:0:0:
256,192,176775,1,0,0:0:0:0:
256,192,176975,1,2,0:0:0:0:
256,192,177175,1,2,0:0:0:0:
256,192,177375,5,4,0:0:0:0:
256,192,177975,1,2,0:0:0:0:
256,192,178175,1,0,0:0:0:0:
256,192,178375,1,0,0:0:0:0:
256,192,178575,5,6,0:0:0:0:
256,192,178975,1,0,0:0:0:0:
256,192,179175,1,0,0:0:0:0:
256,192,179375,1,2,0:0:0:0:
256,192,179575,1,2,0:0:0:0:
256,192,179775,5,4,0:0:0:0:
256,192,179987,1,0,0:0:0:0:
256,192,180200,1,0,0:0:0:0:
256,192,180413,1,2,0:0:0:0:
256,192,180626,1,2,0:0:0:0:
256,192,180838,1,2,0:0:0:0:
256,192,181051,5,4,0:0:0:0:
256,192,181278,1,0,0:0:0:0:
256,192,181505,1,2,0:0:0:0:
256,192,181732,1,2,0:0:0:0:
256,192,181960,1,2,0:0:0:0:
256,192,182187,1,2,0:0:0:0:
256,192,182414,5,2,0:0:0:0:
256,192,182664,1,0,0:0:0:0:
256,192,182914,1,0,0:0:0:0:
256,192,183198,5,2,0:0:0:0:
256,192,183510,5,2,0:0:0:0:
256,192,183899,5,0,0:0:0:0:
256,192,186368,5,2,0:0:0:0:
256,192,186645,1,0,0:0:0:0:
256,192,186923,1,2,0:0:0:0:
256,192,187201,1,0,0:0:0:0:
256,192,187340,1,0,0:0:0:0:
256,192,187479,1,2,0:0:0:0:
256,192,187729,1,0,0:0:0:0:
256,192,187854,1,2,0:0:0:0:
256,192,187979,1,0,0:0:0:0:
256,192,188229,1,0,0:0:0:0:
256,192,188479,1,2,0:0:0:0:
256,192,188729,1,0,0:0:0:0:
256,192,188979,1,2,0:0:0:0:
256,192,189229,1,2,0:0:0:0:
256,192,189479,5,0,0:0:0:0:
256,192,189706,1,2,0:0:0:0:
256,192,189933,1,0,0:0:0:0:
256,192,190047,1,0,0:0:0:0:
256,192,190160,1,2,0:0:0:0:
256,192,190388,5,4,0:0:0:0:
256,192,190602,1,2,0:0:0:0:
256,192,190816,1,0,0:0:0:0:
256,192,191030,1,2,0:0:0:0:
256,192,191138,1,2,0:0:0:0:
256,192,191245,1,0,0:0:0:0:
256,192,191459,1,2,0:0:0:0:
256,192,191566,1,0,0:0:0:0:
256,192,191780,1,0,0:0:0:0:
256,192,191888,1,2,0:0:0:0:
256,192,191995,1,2,0:0:0:0:
256,192,192102,5,0,0:0:0:0:
256,192,192316,1,2,0:0:0:0:
256,192,192530,1,0,0:0:0:0:
256,192,192744,1,2,0:0:0:0:
256,192,192959,1,0,0:0:0:0:
256,192,193066,1,2,0:0:0:0:
256,192,193119,1,0,0:0:0:0:
256,192,193173,1,2,0:0:0:0:
256,192,193280,1,2,0:0:0:0:
256,192,193387,1,0,0:0:0:0:
256,192,193494,1,0,0:0:0:0:
256,192,193548,1,0,0:0:0:0:
256,192,193602,1,2,0:0:0:0:
256,192,193709,1,2,0:0:0:0:
256,192,193816,5,0,0:0:0:0:
256,192,194030,1,2,0:0:0:0:
256,192,194244,1,0,0:0:0:0:
256,192,194459,1,2,0:0:0:0:
256,192,194673,1,0,0:0:0:0:
256,192,194780,1,2,0:0:0:0:
256,192,194834,1,0,0:0:0:0:
256,192,194888,1,2,0:0:0:0:
256,192,194995,1,2,0:0:0:0:
256,192,195048,1,2,0:0:0:0:
256,192,195102,1,0,0:0:0:0:
256,192,195209,1,0,0:0:0:0:
256,192,195316,1,2,0:0:0:0:
256,192,195369,1,2,0:0:0:0:
256,192,195423,1,2,0:0:0:0:
256,192,195477,1,2,0:0:0:0:
256,192,195530,5,0,0:0:0:0:
256,192,195744,1,2,0:0:0:0:
256,192,195959,1,0,0:0:0:0:
256,192,196173,1,2,0:0:0:0:
256,192,196387,1,0,0:0:0:0:
256,192,196494,1,0,0:0:0:0:
256,192,196602,1,2,0:0:0:0:
256,192,196709,1,0,0:0:0:0:
256,192,196816,1,0,0:0:0:0:
256,192,196870,1,0,0:0:0:0:
256,192,196924,1,0,0:0:0:0:
256,192,196977,1,0,0:0:0:0:
256,192,197031,1,2,0:0:0:0:
256,192,197084,1,2,0:0:0:0:
256,192,197138,1,2,0:0:0:0:
256,192,197191,1,2,0:0:0:0:
256,192,197244,5,0,0:0:0:0:
256,192,197459,1,0,0:0:0:0:
256,192,197673,5,6,0:0:0:0:
256,192,197887,1,2,0:0:0:0:
256,192,197994,1,2,0:0:0:0:
256,192,198102,1,0,0:0:0:0:
256,192,198316,1,0,0:0:0:0:
256,192,198530,5,6,0:0:0:0:
256,192,198744,1,2,0:0:0:0:
256,192,198959,5,0,0:0:0:0:
256,192,202280,5,0,0:0:0:0:
256,192,202334,1,0,0:0:0:0:
256,192,202387,5,2,0:0:0:0:
256,192,202440,1,0,0:0:0:0:
256,192,202494,1,0,0:0:0:0:
256,192,202547,1,0,0:0:0:0:
256,192,202601,1,2,0:0:0:0:
256,192,202654,1,0,0:0:0:0:
256,192,202708,1,2,0:0:0:0:
256,192,202762,1,2,0:0:0:0:
256,192,202815,1,0,0:0:0:0:
256,192,202869,1,2,0:0:0:0:
256,192,202922,1,0,0:0:0:0:
256,192,202976,1,0,0:0:0:0:
256,192,203029,1,2,0:0:0:0:
256,192,203083,1,2,0:0:0:0:
256,192,203137,1,2,0:0:0:0:
256,192,203190,1,2,0:0:0:0:
256,192,203244,5,4,0:0:0:0:
