osu file format v14

[General]
AudioFilename: audio.mp3
AudioLeadIn: 0
PreviewTime: 57556
Countdown: 0
SampleSet: Drum
StackLeniency: 0.7
Mode: 3
LetterboxInBreaks: 0
SpecialStyle: 0
WidescreenStoryboard: 1

[Editor]
DistanceSpacing: 0.8
BeatDivisor: 4
GridSize: 16
TimelineZoom: 0.8999997

[Metadata]
Title:Mirai Puzzle
TitleUnicode:未来パズル
Artist:Chino (CV: Minase Inori)
ArtistUnicode:チノ (CV: 水瀬いのり)
Creator:RiP46
Version:Easy
Source:ご注文はうさぎですか??
Tags:香風 智乃 kafuu Kafū character song pop gochuumon wa usagi desu ka?? is the order a rabbit gochiusa ごちうさ cup of chino Japanese short ver agayers dudehacker
BeatmapID:2147015
BeatmapSetID:1026602

[Difficulty]
HPDrainRate:7
CircleSize:4
OverallDifficulty:7
ApproachRate:5
SliderMultiplier:1.4
SliderTickRate:1

[Events]
//Background and Video events
0,0,"BG.jpg",0,0
//Break Periods
//Storyboard Layer 0 (Background)
//Storyboard Layer 1 (Fail)
//Storyboard Layer 2 (Pass)
//Storyboard Layer 3 (Foreground)
//Storyboard Layer 4 (Overlay)
//Storyboard Sound Samples

[TimingPoints]
603,375,4,3,1,100,1,0
57603,-100,4,3,1,100,0,1
68853,-100,4,3,1,100,0,0
69603,-100,4,3,1,100,0,1
81603,-100,4,3,1,100,0,0

[HitObjects]
64,192,603,5,8,0:0:0:0:
64,192,978,1,8,0:0:0:0:
64,192,1353,1,8,0:0:0:0:
448,192,1540,1,2,0:0:0:0:
64,192,1728,1,8,0:0:0:0:
320,192,1915,1,0,0:0:0:70:Tom1.wav
448,192,2103,1,8,0:0:0:0:
192,192,2290,1,0,0:0:0:70:Tom1.wav
320,192,2665,1,0,0:0:0:70:Tom1.wav
64,192,3040,1,0,0:0:0:70:Tom2.wav
448,192,3228,128,0,3603:0:0:0:70:Splash.wav
64,192,3603,1,2,0:0:0:0:
192,192,3603,1,0,0:0:0:70:LR_Drum Crush FInish.wav
448,192,3978,1,8,0:0:0:0:
64,192,4353,1,2,0:0:0:0:
192,192,4540,1,4,0:0:0:0:
448,192,4728,1,8,0:0:0:0:
320,192,4915,1,4,0:0:0:0:
192,192,5103,1,2,0:0:0:0:
448,192,5290,1,4,0:0:0:0:
64,192,5665,1,4,0:0:0:0:
64,192,6040,1,4,0:0:0:0:
320,192,6228,1,8,0:0:0:0:
192,192,6415,1,4,0:0:0:0:
448,192,6603,128,2,7353:0:0:0:0:
64,192,7353,128,2,7728:0:0:0:0:
320,192,7728,1,8,0:0:0:0:
64,192,8103,128,2,8853:0:0:0:0:
448,192,8853,128,2,9228:0:0:0:0:
192,192,9228,1,8,0:0:0:0:
320,192,9415,1,2,0:0:0:0:
64,192,9603,1,0,0:0:0:70:LR_Drum Crush FInish.wav
448,192,9603,1,8,0:0:0:0:
64,192,9978,1,8,0:0:0:0:
320,192,10165,1,8,0:0:0:0:
64,192,10353,1,8,0:0:0:0:
192,192,10728,1,0,0:0:0:70:Tom2.wav
448,192,11103,1,8,0:0:0:0:
448,192,11478,1,8,0:0:0:0:
192,192,11665,1,8,0:0:0:0:
448,192,11853,1,8,0:0:0:0:
320,192,12228,1,0,0:0:0:70:Tom1.wav
192,192,12415,1,0,0:0:0:70:Tom2.wav
448,192,12603,1,0,0:0:0:70:LR_Drum Crush FInish.wav
64,192,12603,1,2,0:0:0:0:
320,192,12978,128,8,13353:0:0:0:0:
64,192,13353,1,0,0:0:0:70:LR_Drum Crush FInish.wav
192,192,13728,128,8,14103:0:0:0:0:
448,192,14103,1,0,0:0:0:70:HOpen.wav
192,192,14478,1,0,0:0:0:70:HOpen.wav
320,192,14853,1,8,0:0:0:0:
64,192,15040,1,0,0:0:0:70:Tom2.wav
448,192,15228,1,8,0:0:0:0:
192,192,15415,1,0,0:0:0:70:Tom2.wav
64,192,15603,1,2,0:0:0:0:
448,192,15603,1,0,0:0:0:70:Splash.wav
320,192,15978,1,8,0:0:0:0:
64,192,16353,1,2,0:0:0:0:
192,192,16728,1,8,0:0:0:0:
320,192,17103,1,2,0:0:0:0:
448,192,17478,1,8,0:0:0:0:
192,192,17853,1,2,0:0:0:0:
64,192,18228,1,8,0:0:0:0:
448,192,18603,1,2,0:0:0:0:
192,192,18978,1,8,0:0:0:0:
320,192,19353,1,2,0:0:0:0:
64,192,19728,1,8,0:0:0:0:
448,192,20103,1,2,0:0:0:0:
320,192,20478,1,8,0:0:0:0:
192,192,20853,1,2,0:0:0:0:
64,192,21228,1,8,0:0:0:0:
320,192,21415,1,4,0:0:0:0:
64,192,21603,1,0,0:0:0:70:Splash.wav
448,192,21978,1,8,0:0:0:0:
192,192,22353,1,2,0:0:0:0:
320,192,22728,1,8,0:0:0:0:
64,192,23103,1,2,0:0:0:0:
448,192,23478,1,8,0:0:0:0:
320,192,23853,1,2,0:0:0:0:
192,192,24228,1,8,0:0:0:0:
448,192,24603,1,0,0:0:0:70:Splash.wav
64,192,24978,1,8,0:0:0:0:
448,192,25353,1,2,0:0:0:0:
320,192,25540,1,4,0:0:0:0:
64,192,25728,1,8,0:0:0:0:
448,192,25915,1,0,0:0:0:70:Splash.wav
192,192,26290,1,2,0:0:0:0:
320,192,26478,1,8,0:0:0:0:
192,192,26665,1,2,0:0:0:0:
448,192,26853,128,8,27228:0:0:0:0:
64,192,27228,128,8,27603:0:0:0:0:
448,192,27603,1,0,0:0:0:70:Splash.wav
192,192,27978,1,8,0:0:0:0:
320,192,28353,1,2,0:0:0:0:
64,192,28728,1,8,0:0:0:0:
448,192,29103,1,2,0:0:0:0:
320,192,29478,1,8,0:0:0:0:
64,192,29853,1,2,0:0:0:0:
192,192,30228,1,8,0:0:0:0:
320,192,30603,1,2,0:0:0:0:
448,192,30978,1,8,0:0:0:0:
192,192,31353,1,2,0:0:0:0:
64,192,31728,1,8,0:0:0:0:
448,192,32103,1,2,0:0:0:0:
192,192,32478,1,8,0:0:0:0:
320,192,32853,1,2,0:0:0:0:
64,192,33228,1,8,0:0:0:0:
320,192,33415,1,8,0:0:0:0:
64,192,33603,1,0,0:0:0:70:Splash.wav
448,192,33978,1,8,0:0:0:0:
192,192,34353,1,2,0:0:0:0:
320,192,34728,1,8,0:0:0:0:
64,192,35103,1,2,0:0:0:0:
448,192,35478,1,8,0:0:0:0:
64,192,35853,1,2,0:0:0:0:
320,192,36040,1,8,0:0:0:0:
192,192,36228,1,8,0:0:0:0:
64,192,36415,1,8,0:0:0:0:
448,192,36603,1,8,0:0:0:0:
320,192,36790,1,8,0:0:0:0:
192,192,36978,1,8,0:0:0:0:
64,192,37353,1,8,0:0:0:0:
192,192,37540,1,8,0:0:0:0:
320,192,37728,1,8,0:0:0:0:
448,192,38103,128,0,38478:0:0:0:70:HOpen.wav
64,192,38478,128,0,38853:0:0:0:70:HOpen.wav
448,192,38853,1,8,0:0:0:0:
320,192,39040,1,0,0:0:0:70:Tom1.wav
192,192,39228,1,8,0:0:0:0:
64,192,39415,1,8,0:0:0:0:
448,192,39603,1,10,0:0:0:0:
192,192,39790,1,10,0:0:0:0:
448,192,39978,1,10,0:0:0:0:
448,192,40728,128,8,41103:0:0:0:0:
64,192,41103,1,10,0:0:0:0:
320,192,41290,1,10,0:0:0:0:
64,192,41478,1,10,0:0:0:0:
192,192,42228,128,8,42603:0:0:0:0:
448,192,42603,1,0,0:0:0:70:LR_Drum Crush FInish.wav
320,192,42978,128,8,43353:0:0:0:0:
64,192,43353,1,0,0:0:0:70:LR_Drum Crush FInish.wav
448,192,43728,128,8,44103:0:0:0:0:
192,192,44103,1,0,0:0:0:70:LR_Drum Crush FInish.wav
320,192,44478,1,0,0:0:0:70:LR_Drum Crush FInish.wav
64,192,44853,128,0,45228:0:0:0:70:LR_Drum Crush FInish.wav
448,192,45228,128,8,45603:0:0:0:0:
64,192,45603,1,10,0:0:0:0:
320,192,45790,1,10,0:0:0:0:
64,192,45978,1,10,0:0:0:0:
64,192,46728,128,8,47103:0:0:0:0:
448,192,47103,1,10,0:0:0:0:
192,192,47290,1,10,0:0:0:0:
448,192,47478,1,10,0:0:0:0:
448,192,48228,128,8,48603:0:0:0:0:
64,192,48603,128,0,49353:0:0:0:70:LR_Drum Crush FInish.wav
192,192,49353,128,0,50103:0:0:0:70:LR_Drum Crush FInish.wav
320,192,50103,128,0,50853:0:0:0:70:LR_Drum Crush FInish.wav
448,192,50853,128,0,51603:0:0:0:70:LR_Drum Crush FInish.wav
64,192,51603,1,0,0:0:0:70:LR_Drum Crush FInish.wav
64,192,51978,1,8,0:0:0:0:
192,192,52353,1,8,0:0:0:0:
192,192,52728,1,8,0:0:0:0:
448,192,53103,1,0,0:0:0:70:LR_Drum Crush FInish.wav
448,192,53478,1,8,0:0:0:0:
320,192,53853,1,8,0:0:0:0:
320,192,54228,1,8,0:0:0:0:
192,192,54603,1,0,0:0:0:70:LR_Drum Crush FInish.wav
192,192,54978,1,8,0:0:0:0:
448,192,55353,1,8,0:0:0:0:
320,192,55540,1,0,0:0:0:70:Tom1.wav
64,192,55728,1,0,0:0:0:70:Tom3.wav
192,192,55915,1,0,0:0:0:70:Tom3.wav
320,192,56103,1,0,0:0:0:70:LR_Drum Crush FInish.wav
448,192,56853,128,2,57228:0:0:0:0:
192,192,57228,1,8,0:0:0:0:
320,192,57415,1,8,0:0:0:0:
64,192,57603,128,0,57978:0:0:0:70:LR_Drum Crush FInish.wav
448,192,57603,1,2,0:0:0:0:
192,192,57978,128,8,58353:0:0:0:0:
320,192,58353,128,2,58728:0:0:0:0:
448,192,58728,1,8,0:0:0:0:
64,192,58915,1,4,0:0:0:0:
448,192,59103,128,2,59478:0:0:0:0:
320,192,59478,128,8,59853:0:0:0:0:
192,192,59853,128,2,60228:0:0:0:0:
448,192,60228,128,8,60603:0:0:0:0:
64,192,60603,128,2,61353:0:0:0:0:
320,192,61353,1,2,0:0:0:0:
192,192,61728,1,8,0:0:0:0:
448,192,62103,128,2,62478:0:0:0:0:
320,192,62478,1,8,0:0:0:0:
192,192,62665,1,4,0:0:0:0:
64,192,62853,128,2,63228:0:0:0:0:
320,192,63228,1,8,0:0:0:0:
192,192,63415,1,8,0:0:0:0:
448,192,63603,128,0,63978:0:0:0:70:LR_Drum Crush FInish.wav
64,192,63603,1,2,0:0:0:0:
192,192,63978,128,8,64353:0:0:0:0:
320,192,64353,128,2,64728:0:0:0:0:
64,192,64728,128,8,65103:0:0:0:0:
192,192,65103,128,2,65478:0:0:0:0:
320,192,65478,128,8,65853:0:0:0:0:
448,192,65853,1,2,0:0:0:0:
448,192,66228,1,8,0:0:0:0:
320,192,66415,1,0,0:0:0:70:Tom2.wav
64,192,66603,1,0,0:0:0:70:LR_Drum Crush FInish.wav
64,192,66978,1,0,0:0:0:70:HOpen.wav
448,192,67353,1,0,0:0:0:70:HOpen.wav
448,192,67728,1,0,0:0:0:70:HOpen.wav
64,192,68103,128,8,68478:0:0:0:0:
192,192,68478,128,8,68853:0:0:0:0:
320,192,68853,128,8,69228:0:0:0:0:
448,192,69228,128,8,69603:0:0:0:0:
64,192,69603,128,0,69978:0:0:0:70:LR_Drum Crush FInish.wav
192,192,69603,1,2,0:0:0:0:
320,192,69978,128,8,70353:0:0:0:0:
192,192,70353,128,2,70728:0:0:0:0:
448,192,70728,1,8,0:0:0:0:
64,192,70915,1,4,0:0:0:0:
448,192,71103,128,2,71478:0:0:0:0:
320,192,71478,128,8,71853:0:0:0:0:
64,192,71853,128,2,72228:0:0:0:0:
192,192,72228,128,8,72603:0:0:0:0:
320,192,72603,128,2,72978:0:0:0:0:
448,192,72978,128,8,73353:0:0:0:0:
192,192,73353,128,2,73728:0:0:0:0:
64,192,73728,128,8,74103:0:0:0:0:
448,192,74103,1,2,0:0:0:0:
192,192,74478,1,8,0:0:0:0:
320,192,74853,128,2,75228:0:0:0:0:
64,192,75228,1,8,0:0:0:0:
192,192,75415,1,2,0:0:0:0:
448,192,75603,1,8,0:0:0:0:
448,192,75978,1,8,0:0:0:0:
192,192,76165,1,8,0:0:0:0:
448,192,76353,1,8,0:0:0:0:
320,192,76728,1,0,0:0:0:70:Tom2.wav
64,192,77103,1,8,0:0:0:0:
64,192,77478,1,8,0:0:0:0:
320,192,77665,1,8,0:0:0:0:
64,192,77853,1,8,0:0:0:0:
192,192,78228,1,0,0:0:0:70:Tom1.wav
320,192,78415,1,0,0:0:0:70:Tom2.wav
448,192,78603,1,0,0:0:0:70:LR_Drum Crush FInish.wav
64,192,78603,1,2,0:0:0:0:
320,192,78978,128,8,79353:0:0:0:0:
64,192,79353,1,0,0:0:0:70:LR_Drum Crush FInish.wav
192,192,79728,128,8,80103:0:0:0:0:
448,192,80103,1,0,0:0:0:70:HOpen.wav
320,192,80478,1,0,0:0:0:70:HOpen.wav
192,192,80853,1,0,0:0:0:70:HOpen.wav
64,192,81228,128,2,81603:0:0:0:0:
448,192,81603,1,0,0:0:0:70:LR_Drum Crush FInish.wav
320,192,81603,1,2,0:0:0:0:
192,192,81978,1,8,0:0:0:0:
320,192,82353,1,2,0:0:0:0:
64,192,82540,1,4,0:0:0:0:
448,192,82728,1,8,0:0:0:0:
192,192,82915,1,4,0:0:0:0:
448,192,83103,1,2,0:0:0:0:
64,192,83290,1,4,0:0:0:0:
320,192,83665,1,4,0:0:0:0:
320,192,84040,1,4,0:0:0:0:
192,192,84228,1,8,0:0:0:0:
448,192,84415,1,4,0:0:0:0:
64,192,84603,128,2,85353:0:0:0:0:
320,192,85353,128,2,85728:0:0:0:0:
192,192,85728,1,8,0:0:0:0:
448,192,86103,128,2,86853:0:0:0:0:
64,192,86853,128,2,87228:0:0:0:0:
320,192,87228,1,8,0:0:0:0:
192,192,87415,1,2,0:0:0:0:
448,192,87603,1,0,0:0:0:70:LR_Drum Crush FInish.wav
64,192,87603,1,8,0:0:0:0:
448,192,87978,1,8,0:0:0:0:
192,192,88165,1,8,0:0:0:0:
448,192,88353,1,8,0:0:0:0:
320,192,88728,1,0,0:0:0:70:Tom2.wav
64,192,89103,1,8,0:0:0:0:
64,192,89478,1,8,0:0:0:0:
320,192,89665,1,8,0:0:0:0:
64,192,89853,1,8,0:0:0:0:
192,192,90228,1,0,0:0:0:70:Tom1.wav
320,192,90415,1,0,0:0:0:70:Tom2.wav
448,192,90603,1,0,0:0:0:70:LR_Drum Crush FInish.wav
64,192,90603,1,2,0:0:0:0:
320,192,90978,128,8,91353:0:0:0:0:
64,192,91353,1,0,0:0:0:70:LR_Drum Crush FInish.wav
192,192,91728,128,8,92103:0:0:0:0:
448,192,92103,1,0,0:0:0:70:HOpen.wav
64,192,92478,1,0,0:0:0:70:HOpen.wav
448,192,92853,1,8,0:0:0:0:
192,192,93040,1,0,0:0:0:70:Tom1.wav
448,192,93228,1,0,0:0:0:70:Splash.wav
64,192,93228,1,2,0:0:0:0:
