osu file format v14

[General]
AudioFilename: audio.mp3
AudioLeadIn: 0
PreviewTime: 62681
Countdown: 0
SampleSet: Soft
StackLeniency: 0.7
Mode: 0
LetterboxInBreaks: 0
WidescreenStoryboard: 0

[Editor]
Bookmarks: 564,6211,11858,17505,23152,28799,34446,40093,45740,51387,57034,62681,85269,90916
DistanceSpacing: 1.4
BeatDivisor: 4
GridSize: 32
TimelineZoom: 2.2

[Metadata]
Title:Mahou Shoujo Chino
TitleUnicode:魔法少女チノ
Artist:Chino (CV: Minase Inori)
ArtistUnicode:チノ (CV: 水瀬いのり)
Creator:eiri-
Version:Insane
Source:ご注文はうさぎですか??
Tags:Ayyri Gochuumon wa Usagi Desuka?? Gochiusa Is the Order a Rabbit?? Kafuu Kafū ごちうさ Character Song
BeatmapID:1830206
BeatmapSetID:875806

[Difficulty]
HPDrainRate:5
CircleSize:3.7
OverallDifficulty:8
ApproachRate:9
SliderMultiplier:2
SliderTickRate:1

[Events]
//Background and Video events
0,0,"Chino 396.png",0,0
//Break Periods
//Storyboard Layer 0 (Background)
//Storyboard Layer 1 (Fail)
//Storyboard Layer 2 (Pass)
//Storyboard Layer 3 (Foreground)
//Storyboard Sound Samples

[TimingPoints]
564,352.941176470588,4,2,1,75,1,0
6211,-100,4,2,1,85,0,0
14681,-100,4,2,1,90,0,0
17505,-117.647058823529,4,2,1,75,0,0
28799,-105.263157894737,4,2,1,80,0,0
40093,-133.333333333333,4,2,1,75,0,0
45740,-100,4,2,1,85,0,0
48563,-117.647058823529,4,2,1,75,0,0
49975,-105.263157894737,4,2,1,75,0,0
51387,-133.333333333333,4,2,1,75,0,0
57034,-100,4,2,1,85,0,0
62681,-80,4,2,1,90,0,1
85269,-133.333333333333,4,2,1,65,0,0

[Colours]
Combo1 : 104,104,183
Combo2 : 0,0,159
Combo3 : 18,124,255
Combo4 : 172,172,215

[HitObjects]
308,91,564,6,0,L|424:77,1,100,2|0,0:0|0:0,0:0:0:0:
256,192,916,1,2,0:0:0:0:
204,91,1093,2,0,L|88:77,1,100,2|0,0:0|0:0,0:0:0:0:
256,192,1446,1,2,0:0:0:0:
321,65,1622,2,0,L|466:48,1,100,2|0,0:0|0:0,0:0:0:0:
256,192,1975,1,2,0:0:0:0:
191,65,2151,2,0,L|46:48,1,100,2|0,0:0|0:0,0:0:0:0:
256,192,2505,1,2,0:0:0:0:
337,34,2681,6,2,L|503:12,1,150,2|0,0:0|0:0,0:1:0:0:
417,126,3034,2,2,L|251:104,1,150,2|0,0:0|0:0,0:1:0:0:
139,82,3387,5,4,0:3:0:0:
212,219,3563,1,8,0:3:0:0:
279,27,3740,1,8,0:3:0:0:
352,158,3916,1,4,0:3:0:0:
352,158,4093,1,4,0:3:0:0:
301,245,4269,1,8,0:3:0:0:
197,277,4446,1,4,0:3:0:0:
64,217,4622,5,8,0:3:0:0:
125,57,4799,1,8,0:3:0:0:
211,177,4975,1,4,0:3:0:0:
211,177,5063,1,4,0:3:0:0:
211,177,5152,2,0,L|195:290,1,100,8|0,0:3|0:0,0:0:0:0:
178,384,5505,5,4,0:3:0:0:
300,335,5681,1,8,0:3:0:0:
63,264,5858,2,0,L|2:250,1,50,2|2,0:0|0:0,0:0:0:0:
135,192,6034,2,0,L|183:180,1,50,2|2,0:0|0:0,0:0:0:0:
55,120,6211,6,0,L|43:13,1,100,6|0,0:0|0:0,0:0:0:0:
195,80,6563,2,0,L|183:179,1,100,0|0,1:0|0:0,0:0:0:0:
168,315,6916,2,0,L|276:304,1,100,2|0,0:0|0:0,0:0:0:0:
372,201,7269,1,2,1:2:0:0:
271,270,7446,1,2,0:0:0:0:
399,347,7622,2,0,P|433:301|434:240,1,100,2|0,0:0|0:0,0:0:0:0:
402,121,7975,6,0,L|300:105,1,100,2|0,1:2|0:0,0:0:0:0:
192,206,8328,2,0,L|294:190,1,100,2|0,0:0|0:0,0:0:0:0:
203,88,8681,2,0,L|105:73,1,100,0|0,1:0|0:0,0:0:0:0:
4,218,9034,6,0,P|56:195|108:204,1,100,2|0,0:0|0:0,0:0:0:0:
68,297,9387,1,0,1:0:0:0:
131,190,9563,1,0,0:0:0:0:
250,328,9740,2,0,P|198:351|146:342,1,100,2|0,0:0|0:0,0:0:0:0:
186,249,10093,1,0,1:0:0:0:
123,356,10269,1,0,0:0:0:0:
303,241,10446,6,0,P|355:218|407:227,1,100,2|0,0:0|0:0,0:0:0:0:
263,164,10799,2,0,P|283:110|326:80,1,100,2|0,1:2|0:0,0:0:0:0:
180,137,11152,2,0,P|157:84|165:33,1,100,2|0,0:0|0:0,0:0:0:0:
102,176,11505,2,0,P|48:155|18:112,1,100,2|0,1:2|0:0,0:0:0:0:
315,84,11858,6,0,P|295:138|252:168,1,100,6|0,0:0|0:0,0:0:0:0:
156,157,12211,1,2,1:2:0:0:
181,18,12387,2,0,L|317:9,1,100,2|0,0:0|0:0,0:0:0:0:
416,1,12740,1,2,0:0:0:0:
508,151,12916,2,0,P|439:156|385:89,1,150,2|0,1:2|0:0,0:0:0:0:
374,70,13269,6,0,L|352:204,1,100,2|0,0:0|0:0,0:0:0:0:
199,254,13622,2,0,L|296:227,1,100,2|2,1:2|0:0,0:0:0:0:
468,307,13975,2,0,L|355:230,1,100,2|0,0:0|0:0,0:0:0:0:
260,149,14328,1,2,1:2:0:0:
230,109,14416,1,2,0:0:0:0:
228,60,14504,1,2,0:0:0:0:
254,18,14592,1,2,0:0:0:0:
275,42,14681,6,0,L|144:37,1,100,6|0,1:2|0:0,0:0:0:0:
56,32,15034,1,2,0:0:0:0:
182,190,15211,6,0,L|313:185,1,100,6|0,1:2|0:0,0:0:0:0:
401,180,15564,1,2,0:0:0:0:
275,338,15740,5,6,1:2:0:0:
175,355,15916,1,0,1:0:0:0:
56,328,16093,1,6,0:0:0:0:
56,328,17505,6,0,L|45:231,1,85.0000016212464,6|0,0:0|0:0,0:0:0:0:
30,143,17858,1,2,1:2:0:0:
94,46,18034,1,0,0:0:0:0:
180,166,18211,1,4,0:3:0:0:
180,166,18387,1,4,0:3:0:0:
288,118,18563,2,0,L|279:219,1,85.0000016212464,0|0,1:0|0:0,0:0:0:0:
270,313,18916,5,2,0:0:0:0:
371,378,19093,2,0,P|430:361|436:248,1,170.000003242493,2|0,0:0|0:0,0:0:0:0:
395,179,19622,1,2,0:0:0:0:
430,84,19799,1,0,0:0:0:0:
383,212,19975,1,2,0:0:0:0:
383,212,20328,6,0,L|280:200,1,85.0000016212464,2|0,0:0|0:0,0:0:0:0:
194,185,20681,1,2,1:2:0:0:
162,75,20858,1,0,0:0:0:0:
52,197,21034,1,4,0:3:0:0:
52,197,21211,1,4,0:3:0:0:
1,48,21387,2,0,L|106:37,1,85.0000016212464,0|0,1:0|0:0,0:0:0:0:
225,25,21740,5,2,0:0:0:0:
289,159,21916,2,0,P|219:173|124:135,1,170.000003242493,2|0,0:0|0:0,0:0:0:0:
107,28,22445,1,2,0:0:0:0:
9,1,22622,1,0,0:0:0:0:
141,37,22799,1,2,0:0:0:0:
141,37,23153,6,0,L|245:23,1,85.0000016212464,2|0,0:0|0:0,0:0:0:0:
284,123,23505,2,0,L|388:137,1,85.0000016212464,2|0,1:2|0:0,0:0:0:0:
483,66,23858,1,4,0:3:0:0:
483,66,24034,1,4,0:3:0:0:
510,216,24211,2,0,P|452:202|363:291,1,170.000003242493,0|2,1:0|0:0,0:0:0:0:
463,382,24740,6,0,L|459:298,1,85.0000016212464,2|0,0:0|0:0,0:0:0:0:
448,164,25093,1,0,0:0:0:0:
358,287,25269,1,2,0:0:0:0:
358,287,25446,1,2,0:0:0:0:
233,144,25622,1,2,0:0:0:0:
233,144,25975,6,0,L|134:138,1,85.0000016212464,2|0,0:0|0:0,0:0:0:0:
284,76,26328,2,0,L|383:70,1,85.0000016212464,2|0,1:2|0:0,0:0:0:0:
466,173,26681,1,4,0:3:0:0:
466,173,26858,1,4,0:3:0:0:
345,239,27034,2,0,L|370:56,1,170.000003242493,0|2,1:0|0:0,0:0:0:0:
460,16,27563,6,0,P|472:72|463:117,1,85.0000016212464,2|0,0:0|0:0,0:0:0:0:
276,120,27916,1,0,0:0:0:0:
374,23,28093,1,2,0:0:0:0:
385,166,28269,1,2,0:0:0:0:
278,23,28446,1,2,0:0:0:0:
172,201,28622,1,2,0:0:0:0:
172,201,28711,1,2,0:0:0:0:
172,201,28799,6,0,L|59:190,1,94.9999974632264,6|0,0:0|0:0,0:0:0:0:
13,94,29152,1,2,1:2:0:0:
123,9,29328,1,0,0:0:0:0:
183,172,29505,1,4,0:3:0:0:
183,172,29681,1,4,0:3:0:0:
254,86,29858,2,0,L|366:81,1,94.9999974632264,0|0,1:0|0:0,0:0:0:0:
481,74,30211,1,2,0:0:0:0:
374,233,30387,6,0,P|315:165|348:81,1,189.999994926453,2|0,0:0|0:0,0:0:0:0:
441,24,30916,1,2,0:0:0:0:
492,164,31093,1,0,0:0:0:0:
431,0,31269,1,2,0:0:0:0:
431,0,31622,6,0,L|425:118,1,94.9999974632264,2|0,0:0|0:0,0:0:0:0:
417,230,31975,1,2,1:2:0:0:
315,155,32152,1,0,0:0:0:0:
468,74,32328,1,4,0:3:0:0:
468,74,32505,1,4,0:3:0:0:
511,240,32681,2,0,L|395:227,1,94.9999974632264,0|0,1:0|0:0,0:0:0:0:
315,155,33034,1,2,0:0:0:0:
228,255,33211,6,0,L|439:226,1,189.999994926453,2|0,0:0|0:0,0:0:0:0:
487,156,33740,1,2,0:0:0:0:
445,33,33916,1,0,0:0:0:0:
501,194,34093,1,2,0:0:0:0:
501,194,34446,6,0,L|290:165,1,189.999994926453,2|2,0:0|1:2,0:0:0:0:
198,148,34975,1,0,0:0:0:0:
284,42,35152,1,4,0:3:0:0:
284,42,35328,1,4,0:3:0:0:
365,175,35505,2,0,L|481:162,1,94.9999974632264,0|0,1:0|0:0,0:0:0:0:
382,274,35858,6,0,L|266:261,1,94.9999974632264,2|0,0:0|0:0,0:0:0:0:
142,362,36211,2,0,L|237:352,1,94.9999974632264,2|0,1:2|0:0,0:0:0:0:
35,202,36563,2,0,L|22:318,1,94.9999974632264,2|0,0:0|0:0,0:0:0:0:
142,362,36916,2,0,L|129:246,1,94.9999974632264,2|0,1:2|0:0,0:0:0:0:
116,140,37269,5,2,0:0:0:0:
205,94,37446,1,0,0:0:0:0:
105,173,37622,1,2,0:0:0:0:
244,101,37799,2,0,L|259:229,1,94.9999974632264,0|0,1:0|0:0,0:0:0:0:
273,329,38152,1,2,0:0:0:0:
501,322,38328,2,0,P|433:333|366:278,1,142.49999619484,0|0,1:0|0:0,0:0:0:0:
362,248,38681,5,6,1:2:0:0:
284,187,38858,1,2,0:0:0:0:
186,189,39034,1,2,0:0:0:0:
111,251,39211,1,2,0:0:0:0:
95,365,39387,5,4,0:3:0:0:
95,365,39563,1,4,0:3:0:0:
196,278,39740,1,8,0:3:0:0:
196,278,39916,1,8,0:3:0:0:
317,352,40093,6,0,L|290:178,1,150.000005722046,6|2,1:2|1:2,0:0:0:0:
273,93,40622,1,0,0:0:0:0:
273,93,40799,2,0,P|199:122|121:83,1,150.000005722046,2|2,1:2|0:0,0:0:0:0:
202,21,41328,1,0,0:0:0:0:
145,222,41505,1,2,0:0:0:0:
145,222,41681,2,0,L|294:203,1,150.000005722046,4|4,0:3|0:3,0:0:0:0:
407,188,42211,2,0,P|413:142|409:102,1,75.0000028610231,2|0,1:2|0:0,0:0:0:0:
474,264,42563,2,0,P|468:310|472:350,1,75.0000028610231,2|0,0:0|0:0,0:0:0:0:
306,361,42916,6,0,P|353:351|347:242,1,150.000005722046,2|2,1:2|1:2,0:0:0:0:
279,217,43446,1,0,0:0:0:0:
279,217,43622,2,0,L|307:61,1,150.000005722046,2|2,1:2|0:0,0:0:0:0:
387,154,44152,1,0,0:0:0:0:
190,222,44328,1,2,0:0:0:0:
190,222,44505,2,0,P|111:204|57:129,1,150.000005722046,4|4,0:3|0:3,0:0:0:0:
172,105,45034,2,0,P|178:68|175:28,1,75.0000028610231,2|0,1:2|0:0,0:0:0:0:
279,217,45387,2,0,P|273:254|276:294,1,75.0000028610231,2|0,0:0|0:0,0:0:0:0:
284,380,45740,5,6,1:2:0:0:
402,265,45916,1,6,1:2:0:0:
284,380,46270,5,6,1:2:0:0:
387,230,46446,1,6,1:2:0:0:
284,380,46800,5,6,1:2:0:0:
373,181,46976,1,6,1:2:0:0:
284,380,47329,5,6,1:2:0:0:
346,126,47505,1,6,1:2:0:0:
287,384,47858,5,4,0:3:0:0:
287,384,48034,1,4,0:3:0:0:
312,284,48211,2,0,P|268:254|219:247,1,100,2|0,0:0|0:0,0:0:0:0:
130,340,48563,6,0,P|160:296|141:176,2,170.000003242493,6|2|0,1:2|0:0|1:0,0:0:0:0:
34,253,49622,1,2,0:0:0:0:
372,25,49975,6,0,L|380:119,1,94.9999974632264,6|2,1:2|0:0,0:0:0:0:
396,146,50240,1,2,0:0:0:0:
396,146,50328,2,0,L|387:240,1,94.9999974632264,2|2,1:2|0:0,0:0:0:0:
380,341,50681,1,2,1:2:0:0:
380,341,50858,1,2,0:0:0:0:
485,222,51034,1,2,0:0:0:0:
485,222,51211,1,2,0:0:0:0:
260,263,51387,6,0,L|89:243,1,150.000005722046,6|2,1:2|1:2,0:0:0:0:
64,145,51916,1,0,0:0:0:0:
64,145,52093,2,0,P|141:160|211:108,1,150.000005722046,2|2,1:2|0:0,0:0:0:0:
121,61,52622,1,0,0:0:0:0:
292,196,52799,1,2,0:0:0:0:
292,196,52975,2,0,L|299:45,1,150.000005722046,4|4,0:3|0:3,0:0:0:0:
401,13,53505,2,0,P|402:50|397:88,1,75.0000028610231,2|0,1:2|0:0,0:0:0:0:
201,87,53858,2,0,P|195:49|196:12,1,75.0000028610231,2|0,0:0|0:0,0:0:0:0:
381,128,54211,6,0,P|445:117|495:184,1,150.000005722046,2|2,1:2|1:2,0:0:0:0:
354,275,54740,1,0,0:0:0:0:
354,275,54916,2,0,L|382:119,1,150.000005722046,2|2,1:2|0:0,0:0:0:0:
401,13,55446,1,0,0:0:0:0:
244,55,55622,1,2,0:0:0:0:
244,55,55799,2,0,P|168:24|81:54,1,150.000005722046,4|4,0:3|0:3,0:0:0:0:
149,215,56328,2,0,L|163:142,1,75.0000028610231,2|0,1:2|0:0,0:0:0:0:
268,282,56681,2,0,L|254:208,1,75.0000028610231,2|0,0:0|0:0,0:0:0:0:
227,69,57034,5,6,1:2:0:0:
279,377,57387,1,6,1:2:0:0:
217,16,57740,5,6,1:2:0:0:
279,377,58093,1,6,1:2:0:0:
287,384,58799,5,2,0:0:0:0:
404,340,58975,1,0,0:0:0:0:
287,384,59152,5,2,0:0:0:0:
352,240,59328,1,2,1:2:0:0:
287,384,59505,5,2,0:0:0:0:
217,199,59681,1,2,0:0:0:0:
51,323,59858,6,0,L|32:206,1,100,6|0,1:2|0:0,0:0:0:0:
13,94,60211,1,0,1:0:0:0:
193,312,60387,6,0,L|102:200,1,100,6|0,1:2|0:0,0:0:0:0:
13,94,60740,1,0,1:0:0:0:
305,203,60916,6,0,L|170:152,1,100,6|0,1:2|0:0,0:0:0:0:
13,94,61269,1,6,1:2:0:0:
287,384,61975,5,2,0:0:0:0:
356,304,62152,1,2,0:0:0:0:
284,191,62328,2,0,B|211:161|225:234|120:185,1,150,2|0,0:0|0:0,0:0:0:0:
35,139,62681,5,6,0:0:0:0:
132,47,62858,2,0,L|272:39,1,125,2|0,0:0|1:0,0:0:0:0:
408,31,63211,1,0,0:0:0:0:
481,157,63387,1,2,0:0:0:0:
384,248,63563,2,0,L|244:240,1,125,2|0,0:0|1:0,0:0:0:0:
108,232,63916,1,2,0:0:0:0:
323,353,64093,6,0,L|294:104,1,250,2|0,0:0|1:0,0:0:0:0:
506,149,64622,2,0,P|456:204|441:88,1,250,2|0,0:0|0:0,0:0:0:0:
497,296,65152,1,2,1:2:0:0:
448,146,65328,1,0,0:0:0:0:
323,353,65504,5,2,0:0:0:0:
226,261,65681,2,0,L|86:253,1,125,2|0,0:0|1:0,0:0:0:0:
12,156,66034,1,0,0:0:0:0:
111,37,66211,1,2,0:0:0:0:
217,162,66387,2,0,L|357:154,1,125,2|0,0:0|1:0,0:0:0:0:
493,146,66740,1,2,0:0:0:0:
383,370,66916,6,0,P|312:271|342:154,1,250,2|0,0:0|1:0,0:0:0:0:
485,275,67446,2,0,P|417:293|484:214,1,250,2|0,0:0|0:0,0:0:0:0:
410,384,67975,1,2,1:2:0:0:
268,274,68152,1,0,0:0:0:0:
51,371,68328,5,2,0:0:0:0:
119,253,68505,2,0,L|94:92,1,125,2|0,0:0|1:0,0:0:0:0:
76,1,68858,1,0,0:0:0:0:
192,37,69034,1,2,0:0:0:0:
258,165,69211,2,0,L|283:326,1,125,2|0,0:0|1:0,0:0:0:0:
297,384,69563,1,2,0:0:0:0:
478,302,69740,6,0,L|507:40,1,250,2|0,0:0|1:0,0:0:0:0:
242,87,70269,2,0,P|238:169|364:111,1,250,2|0,0:0|0:0,0:0:0:0:
142,26,70799,2,0,L|153:168,1,125,2|0,1:2|0:0,0:0:0:0:
161,299,71152,6,0,P|90:287|30:300,1,125,2|0,0:0|0:0,0:0:0:0:
279,362,71505,2,0,P|350:350|410:363,1,125,2|0,1:2|0:0,0:0:0:0:
167,261,71858,2,0,P|113:219|34:204,1,125,2|0,0:0|0:0,0:0:0:0:
273,324,72211,2,0,P|327:282|406:267,1,125,2|0,1:2|0:0,0:0:0:0:
512,290,72563,1,2,0:0:0:0:
430,373,72740,1,0,0:0:0:0:
363,184,72916,1,2,1:2:0:0:
461,24,73093,1,2,0:0:0:0:
501,134,73269,5,2,0:0:0:0:
445,137,73357,1,2,0:0:0:0:
395,113,73445,1,2,0:0:0:0:
365,67,73534,1,0,0:0:0:0:
324,28,73622,1,2,1:2:0:0:
270,16,73710,1,2,0:0:0:0:
217,32,73798,1,2,0:0:0:0:
180,73,73886,1,0,0:0:0:0:
168,128,73975,5,6,0:0:0:0:
229,239,74152,2,0,L|414:219,1,125,2|0,0:0|1:0,0:0:0:0:
495,210,74505,1,0,0:0:0:0:
409,364,74681,1,2,0:0:0:0:
234,286,74858,2,0,L|214:101,1,125,2|0,0:0|1:0,0:0:0:0:
205,20,75211,1,2,0:0:0:0:
335,189,75387,6,0,P|422:167|461:8,1,250,2|0,0:0|1:0,0:0:0:0:
296,74,75916,2,0,P|350:111|309:23,1,250,2|0,0:0|0:0,0:0:0:0:
225,202,76446,1,2,1:2:0:0:
129,32,76622,1,0,0:0:0:0:
10,232,76799,5,6,0:0:0:0:
134,360,76975,2,0,P|167:289|148:196,1,125,2|0,0:0|1:0,0:0:0:0:
115,107,77328,1,0,0:0:0:0:
354,166,77505,1,2,0:0:0:0:
230,38,77681,2,0,P|197:109|216:202,1,125,2|0,0:0|1:0,0:0:0:0:
249,291,78034,1,2,0:0:0:0:
461,203,78211,6,0,L|182:171,1,250,2|0,0:0|1:0,0:0:0:0:
383,17,78740,2,0,P|430:64|331:52,1,250,2|0,0:0|0:0,0:0:0:0:
500,13,79269,1,2,1:2:0:0:
449,228,79446,1,0,0:0:0:0:
197,154,79622,5,6,0:0:0:0:
330,53,79799,2,0,P|341:120|316:195,1,125,2|0,0:0|1:0,0:0:0:0:
244,279,80152,1,0,0:0:0:0:
166,69,80328,1,2,0:0:0:0:
33,170,80505,2,0,P|22:103|47:28,1,125,2|0,0:0|1:0,0:0:0:0:
182,174,80858,1,2,0:0:0:0:
308,21,81034,6,0,P|412:22|517:144,1,250,2|0,0:0|1:0,0:0:0:0:
349,221,81563,2,0,P|300:177|422:173,1,250,2|0,0:0|0:0,0:0:0:0:
482,314,82093,2,0,L|344:301,1,125,2|0,1:2|0:0,0:0:0:0:
155,280,82446,5,6,1:2:0:0:
219,160,82622,1,0,0:0:0:0:
276,333,82799,1,2,1:2:0:0:
106,186,82975,5,0,0:0:0:0:
258,150,83152,1,2,1:2:0:0:
103,28,83328,1,0,0:0:0:0:
74,161,83505,1,2,1:2:0:0:
282,32,83681,1,0,0:0:0:0:
499,148,83858,5,4,1:2:0:0:
454,180,83946,1,0,3:0:0:0:
398,182,84034,1,0,3:0:0:0:
351,154,84122,1,0,3:0:0:0:
327,103,84211,1,0,1:0:0:0:
287,64,84299,1,0,3:0:0:0:
233,52,84387,1,0,1:0:0:0:
182,72,84475,1,0,3:0:0:0:
150,117,84563,1,0,3:0:0:0:
148,173,84652,1,0,3:0:0:0:
178,219,84740,1,0,1:0:0:0:
228,243,84828,1,0,3:0:0:0:
282,235,84916,2,0,L|290:310,2,62.5,0|0|0,1:0|0:0|0:0,0:0:0:0:
270,74,85269,5,2,0:0:0:0:
328,157,85446,2,0,P|369:186|400:190,2,75.0000028610231,2|2|0,0:0|0:0|0:0,0:0:0:0:
277,45,85975,1,2,0:0:0:0:
277,45,86505,6,0,L|179:41,1,75.0000028610231,2|0,0:0|0:0,0:0:0:0:
85,36,86858,1,2,0:0:0:0:
43,128,87034,1,2,0:0:0:0:
43,128,87211,1,0,0:0:0:0:
104,248,87387,1,2,0:0:0:0:
202,41,87740,1,2,0:0:0:0:
104,248,88093,6,0,L|202:244,1,75.0000028610231,2|2,0:0|0:0,0:0:0:0:
269,289,88446,1,2,0:0:0:0:
344,192,88622,1,2,0:0:0:0:
265,120,88799,2,0,P|320:141|416:86,1,150.000005722046,2|0,0:0|0:0,0:0:0:0:
458,4,89328,1,2,0:0:0:0:
458,4,89681,5,2,0:0:0:0:
487,115,89858,1,0,0:0:0:0:
458,4,90034,5,2,0:0:0:0:
494,142,90211,1,0,0:0:0:0:
494,142,90387,6,0,L|432:138,1,37.5000014305115,2|0,0:0|0:0,0:0:0:0:
311,130,90563,1,2,0:0:0:0:
352,345,90740,6,0,L|356:307,1,37.5000014305115,4|4,0:3|0:3,0:0:0:0:
377,76,90916,1,2,0:0:0:0:
